<?xml version="1.0" standalone="no"?>
<!DOCTYPE svg PUBLIC "-//W3C//DTD SVG 1.1//EN" "http://www.w3.org/Graphics/SVG/1.1/DTD/svg11.dtd">
<svg xmlns="http://www.w3.org/2000/svg">
<defs >
<font id="EBGaramond" horiz-adv-x="523" ><font-face
    font-family="EB Garamond SemiBold"
    units-per-em="1000"
    panose-1="0 0 0 0 0 0 0 0 0 0"
    ascent="1007"
    descent="-298"
    alphabetic="0" />
<glyph unicode=" " glyph-name="space" horiz-adv-x="225" />
<glyph unicode="!" glyph-name="exclam" horiz-adv-x="297" d="M140 187Q130 187 127 197T128 234Q138 285 148 334T167 426T184 501T195 550Q202 576 214 598T244 635T283 649Q300 649 311 635T325 597T315 538Q311 526 299 496T267 424T226 332T180 234Q170
214 161 201T140 187ZM84 -14Q61 -14 45 3T28 42Q28 74 52 98T111 122Q138 122 153 104T169 63Q169 32 144 9T84 -14Z" />
<glyph unicode="&quot;" glyph-name="quotedbl" horiz-adv-x="376" d="M145 420Q139 420 140 429T143 446Q149 463 152 477T161 505Q171 535 177 562T191 618Q194 631 205 641T227 658Q245 668 259 674T288 681Q300 681 300 667T294 637Q285 612 271 586T240 533T208
486T179 449Q171 439 160 430T145 420ZM296 420Q290 420 291 429T294 446Q300 463 303 477T312 505Q322 535 328 562T342 618Q345 631 356 641T378 658Q396 668 410 674T439 681Q451 681 451 667T445 637Q436 612 422 586T391 533T359 486T330 449Q322 439 311
430T296 420Z" />
<glyph unicode="#" glyph-name="numbersign" horiz-adv-x="468" d="M-14 -92Q-20 -92 -23 -87T-24 -77L-23 -72L59 94L0 91Q-8 91 -11 96T-13 108Q-10 126 -3 139T13 161T33 170L101 173L156 293L92 290Q83 290 80 295T77 307Q81 325 88 338T104 360T124 369L197
372L273 528Q279 542 293 546T321 550Q326 550 327 545T328 534Q327 532 326 531T325 528L250 374L365 379L443 539Q449 553 461 557T488 561Q493 561 495 556T495 545Q494 543 494 542T492 539L417 382L474 385Q484 385 488 381T491 368Q489 356 481 342T461 318T439
306L377 303L318 182L384 185Q393 186 397 181T400 168Q398 156 390 142T370 118T348 107L280 104L201 -59Q195 -72 186 -75T163 -79Q158 -79 154 -74T150 -63L151 -59L230 101L113 96L31 -72Q24 -86 12 -89T-14 -92ZM152 175L268 180L326 301L211 296L152 175Z"
/>
<glyph unicode="$" glyph-name="dollar" horiz-adv-x="528" d="M215 -14Q182 -14 151 -10T92 6Q78 11 68 14T55 18Q49 18 42 16T30 11Q23 7 17 4T7 0Q2 0 -7 7T-16 22Q-16 29 -5 52T18 109T36 182Q39 197 43 203T59 210Q71 210 73 197T76 155Q76 121 90 90T132
39T204 19Q246 19 278 36T327 81T344 142Q344 166 336 186T307 229T246 288Q197 330 171 371T144 473Q144 527 174 570T259 639T381 664Q411 664 437 659T483 648Q504 642 517 638T541 633Q555 633 565 638Q571 642 577 644T590 647Q599 647 601 640T600 626Q593
616 582 595T559 545T540 477Q538 465 533 458T520 450Q511 450 507 459T503 486Q503 553 469 592T380 631Q343 631 316 614T275 570T260 516Q260 492 269 471T301 427T362 371Q421 322 444 281T467 192Q467 139 438 92T352 16T215 -14ZM112 -96Q101 -96 98 -88T98
-71L426 707Q431 718 443 722T469 727Q477 727 479 720T476 701L146 -81Q143 -89 134 -92T112 -96Z" />
<glyph unicode="%" glyph-name="percent" horiz-adv-x="702" d="M182 263Q142 263 118 287T88 356T101 459Q114 498 141 534T206 593T287 616Q327 616 350 592T377 525T365 429Q351 383 324 346T261 286T182 263ZM188 292Q209 292 226 313T258 366T282 429Q291
458 297 486T304 536T300 572T277 586Q257 586 239 565T207 513T182 450Q173 419 167 391T159 341T164 305T188 292ZM79 -24Q67 -24 62 -15T64 3L672 653Q681 663 692 666T716 670Q730 670 734 662T732 646L126 -2Q115 -14 104 -19T79 -24ZM478 -17Q438 -17 414
7T384 76T397 179Q410 218 437 254T502 313T583 336Q623 336 646 312T673 245T661 149Q647 103 620 66T557 6T478 -17ZM484 12Q505 12 522 33T554 86T578 149Q587 178 593 206T600 256T596 292T573 306Q553 306 535 285T503 233T478 170Q469 139 463 111T455 61T460
25T484 12Z" />
<glyph unicode="&amp;" glyph-name="ampersand" horiz-adv-x="842" d="M416 -14Q322 -14 248 19T130 112T87 250Q87 322 116 379T193 471T302 504Q358 503 386 479T414 416Q414 391 400 370T362 337T307 324Q260 324 224 350T166 422T144 530Q144 583 172 626T247
694T352 718Q402 717 431 691T461 620Q461 596 447 582T411 567Q399 567 387 578T374 602Q374 623 361 638T328 653Q292 653 264 637T219 593T202 525Q202 366 305 366Q334 366 350 381T367 419Q367 440 350 454T301 468Q234 468 196 422T158 302Q158 248 186 201T278
124T445 94Q535 94 596 125T689 208T721 321Q721 373 691 409T594 444Q559 443 537 422T515 370Q515 351 527 338T561 325Q571 325 578 332T591 346Q597 354 604 360T623 367Q647 367 659 355T670 323Q670 295 650 276T600 257Q544 257 509 288T473 368Q473 419
496 453T559 506T646 524L729 525Q808 525 843 549T878 627Q878 654 862 669T825 685Q813 685 807 680T800 667Q800 661 804 655T815 645Q824 640 828 632T832 615Q832 599 819 585T782 571Q755 571 740 589T725 632Q725 654 736 673T770 705T824 717Q865 717 893
687T921 598Q921 554 901 518T846 461T763 439Q744 438 739 435T738 426Q755 398 762 368T769 302Q769 206 724 135T599 25T416 -14Z" />
<glyph unicode="&apos;" glyph-name="quotesingle" horiz-adv-x="225" d="M145 420Q139 420 140 429T143 446Q149 463 152 477T161 505Q171 535 177 562T191 618Q194 631 205 641T227 658Q245 668 259 674T288 681Q300 681 300 667T294 637Q285 612 271 586T240
533T208 486T179 449Q171 439 160 430T145 420Z" />
<glyph unicode="(" glyph-name="parenleft" horiz-adv-x="303" d="M124 -215Q95 -215 75 -173Q51 -119 40 -56T28 73Q28 195 69 310T188 523T369 692Q390 706 407 706Q423 706 423 695Q423 691 420 686T409 673Q344 616 289 545T193 392T130 225T107 52Q107 -6
112 -49T124 -127T139 -191Q141 -201 137 -208T124 -215Z" />
<glyph unicode=")" glyph-name="parenright" horiz-adv-x="303" d="M203 707Q232 707 252 664Q276 611 287 548T299 418Q299 297 258 182T139 -31T-42 -201Q-63 -214 -80 -214Q-96 -214 -96 -204Q-96 -200 -93 -195T-82 -182Q-17 -125 38 -54T134 99T197 266T220
439Q220 498 215 541T203 618T188 682Q187 692 191 699T203 707Z" />
<glyph unicode="*" glyph-name="asterisk" horiz-adv-x="353" d="M225 364Q211 364 207 375T204 402Q206 410 208 421T214 443T220 465T224 479Q211 478 187 476T141 472Q129 471 119 476T108 492Q108 504 117 511T135 519Q141 521 152 524T174 530T196 535T211
539Q203 550 190 567T164 603Q156 614 156 625Q156 635 162 641T177 648Q184 648 191 644T202 634Q217 619 230 606T256 578Q263 597 270 614T287 652Q291 661 298 667T314 674Q327 674 332 664T335 638Q333 631 329 617T321 588T313 559Q322 560 339 563T373 568T398
570Q410 570 418 565T427 549Q427 540 420 532T401 521Q383 516 364 511T326 500Q334 490 347 474T373 440Q377 436 380 429T383 415Q383 406 378 400T362 393Q357 393 350 396T337 405Q323 420 309 433T281 460Q276 447 268 426T250 385Q247 376 240 370T225 364Z"
/>
<glyph unicode="+" glyph-name="plus" horiz-adv-x="595" d="M289 -10Q285 -10 281 -6T276 5V211Q276 220 267 220H60Q54 220 50 224T45 233Q45 240 47 250T56 268T71 277H265Q273 277 274 280T276 289V466Q276 476 285 483T305 494T323 498Q329 498 333 493T338
480V288Q338 282 340 280T347 277H550Q557 277 563 273T569 262Q567 249 559 235T536 220H347Q338 220 338 211V17Q338 7 328 1T307 -8T289 -10Z" />
<glyph unicode="," glyph-name="comma" horiz-adv-x="251" d="M-41 -149Q-51 -149 -57 -146T-61 -136Q-59 -130 -52 -126T-33 -118Q-5 -108 17 -93T52 -57T65 -17Q65 -2 56 5T35 18Q24 23 15 31T6 55Q6 82 27 100T77 119Q109 119 131 99T154 40Q154 5 137 -29T91
-90T28 -133T-41 -149Z" />
<glyph unicode="-" glyph-name="hyphen" horiz-adv-x="304" d="M34 166Q28 165 25 169T22 179Q22 202 35 217T60 234Q113 242 169 249T276 262Q284 263 285 259T287 248Q287 239 282 227T268 206T250 194Q198 187 142 180T34 166Z" />
<glyph unicode="." glyph-name="period" horiz-adv-x="251" d="M61 -25Q37 -25 20 -7T3 35Q3 59 15 79T46 111T89 123Q118 123 133 103T149 59Q149 37 138 18T106 -13T61 -25Z" />
<glyph unicode="/" glyph-name="slash" horiz-adv-x="277" d="M-45 -61Q-53 -60 -58 -54T-60 -42L337 646Q345 659 356 662T383 664Q393 663 396 656T397 643L-1 -45Q-8 -57 -20 -59T-45 -61Z" />
<glyph unicode="0" glyph-name="zero" horiz-adv-x="513" d="M220 -14Q169 -14 136 12T89 82T76 184T98 302Q117 366 150 425T226 530T320 603T429 631Q482 631 514 605T561 533T574 432T552 317Q532 251 499 192T421 86T326 13T220 -14ZM239 21Q263 21 288 44T338
106T384 195T423 299Q439 352 448 404T458 499T446 567T408 593Q375 593 342 555T280 454T228 319Q212 267 202 214T191 118T201 48T239 21Z" />
<glyph unicode="1" glyph-name="one" horiz-adv-x="513" d="M44 -3Q39 -3 35 0T31 9Q33 17 39 22T54 29Q99 39 130 52T172 100L283 459Q295 497 275 511T219 531Q213 533 207 537T202 550Q204 561 214 566T234 573Q271 576 306 584T376 606T440 632Q444 634 449
635T456 637Q462 637 465 634T466 626Q461 613 454 596T439 554L296 93Q290 72 298 61T324 44T369 29Q375 26 380 22T383 11Q382 5 376 2T362 -2Q339 -2 310 -1T253 1T204 2Q182 2 154 1T96 -1T44 -3Z" />
<glyph unicode="2" glyph-name="two" horiz-adv-x="513" d="M377 -4Q358 -3 341 -2T307 0T271 1T230 1Q202 1 169 1T103 1T44 -1T0 -3Q-9 -3 -8 6T1 23L221 203Q280 252 319 296T378 382T399 463Q399 510 375 530T314 550Q277 550 245 530T186 477Q180 471 175
465T164 458Q159 458 157 464T156 479Q159 498 177 523T224 574T292 616T374 632Q445 632 485 597T525 508Q525 467 507 430T460 360T396 297Q379 282 350 259T286 209T220 158T167 117T143 99Q139 96 144 94T154 90Q171 88 193 87T237 86Q261 86 288 87T338 90Q362
92 378 97T409 114T440 146Q445 153 454 160T473 168Q480 169 482 162T480 147Q464 124 452 106T432 72T416 45T403 19Q398 7 389 2T377 -4Z" />
<glyph unicode="3" glyph-name="three" horiz-adv-x="513" d="M97 -38Q53 -38 31 -27T8 4Q8 25 16 39T40 53Q46 53 57 48T80 35Q94 25 112 18T149 10Q199 10 237 39T296 115T317 212Q317 247 302 270T251 294Q231 294 213 288T182 275Q175 272 169 274T162 285Q162
297 171 306T194 322T216 333Q243 345 272 361T325 398T365 443T381 496Q381 524 365 544T319 564Q279 564 251 543T201 489Q196 481 192 477T182 473Q177 473 169 484T161 504Q161 515 178 535T224 578T292 614T371 629Q411 629 440 616T485 579T501 527Q501 500
486 476T445 429T390 390T329 359Q326 358 325 356T328 352Q361 350 389 335T435 295T453 234Q453 194 431 155T370 81T285 19Q240 -7 192 -22T97 -38Z" />
<glyph unicode="4" glyph-name="four" horiz-adv-x="513" d="M390 -3Q385 -3 381 0T377 9Q379 17 385 22T401 29Q448 36 466 48T494 88L514 154Q516 162 513 165T503 168Q469 168 432 166T354 163T273 160Q269 160 267 166T269 177Q281 189 287 195T299 206T313
220L678 609Q689 621 703 631T728 642H751Q755 642 753 638T747 630T742 624L392 250Q386 244 387 241T393 238H531Q534 238 537 240T542 244L587 390Q591 406 595 411T610 421Q636 433 663 436T699 439Q717 439 715 421T700 367L661 240Q659 233 664 233Q676 232
683 232T699 232Q714 232 726 232T756 234Q761 234 763 232T765 226Q762 218 754 204T738 179T725 167Q714 167 703 167T679 168Q670 168 664 168T652 167Q645 166 641 164T635 155L616 92Q607 62 617 50T665 29Q672 26 675 23T677 11Q676 5 670 2T656 -2Q633 -2
611 -1T568 1T526 2Q493 2 459 0T390 -3Z" />
<glyph unicode="5" glyph-name="five" horiz-adv-x="513" d="M69 -38Q37 -38 24 -21T10 14Q10 26 14 34T26 43Q42 43 53 33T86 14Q97 10 108 8T137 5Q170 5 203 15T264 47T308 100T325 175Q325 209 310 234T264 281T185 327Q161 340 153 346T144 364Q144 369 145
372T147 380Q152 395 164 418T191 468T220 516T240 549Q252 570 266 579T297 593Q318 598 347 603T409 613T470 623T516 629Q530 629 530 612Q530 605 523 589T505 556T479 526T448 512Q430 511 403 509T347 507T295 505T263 501Q256 500 247 490T230 468T219 450Q215
439 225 434Q284 412 333 384T412 319T442 231Q442 173 410 124T324 39T204 -18T69 -38Z" />
<glyph unicode="6" glyph-name="six" horiz-adv-x="513" d="M215 -14Q126 -14 87 31T49 144Q51 213 82 280T166 409T286 520T426 604T570 651Q584 653 594 652T605 643Q605 636 601 632T582 624Q527 607 469 570T356 481T259 372T191 254T165 143Q165 87 185 57T249
26Q282 26 309 48T353 107T368 191Q368 229 348 248T302 267Q290 267 278 264T253 254Q235 246 235 254T247 274Q264 293 286 307T331 331T373 340Q421 340 451 308T482 227Q482 185 461 143T403 65T318 8T215 -14Z" />
<glyph unicode="7" glyph-name="seven" horiz-adv-x="513" d="M72 -30Q60 -30 53 -22T47 -1Q48 6 61 20T85 47L477 503Q482 509 481 512T471 515H258Q232 515 213 507T175 477Q169 471 157 461T131 450Q119 450 121 462T131 487Q146 517 163 549T188 607Q191 616
198 619T210 622Q220 621 242 620T289 616Q310 616 337 616T392 615T440 615Q479 615 513 615T574 617T613 619Q618 619 622 613T624 600Q619 591 603 573T568 533L102 0Q94 -9 85 -19T72 -30Z" />
<glyph unicode="8" glyph-name="eight" horiz-adv-x="513" d="M196 -13Q145 -13 110 5T56 53T36 118Q36 164 57 196T120 254T224 306Q234 310 232 313T224 322Q206 347 190 368T164 410T154 456Q154 487 172 517T221 573T293 614T379 629Q427 629 459 613T507
572T524 519Q524 496 512 471T474 421T405 371Q396 367 385 361T365 349Q354 343 354 340T361 330Q401 285 426 249T451 164Q451 130 431 98T376 41T295 2T196 -13ZM211 20Q260 20 295 52T331 141Q331 174 314 207T266 277Q262 282 260 284T253 287Q250 287 239
280Q198 252 176 227T145 173T136 109Q137 88 145 68T170 34T211 20ZM342 367Q369 386 388 413T417 471T427 526Q427 557 411 577T359 597Q332 597 310 583T274 545T260 491Q260 460 276 430T321 369Q326 364 330 363T342 367Z" />
<glyph unicode="9" glyph-name="nine" horiz-adv-x="514" d="M42 -21Q29 -22 19 -20T8 -11Q8 -3 13 1T34 9Q79 15 127 38T221 97T307 178T378 273T427 376T445 480Q445 526 425 557T365 589Q333 589 305 567T261 509T246 433Q246 396 266 373T312 349Q331 349
342 354T367 364Q384 372 384 362Q384 360 382 355T374 344Q356 324 334 310Q323 303 308 295T276 282T245 277Q197 277 166 306T134 386Q134 424 158 466T222 546T312 606T414 629Q456 629 486 607T534 547T552 465Q552 417 532 364T474 258T388 157T282 70T164
7T42 -21Z" />
<glyph unicode=":" glyph-name="colon" horiz-adv-x="251" d="M146 251Q122 251 105 269T88 311Q88 335 100 355T131 387T174 399Q203 399 218 379T234 335Q234 313 223 294T191 263T146 251ZM61 -25Q37 -25 20 -7T3 35Q3 59 15 79T46 111T89 123Q118 123 133
103T149 59Q149 37 138 18T106 -13T61 -25Z" />
<glyph unicode=";" glyph-name="semicolon" horiz-adv-x="251" d="M-41 -149Q-51 -149 -57 -146T-61 -136Q-59 -130 -52 -126T-33 -118Q-5 -108 17 -93T52 -57T65 -17Q65 -2 56 5T35 18Q24 23 15 31T6 55Q6 82 27 100T77 119Q109 119 131 99T154 40Q154 5 137
-29T91 -90T28 -133T-41 -149ZM146 251Q122 251 105 269T88 311Q88 335 100 355T131 387T174 399Q203 399 218 379T234 335Q234 313 223 294T191 263T146 251Z" />
<glyph unicode="&lt;" glyph-name="less" horiz-adv-x="595" d="M511 -2L89 191Q74 198 59 207T43 221Q43 228 53 245T80 270L506 467Q517 472 524 467T532 450Q532 436 523 423T497 402L135 237Q132 236 132 234T135 229L500 64Q516 57 524 43T532 17Q532 5 525
1T511 -2Z" />
<glyph unicode="=" glyph-name="equal" horiz-adv-x="619" d="M72 315Q66 315 62 319T57 328Q57 333 59 343T67 361T83 369H574Q581 369 587 366T593 356Q593 345 583 330T561 315H72ZM72 138Q66 138 62 142T57 150Q57 156 59 166T67 184T83 192H574Q581 192 587
188T593 178Q593 166 583 152T561 138H72Z" />
<glyph unicode="&gt;" glyph-name="greater" horiz-adv-x="595" d="M82 2Q73 -2 66 2T58 21Q58 33 67 46T92 67L454 232Q458 233 458 235T454 239L89 405Q73 412 65 427T57 454Q57 461 60 467T72 473Q73 473 74 473T77 471L499 276Q514 269 530 260T546 246Q546
239 536 222T508 196L82 2Z" />
<glyph unicode="?" glyph-name="question" horiz-adv-x="364" d="M160 177Q155 177 143 190T120 223T109 264Q109 295 119 321T161 370T256 418Q304 435 334 460T364 523Q364 553 345 570T287 588Q274 588 263 582T241 572Q233 568 224 564T206 560Q191 560 182
569T172 597Q172 625 197 643T256 661Q297 661 329 638T382 575T402 480Q402 450 390 423T356 375T307 342L215 302Q187 289 178 276T168 243Q168 234 169 226T172 211Q174 204 176 198T178 186Q178 180 172 179T160 177ZM132 -14Q111 -14 96 2T81 40Q81 71 104
94T157 118Q183 118 197 100T211 61Q211 31 188 9T132 -14Z" />
<glyph unicode="@" glyph-name="at" horiz-adv-x="782" d="M299 -149Q212 -149 149 -119T53 -34T19 88Q19 156 43 220T112 340T216 437T348 503T499 527Q559 527 607 509T691 460T744 388T763 306Q763 254 742 205T682 115T593 51T486 27Q464 27 453 35T437 55T433
76Q433 88 429 87T417 80Q408 73 389 62T344 41T289 31Q236 31 208 60T180 133Q180 179 203 223T267 301T362 356T479 375Q493 375 506 373T534 367Q545 364 551 362T562 359Q571 359 580 370T597 381Q600 381 608 380T623 376T629 371Q614 350 600 326T579 286L507
137Q498 119 498 102T523 85Q573 85 612 115T675 195T698 299Q698 350 673 390T599 453T478 476Q408 476 339 448T213 369T121 252T87 112Q87 45 116 -1T199 -72T323 -96Q393 -96 453 -78T562 -27Q573 -21 582 -17T597 -12Q603 -12 607 -16T610 -28Q609 -38 583
-58T513 -99T414 -134T299 -149ZM331 78Q348 78 364 85T398 104Q408 111 418 121T439 155L493 265Q498 276 500 285T503 301Q504 319 489 327T439 336Q402 336 371 319T318 273T284 213T271 150Q271 118 287 98T331 78Z" />
<glyph unicode="A" glyph-name="A" horiz-adv-x="717" d="M-41 -5Q-52 -5 -58 -2T-64 10Q-63 19 -55 24T-34 32Q-11 38 13 47T59 70T98 103Q167 180 229 253T353 400T476 549Q492 567 503 584T521 612T534 624Q557 624 575 629T608 646Q624 658 635 666T653 674Q662
674 663 660T661 623L560 117Q552 78 564 59T610 30Q623 26 631 23T639 10Q639 4 630 1T608 -3Q591 -3 566 -2T515 0T466 2Q447 2 423 1T375 -1T333 -2Q313 -2 313 12Q313 20 321 25T340 33Q368 39 385 46T412 67T428 104L459 224Q462 236 456 241T439 246L300
245Q288 245 280 241T266 228L186 123Q164 94 160 77T167 50T199 34Q208 31 216 26T224 12Q223 5 214 2T193 -2Q169 -2 144 -1T90 1Q60 1 24 -2T-41 -5ZM338 287H454Q464 287 468 291T476 306L523 525Q526 534 526 539T521 544Q519 544 515 542T506 535L325 307Q317
297 317 292T338 287Z" />
<glyph unicode="B" glyph-name="B" horiz-adv-x="609" d="M-16 -5Q-35 -5 -35 7Q-35 14 -27 19T-4 28Q33 38 52 51T83 97L223 550Q234 585 224 598T183 619Q171 622 167 626T162 635Q162 643 171 648T191 653Q217 653 234 652T266 648T302 646Q322 646 341 648T382
652T429 654Q494 654 535 638T597 593T618 526Q618 493 602 466T560 419T502 385T436 364Q430 363 430 360T433 354Q491 334 526 298T562 195Q562 144 539 107T473 45T375 8T256 -4Q216 -4 185 -2T119 1Q97 1 75 0T30 -3T-16 -5ZM262 26Q293 29 323 45T378 89T417
150T432 219Q432 272 402 304T314 336Q297 336 289 331T276 314L212 103Q208 89 208 74T217 50Q224 41 235 34T262 26ZM322 366Q345 366 364 371T405 382Q445 406 473 443T502 533Q502 569 477 597T408 626Q387 626 377 620T361 598L300 388Q294 366 322 366Z"
/>
<glyph unicode="C" glyph-name="C" horiz-adv-x="654" d="M321 -14Q273 -14 227 5T145 59T88 142T66 247Q66 337 100 413T195 545T333 633T500 664Q532 664 559 659T610 645Q629 639 641 635T665 631Q671 631 676 632T689 637Q696 641 703 644T716 647Q725 647
726 641T723 626Q711 610 697 582T670 523T651 468Q649 459 644 453T630 446Q620 446 617 458T614 486Q617 509 613 532T594 575Q578 599 553 614T498 630Q449 630 404 606T322 539T257 441T214 325T198 201Q198 153 210 120T244 64T294 32T355 22Q399 22 434 39T499
87T556 157Q563 167 568 174T581 181Q588 181 591 174T593 157Q589 140 579 112T556 57T532 10T514 -9Q506 -9 501 -6T491 2Q486 6 479 8T460 11Q450 11 438 8T410 -1Q394 -5 372 -9T321 -14Z" />
<glyph unicode="D" glyph-name="D" horiz-adv-x="739" d="M309 -7Q283 -7 246 -5T174 0T114 2Q95 2 74 1T29 -2T-17 -4Q-26 -4 -31 -1T-35 9Q-32 26 -5 29Q24 33 40 40T66 62T83 98L228 555Q235 579 228 590T204 608T163 620Q152 622 148 627T146 641Q147 647
155 650T172 654Q208 654 246 652T315 650Q335 650 353 651T392 653T444 654Q538 654 604 620T707 524T743 381Q743 304 711 234T619 110T481 25T309 -7ZM311 27Q372 27 426 59T521 144T585 264T609 399Q609 477 588 525T529 595T438 618Q408 618 393 614T370 599T357
572L221 129Q210 91 220 69T255 37T311 27Z" />
<glyph unicode="E" glyph-name="E" horiz-adv-x="574" d="M-28 -5Q-39 -5 -43 -1T-47 9Q-45 22 -16 28Q26 38 45 51T74 97L213 550Q225 587 215 600T167 621Q154 624 149 629T146 640Q147 647 156 650T184 654Q195 654 216 653T262 651T307 649L471 650Q520 650
547 653T588 659T607 662Q613 662 617 657T622 644Q622 634 616 614T603 570T595 521Q594 511 589 506T578 501Q574 501 570 506T564 522Q562 574 550 596T498 618H405Q381 618 367 606T343 559L289 379Q284 364 288 358T306 352L408 354Q434 354 451 368T483 404Q489
413 497 420T513 428Q519 428 520 421T517 403Q508 383 501 365T488 330Q482 312 478 293T468 251Q465 240 461 234T451 227Q444 227 440 235T436 252Q437 283 429 299T402 315L297 316Q284 316 274 311T260 289L209 112Q197 69 207 51T254 33H364Q386 33 406 40T444
59Q463 72 479 94T511 142Q516 149 519 153T529 157Q535 157 537 151T539 135Q539 125 531 102T512 54T489 12Q484 3 477 0T459 -4Q438 -4 406 -4T336 -3T257 -2T177 -1T105 0Q84 0 61 -1T16 -3T-28 -5Z" />
<glyph unicode="F" glyph-name="F" horiz-adv-x="527" d="M-12 -4Q-21 -4 -26 -1T-30 9Q-29 18 -21 22T0 29Q39 37 56 50T85 98L224 550Q235 584 226 598T185 619Q170 623 166 628T163 640Q164 647 172 650T194 654Q215 654 251 652T318 650H477Q546 650 581 656T626
663Q633 663 637 660T640 647Q640 642 639 637T635 624Q630 605 621 577T606 517Q605 509 601 504T590 498Q584 498 581 503T578 518Q578 540 575 559T563 591Q555 603 542 609T509 617H417Q395 618 381 607T361 578Q358 571 350 545T332 485T312 422T299 379Q296
368 300 359T327 350L403 351Q457 352 491 401Q497 410 504 415T517 420Q522 420 525 415T524 401Q507 361 497 330T478 260Q475 248 471 243T461 237Q454 237 450 244T446 260Q446 290 437 302T410 314Q400 314 380 314T339 315T311 315Q294 315 283 308T268 286L215
105Q207 78 210 63T230 41T277 29Q288 28 292 24T295 10Q294 3 287 0T270 -3Q247 -3 221 -2T170 1T125 2Q93 2 58 -1T-12 -4Z" />
<glyph unicode="G" glyph-name="G" horiz-adv-x="713" d="M355 -14Q285 -14 228 8T131 72T77 176T76 314Q86 387 123 450T219 561T354 636T517 664Q551 664 576 658T621 644Q638 638 649 634T673 630Q680 630 686 632T698 637Q705 642 711 644T724 647Q734 647
735 640T731 626Q719 610 705 583T679 527T660 472Q658 462 653 456T639 449Q618 449 622 486Q625 514 622 538T604 583Q590 602 565 616T505 631Q452 631 403 605T312 532T241 418T197 271Q187 216 197 170T233 90T295 38T373 19Q414 19 440 44T477 102L508 212Q512
227 509 236T492 251Q479 256 463 259T437 265Q428 267 420 271T413 284Q414 291 423 295T442 299Q464 299 489 297T537 293T583 291Q610 291 635 295T698 299Q717 299 714 284Q712 276 705 271T686 264Q658 258 645 248T622 217Q613 201 604 177T589 133T583 106Q583
96 587 88T600 69Q593 53 565 38T499 12T423 -7T355 -14Z" />
<glyph unicode="H" glyph-name="H" horiz-adv-x="770" d="M-17 -4Q-25 -4 -30 -1T-34 9Q-33 17 -26 22T-5 30Q30 38 46 48T70 86L215 551Q225 584 219 598T180 620Q169 622 165 627T163 641Q164 647 172 650T189 654Q212 654 232 653T272 651T310 650Q329 650
350 651T395 653T441 654Q460 654 458 640Q456 632 448 628T427 620Q399 614 383 605T357 583T341 550L283 362Q280 350 294 350H570Q581 350 585 364L642 551Q651 580 643 594T600 620Q589 623 585 627T583 640Q584 647 591 650T608 654Q630 654 653 653T698 651T740
650Q759 650 777 651T815 653T858 654Q867 654 872 651T876 641Q873 625 845 620Q808 612 794 597T770 551L627 90Q619 62 627 49T665 29Q676 27 680 22T683 9Q682 3 674 0T657 -4Q635 -4 615 -3T575 0T536 1Q517 1 495 0T450 -2T404 -3Q385 -3 387 10Q389 18 397
22T418 29Q455 38 474 53T503 98L562 290Q565 297 565 301T558 306H278Q266 306 262 292L204 101Q194 66 205 53T250 29Q261 26 265 22T268 10Q267 3 260 0T243 -3Q220 -3 197 -2T153 0T110 1Q90 1 69 0T27 -2T-17 -4Z" />
<glyph unicode="I" glyph-name="I" horiz-adv-x="372" d="M-16 -4Q-25 -4 -30 -1T-34 9Q-31 24 -4 29Q35 38 55 51T86 97L226 551Q236 584 227 597T182 620Q171 622 167 627T165 641Q166 647 174 650T191 654Q214 654 236 653T279 651T321 650Q341 650 362 651T407
653T453 654Q473 654 470 640Q468 632 461 628T439 620Q412 614 395 606T368 585T352 550L221 122Q211 90 211 72T222 46T256 32Q276 28 281 23T286 10Q285 3 278 0T261 -3Q238 -3 214 -2T166 0T121 1Q89 1 54 -1T-16 -4Z" />
<glyph unicode="J" glyph-name="J" horiz-adv-x="350" d="M-78 -200Q-141 -200 -167 -183T-194 -144Q-194 -118 -186 -101T-161 -84Q-150 -84 -136 -96T-104 -123Q-88 -137 -72 -149T-39 -161Q-21 -161 -6 -145T25 -91T60 11L226 551Q236 584 228 598T183 620Q172
622 168 627T166 641Q167 647 175 650T192 654Q215 654 237 653T280 651T322 650Q340 650 360 651T403 653T448 654Q467 654 464 640Q462 632 455 628T434 620Q407 614 392 606T368 585T353 550L212 93Q198 45 183 11T152 -48T119 -92T82 -129Q47 -160 7 -180T-78
-200Z" />
<glyph unicode="K" glyph-name="K" horiz-adv-x="741" d="M-10 -6Q-20 -6 -27 -2T-33 9Q-30 24 0 29Q40 37 56 51T83 99L222 551Q233 584 224 598T179 620Q168 622 165 626T161 637Q161 645 170 649T193 654Q213 654 234 654T275 652T315 650Q334 650 354 651T397
653T442 654Q461 654 461 643Q461 633 452 628T429 620Q401 614 386 607T364 587T349 550L293 367Q291 358 294 355T307 352Q324 352 344 363T387 396L563 557Q575 568 582 576T591 592Q594 600 585 606T561 616Q549 619 544 623T538 636Q538 644 547 647T567 651H634Q680
651 725 652T816 654Q836 654 836 641Q836 633 824 628T799 621Q753 615 714 600T638 557Q601 529 566 500T494 438T420 370Q412 363 411 357T414 344Q466 241 506 180T578 85Q600 63 621 52T666 32Q679 28 687 24T696 10Q696 3 687 -1T662 -5Q633 -5 611 -4T564
-1T505 1Q487 1 472 1T440 -1T401 -2Q392 -2 385 2T378 12Q378 21 387 26T409 33Q427 37 432 45T434 64T425 88L316 293Q309 308 299 315T285 322Q279 322 277 317T273 307L214 103Q205 69 212 54T253 29Q264 26 270 23T276 11Q276 3 265 0T243 -4Q214 -4 195 -2T159
1T122 3Q90 3 63 -1T-10 -6Z" />
<glyph unicode="L" glyph-name="L" horiz-adv-x="580" d="M-14 -5Q-24 -5 -28 -1T-32 9Q-30 22 -2 28Q35 38 58 51T91 97L232 555Q242 589 234 600T190 620Q179 622 175 627T172 641Q173 647 181 650T198 654Q221 654 243 653T286 651T327 649Q348 649 372 650T420
653T467 654Q486 654 484 640Q482 631 474 628T452 621Q424 616 406 609T377 590T360 558L232 136Q215 80 224 58T265 35H315Q362 35 395 45T451 74Q476 93 493 117T527 170Q531 177 535 181T546 185Q551 185 553 180T556 169Q556 157 550 136T535 91T517 46T499
13Q495 6 490 1T476 -5Q442 -5 399 -4T307 -3T211 -1T122 0Q89 0 54 -2T-14 -5Z" />
<glyph unicode="M" glyph-name="M" horiz-adv-x="989" d="M368 -14Q363 -14 359 -8T355 10Q357 129 353 244T342 477Q341 492 333 490T318 472Q278 393 242 315T176 158Q159 114 156 88T160 48T186 30Q197 28 204 24T211 11Q210 5 200 2T180 -2Q153 -2 138 -1T110
0T75 1Q55 1 36 0T0 -3T-27 -4Q-51 -4 -48 8Q-47 16 -38 19T-14 27Q12 34 32 45T72 81T115 153L294 511Q311 545 312 566T294 602T229 624Q213 627 206 630T198 643Q198 652 210 655T236 658Q256 658 289 657T359 655T418 653Q439 653 446 642T453 610T454 565L466
199Q467 184 473 184T489 195Q547 255 601 321T705 452T800 574Q813 595 821 609T838 637Q846 650 859 650H903Q923 650 945 652T989 656T1024 658Q1036 658 1044 655T1052 644Q1052 635 1041 629T1003 617Q977 612 961 603T935 576T916 528Q889 430 866 328T822
123Q813 79 826 58T869 30Q880 28 885 24T890 11Q889 6 881 2T863 -2Q840 -2 815 -1T766 3T720 5Q699 5 678 3T634 -1T588 -3Q578 -3 573 0T569 11Q570 18 579 23T600 31Q637 40 654 54T682 100Q702 165 718 224T750 341T779 460Q781 466 778 466T768 460L499 148L393
7Q387 -1 380 -7T368 -14Z" />
<glyph unicode="N" glyph-name="N" horiz-adv-x="778" d="M9 -4Q0 -4 -6 -1T-12 9Q-10 17 -3 21T18 29Q56 38 76 57T106 106L251 517Q264 551 262 573T240 607T181 622Q166 624 158 629T149 643Q149 651 159 654T178 658Q202 658 231 657T290 655T345 653Q356
653 364 648T376 633L585 179Q587 175 591 170T599 164Q605 164 612 180Q615 189 622 210T638 262T658 327T678 397T695 462T707 514Q719 567 700 589T629 621Q608 624 609 637Q609 644 618 647T638 651Q672 651 700 649T749 646Q769 646 786 647T823 650T869 652Q890
652 890 639Q890 632 879 627T854 620Q830 617 814 609T787 582T763 528Q758 514 749 487T729 423T704 346T678 267T655 194T637 138Q630 113 631 100T642 68Q648 57 655 49T670 34Q678 27 683 23T689 11Q689 4 685 2T673 0Q649 0 632 -1T602 -4T574 -7Q550 -7
538 3T515 38Q503 64 486 103T450 189T410 284T371 375T338 450T314 499Q310 505 306 510T298 515Q294 515 289 508T280 490Q269 455 253 408T219 307T187 201T162 105Q154 72 167 56T221 29Q233 27 240 23T245 10Q244 3 235 0T216 -3Q190 -3 175 -2T147 0T119
1Q97 1 76 0T38 -2T9 -4Z" />
<glyph unicode="O" glyph-name="O" horiz-adv-x="693" d="M297 -14Q225 -14 173 19T93 111T64 242Q64 320 93 395T177 531T305 628T469 664Q541 664 593 631T674 539T702 408Q702 330 673 255T589 119T461 22T297 -14ZM298 21Q345 21 387 49T465 125T527 231T567
348T581 460Q581 505 570 544T533 607T467 632Q421 632 379 604T302 527T241 421T200 302T185 189Q185 145 196 107T233 45T298 21Z" />
<glyph unicode="P" glyph-name="P" horiz-adv-x="605" d="M-4 -4Q-12 -4 -18 -1T-24 9Q-24 17 -14 22T9 29Q48 38 67 51T97 98L235 545Q247 582 236 599T184 622Q171 625 165 629T161 640Q162 647 172 650T192 654Q206 654 228 653T273 651T313 651Q327 651 347
652T391 655T435 657Q503 657 552 633T627 568T652 469Q651 420 628 378T565 305T473 257T362 240Q343 240 331 244T318 259Q318 265 325 268T341 273Q352 275 363 277T387 282Q431 292 463 320T513 390T531 477Q531 529 516 561T474 607T410 621Q401 621 395 617T382
599T365 556L226 104Q214 69 228 54T281 29Q293 27 299 23T305 10Q305 3 295 0T273 -3Q250 -3 225 -2T177 1T135 2Q103 2 68 -1T-4 -4Z" />
<glyph unicode="Q" glyph-name="Q" horiz-adv-x="699" d="M559 -281Q504 -281 449 -256T341 -201Q293 -175 246 -155T155 -134Q138 -134 123 -136T97 -143Q83 -148 71 -155T50 -162Q42 -162 39 -159T35 -148Q35 -136 55 -123T106 -96T173 -69T240 -42T293 -19Q391
31 455 104T552 267T584 460Q584 508 572 545T533 605T464 627Q418 627 377 600T300 526T240 423T200 305T185 189Q185 146 199 107T248 43T345 17Q355 17 365 17T386 20L351 -11Q343 -11 330 -12T302 -14Q229 -14 176 19T94 111T65 242Q65 320 94 395T177 531T305
628T470 664Q542 664 594 631T676 539T705 408Q705 335 676 266T593 136T464 29Q420 1 383 -19T301 -58T192 -97L183 -90Q204 -80 227 -75T271 -70Q310 -70 356 -88T447 -130Q496 -156 540 -178T617 -200Q647 -200 671 -186T711 -150Q722 -135 730 -135T741 -141T740
-159Q731 -178 713 -199T671 -239T617 -269T559 -281Z" />
<glyph unicode="R" glyph-name="R" horiz-adv-x="734" d="M0 -4Q-9 -4 -14 -1T-19 9Q-16 24 12 29Q51 37 70 51T100 98L239 547Q248 575 247 589T232 609T189 620Q176 622 169 626T161 639Q161 647 173 650T197 654Q217 654 238 653T278 651T314 649Q336 649 355
650T397 654T445 656Q506 656 549 639T617 588T641 508Q641 458 616 421T551 359T466 322Q455 319 460 308Q469 285 480 259T505 207T529 158T550 116Q567 80 590 61T645 40Q658 39 669 36T680 21Q680 6 656 2T576 -2Q533 -2 504 6T458 31T432 69Q419 99 407 130T382
194T359 259Q351 280 342 289T313 299Q298 299 292 295T283 280L228 104Q218 71 229 55T276 29Q288 27 292 23T295 10Q293 3 287 0T270 -3Q247 -3 224 -2T179 1T138 2Q105 2 70 -1T0 -4ZM346 323Q376 323 406 335T461 371T501 431T516 517Q516 562 490 594T423
626Q411 626 402 621T385 598T365 542L312 361Q306 340 314 332T346 323Z" />
<glyph unicode="S" glyph-name="S" horiz-adv-x="507" d="M207 -14Q175 -14 145 -10T88 6Q74 11 65 14T53 18Q46 18 40 16T29 11Q22 7 17 4T6 0Q1 0 -7 7T-16 22Q-16 29 -6 52T17 109T35 182Q39 210 57 210Q69 210 71 197T74 155Q74 121 87 91T127 42T195 23Q257
23 294 56T331 143Q331 167 324 187T296 231T237 289Q191 331 165 372T138 473Q138 527 167 570T248 639T366 664Q394 664 419 659T464 648Q484 642 497 638T520 633Q533 633 543 638Q549 642 555 644T567 647Q577 647 579 640T577 626Q570 616 559 595T538 545T519
477Q516 465 511 458T498 450Q490 450 487 459T483 486Q483 553 451 591T365 629Q330 629 304 612T264 569T250 516Q250 492 258 471T287 426T346 369Q403 321 426 280T449 192Q449 139 421 92T338 16T207 -14Z" />
<glyph unicode="T" glyph-name="T" horiz-adv-x="658" d="M136 -4Q127 -4 121 -1T116 9Q118 17 127 21T149 29Q188 37 210 51T242 99L370 526Q386 581 385 597T368 613H309Q269 613 238 594T185 551Q177 542 166 530T144 509T125 500Q117 500 116 504T114 515Q115
520 118 527T127 544Q150 574 164 601T189 661Q193 672 199 678T213 685Q221 685 230 678T247 665Q254 660 261 656T286 649T335 646L639 647Q677 647 697 649T727 655T741 662Q755 668 765 676T783 684Q796 684 792 670Q792 665 789 659T783 647Q770 624 757 592T733
521Q729 507 725 501T713 494Q704 494 701 502T697 526Q696 569 681 591T625 613H558Q543 613 534 607T516 581T496 525L368 100Q359 68 371 53T419 29Q430 26 435 22T439 10Q437 3 430 0T412 -3Q390 -3 366 -2T320 0T277 1Q255 1 232 0T184 -2T136 -4Z" />
<glyph unicode="U" glyph-name="U" horiz-adv-x="708" d="M310 -14Q251 -14 206 4T132 56T98 140T111 254L199 541Q209 571 202 592T175 619Q148 627 150 641Q152 647 162 650T185 654Q212 654 241 652T299 650Q325 650 357 651T414 653Q440 653 436 640Q434 630
420 626T387 614Q370 608 353 589T324 532L232 237Q214 177 226 135T272 71T350 49Q411 49 457 79T535 158T585 264Q599 306 611 344T632 412T646 458Q663 518 664 549T655 595T627 618Q617 622 605 626T595 639Q596 647 605 650T628 653Q648 653 665 653T697 652T729
651Q746 651 759 651T784 653T812 654Q824 654 830 652T834 641Q831 628 799 620Q778 615 764 606T739 577T713 521Q690 456 670 391T625 256Q599 176 559 115T458 20T310 -14Z" />
<glyph unicode="V" glyph-name="V" horiz-adv-x="712" d="M187 -16Q160 -16 154 12T157 95Q183 233 201 344T229 552Q231 581 223 596T185 619Q170 623 162 627T154 640Q154 648 163 651T186 655Q213 655 248 653T314 650Q333 650 357 651T404 652T445 653Q455
653 462 650T468 640Q466 632 456 627T433 619Q400 613 385 601T363 554L294 161Q292 151 293 147T297 143Q300 143 303 148T314 163L573 477Q614 525 625 554T629 599T602 619Q590 622 584 627T578 640Q579 647 589 650T610 653Q634 653 658 652T710 651Q740 651
762 654T811 657Q823 657 831 653T839 642Q839 633 827 629T801 620Q772 612 742 593T685 541L320 118Q303 97 284 75T245 31T210 -3T187 -16Z" />
<glyph unicode="W" glyph-name="W" horiz-adv-x="1097" d="M200 -16Q184 -16 177 1T168 46T172 102Q181 159 190 216T208 330T224 440T237 540Q241 569 238 584T223 606T189 619Q173 623 164 627T154 640Q154 648 164 651T190 655Q216 655 248 653T314 650Q333
650 358 651T408 652T449 653Q459 653 467 650T474 640Q472 631 460 626T436 619Q412 615 399 608T379 588T368 548Q354 459 337 369T306 188Q303 168 309 167T331 185L579 481Q600 507 612 527T625 567Q625 590 614 601T574 619Q558 623 549 627T540 641Q540 648
550 651T575 655Q593 655 617 654T665 651T708 650Q728 650 753 651T802 654T846 655Q870 655 870 641Q870 633 860 628T835 620Q794 613 778 600T756 553L696 187Q692 167 698 167T721 187L949 477Q988 526 998 555T1001 599T972 619Q959 622 953 626T948 640Q949
647 959 650T980 653Q996 653 1015 653T1055 652T1095 651Q1125 651 1147 654T1196 657Q1208 657 1216 653T1224 642Q1224 633 1212 628T1186 620Q1155 613 1125 594T1066 541L708 120Q682 88 657 57T612 6T581 -14Q566 -14 559 -4T549 23T549 62T557 111Q566 167
577 230T600 356T620 473L327 120Q311 101 294 78T261 33T229 -2T200 -16Z" />
<glyph unicode="X" glyph-name="X" horiz-adv-x="686" d="M-18 -6Q-29 -6 -38 -3T-47 8Q-47 17 -37 22T-14 29Q5 33 24 42T68 71T125 127L280 301Q294 317 300 331T298 368L245 543Q237 572 224 588T196 611T162 620Q150 621 143 626T135 641Q135 648 144 651T163
654Q201 654 237 652T313 649Q345 649 372 651T426 654Q436 654 444 651T452 640Q452 632 443 627T420 619Q387 614 377 597T378 539L419 395Q423 382 431 382T447 392L541 510Q572 548 581 570T584 604T558 619Q548 621 540 626T531 640Q531 647 540 650T560 653Q580
653 600 652T643 650Q671 650 696 653T747 657Q758 657 767 654T776 642Q776 634 766 630T743 622Q727 618 706 607T663 579T623 543L463 363Q450 348 446 337T447 309L510 101Q516 80 527 67T554 46T593 31Q605 29 614 23T624 8Q624 2 616 -1T597 -5Q568 -5 540
-4T485 -1T430 1Q400 1 375 0T323 -1Q313 -1 306 2T298 12Q298 20 309 25T330 33Q364 42 375 57T379 102L329 277Q326 289 319 289T305 281L181 122Q158 93 155 75T161 46T192 31Q204 28 211 24T219 11Q219 4 210 1T189 -3Q165 -3 144 -2T96 0Q66 0 38 -3T-18 -6Z"
/>
<glyph unicode="Y" glyph-name="Y" horiz-adv-x="627" d="M121 -6Q108 -6 103 -2T98 9Q99 17 109 21T133 29Q173 36 195 56T227 109L273 256Q282 281 282 302T274 348L215 551Q207 578 195 594T162 616Q145 621 138 626T133 640Q134 647 143 650T162 654Q197 654
229 652T301 649Q327 649 353 651T406 654Q416 654 422 651T428 640Q427 632 417 627T393 619Q353 612 343 598T340 551L382 376Q387 359 390 353T398 347Q403 347 410 353T426 370Q460 409 491 450T558 534Q588 570 587 591T548 619Q538 621 531 626T524 640Q525
647 535 650T556 653Q578 653 599 651T645 649Q675 649 701 652T751 655Q763 655 770 652T776 641Q774 632 764 629T743 621Q723 616 700 604T658 578T625 548Q597 517 567 483T508 416T453 355Q433 334 421 311T400 258L355 110Q344 73 354 56T399 29Q412 26 418
22T423 9Q422 3 413 -1T392 -5Q369 -5 347 -3T302 0T259 2Q238 2 215 1T168 -3T121 -6Z" />
<glyph unicode="Z" glyph-name="Z" horiz-adv-x="639" d="M503 -4Q484 -4 451 -4T374 -2T285 -1T194 0Q154 0 115 0T41 -2T-24 -5Q-31 -6 -31 5T-27 19Q-19 30 -6 46T24 81T55 114Q113 176 167 236T273 355T380 474T494 597Q499 603 500 609T486 616Q474 616 452
616T404 614T355 612T315 609Q283 604 246 585T178 521Q169 509 161 500T141 490Q133 490 131 496T130 509Q131 513 133 520T139 535Q153 561 164 587T184 635Q190 649 197 655T215 662Q238 662 270 656T342 649Q374 648 407 648T470 648Q503 648 539 649T610 651T672
652Q679 652 683 642T684 629L594 531Q538 472 486 416T382 303T280 188T174 68Q151 42 180 41Q198 40 229 40T293 39Q320 40 348 42T403 48T451 60Q489 71 522 94T581 157Q586 164 591 168T603 172Q610 172 612 167T613 155Q611 145 602 127T580 88T556 48T536
14Q531 6 523 1T503 -4Z" />
<glyph unicode="[" glyph-name="bracketleft" horiz-adv-x="370" d="M14 -201Q0 -201 -7 -199T-15 -187T-7 -156L238 643Q245 664 250 676T264 695T289 701L468 700Q475 700 479 697T482 684Q480 672 468 668T448 663Q429 662 412 662T374 660Q356 659 342 644T323
613Q308 565 290 507T251 384T209 253T168 121T130 -3T98 -112Q92 -130 97 -142T123 -157Q135 -157 145 -158T166 -160T193 -162Q201 -163 208 -167T214 -182Q212 -191 204 -195T187 -200L14 -201Z" />
<glyph unicode="\" glyph-name="backslash" horiz-adv-x="402" d="M281 -65Q269 -65 259 -61T246 -46L156 650Q155 658 162 664T180 669Q195 669 204 665T215 648L305 -48Q306 -55 298 -60T281 -65Z" />
<glyph unicode="]" glyph-name="bracketright" horiz-adv-x="370" d="M383 703Q398 703 405 701T412 689T405 658L159 -141Q153 -161 148 -174T134 -193T108 -199L-71 -198Q-77 -198 -82 -195T-85 -182Q-82 -170 -71 -166T-51 -161Q-31 -160 -14 -159T23 -158Q42
-157 55 -142T75 -111Q90 -63 108 -5T147 118T188 249T229 381T267 505T300 614Q306 632 301 644T275 659Q263 659 253 660T232 662T204 664Q196 665 189 669T183 684Q185 694 194 698T210 702L383 703Z" />
<glyph unicode="^" glyph-name="asciicircum" horiz-adv-x="510" d="M77 261Q70 261 65 264T60 275Q60 280 62 284L273 606H278L491 284Q495 276 492 269T476 261Q463 261 451 269T430 289L280 506Q276 511 275 511T270 506L123 290Q115 278 102 270T77 261Z" />
<glyph unicode="_" glyph-name="underscore" horiz-adv-x="544" d="M419 -129Q427 -129 431 -134T433 -145Q430 -158 419 -171T393 -185H-106Q-112 -185 -115 -181T-117 -172Q-116 -167 -111 -157T-98 -138T-80 -129H419Z" />
<glyph unicode="`" glyph-name="grave" horiz-adv-x="225" d="M291 472Q285 472 278 476T264 488L161 604Q152 615 147 624T141 640Q141 649 150 659T172 677T193 685Q203 685 210 677T226 653L299 499Q304 490 303 481T291 472Z" />
<glyph unicode="a" glyph-name="a" horiz-adv-x="525" d="M40 -14Q27 -14 14 -7T-9 12T-18 34Q-18 67 2 107T63 199T171 320Q218 367 254 394T309 422Q332 422 358 399Q367 389 367 389T368 389Q370 389 371 390T374 395Q384 413 387 418T390 426Q395 438 410
438Q424 438 438 432T462 418T472 402Q472 396 469 387L365 107Q355 78 376 78Q390 78 414 95T461 138Q464 140 465 140T467 141Q472 141 475 138T478 127Q478 115 461 92T418 47Q385 18 352 2T295 -14Q282 -14 268 -7T245 12T236 35Q236 44 242 58Q242 59 245
68T255 92T268 121T281 149Q284 156 282 159T275 159Q221 97 179 59T103 4T40 -14ZM129 78Q148 78 187 111T270 197Q304 238 324 271T344 319Q344 327 326 342Q318 349 309 353T293 357Q277 357 249 339T195 297Q171 273 149 240T113 172T99 113Q99 97 107 88T129
78Z" />
<glyph unicode="b" glyph-name="b" horiz-adv-x="501" d="M166 -11Q115 -11 87 15T58 88Q58 109 62 135T77 191L192 551Q199 572 201 584T204 609Q204 617 197 623T173 634Q148 642 148 650Q148 656 153 660T171 668Q188 674 210 681T256 693T296 703T319 707Q341
707 341 695Q341 684 339 676T332 656Q323 634 311 603T285 534T257 451T226 360T194 261Q191 252 194 251T203 257Q261 338 317 382T416 427Q452 427 475 404T499 346Q499 298 479 248T425 151T348 68T258 10T166 -11ZM194 25Q207 25 226 38T266 73T305 123Q328
156 348 196T380 271T392 328Q392 343 385 352T365 362Q340 362 304 332T224 241Q189 193 169 152T148 89Q148 67 162 46T194 25Z" />
<glyph unicode="c" glyph-name="c" horiz-adv-x="349" d="M130 -14Q99 -14 72 2T29 47T12 111Q13 156 26 201T62 286T118 358T192 408T280 427Q315 427 335 413T356 376Q356 358 344 340T319 322Q311 322 305 328T290 350Q282 366 271 377T245 389Q222 389 200
367T160 309T130 231T118 149Q117 113 134 96T181 78Q209 78 231 90T271 123Q276 129 280 132T290 135Q299 135 299 124Q299 105 285 81T245 35T190 0T130 -14Z" />
<glyph unicode="d" glyph-name="d" horiz-adv-x="547" d="M75 -14Q42 -14 21 8T0 66Q0 103 15 147T57 238T121 328Q162 376 203 402T280 429Q301 429 317 420T356 397Q368 390 371 389T375 387Q379 387 381 395L435 570Q441 588 443 596T446 607T447 610T446 613Q446
624 438 632T409 647Q393 653 389 655T385 662Q385 669 392 673T416 682Q429 685 450 689T493 697T533 703T556 706Q577 706 577 692Q577 685 576 678T570 658L395 113Q393 107 392 102T391 92Q391 79 400 79Q410 79 426 88T460 112T492 144Q494 147 495 147T498
148Q509 148 508 135Q508 122 495 103T461 63T415 26T367 -3T327 -14Q313 -14 300 -6T277 14T268 38Q268 44 272 62Q276 73 282 89T293 120T302 142T303 140Q306 148 303 150T295 146Q226 62 174 24T75 -14ZM144 67Q167 67 194 84T249 131T299 195T336 265T350
328Q350 356 339 370T305 385Q286 385 261 366T209 314T161 244T126 168T113 102Q113 84 120 76T144 67Z" />
<glyph unicode="e" glyph-name="e" horiz-adv-x="367" d="M126 -15Q101 -15 74 1T28 44T9 101Q9 159 31 217T91 322T177 398T276 427Q326 427 350 408T374 359Q374 326 353 302T297 261T221 233T141 214Q136 213 134 212T129 205Q125 192 122 178T118 151Q117
116 134 93T186 69Q217 69 241 84T285 122Q296 133 303 133Q312 133 312 123Q312 120 312 117T309 111Q290 76 263 47T202 2T126 -15ZM148 245Q165 249 189 256T235 278T273 312T289 362Q290 374 283 384T262 394Q243 394 223 380T186 345T156 298T141 251Q140
244 148 245Z" />
<glyph unicode="f" glyph-name="f" horiz-adv-x="362" d="M-82 -291Q-141 -291 -169 -271T-198 -223Q-198 -201 -183 -186T-151 -171Q-142 -171 -133 -183T-113 -210Q-102 -223 -91 -234T-60 -246Q-44 -246 -32 -234T-8 -196T15 -130L150 343Q155 361 136 361L76
360Q67 360 64 364T60 376Q60 384 67 395T88 408L154 411Q164 412 168 427L176 455Q203 547 246 602T338 681T429 706Q474 706 503 686T532 633Q532 607 519 588T487 569Q474 569 467 584T451 617Q444 637 432 651T399 665Q377 665 360 649T329 600T300 519Q294
499 290 481T281 444Q279 438 278 434T277 425Q276 417 280 415T290 412Q318 412 342 413T392 415Q401 415 401 402Q401 397 397 389T387 373T374 366L290 364Q275 364 267 359T256 343Q224 234 192 121T131 -102Q121 -138 96 -172T38 -232T-26 -275T-82 -291Z"
/>
<glyph unicode="g" glyph-name="g" horiz-adv-x="451" d="M118 -290Q58 -290 9 -277T-70 -239T-100 -184Q-100 -158 -72 -136T0 -96T94 -63Q104 -60 96 -54Q75 -40 60 -24T44 12Q44 32 64 48T114 82Q120 87 122 90T125 95Q125 98 116 103Q98 111 82 125T57 160T48
205Q48 238 62 276T104 348T172 405T262 427Q281 427 296 422T322 411Q335 406 346 401T364 396Q380 396 397 399T430 407T460 411Q466 411 475 406T484 385Q484 367 477 356T460 345Q451 345 438 347T412 352T389 354Q385 354 381 352T378 342Q380 335 380 328T381
312Q381 272 365 233T322 161T258 109T180 89Q171 89 163 88T150 84Q139 75 139 63Q139 49 149 38T180 12Q199 0 223 -15T272 -46T317 -75Q340 -91 352 -108T364 -144Q364 -172 342 -198T284 -245T205 -278T118 -290ZM157 -256Q188 -256 212 -247T250 -223T265
-189Q265 -177 257 -164T232 -140Q216 -128 190 -112T148 -89Q137 -83 128 -83Q123 -83 118 -84T107 -87Q55 -103 27 -123T-2 -177Q-2 -198 17 -216T73 -245T157 -256ZM167 123Q184 122 203 138T239 182T270 242T292 303T300 353Q300 370 292 383T271 396Q254 396
236 380T201 337T169 279T147 219T138 168Q138 147 146 136T167 123Z" />
<glyph unicode="h" glyph-name="h" horiz-adv-x="538" d="M85 -16Q77 -16 68 -11T51 4T43 25Q43 41 46 57T56 95L193 545Q198 561 201 578T205 606Q205 618 193 624T167 636Q160 638 154 641T148 649Q148 655 152 659T172 668Q182 672 202 678T246 691T288 702T314
707Q320 707 328 706T337 695Q337 684 335 676T329 659L191 219Q189 212 192 212T200 217Q239 277 282 325T368 401T447 430Q486 430 505 406T525 347Q525 295 510 244T470 146T413 65Q407 57 390 44T351 18T309 -5T276 -14Q266 -14 254 -7T232 11T223 29Q223 34
228 44T240 62T255 71Q265 71 271 66T284 55Q291 49 298 44T314 38Q327 38 341 58T368 111T391 182T407 258T414 325Q414 344 407 354T384 365Q368 365 346 344T298 288T246 212T194 130T148 54Q128 18 113 1T85 -16Z" />
<glyph unicode="i" glyph-name="i" horiz-adv-x="319" d="M79 -14Q58 -14 42 1T26 33Q26 38 26 42T30 53Q63 123 89 189T138 312Q141 320 134 320Q127 320 115 315T90 303T65 287Q55 281 50 284T44 295Q44 301 55 314T85 342T127 374T173 403T215 425Q228 430
241 423T262 405T266 384L151 103Q148 98 147 93T146 83Q146 78 149 76T156 74Q167 74 185 86T224 116T261 149Q263 152 265 152Q269 152 272 149T275 141Q275 123 255 98T203 47T139 4T79 -14ZM269 763Q249 763 236 778T223 813Q223 844 244 867T298 891Q319 891
331 874T343 836Q343 808 322 786T269 763Z" />
<glyph unicode="j" glyph-name="j" horiz-adv-x="294" d="M-127 -290Q-173 -290 -195 -274T-216 -239Q-215 -225 -207 -214T-188 -195T-169 -187Q-155 -187 -146 -196T-127 -216Q-119 -226 -109 -233T-83 -241Q-57 -241 -38 -209T-3 -127L128 274Q135 297 132
305T121 314Q110 314 96 309T64 294Q56 291 50 293T43 302Q43 308 47 312T60 324Q82 342 107 357T159 385T208 407T246 426Q260 431 273 419T282 395Q275 374 263 345T240 282L119 -84Q106 -125 76 -162T8 -228T-66 -273T-127 -290ZM257 509Q237 509 224 524T211
559Q211 590 232 613T286 637Q307 637 319 620T331 582Q331 554 310 532T257 509Z" />
<glyph unicode="k" glyph-name="k" horiz-adv-x="508" d="M318 -17Q296 -17 282 -5T258 32L217 152Q212 166 204 175T186 184Q180 184 175 175T164 153Q159 141 153 124T139 89T125 54T114 24Q108 10 96 0T64 -10Q51 -10 36 1T21 32Q21 41 23 51T29 73L182 546Q188
563 191 577T194 605Q194 624 171 633Q162 636 155 639T148 648Q148 653 151 657T167 665Q178 670 199 677T242 690T283 702T310 707Q317 707 325 706T333 694Q333 684 331 677T326 660L198 287Q195 278 200 278T209 284Q238 325 272 357T345 408T423 427Q449 427
468 415T487 376Q487 352 470 326T426 277T368 235T307 206Q298 204 304 191L344 98Q349 90 356 81T373 71Q389 71 410 88T444 126Q449 133 452 135T459 138Q462 138 464 134T466 125Q466 105 451 81T411 34T362 -2T318 -17ZM221 208Q249 208 277 222T331 256T371
298T386 335Q386 350 377 356T352 363Q333 363 309 345T263 302T225 255T210 223Q210 218 213 213T221 208Z" />
<glyph unicode="l" glyph-name="l" horiz-adv-x="304" d="M65 -14Q46 -14 30 3T13 38Q13 45 16 56L193 569Q202 596 200 610T187 632Q178 637 173 643T161 654Q157 659 157 662T162 670Q178 675 195 679T230 687T257 695Q267 697 282 700T310 705T328 707Q334
707 337 701T340 689Q339 683 336 672T329 651L140 110Q138 105 138 100T137 91Q137 77 148 77Q158 77 175 89T209 118T239 150Q242 154 246 158T253 162Q259 162 260 157T262 147Q262 130 248 109T211 66T161 26T109 -3T65 -14Z" />
<glyph unicode="m" glyph-name="m" horiz-adv-x="817" d="M91 -15Q84 -15 74 -9T56 8T48 32Q48 37 51 48T61 76L162 325Q167 336 163 343T148 351Q137 351 117 345T73 310Q69 305 62 305T54 315Q54 322 59 333T72 355T86 373Q109 395 135 410T205 427Q225 427
239 417T258 389T253 348L196 211Q193 204 198 203T206 208Q245 271 282 320T355 398T431 427Q463 427 480 408T498 359T484 294L463 238Q459 231 465 230T475 235Q509 291 544 334T617 402T692 427Q724 427 739 408T754 358T738 290L663 109Q650 76 667 76Q675
76 688 84T715 103T740 124T757 139Q761 142 764 145T771 149Q774 149 777 146T780 138Q779 128 776 119T762 100Q722 53 671 20T566 -14Q558 -14 546 -8T527 10T525 33L654 333Q662 350 656 360T640 370Q626 371 605 353T557 298Q540 273 514 233T460 148T406
58Q393 36 377 19T347 -6T322 -15Q314 -15 306 -9T291 6T284 24Q284 29 288 44T299 79L402 336Q410 355 404 363T389 372Q375 373 352 353T298 292Q284 274 267 247T232 189T195 124T160 62Q139 23 124 4T91 -15Z" />
<glyph unicode="n" glyph-name="n" horiz-adv-x="575" d="M99 -15Q91 -15 81 -9T62 6T49 29T51 55L157 317Q169 349 151 349Q143 349 131 348T103 338T73 310Q69 305 62 305T54 315Q54 322 59 333T73 355T86 373Q107 396 138 411T213 427Q233 427 245 417T260
390T257 355L200 211Q197 204 204 203T215 208Q252 273 289 322T365 399T441 427Q475 427 491 408T510 359T499 299L418 109Q405 76 423 76Q431 76 444 83T471 100T497 119T513 133Q516 137 520 140T527 143Q530 143 533 140T536 132Q536 116 526 104Q498 70 464
44T393 2T322 -14Q310 -14 298 -6T281 13T280 37Q311 108 344 178T405 320Q414 346 412 357T397 369Q384 370 369 357T337 321T299 273Q289 260 272 233T234 173T191 104T153 39Q139 15 126 0T99 -15Z" />
<glyph unicode="o" glyph-name="o" horiz-adv-x="432" d="M139 -14Q106 -14 77 3T30 50T12 118Q12 165 31 218T87 318T173 396T286 427Q347 427 383 391T420 292Q420 247 401 194T345 94T257 16T139 -14ZM158 22Q179 22 200 44T242 101T277 180T302 266T312 344Q312
366 304 379T275 392Q256 392 235 371T193 316T157 239T130 153T120 72Q120 46 130 34T158 22Z" />
<glyph unicode="p" glyph-name="p" horiz-adv-x="499" d="M-103 -285Q-107 -285 -111 -283T-115 -275Q-114 -267 -107 -262T-90 -256Q-63 -249 -50 -242T-28 -211L149 315Q153 326 155 334T155 346T140 348Q119 343 104 339T66 325Q58 321 50 323T42 334Q42 344
49 350T64 359Q80 366 104 377T166 403Q173 405 178 411T189 433Q205 480 226 502T275 525Q291 525 297 516T299 486L286 441Q284 431 285 426T290 421Q303 423 315 425T340 427Q392 427 425 410T475 363T492 295Q492 244 469 190T407 89T318 15T214 -14Q200 -14
187 -8T164 5Q153 14 147 12T134 -10L76 -201Q69 -221 80 -233T124 -252Q132 -253 139 -257T147 -270Q147 -276 140 -279T123 -282Q107 -282 85 -281T44 -280T11 -280Q-14 -281 -44 -283T-103 -285ZM221 23Q241 23 268 45T321 105T364 188T381 281Q381 335 360
357T302 380Q295 380 288 380T272 378L184 109Q179 93 179 79T183 52Q189 38 196 31T221 23Z" />
<glyph unicode="q" glyph-name="q" horiz-adv-x="520" d="M109 -287Q104 -288 99 -285T95 -275Q95 -267 103 -263T119 -256Q147 -250 162 -240T186 -208Q204 -160 224 -105T265 9T307 124Q311 133 307 136T294 129Q253 79 219 47T152 1T85 -14Q50 -14 27 10T4
70Q4 113 23 160T73 252T144 338Q185 381 234 407T326 433Q344 433 359 426T383 406Q390 398 395 392T405 387Q414 387 423 401L432 416Q444 436 457 443T482 451Q494 451 497 432T487 371L297 -198Q290 -220 299 -231T327 -246Q342 -248 350 -252T359 -263Q359
-269 352 -272T334 -275Q289 -275 246 -277T167 -281T109 -287ZM141 47Q157 47 178 60T221 97T265 147T304 201Q329 241 347 276T366 336Q366 348 361 360T346 381T323 390Q304 390 278 368T223 309T171 230T132 148T117 80Q117 65 122 56T141 47Z" />
<glyph unicode="r" glyph-name="r" horiz-adv-x="431" d="M83 -15Q75 -15 64 -11T44 3T36 23Q36 32 39 43T48 70L146 325Q151 336 149 344T137 352Q118 352 106 346T81 330Q76 326 69 327T61 336Q60 352 75 369T112 401Q131 412 153 419T198 427Q226 427 237 412T246
372T230 314L189 216Q186 209 191 208T201 213Q238 277 273 325T344 401T411 429Q440 429 455 412T470 370Q470 346 460 323T434 286T403 272Q393 272 388 282T379 311Q377 328 372 339T355 351Q340 351 323 332T281 275Q273 262 258 237T224 181T187 121T156 67Q135
29 117 7T83 -15Z" />
<glyph unicode="s" glyph-name="s" horiz-adv-x="303" d="M55 -14Q19 -14 -3 3T-26 47Q-26 72 -15 87T12 103Q19 103 28 95T49 75Q62 63 78 50T115 37Q135 37 145 50T156 81Q157 98 145 123T117 172Q100 197 89 223T77 274Q77 301 94 328T137 377T189 413T232
427Q253 427 273 417T306 394T319 371Q319 362 310 349T290 325T268 315Q259 315 251 323T235 340Q227 351 216 359T190 367Q175 367 166 356T157 330Q157 322 164 308T182 277T203 245Q226 213 237 186T249 135Q249 111 232 85T187 37T124 0T55 -14Z" />
<glyph unicode="t" glyph-name="t" horiz-adv-x="340" d="M84 -14Q71 -14 58 -5T37 16T29 38Q29 49 32 58T41 84L135 342Q140 355 136 359T125 364L79 366Q64 367 61 373T57 384Q57 386 63 393T79 407T100 414H144Q158 414 162 418T174 437L201 491Q208 504 220
517T247 539T271 548Q284 548 288 534T287 507L263 433Q260 421 264 418T277 414Q293 414 310 412T344 408Q364 405 368 401T372 389Q372 387 367 381T348 373Q332 372 316 371T280 368Q263 367 255 363T242 349L163 130Q157 112 157 102T162 89T174 85Q187 85
205 97T241 125T270 153Q276 158 280 158T285 156Q288 153 288 147T284 132Q277 116 261 97T222 58T175 22T127 -4T84 -14Z" />
<glyph unicode="u" glyph-name="u" horiz-adv-x="567" d="M98 -14Q81 -14 66 0T44 35T43 70L141 296Q148 312 148 321T140 330Q134 330 120 322T90 301T64 279Q55 270 48 270T40 278Q40 285 44 294T56 313Q83 348 115 374T178 414T235 428Q246 428 257 418T275
394T276 367Q252 317 224 254T161 118Q153 101 153 88T164 75Q174 75 193 95T238 146T289 210Q314 241 338 273T381 334T410 380Q423 401 434 414T459 427Q474 427 486 418T504 396T505 371L396 101Q392 89 392 81T399 73Q409 73 429 86T472 117T508 148Q510 151
512 151Q517 151 520 147T524 138Q524 129 515 117T490 90T456 64T421 42T390 30Q374 19 357 15T322 11T291 18Q285 21 282 31T282 52Q292 74 304 100T328 153T349 204Q353 213 348 214T337 208Q300 163 267 123T203 52T147 4T98 -14Z" />
<glyph unicode="v" glyph-name="v" horiz-adv-x="455" d="M143 -14Q110 -14 89 4T61 52T68 118L131 289Q137 305 135 312T126 320Q116 320 99 308T70 285Q64 279 60 277T52 274Q41 274 41 283Q41 288 45 296T59 317Q75 337 96 357T141 393T185 418T221 428Q232
428 241 421T256 402T259 382L176 130Q166 96 173 78T207 60Q233 60 262 79T317 131T359 200T375 272Q375 295 367 312T346 343Q337 352 333 360T328 378Q328 387 342 398T376 419T410 428Q424 428 435 410T446 350Q446 308 432 264T391 178T329 97Q284 47 237
17T143 -14Z" />
<glyph unicode="w" glyph-name="w" horiz-adv-x="671" d="M135 -14Q107 -14 87 4T63 59T78 146L136 296Q141 310 138 315T130 320Q125 320 108 312T76 292Q70 287 64 284T55 281Q43 281 43 292Q43 296 47 304T61 324Q79 343 101 361T146 394T191 419T228 428Q241
428 250 421T261 396T251 349L171 130Q159 96 169 78T203 60Q218 60 237 74T274 110T308 158T330 206Q334 217 337 232T343 265T349 300T356 333Q358 344 365 357T383 379Q397 391 410 398T450 406Q461 406 467 396T474 366T466 320Q455 288 441 260T415 208Q406
190 400 170T394 134Q392 101 401 80T434 59Q459 59 485 79T533 131T568 201T582 276Q582 293 578 305T567 331Q559 345 553 355T546 372Q546 381 560 394T593 418T626 429Q640 429 651 410T663 350Q663 308 648 263T605 174T541 87Q501 41 458 14T374 -14Q342
-14 324 7T302 61T309 133L315 112Q292 76 262 48T198 3T135 -14Z" />
<glyph unicode="x" glyph-name="x" horiz-adv-x="478" d="M31 -14Q9 -14 -3 -1T-16 31Q-16 45 -9 60T10 86T32 97Q38 97 43 92T51 80Q55 72 61 68T76 63Q85 63 94 67T113 82Q125 96 138 111T165 141T192 173Q196 179 197 184T196 197L158 329Q155 338 152 342T143
346Q134 346 118 333T83 296Q81 293 78 290T69 286Q65 286 63 289T60 299Q60 317 71 338T100 380T141 413T187 427Q210 427 222 410T243 365L270 269Q273 255 283 268L346 357Q371 391 395 409T444 427Q468 427 485 409T502 376Q502 363 494 349T475 324T455 314Q445
314 441 318T432 330Q428 340 423 345T408 350Q399 350 386 343T355 316Q341 301 326 281T294 235Q290 227 288 219T289 198L319 89Q324 73 329 68T341 63Q351 63 367 79T401 127Q407 137 414 137Q418 137 420 134T423 120Q423 106 413 84T386 39T347 1T300 -14Q272
-14 256 5T232 51Q227 71 222 96T212 141Q210 149 207 150T198 145Q180 122 163 97T127 48Q103 16 78 1T31 -14Z" />
<glyph unicode="y" glyph-name="y" horiz-adv-x="457" d="M-50 -289Q-73 -289 -93 -275T-114 -233Q-114 -216 -107 -202T-87 -177T-61 -167Q-50 -167 -40 -173T-20 -188Q-9 -196 2 -202T27 -209Q59 -209 91 -174T149 -84Q169 -41 177 14T186 133Q186 213 176 260T153
328T130 349Q121 349 111 337T91 309T76 282Q74 278 69 268T57 258Q54 258 51 266T48 286Q48 312 60 337T92 384T133 417T176 430Q204 430 221 412T250 357Q264 314 274 248T280 81Q279 63 283 64T295 78Q329 143 346 225T363 411Q363 418 374 426T392 435Q399
435 412 427T435 406T446 377Q446 315 413 232T318 55T176 -130Q138 -173 97 -209T19 -267T-50 -289Z" />
<glyph unicode="z" glyph-name="z" horiz-adv-x="450" d="M253 -33Q225 -33 201 -19T157 13Q138 28 123 40T93 53Q66 53 50 36T34 -5Q34 -15 29 -17T19 -20Q13 -20 7 -11T0 9Q-1 20 4 35T25 63L317 326L349 327Q336 313 317 306T282 298Q263 298 246 308T211 332Q194
343 177 352T142 362Q127 362 117 347T106 315Q106 305 109 295T118 276Q125 264 118 256Q110 249 94 243T72 236Q66 236 57 246T47 276Q47 308 62 329T105 373Q119 384 139 396T179 418T211 427Q231 427 248 421T286 408Q305 401 323 396T360 391Q375 391 384
395T405 411Q411 416 420 422T437 429Q442 429 447 425T452 415Q452 408 441 394T416 366L126 92L104 101Q117 113 129 120T154 127Q177 127 197 114T237 83Q256 68 274 55T311 41Q327 41 335 52T348 81T352 119Q352 138 354 148T365 159Q378 159 391 146T405 105Q405
85 388 61T345 16T294 -19T253 -33Z" />
<glyph unicode="{" glyph-name="braceleft" horiz-adv-x="377" d="M211 -153Q172 -153 136 -146T73 -122T37 -81T39 -20Q50 10 62 41T86 103T107 164Q120 206 108 230T63 269Q56 273 51 274T46 285Q47 293 54 296T74 303Q100 312 121 324T157 356T183 409Q196
453 204 495T225 581Q234 616 259 641T321 683T397 706T477 714Q486 714 491 709T494 695Q491 685 479 683T457 680Q408 680 373 659T323 586Q315 562 309 533T298 474T284 418Q268 367 223 331T119 283Q114 282 119 279Q168 268 193 232T202 143Q194 119 182 89T158
30T138 -25Q123 -76 143 -95T212 -120Q222 -121 231 -122T239 -135Q239 -144 230 -148T211 -153Z" />
<glyph unicode="|" glyph-name="bar" horiz-adv-x="270" d="M106 -289Q99 -289 94 -282T88 -267V658Q88 671 97 680T119 694T144 703T159 706Q167 706 173 700T180 686V-252Q180 -264 171 -271T149 -282T124 -287T106 -289Z" />
<glyph unicode="}" glyph-name="braceright" horiz-adv-x="377" d="M212 715Q251 715 287 708T350 684T386 643T384 582Q374 552 362 521T338 459T316 398Q303 356 315 332T360 293Q367 290 372 288T377 277Q377 269 369 266T349 259Q323 250 302 238T266 206T240
153Q227 110 219 68T198 -19Q189 -54 164 -79T102 -121T26 -144T-54 -152Q-62 -152 -67 -147T-71 -133Q-68 -123 -56 -121T-34 -118Q15 -118 50 -97T100 -24Q108 0 114 29T126 89T139 144Q155 195 200 231T303 279Q309 280 303 283Q255 294 231 330T221 419Q229
444 241 473T265 533T285 587Q300 638 280 657T211 682Q201 683 192 684T183 697Q184 706 194 710T212 715Z" />
<glyph unicode="~" glyph-name="asciitilde" horiz-adv-x="530" d="M98 256Q93 254 86 265T79 282Q82 292 95 310T129 348T172 381T217 395Q239 395 261 387T309 368Q329 361 352 355T400 348Q421 348 439 356T472 373Q485 381 493 388T508 395Q515 395 520 384T525
368Q523 360 510 342T477 305T434 271T387 257Q369 257 348 264T303 278Q278 287 252 295T202 303Q182 303 160 293T121 272T98 256Z" />
<glyph unicode="&#xa0;" glyph-name="uni00A0" horiz-adv-x="225" />
<glyph unicode="&#xa1;" glyph-name="exclamdown" horiz-adv-x="297" d="M178 293Q189 293 192 283T190 246Q180 195 170 146T151 54T134 -21T123 -70Q117 -96 104 -118T74 -155T35 -169Q19 -169 7 -155T-7 -116T3 -58Q7 -46 19 -16T51 56T92 148T138 246Q148
267 158 280T178 293ZM234 494Q258 494 274 477T290 438Q290 406 266 382T207 358Q180 358 165 377T149 417Q149 448 174 471T234 494Z" />
<glyph unicode="&#xa2;" glyph-name="cent" horiz-adv-x="419" d="M119 -81Q111 -81 107 -76T105 -63L127 -11Q75 4 46 44T17 143Q17 191 39 240T100 332T193 399T307 425L328 478Q332 488 342 493T362 498Q369 498 371 493T370 478L348 425Q372 424 397 414T439
390T454 359Q453 349 442 338T417 320T390 312Q381 312 374 315T364 326Q358 344 350 357T328 375L209 85Q214 84 219 84T231 83Q266 83 301 94T360 131Q368 139 375 139Q384 139 384 131T379 114Q339 55 289 23T168 -14L148 -63Q144 -71 135 -76T119 -81ZM170
94L289 382Q255 381 225 364T172 317T137 253T124 182Q124 153 136 129T170 94Z" />
<glyph unicode="&#xa3;" glyph-name="sterling" horiz-adv-x="581" d="M100 290Q94 289 89 294T83 304Q83 313 91 324T112 336L455 359Q462 359 467 354T471 343Q468 335 458 324T433 312L100 290ZM313 -37Q270 -37 240 -21T184 14Q160 33 140 48T95 64Q67 45
50 28T15 -7Q7 -15 -7 -13T-34 -1T-46 22Q-46 42 -25 63T30 100T100 116Q125 148 144 188T179 276T211 374Q237 453 279 510T379 598T507 629Q559 629 587 613T625 572T627 524T601 484T553 467Q544 467 541 470T538 480Q538 486 547 500T557 539Q557 560 544 576T505
592Q477 592 456 577T417 533T381 458T341 351Q324 306 301 263T247 185T174 128Q172 127 172 125T175 120Q214 120 239 107T285 78Q307 62 327 48T380 34Q411 34 436 52T462 103Q462 118 456 127T450 147Q450 164 461 172T486 181Q506 181 516 170T526 135Q526
107 512 77T471 21T404 -21T313 -37Z" />
<glyph unicode="&#xa4;" glyph-name="currency" horiz-adv-x="496" d="M208 64Q160 64 127 83T76 136T58 210Q58 257 79 303T138 386T225 446T332 469Q383 469 415 449T464 395T480 322Q480 278 462 233T408 149T322 88T208 64ZM27 57Q16 57 6 71T-3 95Q-2 100
5 106L79 162L112 115L38 60Q35 57 33 57T27 57ZM389 58Q382 58 376 66L330 130L375 164L423 99Q427 95 427 93T427 89Q427 77 414 67T389 58ZM226 120Q267 120 302 136T365 179T407 240T422 307Q422 351 394 382T315 413Q273 413 237 397T174 353T132 293T117
226Q117 182 145 151T226 120ZM164 368L111 440Q109 443 109 447Q109 457 123 468T149 477Q155 476 157 472L209 402L164 368ZM457 378L423 423L492 475Q495 477 498 477T504 478Q517 478 527 466T536 441Q535 435 531 432L457 378Z" />
<glyph unicode="&#xa5;" glyph-name="yen" horiz-adv-x="618" d="M116 -6Q104 -6 98 -2T94 9Q96 17 106 21T129 29Q169 36 191 56T223 109L248 188H136Q130 188 125 193T121 204Q123 212 132 222T153 233L261 232L267 251Q269 258 270 264T273 276H165Q159 276
155 281T151 291Q152 300 162 310T183 320H275Q274 327 273 332T270 343L209 555Q202 580 191 596T153 619Q142 622 136 627T133 640Q135 647 142 650T160 654Q195 654 228 652T300 649Q326 649 350 651T401 654Q411 654 418 651T424 640Q422 632 412 628T389 619Q357
612 343 597T336 551L373 379Q377 362 380 356T388 349Q393 349 399 355T418 376Q437 398 459 425T505 481T549 537Q576 571 575 592T540 619Q531 621 522 626T516 640Q518 647 527 650T548 653Q574 653 595 651T641 649Q670 649 694 652T743 655Q754 655 762 652T767
641Q764 632 755 628T733 621Q714 617 693 604T652 575T620 543Q573 490 529 440T448 350Q441 342 435 334T423 319H525Q532 319 536 314T538 303Q534 295 523 286T497 276H402L388 232L498 231Q505 231 509 226T510 215Q507 207 496 198T470 188H375L351 110Q340
73 350 56T394 29Q407 26 414 22T418 9Q417 3 408 -1T388 -5Q365 -5 343 -3T298 0T255 2Q234 2 211 1T164 -3T116 -6Z" />
<glyph unicode="&#xa6;" glyph-name="brokenbar" horiz-adv-x="272" d="M108 -290Q100 -290 95 -283T89 -268V138Q89 149 98 157T121 171T145 179T160 182Q168 182 174 175T181 158V-253Q181 -265 172 -272T150 -283T125 -288T108 -290ZM106 262Q99 262 94 270T88
288V658Q88 670 97 679T119 693T144 702T159 705Q167 705 173 699T180 685V298Q180 288 171 281T149 270T124 264T106 262Z" />
<glyph unicode="&#xa7;" glyph-name="section" horiz-adv-x="420" d="M37 -148Q10 -148 -7 -140T-25 -119Q-25 -106 -15 -90T10 -61T34 -48Q43 -49 52 -55T70 -69Q80 -76 92 -80T122 -85Q144 -85 161 -72T188 -37T198 7Q198 45 176 82T131 154Q108 189 91 222T73
292Q73 336 90 374T137 445T200 506Q220 540 250 571T317 621T388 640Q409 640 429 635T463 620T476 599Q476 590 464 575T437 548T413 536Q407 536 399 544T382 562Q373 571 362 578T338 586Q318 586 300 575T271 546T260 508Q260 476 280 442T328 372Q353 339
369 305T385 231Q385 166 352 103T266 -17Q232 -53 194 -83T116 -130T37 -148ZM266 59Q266 55 270 55T275 59Q287 81 296 102T307 146Q315 191 302 228T263 302Q249 324 234 347T209 394T196 442Q196 446 193 446T187 442Q169 419 159 393T148 332Q148 301 164
270T202 206Q216 184 231 159T256 109T266 59Z" />
<glyph unicode="&#xa8;" glyph-name="dieresis" horiz-adv-x="404" d="M389 500Q368 500 356 514T343 550Q343 572 354 590T384 618T425 629Q447 629 459 615T472 579Q472 547 448 524T389 500ZM200 500Q179 500 167 514T154 550Q154 572 165 590T195 618T235
629Q258 629 270 615T283 579Q283 547 259 524T200 500Z" />
<glyph unicode="&#xa9;" glyph-name="copyright" horiz-adv-x="675" d="M374 19Q310 19 255 43T157 109T91 207T67 327Q67 391 91 446T157 544T255 611T375 635Q439 635 494 611T592 545T659 447T683 327Q683 263 659 208T592 110T494 43T374 19ZM388 143Q335
143 290 167T218 233T191 324Q191 374 219 414T296 479T405 504Q429 504 455 499T499 485Q506 483 509 481T514 470Q517 452 517 435T517 401Q517 394 512 389T501 385Q496 385 492 389T485 400Q481 411 477 420T462 438Q452 447 437 453T399 460Q349 460 323 422T296
331Q296 291 307 258T341 206T401 186Q434 186 455 198T491 241Q495 249 500 252T511 255Q521 253 521 238Q521 223 518 209T508 179Q504 171 502 170T492 165Q474 157 447 150T388 143ZM374 63Q428 63 475 84T557 141T612 225T632 327Q632 380 612 427T557 509T475
564T375 585Q322 585 275 565T193 509T137 427T117 327Q117 273 137 226T192 142T273 84T374 63Z" />
<glyph unicode="&#xaa;" glyph-name="ordfeminine" horiz-adv-x="330" d="M39 160Q33 160 29 164T25 174Q25 181 35 191T55 201H268Q273 201 277 197T281 186Q281 177 268 169T243 160H39ZM126 278Q102 278 86 293T69 327Q69 360 88 376T141 404L219 429Q235 434
239 438T247 456L254 478Q259 496 255 506T235 516Q226 516 216 513T199 503Q193 498 193 489T190 473Q189 469 180 464T160 456T137 449T120 446Q114 446 114 452T116 464Q122 476 132 487T162 511Q177 520 198 529T241 545T283 552Q318 552 334 530T339 472L300
359Q295 344 297 333T309 322Q315 322 319 324T328 330Q332 333 335 333Q338 333 340 330T342 323Q342 318 335 312T322 301Q310 292 295 285T262 278Q244 278 235 284T221 298T214 315H211Q197 303 176 291T126 278ZM173 322Q181 322 188 325T201 331Q204 334
206 337T211 348L228 398Q231 405 227 407T218 407Q189 397 173 386T153 350Q151 340 157 331T173 322Z" />
<glyph unicode="&#xab;" glyph-name="guillemotleft" horiz-adv-x="621" d="M286 17Q276 17 268 25T255 36Q235 58 213 78T167 118T119 153T72 184Q62 190 57 194T52 204Q52 210 59 215T71 221Q127 247 178 275T278 333T372 395Q377 399 382 402T397 405Q407 405
405 396T394 378Q356 338 318 308T246 253T183 210Q175 205 175 203T180 194Q198 176 218 153T257 103T293 43Q297 34 294 26T286 17ZM497 17Q487 17 479 25T466 36Q446 58 424 78T378 118T330 153T283 184Q273 190 268 194T263 204Q263 210 270 215T282 221Q338
247 389 275T489 333T583 395Q588 399 593 402T608 405Q618 405 616 396T605 378Q567 338 529 308T457 253T394 210Q386 205 386 203T391 194Q409 176 429 153T468 103T504 43Q508 34 505 26T497 17Z" />
<glyph unicode="&#xac;" glyph-name="logicalnot" horiz-adv-x="600" d="M499 42Q495 42 491 47T486 60V301Q486 318 471 318H56Q50 318 45 322T39 332Q39 339 41 352T51 375T69 386H538Q546 386 549 381T553 368V72Q553 61 543 55T519 45T499 42Z" />
<glyph unicode="&#xad;" glyph-name="uni00AD" horiz-adv-x="304" d="M34 166Q28 165 25 169T22 179Q22 202 35 217T60 234Q113 242 169 249T276 262Q284 263 285 259T287 248Q287 239 282 227T268 206T250 194Q198 187 142 180T34 166Z" />
<glyph unicode="&#xae;" glyph-name="registered" horiz-adv-x="695" d="M384 19Q320 19 265 43T167 109T101 207T77 327Q77 391 101 446T167 544T265 611T385 635Q449 635 504 611T602 545T668 447T693 327Q693 263 669 208T602 110T504 43T384 19ZM384 63Q438
63 485 84T567 141T622 225T642 327Q642 380 622 427T567 509T485 564T385 585Q332 585 285 565T203 509T147 427T127 327Q127 273 147 226T202 142T283 84T384 63ZM514 171Q498 171 479 183T442 216T408 260T383 306Q381 312 375 315T359 319Q354 319 351 317T348
309L349 229Q349 213 359 207T386 197Q392 195 397 192T402 182Q402 178 398 174T388 170Q369 170 349 172T311 174Q299 174 288 173T266 171T240 170Q237 170 232 174T227 182Q227 188 231 191T242 197Q259 201 265 207T272 229V434Q272 450 270 456T262 466T245
472Q230 475 230 485Q230 495 245 494Q265 494 278 492T309 490Q330 490 347 492T391 494Q444 495 477 475T510 415Q510 382 491 364T448 335Q444 334 445 331T448 324Q462 289 483 263T526 222T561 208Q564 208 568 208T572 201Q572 188 557 180T514 171ZM370
351Q399 351 417 367T435 407Q435 434 420 447T378 461Q360 461 353 455T346 438V369Q346 358 353 355T370 351Z" />
<glyph unicode="&#xaf;" glyph-name="overscore" horiz-adv-x="337" d="M142 526Q134 526 132 529T129 540Q129 552 136 564T153 584T172 593H409Q426 593 426 581Q426 570 418 557T399 535T377 526H142Z" />
<glyph unicode="&#xb0;" glyph-name="degree" horiz-adv-x="328" d="M265 388Q225 388 194 408T144 460T125 529Q125 565 143 595T193 643T265 661Q304 661 335 644T384 596T403 530Q403 494 385 462T335 409T265 388ZM264 440Q297 440 320 464T344 524Q344 560
321 584T264 608Q231 608 207 584T183 524Q183 489 207 465T264 440Z" />
<glyph unicode="&#xb1;" glyph-name="plusminus" horiz-adv-x="595" d="M283 124Q279 124 275 128T271 139V345Q271 354 262 354H55Q49 354 44 358T39 367Q39 376 45 392T66 409H260Q267 409 269 412T271 421V591Q271 601 278 608T295 619T310 624Q317 624 321
618T325 605V420Q325 414 327 412T334 409H538Q545 409 551 405T556 394Q555 381 547 368T524 354H334Q325 354 325 345V150Q325 136 309 130T283 124ZM56 33Q50 33 45 38T39 47Q39 53 42 63T51 82T68 91H537Q545 91 551 86T558 75Q556 61 547 47T523 33H56Z" />
<glyph unicode="&#xb2;" glyph-name="uni00B2" horiz-adv-x="319" d="M327 438Q307 438 275 439T210 441Q192 441 171 441T131 439T104 438Q98 438 98 443Q98 449 105 455L184 521Q247 575 282 615T317 683Q317 700 305 710T273 721Q254 721 235 709T201 682Q197
677 194 674T186 671Q181 671 181 675T181 686Q189 709 211 729T263 763T324 776Q361 776 383 758T406 703Q406 673 386 650T341 604Q331 595 310 579T267 548T227 521T208 507Q206 505 209 504T217 503H301Q320 503 340 516T376 547Q378 551 383 554T394 558Q400
558 400 554T396 543Q382 522 371 504T353 472T341 451Q338 445 334 442T327 438Z" />
<glyph unicode="&#xb3;" glyph-name="uni00B3" horiz-adv-x="296" d="M172 435Q150 435 133 441T118 461Q120 471 129 484T145 497Q152 497 159 491T176 480Q182 475 191 471T209 466Q226 466 243 478T271 509T282 551Q282 569 272 585T242 602Q225 602 214 596T198
589Q193 589 190 592T188 601Q193 607 203 612T223 623T241 631Q280 648 299 664T318 699Q318 713 310 722T282 731Q264 731 248 723T216 703Q211 700 208 698T203 695Q199 695 197 700T196 708Q206 721 224 737T268 764T326 776Q359 775 377 759T396 716Q396 689
370 669T310 638Q308 637 307 636T309 634Q335 634 351 614T367 569Q367 542 349 518T300 475T236 446T172 435Z" />
<glyph unicode="&#xb4;" glyph-name="acute" horiz-adv-x="225" d="M154 472Q143 472 142 481T146 499L220 653Q227 669 235 677T252 685Q261 685 273 678T295 660T304 640Q304 633 299 624T284 604L181 488Q176 481 169 477T154 472Z" />
<glyph unicode="&#xb5;" glyph-name="uni03BC.1" horiz-adv-x="548" d="M13 -287Q-3 -287 -14 -277T-31 -251T-36 -220Q-36 -191 -29 -154T-10 -77T13 0Q18 13 30 40T49 92Q52 102 60 130T78 196T100 274T120 348T135 403Q139 414 148 420T169 427Q191 427 210
417T241 394T249 371Q248 359 237 337T209 285T171 222T131 154Q126 142 124 133T122 118Q122 101 135 85T170 70Q192 71 214 86T262 130T315 196Q334 249 351 296T393 399Q399 415 406 421T424 427Q439 427 458 419T491 398T504 374Q502 363 489 338T456 279T413
213T367 151Q358 123 374 105T423 86Q441 86 460 96T494 117T513 128Q517 128 520 125T522 118Q516 78 494 48T442 2T386 -15Q366 -15 351 -3T328 29T324 76Q325 86 328 97T337 118L334 119Q330 113 315 92T278 47T235 5T194 -13Q161 -13 145 7T113 52Q111 56 106
63T97 77T88 83Q82 83 77 75T66 52Q62 41 57 19T48 -28T44 -73Q44 -101 52 -126T74 -169Q83 -182 91 -191T99 -209Q99 -217 89 -230T65 -256T36 -278T13 -287Z" />
<glyph unicode="&#xb6;" glyph-name="paragraph" horiz-adv-x="602" d="M128 -287Q69 -287 32 -258T-6 -181Q-6 -137 13 -105T64 -56T134 -38Q166 -38 186 -53T206 -97Q206 -127 187 -145T139 -163Q127 -163 115 -158T94 -146Q86 -141 78 -136T62 -131Q51 -131
45 -143T38 -169Q38 -201 62 -222T127 -243Q187 -243 230 -207T294 -104L350 76Q353 84 351 89T342 95Q254 95 191 128T100 222T88 366Q102 455 140 510T240 595T383 636T568 647Q592 647 618 646T665 644T695 640Q703 639 705 632T705 616Q702 607 697 599T685
590Q682 590 671 591T644 595T612 598T582 600Q574 600 567 594T556 577L352 -87Q333 -148 304 -193T231 -263T128 -287ZM349 138Q353 138 357 141T363 152L501 583Q501 584 501 584T501 585Q501 590 496 591T485 593Q466 593 449 589T413 566T375 505T331 388Q293
269 293 210Q293 172 307 155T349 138Z" />
<glyph unicode="&#xb7;" glyph-name="middot" horiz-adv-x="237" d="M105 137Q81 137 64 155T47 197Q47 221 59 241T90 273T133 285Q162 285 177 265T193 221Q193 199 182 180T150 149T105 137Z" />
<glyph unicode="&#xb8;" glyph-name="cedilla" horiz-adv-x="225" d="M-38 -281Q-62 -281 -81 -272T-112 -249T-124 -220Q-124 -186 -98 -186Q-85 -186 -74 -193T-52 -209Q-39 -220 -29 -228T-4 -236Q6 -236 11 -230T17 -213Q17 -198 7 -188T-14 -166Q-25 -155
-36 -141T-47 -111Q-47 -94 -28 -71T19 -24T75 17H111Q70 -14 56 -35T41 -71Q41 -81 51 -92T73 -114Q86 -127 95 -138T104 -164Q104 -180 89 -199T52 -238T6 -269T-38 -281Z" />
<glyph unicode="&#xb9;" glyph-name="uni00B9" horiz-adv-x="250" d="M117 438Q113 438 111 441T110 448Q112 454 115 458T125 463Q147 467 158 472T176 498L232 684Q239 704 227 713T197 728Q188 731 190 739Q193 754 207 756Q245 760 277 764T331 777Q333 778
336 779T342 780Q351 780 347 770Q345 762 339 750T327 718L259 498Q254 480 258 475T286 463Q291 462 293 459T293 449Q292 445 289 442T280 438Q265 438 250 439T221 440T198 441Q185 441 163 440T117 438Z" />
<glyph unicode="&#xba;" glyph-name="ordmasculine" horiz-adv-x="356" d="M47 160Q42 160 38 165T34 174Q34 182 43 191T63 201H286Q292 201 296 198T300 187Q300 178 287 169T262 160H47ZM196 282Q138 282 110 316T91 409Q98 449 124 482T193 536T288 556Q346
556 373 523T391 436Q386 395 362 360T297 304T196 282ZM213 313Q230 313 244 324T270 354T288 392T299 431Q304 455 303 476T295 510T271 524Q255 524 240 513T213 483T193 445T183 405Q178 382 180 361T190 326T213 313Z" />
<glyph unicode="&#xbb;" glyph-name="guillemotright" horiz-adv-x="657" d="M356 405Q366 405 374 398T387 386Q407 363 429 343T475 304T523 269T570 238Q580 232 584 228T589 218Q589 212 582 208T571 201Q515 175 464 147T364 89T270 27Q265 23 260 20T245
17Q235 17 238 26T248 44Q286 84 324 114T396 169T459 212Q467 217 467 219T461 228Q444 247 424 269T385 320T349 379Q345 389 348 397T356 405ZM145 405Q155 405 163 398T176 386Q196 363 218 343T264 304T312 269T359 238Q369 232 373 228T378 218Q378 212 371
208T360 201Q304 175 253 147T153 89T59 27Q54 23 49 20T34 17Q24 17 27 26T37 44Q75 84 113 114T185 169T248 212Q256 217 256 219T250 228Q233 247 213 269T174 320T138 379Q134 389 137 397T145 405Z" />
<glyph unicode="&#xbc;" glyph-name="onequarter" horiz-adv-x="665" d="M68 278Q64 278 62 281T61 288Q63 294 66 298T76 303Q98 307 109 312T127 338L183 524Q190 544 178 553T148 568Q139 571 141 579Q144 594 158 596Q196 600 228 604T282 617Q284 618 287
619T293 620Q302 620 298 610Q296 602 290 590T278 558L210 338Q205 320 209 315T237 303Q242 302 244 299T244 289Q243 285 240 282T231 278Q216 278 201 279T172 280T149 281Q136 281 114 280T68 278ZM66 -24Q54 -24 49 -15T51 3L659 653Q668 663 679 666T703
670Q717 670 721 662T719 646L113 -2Q102 -14 91 -19T66 -24ZM467 -9Q456 -9 459 -1L484 80Q487 93 476 93Q440 93 406 92T330 90Q327 90 327 94T329 101Q374 142 423 185T521 268Q534 279 560 297T610 336Q617 341 623 345T632 349Q635 349 636 347T636 341L573
138Q571 133 577 133Q598 133 608 133T625 134Q630 134 630 128Q629 120 619 108T605 95Q599 95 589 95T570 95Q560 95 557 87L539 26Q537 20 527 14T504 3T481 -5T467 -9ZM409 134H494Q500 134 502 139L533 238Q534 240 533 240T530 239Q512 224 489 206T445 170T409
139Q406 134 409 134Z" />
<glyph unicode="&#xbd;" glyph-name="onehalf" horiz-adv-x="700" d="M68 278Q64 278 62 281T61 288Q63 294 66 298T76 303Q98 307 109 312T127 338L183 524Q190 544 178 553T148 568Q139 571 141 579Q144 594 158 596Q196 600 228 604T282 617Q284 618 287 619T293
620Q302 620 298 610Q296 602 290 590T278 558L210 338Q205 320 209 315T237 303Q242 302 244 299T244 289Q243 285 240 282T231 278Q216 278 201 279T172 280T149 281Q136 281 114 280T68 278ZM63 -24Q51 -24 46 -15T48 3L656 653Q665 663 676 666T700 670Q714
670 718 662T716 646L110 -2Q99 -14 88 -19T63 -24ZM568 -16Q548 -16 516 -15T451 -13Q433 -13 412 -13T372 -15T345 -16Q339 -16 339 -11Q339 -5 346 1L425 67Q488 121 523 161T558 229Q558 246 546 256T514 267Q495 267 476 255T442 228Q438 223 435 220T427
217Q422 217 422 221T422 232Q430 255 452 275T504 309T565 322Q602 322 624 304T647 249Q647 219 627 196T582 150Q572 141 551 125T508 94T468 67T449 53Q447 51 450 50T458 49H542Q561 49 581 62T617 93Q619 97 624 100T635 104Q641 104 641 100T637 89Q623
68 612 50T594 18T582 -3Q579 -9 575 -12T568 -16Z" />
<glyph unicode="&#xbe;" glyph-name="threequarters" horiz-adv-x="680" d="M122 275Q100 275 83 281T68 301Q70 311 79 324T95 337Q102 337 109 331T126 320Q132 315 141 311T159 306Q176 306 193 318T221 349T232 391Q232 409 222 425T192 442Q175 442 164 436T148
429Q143 429 140 432T138 441Q143 447 153 452T173 463T191 471Q230 488 249 504T268 539Q268 553 260 562T232 571Q214 571 198 563T166 543Q161 540 158 538T153 535Q149 535 147 540T146 548Q156 561 174 577T218 604T276 616Q309 615 327 599T346 556Q346 529
320 509T260 478Q258 477 257 476T259 474Q285 474 301 454T317 409Q317 382 299 358T250 315T186 286T122 275ZM86 -24Q74 -24 69 -15T71 3L679 653Q688 663 699 666T723 670Q737 670 741 662T739 646L133 -2Q122 -14 111 -19T86 -24ZM482 -9Q471 -9 474 -1L499
80Q502 93 491 93Q455 93 421 92T345 90Q342 90 342 94T344 101Q389 142 438 185T536 268Q549 279 575 297T625 336Q632 341 638 345T647 349Q650 349 651 347T651 341L588 138Q586 133 592 133Q613 133 623 133T640 134Q645 134 645 128Q644 120 634 108T620 95Q614
95 604 95T585 95Q575 95 572 87L554 26Q552 20 542 14T519 3T496 -5T482 -9ZM424 134H509Q515 134 517 139L548 238Q549 240 548 240T545 239Q527 224 504 206T460 170T424 139Q421 134 424 134Z" />
<glyph unicode="&#xbf;" glyph-name="questiondown" horiz-adv-x="364" d="M227 306Q232 306 244 293T267 260T277 219Q277 188 267 162T226 113T130 65Q83 48 53 23T23 -40Q23 -69 42 -87T99 -105Q113 -105 124 -99T145 -89Q154 -85 163 -81T180 -77Q195 -77
205 -86T214 -114Q214 -141 190 -159T130 -178Q90 -178 57 -155T4 -91T-16 3Q-16 34 -4 61T31 108T80 141L171 181Q200 195 209 207T219 240Q219 249 218 257T215 272Q213 280 211 286T208 297Q208 303 214 304T227 306ZM255 497Q276 497 291 481T306 443Q306 412
283 389T229 365Q204 365 190 383T176 422Q176 452 199 474T255 497Z" />
<glyph unicode="&#xc0;" glyph-name="Agrave" horiz-adv-x="717" d="M-41 -5Q-52 -5 -58 -2T-64 10Q-63 19 -55 24T-34 32Q-11 38 13 47T59 70T98 103Q167 180 229 253T353 400T476 549Q492 567 503 584T521 612T534 624Q557 624 575 629T608 646Q624 658 635
666T653 674Q662 674 663 660T661 623L560 117Q552 78 564 59T610 30Q623 26 631 23T639 10Q639 4 630 1T608 -3Q591 -3 566 -2T515 0T466 2Q447 2 423 1T375 -1T333 -2Q313 -2 313 12Q313 20 321 25T340 33Q368 39 385 46T412 67T428 104L459 224Q462 236 456
241T439 246L300 245Q288 245 280 241T266 228L186 123Q164 94 160 77T167 50T199 34Q208 31 216 26T224 12Q223 5 214 2T193 -2Q169 -2 144 -1T90 1Q60 1 24 -2T-41 -5ZM338 287H454Q464 287 468 291T476 306L523 525Q526 534 526 539T521 544Q519 544 515 542T506
535L325 307Q317 297 317 292T338 287ZM672 695Q669 695 663 696T648 702Q612 723 570 747T491 795Q476 806 474 815Q473 823 486 830T515 843T539 851Q558 854 570 840Q598 811 621 781T671 721Q681 712 681 703Q681 695 672 695Z" />
<glyph unicode="&#xc1;" glyph-name="Aacute" horiz-adv-x="717" d="M-41 -5Q-52 -5 -58 -2T-64 10Q-63 19 -55 24T-34 32Q-11 38 13 47T59 70T98 103Q167 180 229 253T353 400T476 549Q492 567 503 584T521 612T534 624Q557 624 575 629T608 646Q624 658 635
666T653 674Q662 674 663 660T661 623L560 117Q552 78 564 59T610 30Q623 26 631 23T639 10Q639 4 630 1T608 -3Q591 -3 566 -2T515 0T466 2Q447 2 423 1T375 -1T333 -2Q313 -2 313 12Q313 20 321 25T340 33Q368 39 385 46T412 67T428 104L459 224Q462 236 456
241T439 246L300 245Q288 245 280 241T266 228L186 123Q164 94 160 77T167 50T199 34Q208 31 216 26T224 12Q223 5 214 2T193 -2Q169 -2 144 -1T90 1Q60 1 24 -2T-41 -5ZM338 287H454Q464 287 468 291T476 306L523 525Q526 534 526 539T521 544Q519 544 515 542T506
535L325 307Q317 297 317 292T338 287ZM593 688Q584 688 583 695Q582 702 590 715Q611 749 632 780T679 844Q689 858 710 858Q717 858 734 855T765 845T779 830Q778 820 763 808Q729 781 690 752T616 698Q608 692 602 690T593 688Z" />
<glyph unicode="&#xc2;" glyph-name="Acircumflex" horiz-adv-x="717" d="M-41 -5Q-52 -5 -58 -2T-64 10Q-63 19 -55 24T-34 32Q-11 38 13 47T59 70T98 103Q167 180 229 253T353 400T476 549Q492 567 503 584T521 612T534 624Q557 624 575 629T608 646Q624 658
635 666T653 674Q662 674 663 660T661 623L560 117Q552 78 564 59T610 30Q623 26 631 23T639 10Q639 4 630 1T608 -3Q591 -3 566 -2T515 0T466 2Q447 2 423 1T375 -1T333 -2Q313 -2 313 12Q313 20 321 25T340 33Q368 39 385 46T412 67T428 104L459 224Q462 236
456 241T439 246L300 245Q288 245 280 241T266 228L186 123Q164 94 160 77T167 50T199 34Q208 31 216 26T224 12Q223 5 214 2T193 -2Q169 -2 144 -1T90 1Q60 1 24 -2T-41 -5ZM338 287H454Q464 287 468 291T476 306L523 525Q526 534 526 539T521 544Q519 544 515
542T506 535L325 307Q317 297 317 292T338 287ZM495 694Q477 694 479 705Q481 713 490 720L619 809Q640 824 651 830T673 836Q686 836 695 829T714 809L789 720Q793 716 793 713T794 705Q792 693 776 693Q768 693 748 702T705 724T669 745Q657 752 643 745Q631
739 610 731T566 714T523 700T495 694Z" />
<glyph unicode="&#xc3;" glyph-name="Atilde" horiz-adv-x="717" d="M-41 -5Q-52 -5 -58 -2T-64 10Q-63 19 -55 24T-34 32Q-11 38 13 47T59 70T98 103Q167 180 229 253T353 400T476 549Q492 567 503 584T521 612T534 624Q557 624 575 629T608 646Q624 658 635
666T653 674Q662 674 663 660T661 623L560 117Q552 78 564 59T610 30Q623 26 631 23T639 10Q639 4 630 1T608 -3Q591 -3 566 -2T515 0T466 2Q447 2 423 1T375 -1T333 -2Q313 -2 313 12Q313 20 321 25T340 33Q368 39 385 46T412 67T428 104L459 224Q462 236 456
241T439 246L300 245Q288 245 280 241T266 228L186 123Q164 94 160 77T167 50T199 34Q208 31 216 26T224 12Q223 5 214 2T193 -2Q169 -2 144 -1T90 1Q60 1 24 -2T-41 -5ZM338 287H454Q464 287 468 291T476 306L523 525Q526 534 526 539T521 544Q519 544 515 542T506
535L325 307Q317 297 317 292T338 287ZM511 691Q506 691 500 697T493 707Q493 713 502 727T524 759T551 789T572 802Q590 802 611 801T650 799Q668 798 688 797T727 795Q738 795 747 801T764 815Q772 823 776 829T784 836Q791 836 798 830T805 818Q805 814 801
808T789 793Q778 779 767 763T747 734Q741 726 732 723T717 720Q709 720 689 721T642 725T594 728T561 730Q554 730 546 725T531 713Q523 706 518 699T511 691Z" />
<glyph unicode="&#xc4;" glyph-name="Adieresis" horiz-adv-x="717" d="M-41 -5Q-52 -5 -58 -2T-64 10Q-63 19 -55 24T-34 32Q-11 38 13 47T59 70T98 103Q167 180 229 253T353 400T476 549Q492 567 503 584T521 612T534 624Q557 624 575 629T608 646Q624 658 635
666T653 674Q662 674 663 660T661 623L560 117Q552 78 564 59T610 30Q623 26 631 23T639 10Q639 4 630 1T608 -3Q591 -3 566 -2T515 0T466 2Q447 2 423 1T375 -1T333 -2Q313 -2 313 12Q313 20 321 25T340 33Q368 39 385 46T412 67T428 104L459 224Q462 236 456
241T439 246L300 245Q288 245 280 241T266 228L186 123Q164 94 160 77T167 50T199 34Q208 31 216 26T224 12Q223 5 214 2T193 -2Q169 -2 144 -1T90 1Q60 1 24 -2T-41 -5ZM338 287H454Q464 287 468 291T476 306L523 525Q526 534 526 539T521 544Q519 544 515 542T506
535L325 307Q317 297 317 292T338 287ZM736 692Q714 692 699 707T684 743Q684 774 707 797T766 821Q788 821 802 805T817 766Q817 746 806 730T776 703T736 692ZM537 692Q514 692 500 707T485 743Q485 775 508 798T566 821Q589 821 603 805T617 766Q617 737 593
715T537 692Z" />
<glyph unicode="&#xc5;" glyph-name="Aring" horiz-adv-x="717" d="M-41 -5Q-52 -5 -58 -2T-64 10Q-63 19 -55 24T-34 32Q-11 38 13 47T59 70T98 103Q167 180 229 253T353 400T476 549Q492 567 503 584T521 612T534 624Q557 624 575 629T608 646Q624 658 635 666T653
674Q662 674 663 660T661 623L560 117Q552 78 564 59T610 30Q623 26 631 23T639 10Q639 4 630 1T608 -3Q591 -3 566 -2T515 0T466 2Q447 2 423 1T375 -1T333 -2Q313 -2 313 12Q313 20 321 25T340 33Q368 39 385 46T412 67T428 104L459 224Q462 236 456 241T439
246L300 245Q288 245 280 241T266 228L186 123Q164 94 160 77T167 50T199 34Q208 31 216 26T224 12Q223 5 214 2T193 -2Q169 -2 144 -1T90 1Q60 1 24 -2T-41 -5ZM338 287H454Q464 287 468 291T476 306L523 525Q526 534 526 539T521 544Q519 544 515 542T506 535L325
307Q317 297 317 292T338 287ZM634 697Q602 697 575 713T548 757Q548 802 583 830T668 858Q689 858 709 851T742 829T755 795Q755 750 720 724T634 697ZM645 725Q672 725 685 745T699 790Q699 806 687 816T659 827Q633 827 618 807T603 762Q603 746 615 736T645
725Z" />
<glyph unicode="&#xc6;" glyph-name="AE" horiz-adv-x="862" d="M-42 -5Q-54 -5 -60 -2T-65 9Q-62 18 -54 22T-32 31Q-2 40 29 61T84 111L510 596Q515 602 513 606T502 612L443 623Q426 626 426 638Q426 645 433 649T451 653Q472 653 502 652T565 650T622 649Q654
649 691 649T764 649Q813 649 844 652T894 659T925 662Q931 662 937 659T941 645Q939 617 933 582T919 522Q916 511 911 507T900 502Q895 502 892 505T889 516Q888 539 886 557T877 585Q870 598 855 606T816 615H719Q699 615 687 602T670 573Q660 545 648 509T626
436T607 372Q603 355 606 348T620 341Q646 341 667 341T709 342Q730 343 744 355T771 385Q779 393 785 399T796 411Q801 414 805 413T809 406Q806 394 804 381T795 353Q784 325 779 298T765 241Q762 230 758 224T749 218Q741 218 737 226T733 242Q734 269 725 285T701
301Q676 301 653 301T606 302Q595 302 588 295T575 271Q563 231 551 189T527 103Q518 74 526 57T561 40H653Q677 40 697 46T736 65Q754 78 769 97T799 137Q805 144 810 147T821 151Q827 151 829 146T830 135Q823 114 812 92T790 48T767 10Q763 3 757 0T743 -4Q723
-4 686 -4T604 -2T513 -1T429 0Q408 0 387 -1T344 -3T300 -5Q290 -5 285 -1T282 9Q286 22 312 28Q349 37 368 50T398 97Q409 135 422 178T445 255Q447 261 446 267T432 273H303Q294 273 287 268T270 253Q253 231 234 207T196 158T160 110Q141 85 141 70T155 47T190
32Q202 29 207 24T209 11Q208 5 201 2T182 -2Q158 -2 131 -1T75 1Q45 1 16 -2T-42 -5ZM344 314H448Q458 314 461 317T467 328L533 553Q534 557 534 560T531 564Q527 564 521 556L335 330Q327 320 330 317T344 314Z" />
<glyph unicode="&#xc7;" glyph-name="Ccedilla" horiz-adv-x="654" d="M321 -14Q273 -14 227 5T145 59T88 142T66 247Q66 337 100 413T195 545T333 633T500 664Q532 664 559 659T610 645Q629 639 641 635T665 631Q671 631 676 632T689 637Q696 641 703 644T716
647Q725 647 726 641T723 626Q711 610 697 582T670 523T651 468Q649 459 644 453T630 446Q620 446 617 458T614 486Q617 509 613 532T594 575Q578 599 553 614T498 630Q449 630 404 606T322 539T257 441T214 325T198 201Q198 153 210 120T244 64T294 32T355 22Q399
22 434 39T499 87T556 157Q563 167 568 174T581 181Q588 181 591 174T593 157Q589 140 579 112T556 57T532 10T514 -9Q506 -9 501 -6T491 2Q486 6 479 8T460 11Q450 11 438 8T410 -1Q394 -5 372 -9T321 -14ZM245 -281Q221 -281 202 -272T171 -249T159 -220Q159
-186 185 -186Q198 -186 209 -193T231 -209Q244 -220 254 -228T279 -236Q289 -236 294 -230T300 -213Q300 -198 290 -188T269 -166Q258 -155 247 -141T236 -111Q236 -94 255 -71T302 -24T358 17H394Q353 -14 339 -35T324 -71Q324 -81 334 -92T356 -114Q369 -127
378 -138T387 -164Q387 -180 372 -199T335 -238T289 -269T245 -281Z" />
<glyph unicode="&#xc8;" glyph-name="Egrave" horiz-adv-x="574" d="M-28 -5Q-39 -5 -43 -1T-47 9Q-45 22 -16 28Q26 38 45 51T74 97L213 550Q225 587 215 600T167 621Q154 624 149 629T146 640Q147 647 156 650T184 654Q195 654 216 653T262 651T307 649L471
650Q520 650 547 653T588 659T607 662Q613 662 617 657T622 644Q622 634 616 614T603 570T595 521Q594 511 589 506T578 501Q574 501 570 506T564 522Q562 574 550 596T498 618H405Q381 618 367 606T343 559L289 379Q284 364 288 358T306 352L408 354Q434 354 451
368T483 404Q489 413 497 420T513 428Q519 428 520 421T517 403Q508 383 501 365T488 330Q482 312 478 293T468 251Q465 240 461 234T451 227Q444 227 440 235T436 252Q437 283 429 299T402 315L297 316Q284 316 274 311T260 289L209 112Q197 69 207 51T254 33H364Q386
33 406 40T444 59Q463 72 479 94T511 142Q516 149 519 153T529 157Q535 157 537 151T539 135Q539 125 531 102T512 54T489 12Q484 3 477 0T459 -4Q438 -4 406 -4T336 -3T257 -2T177 -1T105 0Q84 0 61 -1T16 -3T-28 -5ZM454 695Q451 695 445 696T430 702Q394 723
352 747T273 795Q258 806 256 815Q255 823 268 830T297 843T321 851Q340 854 352 840Q380 811 403 781T453 721Q463 712 463 703Q463 695 454 695Z" />
<glyph unicode="&#xc9;" glyph-name="Eacute" horiz-adv-x="574" d="M-28 -5Q-39 -5 -43 -1T-47 9Q-45 22 -16 28Q26 38 45 51T74 97L213 550Q225 587 215 600T167 621Q154 624 149 629T146 640Q147 647 156 650T184 654Q195 654 216 653T262 651T307 649L471
650Q520 650 547 653T588 659T607 662Q613 662 617 657T622 644Q622 634 616 614T603 570T595 521Q594 511 589 506T578 501Q574 501 570 506T564 522Q562 574 550 596T498 618H405Q381 618 367 606T343 559L289 379Q284 364 288 358T306 352L408 354Q434 354 451
368T483 404Q489 413 497 420T513 428Q519 428 520 421T517 403Q508 383 501 365T488 330Q482 312 478 293T468 251Q465 240 461 234T451 227Q444 227 440 235T436 252Q437 283 429 299T402 315L297 316Q284 316 274 311T260 289L209 112Q197 69 207 51T254 33H364Q386
33 406 40T444 59Q463 72 479 94T511 142Q516 149 519 153T529 157Q535 157 537 151T539 135Q539 125 531 102T512 54T489 12Q484 3 477 0T459 -4Q438 -4 406 -4T336 -3T257 -2T177 -1T105 0Q84 0 61 -1T16 -3T-28 -5ZM375 688Q366 688 365 695Q364 702 372 715Q393
749 414 780T461 844Q471 858 492 858Q499 858 516 855T547 845T561 830Q560 820 545 808Q511 781 472 752T398 698Q390 692 384 690T375 688Z" />
<glyph unicode="&#xca;" glyph-name="Ecircumflex" horiz-adv-x="574" d="M-28 -5Q-39 -5 -43 -1T-47 9Q-45 22 -16 28Q26 38 45 51T74 97L213 550Q225 587 215 600T167 621Q154 624 149 629T146 640Q147 647 156 650T184 654Q195 654 216 653T262 651T307 649L471
650Q520 650 547 653T588 659T607 662Q613 662 617 657T622 644Q622 634 616 614T603 570T595 521Q594 511 589 506T578 501Q574 501 570 506T564 522Q562 574 550 596T498 618H405Q381 618 367 606T343 559L289 379Q284 364 288 358T306 352L408 354Q434 354 451
368T483 404Q489 413 497 420T513 428Q519 428 520 421T517 403Q508 383 501 365T488 330Q482 312 478 293T468 251Q465 240 461 234T451 227Q444 227 440 235T436 252Q437 283 429 299T402 315L297 316Q284 316 274 311T260 289L209 112Q197 69 207 51T254 33H364Q386
33 406 40T444 59Q463 72 479 94T511 142Q516 149 519 153T529 157Q535 157 537 151T539 135Q539 125 531 102T512 54T489 12Q484 3 477 0T459 -4Q438 -4 406 -4T336 -3T257 -2T177 -1T105 0Q84 0 61 -1T16 -3T-28 -5ZM277 694Q259 694 261 705Q263 713 272 720L401
809Q422 824 433 830T455 836Q468 836 477 829T496 809L571 720Q575 716 575 713T576 705Q574 693 558 693Q550 693 530 702T487 724T451 745Q439 752 425 745Q413 739 392 731T348 714T305 700T277 694Z" />
<glyph unicode="&#xcb;" glyph-name="Edieresis" horiz-adv-x="574" d="M-28 -5Q-39 -5 -43 -1T-47 9Q-45 22 -16 28Q26 38 45 51T74 97L213 550Q225 587 215 600T167 621Q154 624 149 629T146 640Q147 647 156 650T184 654Q195 654 216 653T262 651T307 649L471
650Q520 650 547 653T588 659T607 662Q613 662 617 657T622 644Q622 634 616 614T603 570T595 521Q594 511 589 506T578 501Q574 501 570 506T564 522Q562 574 550 596T498 618H405Q381 618 367 606T343 559L289 379Q284 364 288 358T306 352L408 354Q434 354 451
368T483 404Q489 413 497 420T513 428Q519 428 520 421T517 403Q508 383 501 365T488 330Q482 312 478 293T468 251Q465 240 461 234T451 227Q444 227 440 235T436 252Q437 283 429 299T402 315L297 316Q284 316 274 311T260 289L209 112Q197 69 207 51T254 33H364Q386
33 406 40T444 59Q463 72 479 94T511 142Q516 149 519 153T529 157Q535 157 537 151T539 135Q539 125 531 102T512 54T489 12Q484 3 477 0T459 -4Q438 -4 406 -4T336 -3T257 -2T177 -1T105 0Q84 0 61 -1T16 -3T-28 -5ZM519 692Q497 692 482 707T467 743Q467 774
490 797T549 821Q571 821 585 805T600 766Q600 746 589 730T559 703T519 692ZM320 692Q297 692 283 707T268 743Q268 775 291 798T349 821Q372 821 386 805T400 766Q400 737 376 715T320 692Z" />
<glyph unicode="&#xcc;" glyph-name="Igrave" horiz-adv-x="372" d="M-16 -4Q-25 -4 -30 -1T-34 9Q-31 24 -4 29Q35 38 55 51T86 97L226 551Q236 584 227 597T182 620Q171 622 167 627T165 641Q166 647 174 650T191 654Q214 654 236 653T279 651T321 650Q341 650
362 651T407 653T453 654Q473 654 470 640Q468 632 461 628T439 620Q412 614 395 606T368 585T352 550L221 122Q211 90 211 72T222 46T256 32Q276 28 281 23T286 10Q285 3 278 0T261 -3Q238 -3 214 -2T166 0T121 1Q89 1 54 -1T-16 -4ZM372 695Q369 695 363 696T348
702Q312 723 270 747T191 795Q176 806 174 815Q173 823 186 830T215 843T239 851Q258 854 270 840Q298 811 321 781T371 721Q381 712 381 703Q381 695 372 695Z" />
<glyph unicode="&#xcd;" glyph-name="Iacute" horiz-adv-x="372" d="M-16 -4Q-25 -4 -30 -1T-34 9Q-31 24 -4 29Q35 38 55 51T86 97L226 551Q236 584 227 597T182 620Q171 622 167 627T165 641Q166 647 174 650T191 654Q214 654 236 653T279 651T321 650Q341 650
362 651T407 653T453 654Q473 654 470 640Q468 632 461 628T439 620Q412 614 395 606T368 585T352 550L221 122Q211 90 211 72T222 46T256 32Q276 28 281 23T286 10Q285 3 278 0T261 -3Q238 -3 214 -2T166 0T121 1Q89 1 54 -1T-16 -4ZM293 688Q284 688 283 695Q282
702 290 715Q311 749 332 780T379 844Q389 858 410 858Q417 858 434 855T465 845T479 830Q478 820 463 808Q429 781 390 752T316 698Q308 692 302 690T293 688Z" />
<glyph unicode="&#xce;" glyph-name="Icircumflex" horiz-adv-x="372" d="M-16 -4Q-25 -4 -30 -1T-34 9Q-31 24 -4 29Q35 38 55 51T86 97L226 551Q236 584 227 597T182 620Q171 622 167 627T165 641Q166 647 174 650T191 654Q214 654 236 653T279 651T321 650Q341
650 362 651T407 653T453 654Q473 654 470 640Q468 632 461 628T439 620Q412 614 395 606T368 585T352 550L221 122Q211 90 211 72T222 46T256 32Q276 28 281 23T286 10Q285 3 278 0T261 -3Q238 -3 214 -2T166 0T121 1Q89 1 54 -1T-16 -4ZM195 694Q177 694 179
705Q181 713 190 720L319 809Q340 824 351 830T373 836Q386 836 395 829T414 809L489 720Q493 716 493 713T494 705Q492 693 476 693Q468 693 448 702T405 724T369 745Q357 752 343 745Q331 739 310 731T266 714T223 700T195 694Z" />
<glyph unicode="&#xcf;" glyph-name="Idieresis" horiz-adv-x="372" d="M-16 -4Q-25 -4 -30 -1T-34 9Q-31 24 -4 29Q35 38 55 51T86 97L226 551Q236 584 227 597T182 620Q171 622 167 627T165 641Q166 647 174 650T191 654Q214 654 236 653T279 651T321 650Q341
650 362 651T407 653T453 654Q473 654 470 640Q468 632 461 628T439 620Q412 614 395 606T368 585T352 550L221 122Q211 90 211 72T222 46T256 32Q276 28 281 23T286 10Q285 3 278 0T261 -3Q238 -3 214 -2T166 0T121 1Q89 1 54 -1T-16 -4ZM436 692Q414 692 399
707T384 743Q384 774 407 797T466 821Q488 821 502 805T517 766Q517 746 506 730T476 703T436 692ZM237 692Q214 692 200 707T185 743Q185 775 208 798T266 821Q289 821 303 805T317 766Q317 737 293 715T237 692Z" />
<glyph unicode="&#xd0;" glyph-name="Eth" horiz-adv-x="739" d="M78 310Q68 310 67 319T67 335Q70 346 80 353T100 360H417Q425 360 429 355T430 343Q422 328 409 319T383 310H78ZM309 -7Q283 -7 246 -5T174 0T114 2Q95 2 74 1T29 -2T-17 -4Q-26 -4 -31 -1T-35
9Q-32 26 -5 29Q24 33 40 40T66 62T83 98L228 555Q235 579 228 590T204 608T163 620Q152 622 148 627T146 641Q147 647 155 650T172 654Q208 654 246 652T315 650Q335 650 353 651T392 653T444 654Q538 654 604 620T707 524T743 381Q743 304 711 234T619 110T481
25T309 -7ZM311 27Q372 27 426 59T521 144T585 264T609 399Q609 477 588 525T529 595T438 618Q408 618 393 614T370 599T357 572L221 129Q210 91 220 69T255 37T311 27Z" />
<glyph unicode="&#xd1;" glyph-name="Ntilde" horiz-adv-x="778" d="M9 -4Q0 -4 -6 -1T-12 9Q-10 17 -3 21T18 29Q56 38 76 57T106 106L251 517Q264 551 262 573T240 607T181 622Q166 624 158 629T149 643Q149 651 159 654T178 658Q202 658 231 657T290 655T345
653Q356 653 364 648T376 633L585 179Q587 175 591 170T599 164Q605 164 612 180Q615 189 622 210T638 262T658 327T678 397T695 462T707 514Q719 567 700 589T629 621Q608 624 609 637Q609 644 618 647T638 651Q672 651 700 649T749 646Q769 646 786 647T823 650T869
652Q890 652 890 639Q890 632 879 627T854 620Q830 617 814 609T787 582T763 528Q758 514 749 487T729 423T704 346T678 267T655 194T637 138Q630 113 631 100T642 68Q648 57 655 49T670 34Q678 27 683 23T689 11Q689 4 685 2T673 0Q649 0 632 -1T602 -4T574 -7Q550
-7 538 3T515 38Q503 64 486 103T450 189T410 284T371 375T338 450T314 499Q310 505 306 510T298 515Q294 515 289 508T280 490Q269 455 253 408T219 307T187 201T162 105Q154 72 167 56T221 29Q233 27 240 23T245 10Q244 3 235 0T216 -3Q190 -3 175 -2T147 0T119
1Q97 1 76 0T38 -2T9 -4ZM414 691Q409 691 403 697T396 707Q396 713 405 727T427 759T454 789T475 802Q493 802 514 801T553 799Q571 798 591 797T630 795Q641 795 650 801T667 815Q675 823 679 829T687 836Q694 836 701 830T708 818Q708 814 704 808T692 793Q681
779 670 763T650 734Q644 726 635 723T620 720Q612 720 592 721T545 725T497 728T464 730Q457 730 449 725T434 713Q426 706 421 699T414 691Z" />
<glyph unicode="&#xd2;" glyph-name="Ograve" horiz-adv-x="693" d="M297 -14Q225 -14 173 19T93 111T64 242Q64 320 93 395T177 531T305 628T469 664Q541 664 593 631T674 539T702 408Q702 330 673 255T589 119T461 22T297 -14ZM298 21Q345 21 387 49T465 125T527
231T567 348T581 460Q581 505 570 544T533 607T467 632Q421 632 379 604T302 527T241 421T200 302T185 189Q185 145 196 107T233 45T298 21ZM539 695Q536 695 530 696T515 702Q479 723 437 747T358 795Q343 806 341 815Q340 823 353 830T382 843T406 851Q425 854
437 840Q465 811 488 781T538 721Q548 712 548 703Q548 695 539 695Z" />
<glyph unicode="&#xd3;" glyph-name="Oacute" horiz-adv-x="693" d="M297 -14Q225 -14 173 19T93 111T64 242Q64 320 93 395T177 531T305 628T469 664Q541 664 593 631T674 539T702 408Q702 330 673 255T589 119T461 22T297 -14ZM298 21Q345 21 387 49T465 125T527
231T567 348T581 460Q581 505 570 544T533 607T467 632Q421 632 379 604T302 527T241 421T200 302T185 189Q185 145 196 107T233 45T298 21ZM460 688Q451 688 450 695Q449 702 457 715Q478 749 499 780T546 844Q556 858 577 858Q584 858 601 855T632 845T646 830Q645
820 630 808Q596 781 557 752T483 698Q475 692 469 690T460 688Z" />
<glyph unicode="&#xd4;" glyph-name="Ocircumflex" horiz-adv-x="693" d="M297 -14Q225 -14 173 19T93 111T64 242Q64 320 93 395T177 531T305 628T469 664Q541 664 593 631T674 539T702 408Q702 330 673 255T589 119T461 22T297 -14ZM298 21Q345 21 387 49T465
125T527 231T567 348T581 460Q581 505 570 544T533 607T467 632Q421 632 379 604T302 527T241 421T200 302T185 189Q185 145 196 107T233 45T298 21ZM362 694Q344 694 346 705Q348 713 357 720L486 809Q507 824 518 830T540 836Q553 836 562 829T581 809L656 720Q660
716 660 713T661 705Q659 693 643 693Q635 693 615 702T572 724T536 745Q524 752 510 745Q498 739 477 731T433 714T390 700T362 694Z" />
<glyph unicode="&#xd5;" glyph-name="Otilde" horiz-adv-x="693" d="M297 -14Q225 -14 173 19T93 111T64 242Q64 320 93 395T177 531T305 628T469 664Q541 664 593 631T674 539T702 408Q702 330 673 255T589 119T461 22T297 -14ZM298 21Q345 21 387 49T465 125T527
231T567 348T581 460Q581 505 570 544T533 607T467 632Q421 632 379 604T302 527T241 421T200 302T185 189Q185 145 196 107T233 45T298 21ZM377 691Q372 691 366 697T359 707Q359 713 368 727T390 759T417 789T438 802Q456 802 477 801T516 799Q534 798 554 797T593
795Q604 795 613 801T630 815Q638 823 642 829T650 836Q657 836 664 830T671 818Q671 814 667 808T655 793Q644 779 633 763T613 734Q607 726 598 723T583 720Q575 720 555 721T508 725T460 728T427 730Q420 730 412 725T397 713Q389 706 384 699T377 691Z" />
<glyph unicode="&#xd6;" glyph-name="Odieresis" horiz-adv-x="693" d="M297 -14Q225 -14 173 19T93 111T64 242Q64 320 93 395T177 531T305 628T469 664Q541 664 593 631T674 539T702 408Q702 330 673 255T589 119T461 22T297 -14ZM298 21Q345 21 387 49T465
125T527 231T567 348T581 460Q581 505 570 544T533 607T467 632Q421 632 379 604T302 527T241 421T200 302T185 189Q185 145 196 107T233 45T298 21ZM603 692Q581 692 566 707T551 743Q551 774 574 797T633 821Q655 821 669 805T684 766Q684 746 673 730T643 703T603
692ZM404 692Q381 692 367 707T352 743Q352 775 375 798T433 821Q456 821 470 805T484 766Q484 737 460 715T404 692Z" />
<glyph unicode="&#xd7;" glyph-name="multiply" horiz-adv-x="582" d="M463 51Q455 51 448 58L303 203Q297 209 289 202L151 63Q147 59 142 58T133 58Q127 60 119 73T110 100Q110 110 115 115L245 245Q250 249 250 252T245 260L118 388Q113 393 113 402Q113 414
120 426T131 443Q135 447 141 447T152 442L290 303Q294 299 296 299T303 302L445 445Q451 450 457 450Q463 450 466 446Q472 439 478 428T485 405Q485 397 478 391L346 258Q340 252 346 246L484 109Q490 103 490 93Q490 82 482 67T463 51Z" />
<glyph unicode="&#xd8;" glyph-name="Oslash" horiz-adv-x="701" d="M58 -14Q44 -14 33 -4T21 17Q21 35 38 49L126 122L171 155L595 555L627 576L713 651Q720 657 727 661T740 665Q751 665 758 657T765 638Q765 615 747 598L664 525L611 486L189 85L154 60L84
1Q78 -4 71 -9T58 -14ZM297 -14Q225 -14 173 19T93 111T64 242Q64 320 93 395T177 531T305 628T469 664Q541 664 593 631T674 539T702 408Q702 330 673 255T589 119T461 22T297 -14ZM298 21Q345 21 387 49T465 125T527 231T567 348T581 460Q581 505 570 544T533
607T467 632Q421 632 379 604T302 527T241 421T200 302T185 189Q185 145 196 107T233 45T298 21Z" />
<glyph unicode="&#xd9;" glyph-name="Ugrave" horiz-adv-x="708" d="M310 -14Q251 -14 206 4T132 56T98 140T111 254L199 541Q209 571 202 592T175 619Q148 627 150 641Q152 647 162 650T185 654Q212 654 241 652T299 650Q325 650 357 651T414 653Q440 653 436
640Q434 630 420 626T387 614Q370 608 353 589T324 532L232 237Q214 177 226 135T272 71T350 49Q411 49 457 79T535 158T585 264Q599 306 611 344T632 412T646 458Q663 518 664 549T655 595T627 618Q617 622 605 626T595 639Q596 647 605 650T628 653Q648 653 665
653T697 652T729 651Q746 651 759 651T784 653T812 654Q824 654 830 652T834 641Q831 628 799 620Q778 615 764 606T739 577T713 521Q690 456 670 391T625 256Q599 176 559 115T458 20T310 -14ZM568 695Q565 695 559 696T544 702Q508 723 466 747T387 795Q372 806
370 815Q369 823 382 830T411 843T435 851Q454 854 466 840Q494 811 517 781T567 721Q577 712 577 703Q577 695 568 695Z" />
<glyph unicode="&#xda;" glyph-name="Uacute" horiz-adv-x="708" d="M310 -14Q251 -14 206 4T132 56T98 140T111 254L199 541Q209 571 202 592T175 619Q148 627 150 641Q152 647 162 650T185 654Q212 654 241 652T299 650Q325 650 357 651T414 653Q440 653 436
640Q434 630 420 626T387 614Q370 608 353 589T324 532L232 237Q214 177 226 135T272 71T350 49Q411 49 457 79T535 158T585 264Q599 306 611 344T632 412T646 458Q663 518 664 549T655 595T627 618Q617 622 605 626T595 639Q596 647 605 650T628 653Q648 653 665
653T697 652T729 651Q746 651 759 651T784 653T812 654Q824 654 830 652T834 641Q831 628 799 620Q778 615 764 606T739 577T713 521Q690 456 670 391T625 256Q599 176 559 115T458 20T310 -14ZM490 688Q481 688 480 695Q479 702 487 715Q508 749 529 780T576 844Q586
858 607 858Q614 858 631 855T662 845T676 830Q675 820 660 808Q626 781 587 752T513 698Q505 692 499 690T490 688Z" />
<glyph unicode="&#xdb;" glyph-name="Ucircumflex" horiz-adv-x="708" d="M310 -14Q251 -14 206 4T132 56T98 140T111 254L199 541Q209 571 202 592T175 619Q148 627 150 641Q152 647 162 650T185 654Q212 654 241 652T299 650Q325 650 357 651T414 653Q440 653
436 640Q434 630 420 626T387 614Q370 608 353 589T324 532L232 237Q214 177 226 135T272 71T350 49Q411 49 457 79T535 158T585 264Q599 306 611 344T632 412T646 458Q663 518 664 549T655 595T627 618Q617 622 605 626T595 639Q596 647 605 650T628 653Q648 653
665 653T697 652T729 651Q746 651 759 651T784 653T812 654Q824 654 830 652T834 641Q831 628 799 620Q778 615 764 606T739 577T713 521Q690 456 670 391T625 256Q599 176 559 115T458 20T310 -14ZM392 694Q374 694 376 705Q378 713 387 720L516 809Q537 824 548
830T570 836Q583 836 592 829T611 809L686 720Q690 716 690 713T691 705Q689 693 673 693Q665 693 645 702T602 724T566 745Q554 752 540 745Q528 739 507 731T463 714T420 700T392 694Z" />
<glyph unicode="&#xdc;" glyph-name="Udieresis" horiz-adv-x="708" d="M310 -14Q251 -14 206 4T132 56T98 140T111 254L199 541Q209 571 202 592T175 619Q148 627 150 641Q152 647 162 650T185 654Q212 654 241 652T299 650Q325 650 357 651T414 653Q440 653
436 640Q434 630 420 626T387 614Q370 608 353 589T324 532L232 237Q214 177 226 135T272 71T350 49Q411 49 457 79T535 158T585 264Q599 306 611 344T632 412T646 458Q663 518 664 549T655 595T627 618Q617 622 605 626T595 639Q596 647 605 650T628 653Q648 653
665 653T697 652T729 651Q746 651 759 651T784 653T812 654Q824 654 830 652T834 641Q831 628 799 620Q778 615 764 606T739 577T713 521Q690 456 670 391T625 256Q599 176 559 115T458 20T310 -14ZM633 692Q611 692 596 707T581 743Q581 774 604 797T663 821Q685
821 699 805T714 766Q714 746 703 730T673 703T633 692ZM434 692Q411 692 397 707T382 743Q382 775 405 798T463 821Q486 821 500 805T514 766Q514 737 490 715T434 692Z" />
<glyph unicode="&#xdd;" glyph-name="Yacute" horiz-adv-x="627" d="M121 -6Q108 -6 103 -2T98 9Q99 17 109 21T133 29Q173 36 195 56T227 109L273 256Q282 281 282 302T274 348L215 551Q207 578 195 594T162 616Q145 621 138 626T133 640Q134 647 143 650T162
654Q197 654 229 652T301 649Q327 649 353 651T406 654Q416 654 422 651T428 640Q427 632 417 627T393 619Q353 612 343 598T340 551L382 376Q387 359 390 353T398 347Q403 347 410 353T426 370Q460 409 491 450T558 534Q588 570 587 591T548 619Q538 621 531 626T524
640Q525 647 535 650T556 653Q578 653 599 651T645 649Q675 649 701 652T751 655Q763 655 770 652T776 641Q774 632 764 629T743 621Q723 616 700 604T658 578T625 548Q597 517 567 483T508 416T453 355Q433 334 421 311T400 258L355 110Q344 73 354 56T399 29Q412
26 418 22T423 9Q422 3 413 -1T392 -5Q369 -5 347 -3T302 0T259 2Q238 2 215 1T168 -3T121 -6ZM440 688Q431 688 430 695Q429 702 437 715Q458 749 479 780T526 844Q536 858 557 858Q564 858 581 855T612 845T626 830Q625 820 610 808Q576 781 537 752T463 698Q455
692 449 690T440 688Z" />
<glyph unicode="&#xde;" glyph-name="Thorn" horiz-adv-x="594" d="M-16 -4Q-25 -4 -30 -1T-34 9Q-31 24 -4 29Q35 38 55 51T86 97L226 551Q236 584 227 597T182 620Q171 622 167 627T165 641Q166 647 174 650T191 654Q214 654 236 653T279 651T321 650Q341 650
362 651T407 653T453 654Q473 654 470 640Q468 632 461 628T439 620Q412 614 395 606T369 585T352 550L341 515L294 540Q311 542 336 543T389 545Q456 545 504 521T579 453T605 351Q604 303 580 262T516 191T423 144T310 127Q290 127 278 131T265 146Q265 152 271
155T287 160Q299 162 310 163T335 167Q371 174 399 193T446 241T474 300T484 360Q484 411 469 443T428 492T372 508Q358 508 350 503T334 484T318 441L213 98Q204 67 215 54T261 29Q272 26 276 22T279 10Q278 3 271 0T254 -3Q231 -3 208 -2T164 0T121 1Q89 1 54
-1T-16 -4Z" />
<glyph unicode="&#xdf;" glyph-name="germandbls" horiz-adv-x="554" d="M-87 -290Q-116 -290 -141 -284T-182 -264T-198 -225Q-198 -202 -184 -186T-151 -169Q-142 -169 -134 -179T-115 -200Q-104 -213 -91 -227T-60 -242Q-32 -242 -18 -213T12 -116Q18 -91 25
-59T41 8T56 77T70 137Q84 199 100 259T134 377Q169 495 227 567T361 672T522 706Q595 706 627 683T660 624Q660 598 644 574T601 528T547 487T496 450Q475 435 455 420T423 387T410 342Q410 330 417 312T434 274T452 239Q465 212 477 186T490 134Q490 106 471
79T426 32Q402 13 371 0T305 -14Q268 -14 245 2T221 44Q221 66 231 83T258 100Q267 100 277 91T296 71Q307 59 319 47T350 34Q368 34 382 47T397 82Q397 102 388 125T364 173Q349 198 336 227T322 282Q322 316 336 344T375 398T431 447Q452 465 474 483T516 523T548
566T560 612Q560 637 543 654T487 672Q445 672 407 650T339 589T284 501T246 398Q230 343 213 276T180 140T151 9Q139 -48 117 -102T63 -198T-7 -265T-87 -290Z" />
<glyph unicode="&#xe0;" glyph-name="agrave" horiz-adv-x="525" d="M350 472Q343 472 336 476T322 488L220 604Q210 615 205 624T199 640Q199 649 208 659T230 677T251 685Q262 685 269 677T284 653L358 499Q363 490 362 481T350 472ZM40 -14Q27 -14 14 -7T-9
12T-18 34Q-18 67 2 107T63 199T171 320Q218 367 254 394T309 422Q332 422 358 399Q367 389 367 389T368 389Q370 389 371 390T374 395Q384 413 387 418T390 426Q395 438 410 438Q424 438 438 432T462 418T472 402Q472 396 469 387L365 107Q355 78 376 78Q390 78
414 95T461 138Q464 140 465 140T467 141Q472 141 475 138T478 127Q478 115 461 92T418 47Q385 18 352 2T295 -14Q282 -14 268 -7T245 12T236 35Q236 44 242 58Q242 59 245 68T255 92T268 121T281 149Q284 156 282 159T275 159Q221 97 179 59T103 4T40 -14ZM129
78Q148 78 187 111T270 197Q304 238 324 271T344 319Q344 327 326 342Q318 349 309 353T293 357Q277 357 249 339T195 297Q171 273 149 240T113 172T99 113Q99 97 107 88T129 78Z" />
<glyph unicode="&#xe1;" glyph-name="aacute" horiz-adv-x="525" d="M40 -14Q27 -14 14 -7T-9 12T-18 34Q-18 67 2 107T63 199T171 320Q218 367 254 394T309 422Q332 422 358 399Q367 389 367 389T368 389Q370 389 371 390T374 395Q384 413 387 418T390 426Q395
438 410 438Q424 438 438 432T462 418T472 402Q472 396 469 387L365 107Q355 78 376 78Q390 78 414 95T461 138Q464 140 465 140T467 141Q472 141 475 138T478 127Q478 115 461 92T418 47Q385 18 352 2T295 -14Q282 -14 268 -7T245 12T236 35Q236 44 242 58Q242
59 245 68T255 92T268 121T281 149Q284 156 282 159T275 159Q221 97 179 59T103 4T40 -14ZM129 78Q148 78 187 111T270 197Q304 238 324 271T344 319Q344 327 326 342Q318 349 309 353T293 357Q277 357 249 339T195 297Q171 273 149 240T113 172T99 113Q99 97 107
88T129 78ZM333 472Q322 472 321 481T325 499L399 653Q406 669 414 677T431 685Q440 685 452 678T474 660T483 640Q483 633 478 624T463 604L360 488Q355 481 348 477T333 472Z" />
<glyph unicode="&#xe2;" glyph-name="acircumflex" horiz-adv-x="525" d="M406 672Q415 672 419 664T429 635Q433 619 437 600T446 562T454 525T459 497Q461 485 458 474T444 463Q431 463 418 490Q412 504 402 525T381 568Q378 575 371 568Q348 546 324 525T284
489Q271 478 261 471T245 463Q235 463 235 474Q235 480 237 486T246 500Q260 518 279 541T319 588T355 631Q371 649 384 660T406 672ZM40 -14Q27 -14 14 -7T-9 12T-18 34Q-18 67 2 107T63 199T171 320Q218 367 254 394T309 422Q332 422 358 399Q367 389 367 389T368
389Q370 389 371 390T374 395Q384 413 387 418T390 426Q395 438 410 438Q424 438 438 432T462 418T472 402Q472 396 469 387L365 107Q355 78 376 78Q390 78 414 95T461 138Q464 140 465 140T467 141Q472 141 475 138T478 127Q478 115 461 92T418 47Q385 18 352
2T295 -14Q282 -14 268 -7T245 12T236 35Q236 44 242 58Q242 59 245 68T255 92T268 121T281 149Q284 156 282 159T275 159Q221 97 179 59T103 4T40 -14ZM129 78Q148 78 187 111T270 197Q304 238 324 271T344 319Q344 327 326 342Q318 349 309 353T293 357Q277 357
249 339T195 297Q171 273 149 240T113 172T99 113Q99 97 107 88T129 78Z" />
<glyph unicode="&#xe3;" glyph-name="atilde" horiz-adv-x="525" d="M40 -14Q27 -14 14 -7T-9 12T-18 34Q-18 67 2 107T63 199T171 320Q218 367 254 394T309 422Q332 422 358 399Q367 389 367 389T368 389Q370 389 371 390T374 395Q384 413 387 418T390 426Q395
438 410 438Q424 438 438 432T462 418T472 402Q472 396 469 387L365 107Q355 78 376 78Q390 78 414 95T461 138Q464 140 465 140T467 141Q472 141 475 138T478 127Q478 115 461 92T418 47Q385 18 352 2T295 -14Q282 -14 268 -7T245 12T236 35Q236 44 242 58Q242
59 245 68T255 92T268 121T281 149Q284 156 282 159T275 159Q221 97 179 59T103 4T40 -14ZM129 78Q148 78 187 111T270 197Q304 238 324 271T344 319Q344 327 326 342Q318 349 309 353T293 357Q277 357 249 339T195 297Q171 273 149 240T113 172T99 113Q99 97 107
88T129 78ZM229 468Q224 468 217 474T210 486Q210 491 221 506T248 541T279 573T301 587Q314 587 326 585T363 580Q384 579 400 578T427 576Q446 576 462 594Q473 605 477 611T486 618Q492 618 499 612T507 600Q507 596 501 589T487 572Q476 558 465 542T444 511Q438
503 429 500T414 497Q406 497 389 498T351 501T310 504T276 506Q265 506 257 497Q246 484 240 476T229 468Z" />
<glyph unicode="&#xe4;" glyph-name="adieresis" horiz-adv-x="525" d="M40 -14Q27 -14 14 -7T-9 12T-18 34Q-18 67 2 107T63 199T171 320Q218 367 254 394T309 422Q332 422 358 399Q367 389 367 389T368 389Q370 389 371 390T374 395Q384 413 387 418T390 426Q395
438 410 438Q424 438 438 432T462 418T472 402Q472 396 469 387L365 107Q355 78 376 78Q390 78 414 95T461 138Q464 140 465 140T467 141Q472 141 475 138T478 127Q478 115 461 92T418 47Q385 18 352 2T295 -14Q282 -14 268 -7T245 12T236 35Q236 44 242 58Q242
59 245 68T255 92T268 121T281 149Q284 156 282 159T275 159Q221 97 179 59T103 4T40 -14ZM129 78Q148 78 187 111T270 197Q304 238 324 271T344 319Q344 327 326 342Q318 349 309 353T293 357Q277 357 249 339T195 297Q171 273 149 240T113 172T99 113Q99 97 107
88T129 78ZM444 500Q423 500 411 514T398 550Q398 572 409 590T439 618T480 629Q502 629 514 615T527 579Q527 547 503 524T444 500ZM255 500Q234 500 222 514T209 550Q209 572 220 590T250 618T290 629Q313 629 325 615T338 579Q338 547 314 524T255 500Z" />
<glyph unicode="&#xe5;" glyph-name="aring" horiz-adv-x="525" d="M40 -14Q27 -14 14 -7T-9 12T-18 34Q-18 67 2 107T63 199T171 320Q218 367 254 394T309 422Q332 422 358 399Q367 389 367 389T368 389Q370 389 371 390T374 395Q384 413 387 418T390 426Q395
438 410 438Q424 438 438 432T462 418T472 402Q472 396 469 387L365 107Q355 78 376 78Q390 78 414 95T461 138Q464 140 465 140T467 141Q472 141 475 138T478 127Q478 115 461 92T418 47Q385 18 352 2T295 -14Q282 -14 268 -7T245 12T236 35Q236 44 242 58Q242
59 245 68T255 92T268 121T281 149Q284 156 282 159T275 159Q221 97 179 59T103 4T40 -14ZM129 78Q148 78 187 111T270 197Q304 238 324 271T344 319Q344 327 326 342Q318 349 309 353T293 357Q277 357 249 339T195 297Q171 273 149 240T113 172T99 113Q99 97 107
88T129 78ZM346 486Q316 486 295 503T273 548Q273 582 292 610T341 654T403 671Q433 671 455 655T477 609Q477 574 458 546T409 502T346 486ZM361 519Q377 519 391 532T414 563T423 597Q423 614 414 624T387 635Q371 635 357 623T335 594T326 559Q326 542 335 531T361
519Z" />
<glyph unicode="&#xe6;" glyph-name="ae" horiz-adv-x="551" d="M39 -14Q28 -14 15 -8T-7 9T-17 35Q-17 76 10 128T85 232T193 327Q240 361 281 382T360 412T430 422L350 359Q315 358 281 345T209 302Q178 278 153 244T114 176T99 114Q99 94 107 86T127 78Q142
78 170 101T234 178L258 142Q208 85 170 51T101 1T39 -14ZM327 -15Q303 -15 277 2T232 47T213 109Q212 165 230 221T281 323T359 398T455 427Q501 427 524 408T547 359Q548 326 526 300T470 256T401 230T338 223Q329 224 327 214Q324 198 322 185T319 151Q320 116
337 92T381 68Q409 68 432 84T471 124Q481 136 487 136Q497 136 497 124Q497 122 497 118T494 111Q477 76 453 48T397 2T327 -15ZM345 253Q355 253 374 259T414 279T450 313T465 363Q464 375 459 385T440 395Q425 395 409 383T378 351T353 307T338 259Q338 253
345 253Z" />
<glyph unicode="&#xe7;" glyph-name="ccedilla" horiz-adv-x="349" d="M130 -14Q99 -14 72 2T29 47T12 111Q13 156 26 201T62 286T118 358T192 408T280 427Q315 427 335 413T356 376Q356 358 344 340T319 322Q311 322 305 328T290 350Q282 366 271 377T245 389Q222
389 200 367T160 309T130 231T118 149Q117 113 134 96T181 78Q209 78 231 90T271 123Q276 129 280 132T290 135Q299 135 299 124Q299 105 285 81T245 35T190 0T130 -14ZM41 -281Q17 -281 -2 -272T-33 -249T-45 -220Q-45 -186 -19 -186Q-6 -186 5 -193T27 -209Q40
-220 50 -228T75 -236Q85 -236 90 -230T96 -213Q96 -198 86 -188T65 -166Q54 -155 43 -141T32 -111Q32 -94 51 -71T98 -24T154 17H190Q149 -14 135 -35T120 -71Q120 -81 130 -92T152 -114Q165 -127 174 -138T183 -164Q183 -180 168 -199T131 -238T85 -269T41 -281Z"
/>
<glyph unicode="&#xe8;" glyph-name="egrave" horiz-adv-x="367" d="M298 472Q292 472 285 476T271 488L168 604Q159 615 154 624T148 640Q148 649 157 659T179 677T200 685Q210 685 217 677T233 653L306 499Q311 490 310 481T298 472ZM126 -15Q101 -15 74 1T28
44T9 101Q9 159 31 217T91 322T177 398T276 427Q326 427 350 408T374 359Q374 326 353 302T297 261T221 233T141 214Q136 213 134 212T129 205Q125 192 122 178T118 151Q117 116 134 93T186 69Q217 69 241 84T285 122Q296 133 303 133Q312 133 312 123Q312 120
312 117T309 111Q290 76 263 47T202 2T126 -15ZM148 245Q165 249 189 256T235 278T273 312T289 362Q290 374 283 384T262 394Q243 394 223 380T186 345T156 298T141 251Q140 244 148 245Z" />
<glyph unicode="&#xe9;" glyph-name="eacute" horiz-adv-x="367" d="M126 -15Q101 -15 74 1T28 44T9 101Q9 159 31 217T91 322T177 398T276 427Q326 427 350 408T374 359Q374 326 353 302T297 261T221 233T141 214Q136 213 134 212T129 205Q125 192 122 178T118
151Q117 116 134 93T186 69Q217 69 241 84T285 122Q296 133 303 133Q312 133 312 123Q312 120 312 117T309 111Q290 76 263 47T202 2T126 -15ZM148 245Q165 249 189 256T235 278T273 312T289 362Q290 374 283 384T262 394Q243 394 223 380T186 345T156 298T141
251Q140 244 148 245ZM282 472Q271 472 270 481T274 499L348 653Q355 669 363 677T380 685Q389 685 401 678T423 660T432 640Q432 633 427 624T412 604L309 488Q304 481 297 477T282 472Z" />
<glyph unicode="&#xea;" glyph-name="ecircumflex" horiz-adv-x="367" d="M355 672Q363 672 367 664T377 635Q382 619 386 600T395 562T402 525T408 497Q410 485 407 474T392 463Q379 463 367 490Q361 504 351 525T330 568Q326 575 319 568Q296 546 272 525T233
489Q220 478 210 471T193 463Q183 463 183 474Q183 480 186 486T194 500Q208 518 227 541T267 588T304 631Q319 649 332 660T355 672ZM126 -15Q101 -15 74 1T28 44T9 101Q9 159 31 217T91 322T177 398T276 427Q326 427 350 408T374 359Q374 326 353 302T297 261T221
233T141 214Q136 213 134 212T129 205Q125 192 122 178T118 151Q117 116 134 93T186 69Q217 69 241 84T285 122Q296 133 303 133Q312 133 312 123Q312 120 312 117T309 111Q290 76 263 47T202 2T126 -15ZM148 245Q165 249 189 256T235 278T273 312T289 362Q290
374 283 384T262 394Q243 394 223 380T186 345T156 298T141 251Q140 244 148 245Z" />
<glyph unicode="&#xeb;" glyph-name="edieresis" horiz-adv-x="367" d="M126 -15Q101 -15 74 1T28 44T9 101Q9 159 31 217T91 322T177 398T276 427Q326 427 350 408T374 359Q374 326 353 302T297 261T221 233T141 214Q136 213 134 212T129 205Q125 192 122 178T118
151Q117 116 134 93T186 69Q217 69 241 84T285 122Q296 133 303 133Q312 133 312 123Q312 120 312 117T309 111Q290 76 263 47T202 2T126 -15ZM148 245Q165 249 189 256T235 278T273 312T289 362Q290 374 283 384T262 394Q243 394 223 380T186 345T156 298T141
251Q140 244 148 245ZM392 500Q371 500 359 514T346 550Q346 572 357 590T387 618T428 629Q450 629 462 615T475 579Q475 547 451 524T392 500ZM203 500Q182 500 170 514T157 550Q157 572 168 590T198 618T238 629Q261 629 273 615T286 579Q286 547 262 524T203
500Z" />
<glyph unicode="&#xec;" glyph-name="igrave" horiz-adv-x="319" d="M260 470Q254 470 247 475T233 486L130 602Q121 613 115 622T109 638Q109 648 118 658T140 675T162 683Q172 683 179 675T194 652L268 498Q273 489 272 480T260 470ZM79 -14Q58 -14 42 1T26
33Q26 38 26 42T30 53Q63 123 89 189T138 312Q141 320 134 320Q127 320 115 315T90 303T65 287Q55 281 50 284T44 295Q44 301 55 314T85 342T127 374T173 403T215 425Q228 430 241 423T262 405T266 384L151 103Q148 98 147 93T146 83Q146 78 149 76T156 74Q167
74 185 86T224 116T261 149Q263 152 265 152Q269 152 272 149T275 141Q275 123 255 98T203 47T139 4T79 -14Z" />
<glyph unicode="&#xed;" glyph-name="iacute" horiz-adv-x="319" d="M79 -14Q58 -14 42 1T26 33Q26 38 26 42T30 53Q63 123 89 189T138 312Q141 320 134 320Q127 320 115 315T90 303T65 287Q55 281 50 284T44 295Q44 301 55 314T85 342T127 374T173 403T215 425Q228
430 241 423T262 405T266 384L151 103Q148 98 147 93T146 83Q146 78 149 76T156 74Q167 74 185 86T224 116T261 149Q263 152 265 152Q269 152 272 149T275 141Q275 123 255 98T203 47T139 4T79 -14ZM243 470Q232 470 231 479T235 497L309 651Q316 667 324 675T341
683Q350 683 362 676T384 658T393 638Q393 631 388 622T373 602L270 486Q265 479 258 475T243 470Z" />
<glyph unicode="&#xee;" glyph-name="icircumflex" horiz-adv-x="319" d="M316 671Q325 671 329 662T339 634Q343 617 347 598T356 560T364 524T370 496Q372 483 368 472T354 461Q341 461 329 488Q323 502 313 523T291 566Q288 573 281 566Q258 545 234 524T194
487Q182 476 172 469T155 461Q145 461 145 473Q145 478 147 484T156 498Q170 516 189 539T229 587T265 629Q281 647 294 659T316 671ZM79 -14Q58 -14 42 1T26 33Q26 38 26 42T30 53Q63 123 89 189T138 312Q141 320 134 320Q127 320 115 315T90 303T65 287Q55 281
50 284T44 295Q44 301 55 314T85 342T127 374T173 403T215 425Q228 430 241 423T262 405T266 384L151 103Q148 98 147 93T146 83Q146 78 149 76T156 74Q167 74 185 86T224 116T261 149Q263 152 265 152Q269 152 272 149T275 141Q275 123 255 98T203 47T139 4T79
-14Z" />
<glyph unicode="&#xef;" glyph-name="idieresis" horiz-adv-x="319" d="M79 -14Q58 -14 42 1T26 33Q26 38 26 42T30 53Q63 123 89 189T138 312Q141 320 134 320Q127 320 115 315T90 303T65 287Q55 281 50 284T44 295Q44 301 55 314T85 342T127 374T173 403T215
425Q228 430 241 423T262 405T266 384L151 103Q148 98 147 93T146 83Q146 78 149 76T156 74Q167 74 185 86T224 116T261 149Q263 152 265 152Q269 152 272 149T275 141Q275 123 255 98T203 47T139 4T79 -14ZM354 498Q333 498 321 512T308 548Q308 570 319 588T349
616T390 627Q412 627 424 613T437 577Q437 545 413 522T354 498ZM165 498Q144 498 132 512T119 548Q119 570 130 588T160 616T200 627Q223 627 235 613T248 577Q248 545 224 522T165 498Z" />
<glyph unicode="&#xf0;" glyph-name="eth" horiz-adv-x="438" d="M141 -14Q111 -14 84 2T41 47T27 115Q29 163 48 216T102 318T185 396T294 427Q303 427 311 425T326 420Q330 419 334 417T340 415Q344 415 347 431T350 467Q350 509 339 542L215 479Q204 474 197
477T190 489Q191 503 196 517T213 537L324 593Q310 625 288 644T231 670Q220 672 214 676T208 687Q208 699 217 702T241 705Q294 705 335 684T404 627L497 673Q505 678 515 676T525 664Q525 651 518 637T497 616L430 583Q456 524 456 454Q456 392 441 326T397 199T329
90T243 14T141 -14ZM159 22Q180 22 203 43T247 100T287 178T316 261T330 335Q331 363 324 377T295 392Q275 392 253 371T208 314T168 237T137 154T124 80Q123 52 131 37T159 22Z" />
<glyph unicode="&#xf1;" glyph-name="ntilde" horiz-adv-x="575" d="M99 -15Q91 -15 81 -9T62 6T49 29T51 55L157 317Q169 349 151 349Q143 349 131 348T103 338T73 310Q69 305 62 305T54 315Q54 322 59 333T73 355T86 373Q107 396 138 411T213 427Q233 427 245
417T260 390T257 355L200 211Q197 204 204 203T215 208Q252 273 289 322T365 399T441 427Q475 427 491 408T510 359T499 299L418 109Q405 76 423 76Q431 76 444 83T471 100T497 119T513 133Q516 137 520 140T527 143Q530 143 533 140T536 132Q536 116 526 104Q498
70 464 44T393 2T322 -14Q310 -14 298 -6T281 13T280 37Q311 108 344 178T405 320Q414 346 412 357T397 369Q384 370 369 357T337 321T299 273Q289 260 272 233T234 173T191 104T153 39Q139 15 126 0T99 -15ZM243 468Q238 468 231 474T224 486Q224 491 235 506T262
541T293 573T315 587Q328 587 340 585T377 580Q398 579 414 578T441 576Q460 576 476 594Q487 605 491 611T500 618Q506 618 513 612T521 600Q521 596 515 589T501 572Q490 558 479 542T458 511Q452 503 443 500T428 497Q420 497 403 498T365 501T324 504T290 506Q279
506 271 497Q260 484 254 476T243 468Z" />
<glyph unicode="&#xf2;" glyph-name="ograve" horiz-adv-x="432" d="M324 472Q317 472 310 476T296 488L194 604Q184 615 179 624T173 640Q173 649 182 659T204 677T225 685Q235 685 243 677T258 653L332 499Q336 490 335 481T324 472ZM139 -14Q106 -14 77 3T30
50T12 118Q12 165 31 218T87 318T173 396T286 427Q347 427 383 391T420 292Q420 247 401 194T345 94T257 16T139 -14ZM158 22Q179 22 200 44T242 101T277 180T302 266T312 344Q312 366 304 379T275 392Q256 392 235 371T193 316T157 239T130 153T120 72Q120 46
130 34T158 22Z" />
<glyph unicode="&#xf3;" glyph-name="oacute" horiz-adv-x="432" d="M139 -14Q106 -14 77 3T30 50T12 118Q12 165 31 218T87 318T173 396T286 427Q347 427 383 391T420 292Q420 247 401 194T345 94T257 16T139 -14ZM158 22Q179 22 200 44T242 101T277 180T302
266T312 344Q312 366 304 379T275 392Q256 392 235 371T193 316T157 239T130 153T120 72Q120 46 130 34T158 22ZM307 472Q296 472 295 481T299 499L373 653Q380 669 388 677T405 685Q414 685 426 678T448 660T457 640Q457 633 452 624T437 604L334 488Q329 481
322 477T307 472Z" />
<glyph unicode="&#xf4;" glyph-name="ocircumflex" horiz-adv-x="432" d="M380 672Q389 672 393 664T402 635Q407 619 411 600T420 562T428 525T433 497Q435 485 432 474T417 463Q404 463 392 490Q386 504 376 525T355 568Q351 575 344 568Q322 546 298 525T258
489Q245 478 235 471T218 463Q208 463 208 474Q208 480 211 486T220 500Q234 518 253 541T292 588T329 631Q344 649 357 660T380 672ZM139 -14Q106 -14 77 3T30 50T12 118Q12 165 31 218T87 318T173 396T286 427Q347 427 383 391T420 292Q420 247 401 194T345 94T257
16T139 -14ZM158 22Q179 22 200 44T242 101T277 180T302 266T312 344Q312 366 304 379T275 392Q256 392 235 371T193 316T157 239T130 153T120 72Q120 46 130 34T158 22Z" />
<glyph unicode="&#xf5;" glyph-name="otilde" horiz-adv-x="432" d="M139 -14Q106 -14 77 3T30 50T12 118Q12 165 31 218T87 318T173 396T286 427Q347 427 383 391T420 292Q420 247 401 194T345 94T257 16T139 -14ZM158 22Q179 22 200 44T242 101T277 180T302
266T312 344Q312 366 304 379T275 392Q256 392 235 371T193 316T157 239T130 153T120 72Q120 46 130 34T158 22ZM200 468Q195 468 188 474T181 486Q181 491 192 506T219 541T250 573T272 587Q285 587 297 585T334 580Q355 579 371 578T398 576Q417 576 433 594Q444
605 448 611T457 618Q463 618 470 612T478 600Q478 596 472 589T458 572Q447 558 436 542T415 511Q409 503 400 500T385 497Q377 497 360 498T322 501T281 504T247 506Q236 506 228 497Q217 484 211 476T200 468Z" />
<glyph unicode="&#xf6;" glyph-name="odieresis" horiz-adv-x="432" d="M139 -14Q106 -14 77 3T30 50T12 118Q12 165 31 218T87 318T173 396T286 427Q347 427 383 391T420 292Q420 247 401 194T345 94T257 16T139 -14ZM158 22Q179 22 200 44T242 101T277 180T302
266T312 344Q312 366 304 379T275 392Q256 392 235 371T193 316T157 239T130 153T120 72Q120 46 130 34T158 22ZM417 500Q396 500 384 514T371 550Q371 572 382 590T412 618T453 629Q475 629 487 615T500 579Q500 547 476 524T417 500ZM228 500Q207 500 195 514T182
550Q182 572 193 590T223 618T263 629Q286 629 298 615T311 579Q311 547 287 524T228 500Z" />
<glyph unicode="&#xf7;" glyph-name="divide" horiz-adv-x="592" d="M75 246Q69 246 64 250T58 258Q58 263 60 273T69 292T86 301H556Q564 301 569 298T575 288Q575 275 566 261T542 246H75ZM319 65Q294 65 276 83T258 127Q258 153 276 171T320 190Q346 190 364
172T382 127Q382 102 364 84T319 65ZM318 350Q293 350 275 368T257 412Q257 438 275 456T319 475Q345 475 363 457T381 412Q381 387 363 369T318 350Z" />
<glyph unicode="&#xf8;" glyph-name="oslash" horiz-adv-x="416" d="M-4 -14Q-14 -13 -23 -7T-31 8Q-30 26 -18 35L42 88L78 112L320 344L359 369L416 420Q419 423 424 425T434 427Q443 426 446 420T449 406Q449 398 445 389T435 374L373 318L322 280L93 55L66
39L14 -7Q11 -10 7 -12T-4 -14ZM139 -14Q106 -14 77 3T30 50T12 118Q12 165 31 218T87 318T173 396T286 427Q347 427 383 391T420 292Q420 247 401 194T345 94T257 16T139 -14ZM158 22Q179 22 200 44T242 101T277 180T302 266T312 344Q312 366 304 379T275 392Q256
392 235 371T193 316T157 239T130 153T120 72Q120 46 130 34T158 22Z" />
<glyph unicode="&#xf9;" glyph-name="ugrave" horiz-adv-x="567" d="M389 472Q383 472 376 476T362 488L260 604Q250 615 245 624T239 640Q239 649 248 659T270 677T291 685Q301 685 309 677T324 653L398 499Q402 490 401 481T389 472ZM98 -14Q81 -14 66 0T44
35T43 70L141 296Q148 312 148 321T140 330Q134 330 120 322T90 301T64 279Q55 270 48 270T40 278Q40 285 44 294T56 313Q83 348 115 374T178 414T235 428Q246 428 257 418T275 394T276 367Q252 317 224 254T161 118Q153 101 153 88T164 75Q174 75 193 95T238 146T289
210Q314 241 338 273T381 334T410 380Q423 401 434 414T459 427Q474 427 486 418T504 396T505 371L396 101Q392 89 392 81T399 73Q409 73 429 86T472 117T508 148Q510 151 512 151Q517 151 520 147T524 138Q524 129 515 117T490 90T456 64T421 42T390 30Q374 19
357 15T322 11T291 18Q285 21 282 31T282 52Q292 74 304 100T328 153T349 204Q353 213 348 214T337 208Q300 163 267 123T203 52T147 4T98 -14Z" />
<glyph unicode="&#xfa;" glyph-name="uacute" horiz-adv-x="567" d="M98 -14Q81 -14 66 0T44 35T43 70L141 296Q148 312 148 321T140 330Q134 330 120 322T90 301T64 279Q55 270 48 270T40 278Q40 285 44 294T56 313Q83 348 115 374T178 414T235 428Q246 428 257
418T275 394T276 367Q252 317 224 254T161 118Q153 101 153 88T164 75Q174 75 193 95T238 146T289 210Q314 241 338 273T381 334T410 380Q423 401 434 414T459 427Q474 427 486 418T504 396T505 371L396 101Q392 89 392 81T399 73Q409 73 429 86T472 117T508 148Q510
151 512 151Q517 151 520 147T524 138Q524 129 515 117T490 90T456 64T421 42T390 30Q374 19 357 15T322 11T291 18Q285 21 282 31T282 52Q292 74 304 100T328 153T349 204Q353 213 348 214T337 208Q300 163 267 123T203 52T147 4T98 -14ZM373 472Q362 472 361
481T365 499L439 653Q446 669 454 677T471 685Q480 685 492 678T514 660T523 640Q523 633 518 624T503 604L400 488Q395 481 388 477T373 472Z" />
<glyph unicode="&#xfb;" glyph-name="ucircumflex" horiz-adv-x="567" d="M446 672Q454 672 458 664T468 635Q473 619 477 600T486 562T493 525T499 497Q501 485 498 474T483 463Q470 463 458 490Q452 504 442 525T421 568Q417 575 410 568Q388 546 364 525T324
489Q311 478 301 471T284 463Q274 463 274 474Q274 480 277 486T286 500Q300 518 319 541T358 588T395 631Q410 649 423 660T446 672ZM98 -14Q81 -14 66 0T44 35T43 70L141 296Q148 312 148 321T140 330Q134 330 120 322T90 301T64 279Q55 270 48 270T40 278Q40
285 44 294T56 313Q83 348 115 374T178 414T235 428Q246 428 257 418T275 394T276 367Q252 317 224 254T161 118Q153 101 153 88T164 75Q174 75 193 95T238 146T289 210Q314 241 338 273T381 334T410 380Q423 401 434 414T459 427Q474 427 486 418T504 396T505
371L396 101Q392 89 392 81T399 73Q409 73 429 86T472 117T508 148Q510 151 512 151Q517 151 520 147T524 138Q524 129 515 117T490 90T456 64T421 42T390 30Q374 19 357 15T322 11T291 18Q285 21 282 31T282 52Q292 74 304 100T328 153T349 204Q353 213 348 214T337
208Q300 163 267 123T203 52T147 4T98 -14Z" />
<glyph unicode="&#xfc;" glyph-name="udieresis" horiz-adv-x="567" d="M98 -14Q81 -14 66 0T44 35T43 70L141 296Q148 312 148 321T140 330Q134 330 120 322T90 301T64 279Q55 270 48 270T40 278Q40 285 44 294T56 313Q83 348 115 374T178 414T235 428Q246 428
257 418T275 394T276 367Q252 317 224 254T161 118Q153 101 153 88T164 75Q174 75 193 95T238 146T289 210Q314 241 338 273T381 334T410 380Q423 401 434 414T459 427Q474 427 486 418T504 396T505 371L396 101Q392 89 392 81T399 73Q409 73 429 86T472 117T508
148Q510 151 512 151Q517 151 520 147T524 138Q524 129 515 117T490 90T456 64T421 42T390 30Q374 19 357 15T322 11T291 18Q285 21 282 31T282 52Q292 74 304 100T328 153T349 204Q353 213 348 214T337 208Q300 163 267 123T203 52T147 4T98 -14ZM483 500Q462
500 450 514T437 550Q437 572 448 590T478 618T519 629Q541 629 553 615T566 579Q566 547 542 524T483 500ZM294 500Q273 500 261 514T248 550Q248 572 259 590T289 618T329 629Q352 629 364 615T377 579Q377 547 353 524T294 500Z" />
<glyph unicode="&#xfd;" glyph-name="yacute" horiz-adv-x="457" d="M-50 -289Q-73 -289 -93 -275T-114 -233Q-114 -216 -107 -202T-87 -177T-61 -167Q-50 -167 -40 -173T-20 -188Q-9 -196 2 -202T27 -209Q59 -209 91 -174T149 -84Q169 -41 177 14T186 133Q186
213 176 260T153 328T130 349Q121 349 111 337T91 309T76 282Q74 278 69 268T57 258Q54 258 51 266T48 286Q48 312 60 337T92 384T133 417T176 430Q204 430 221 412T250 357Q264 314 274 248T280 81Q279 63 283 64T295 78Q329 143 346 225T363 411Q363 418 374
426T392 435Q399 435 412 427T435 406T446 377Q446 315 413 232T318 55T176 -130Q138 -173 97 -209T19 -267T-50 -289ZM278 472Q267 472 266 481T270 499L344 653Q351 669 359 677T376 685Q385 685 397 678T419 660T428 640Q428 633 423 624T408 604L305 488Q300
481 293 477T278 472Z" />
<glyph unicode="&#xfe;" glyph-name="thorn" horiz-adv-x="504" d="M-123 -285Q-128 -285 -132 -283T-135 -275Q-135 -267 -127 -262T-111 -256Q-83 -249 -70 -242T-49 -211L194 551Q199 567 202 582T206 610Q206 620 196 625T174 634Q165 638 157 641T149 650Q149
655 152 658T168 666Q179 671 201 678T247 691T290 702T318 707Q324 707 332 706T340 695Q340 684 338 676T332 656Q325 634 313 600T285 525T254 438T223 346T195 257Q192 247 194 247T202 256Q236 307 273 345T349 405T423 427Q453 427 477 406T501 341Q501 294
483 245T431 149T355 67T263 10T162 -11Q144 -11 125 -7T93 4L122 32L53 -205Q47 -227 61 -236T102 -252Q110 -254 116 -257T121 -269Q120 -274 114 -277T99 -280Q83 -280 63 -280T23 -279T-10 -280Q-35 -281 -65 -283T-123 -285ZM198 26Q210 26 229 39T268 74T307
124Q326 150 343 184T373 251T387 310T379 346Q371 351 358 347T328 330T293 298Q278 291 259 272T221 228T186 176T159 126T149 88Q149 62 165 44T198 26Z" />
<glyph unicode="&#xff;" glyph-name="ydieresis" horiz-adv-x="457" d="M-50 -289Q-73 -289 -93 -275T-114 -233Q-114 -216 -107 -202T-87 -177T-61 -167Q-50 -167 -40 -173T-20 -188Q-9 -196 2 -202T27 -209Q59 -209 91 -174T149 -84Q169 -41 177 14T186 133Q186
213 176 260T153 328T130 349Q121 349 111 337T91 309T76 282Q74 278 69 268T57 258Q54 258 51 266T48 286Q48 312 60 337T92 384T133 417T176 430Q204 430 221 412T250 357Q264 314 274 248T280 81Q279 63 283 64T295 78Q329 143 346 225T363 411Q363 418 374
426T392 435Q399 435 412 427T435 406T446 377Q446 315 413 232T318 55T176 -130Q138 -173 97 -209T19 -267T-50 -289ZM388 500Q367 500 355 514T342 550Q342 572 353 590T383 618T424 629Q446 629 458 615T471 579Q471 547 447 524T388 500ZM199 500Q178 500 166
514T153 550Q153 572 164 590T194 618T234 629Q257 629 269 615T282 579Q282 547 258 524T199 500Z" />
<glyph unicode="&#x2013;" glyph-name="endash" horiz-adv-x="591" d="M50 183Q44 183 41 187T39 196Q41 201 46 212T59 232T78 241H541Q549 241 553 237T555 226Q549 212 537 198T510 183H50Z" />
<glyph unicode="&#x2014;" glyph-name="emdash" horiz-adv-x="930" d="M42 183Q35 183 32 187T30 196Q32 201 37 212T51 232T70 241H888Q896 241 900 237T902 226Q896 212 884 198T858 183H42Z" />
<glyph unicode="&#x2018;" glyph-name="quoteleft" horiz-adv-x="251" d="M332 691Q342 691 347 688T352 678Q350 672 343 668T324 660Q296 651 274 635T238 600T225 559Q225 545 235 537T256 524Q267 520 276 511T285 487Q285 461 264 442T214 423Q182 423 160
444T137 503Q137 538 154 572T200 632T263 675T332 691Z" />
<glyph unicode="&#x2019;" glyph-name="quoteright" horiz-adv-x="251" d="M136 423Q126 423 120 426T116 436Q118 442 125 446T144 454Q172 464 194 479T229 515T242 555Q242 570 233 577T212 590Q201 595 192 603T183 627Q183 654 204 672T254 691Q286 691 308
671T331 612Q331 577 314 543T268 482T205 439T136 423Z" />
<glyph unicode="&#x201a;" glyph-name="quotesinglbase" horiz-adv-x="251" d="M-41 -149Q-51 -149 -57 -146T-61 -136Q-59 -130 -52 -126T-33 -118Q-5 -108 17 -93T52 -57T65 -17Q65 -2 56 5T35 18Q24 23 15 31T6 55Q6 82 27 100T77 119Q109 119 131 99T154 40Q154
5 137 -29T91 -90T28 -133T-41 -149Z" />
<glyph unicode="&#x201c;" glyph-name="quotedblleft" horiz-adv-x="443" d="M525 692Q536 692 541 689T545 679Q543 673 536 669T517 661Q489 652 467 636T432 601T419 560Q419 546 428 538T449 525Q460 521 469 512T478 488Q478 462 457 443T407 424Q375 424
353 445T330 504Q330 539 347 573T393 633T456 676T525 692ZM333 692Q343 692 348 689T352 679Q351 673 344 669T325 661Q297 652 275 636T239 601T226 560Q226 546 235 538T257 525Q268 521 277 512T286 488Q286 462 265 443T215 424Q182 424 160 445T137 504Q137
539 154 573T200 633T263 676T333 692Z" />
<glyph unicode="&#x201d;" glyph-name="quotedblright" horiz-adv-x="444" d="M136 424Q126 424 120 427T116 437Q118 443 125 447T144 455Q172 465 194 480T229 516T242 556Q242 571 233 578T212 591Q201 596 192 604T183 628Q183 655 204 673T254 692Q286 692
308 672T331 613Q331 578 314 544T268 483T205 440T136 424ZM329 424Q319 424 313 427T309 437Q311 443 318 447T337 455Q365 465 387 480T422 516T435 556Q435 571 426 578T405 591Q394 596 385 604T376 628Q376 655 397 673T447 692Q479 692 501 672T524 613Q524
578 507 544T461 483T398 440T329 424Z" />
<glyph unicode="&#x201e;" glyph-name="quotedblbase" horiz-adv-x="443" d="M-41 -149Q-51 -149 -57 -146T-61 -136Q-59 -130 -52 -126T-33 -118Q-5 -108 17 -93T52 -57T65 -17Q65 -2 56 5T35 18Q24 23 15 31T6 55Q6 82 27 100T77 119Q109 119 131 99T154 40Q154
5 137 -29T91 -90T28 -133T-41 -149ZM152 -149Q142 -149 136 -146T132 -136Q134 -130 141 -126T160 -118Q188 -108 210 -93T245 -57T258 -17Q258 -2 249 5T228 18Q217 23 208 31T199 55Q199 82 220 100T270 119Q302 119 324 99T347 40Q347 5 330 -29T284 -90T221
-133T152 -149Z" />
<glyph unicode="&#x2022;" glyph-name="bullet" horiz-adv-x="362" d="M198 214Q166 214 141 230T101 273T86 331Q86 376 109 414T169 475T252 499Q289 499 315 481T355 435T369 376Q369 332 346 295T284 236T198 214Z" />
<glyph unicode="&#x2039;" glyph-name="guilsinglleft" horiz-adv-x="410" d="M286 17Q276 17 268 25T255 36Q235 58 213 78T167 118T119 153T72 184Q62 190 57 194T52 204Q52 210 59 215T71 221Q127 247 178 275T278 333T372 395Q377 399 382 402T397 405Q407
405 405 396T394 378Q356 338 318 308T246 253T183 210Q175 205 175 203T180 194Q198 176 218 153T257 103T293 43Q297 34 294 26T286 17Z" />
<glyph unicode="&#x203a;" glyph-name="guilsinglright" horiz-adv-x="410" d="M127 405Q137 405 145 398T158 386Q178 363 200 343T246 304T294 269T341 238Q351 232 355 228T360 218Q360 212 353 208T342 201Q286 175 235 147T135 89T41 27Q36 23 31 20T16 17Q6
17 9 26T19 44Q57 84 95 114T167 169T230 212Q238 217 238 219T232 228Q215 247 195 269T156 320T120 379Q116 389 119 397T127 405Z" />
</font>
</defs>
</svg>
