<?xml version="1.0" standalone="no"?>
<!DOCTYPE svg PUBLIC "-//W3C//DTD SVG 1.1//EN" "http://www.w3.org/Graphics/SVG/1.1/DTD/svg11.dtd">
<svg xmlns="http://www.w3.org/2000/svg">
<defs >
<font id="Lora" horiz-adv-x="585" ><font-face
    font-family="Lora SemiBold"
    units-per-em="1000"
    panose-1="0 0 0 0 0 0 0 0 0 0"
    ascent="1006"
    descent="-274"
    alphabetic="0" />
<glyph unicode=" " glyph-name="space" horiz-adv-x="263" />
<glyph unicode="!" glyph-name="exclam" horiz-adv-x="261" d="M153 716Q178 716 192 703T212 671T214 631L156 219H99L83 631Q82 661 100 688T153 716ZM122 131Q152 131 169 110T186 57Q184 27 163 6T114 -16Q87 -16 69 5T51 57Q53 88 74 109T122 131Z" />
<glyph unicode="&quot;" glyph-name="quotedbl" horiz-adv-x="335" d="M313 716L293 491H219L224 716H313ZM164 716L143 491H70L74 716H164Z" />
<glyph unicode="#" glyph-name="numbersign" horiz-adv-x="831" d="M697 711L649 528H816V527L795 450H629L573 240H740L718 163H553L508 -11H415L461 163H278L233 -11H139L187 163H21L43 240H207L265 450H97L119 528H285L335 711H422L374 528H560L610 711H697ZM540
450H354L298 240H481L540 450Z" />
<glyph unicode="$" glyph-name="dollar" horiz-adv-x="556" d="M227 -154L233 -14Q202 -10 169 0T105 28L107 -10H37L49 217H104Q110 130 155 88T273 46Q328 46 361 76T397 153Q399 191 379 215T326 258T253 294Q214 313 178 334T113 383T69 447T56 530Q58 558
68 589T102 647T164 694T262 716L269 836H349L341 709Q365 704 387 695T430 669L429 711H497L485 483H429Q425 537 409 576T362 636T279 658Q247 658 223 644T186 607T171 558Q170 524 185 500T233 454T316 408Q352 391 388 371T454 324T501 263T516 181Q513 131
489 89T421 21T313 -14L305 -154H227Z" />
<glyph unicode="%" glyph-name="percent" horiz-adv-x="881" d="M162 -17L108 37L710 716L771 658L162 -17ZM223 328Q162 328 122 355T63 426T46 519Q49 566 73 610T139 685T241 716Q303 717 342 689T401 618T417 528Q415 476 388 430T318 356T223 328ZM227 386Q250
386 265 400T290 435T303 479T308 521Q309 544 306 568T295 613T274 646T238 658Q214 658 198 644T172 607T160 563T155 524Q155 504 157 480T168 435T190 400T227 386ZM646 -16Q586 -16 546 11T488 82T471 174Q474 221 497 266T563 341T665 372Q727 373 767 345T826
273T842 183Q840 132 814 86T744 12T646 -16ZM651 42Q682 42 699 65T725 120T733 177Q734 200 731 224T720 268T698 301T663 314Q638 314 622 299T597 262T584 218T580 180Q579 159 582 135T593 90T615 56T651 42Z" />
<glyph unicode="&amp;" glyph-name="ampersand" horiz-adv-x="684" d="M287 -16Q213 -16 154 5T60 71T26 185Q27 233 50 274T114 345T212 386Q144 400 111 437T78 524Q79 585 111 628T195 694T310 716Q368 716 410 700T476 656T499 594Q499 570 484 551T441 532Q417
532 402 546T385 584Q385 592 388 605T397 625Q387 640 367 649T318 659Q287 659 263 643T223 600T205 535Q204 516 208 495T226 454T264 422T326 409Q338 409 344 409T362 410L359 349L323 350Q283 350 254 338T204 306T172 259T160 204Q157 152 178 117T235 64T310
46Q379 46 421 72T485 142T511 234Q494 234 475 232T434 221T387 193L358 223Q385 263 409 283T462 310T535 318Q569 318 600 324T666 364L698 336Q682 308 666 288T626 255T566 238Q564 198 549 154T502 71T417 8T287 -16Z" />
<glyph unicode="&apos;" glyph-name="quotesingle" horiz-adv-x="192" d="M170 716L149 491H70L74 716H170Z" />
<glyph unicode="(" glyph-name="parenleft" horiz-adv-x="297" d="M223 -271Q188 -237 151 -185T84 -65T37 79T23 239Q28 322 53 401T115 549T195 672T277 760L307 729Q274 688 249 638T204 533T173 425T153 324T143 239Q142 202 143 156T153 57T174 -47T208 -149T257
-240L223 -271Z" />
<glyph unicode=")" glyph-name="parenright" horiz-adv-x="297" d="M67 760Q102 726 139 674T206 554T253 410T266 250Q262 167 237 88T174 -60T95 -183T13 -271L-17 -240Q16 -199 41 -149T85 -44T117 64T137 165T146 250Q149 287 147 333T137 432T116 536T82
638T33 729L67 760Z" />
<glyph unicode="*" glyph-name="asterisk" horiz-adv-x="512" d="M282 716Q302 716 311 705T322 678T322 645Q320 619 313 587T291 515Q326 538 356 552T409 577Q426 583 443 585T473 582T493 557Q500 528 480 514T435 492Q410 486 378 481T303 474Q334 450 356
428T393 385Q403 372 409 356T414 325T395 298Q370 281 351 294T319 328Q307 350 293 380T268 450Q252 411 236 381T204 330Q189 309 168 295T124 298Q109 310 108 325T115 355T133 384Q151 404 175 427T234 474Q193 476 161 481T104 492Q88 497 74 505T53 526T53
559Q65 587 89 587T138 577Q161 567 189 552T250 515Q240 554 237 586T233 645Q233 661 236 677T250 705T282 716Z" />
<glyph unicode="+" glyph-name="plus" horiz-adv-x="530" d="M50 396H496L492 327H46L50 396ZM317 583L293 137H224L248 583H317Z" />
<glyph unicode="," glyph-name="comma" horiz-adv-x="245" d="M102 124Q143 125 162 97T180 28Q180 -2 169 -37T137 -110T84 -184L51 -159Q64 -143 78 -117T103 -60T113 -1Q107 -2 102 -3T91 -4Q67 -4 50 11T32 55Q34 84 53 104T102 124Z" />
<glyph unicode="-" glyph-name="hyphen" horiz-adv-x="476" d="M423 362L418 274L54 270L59 362H423Z" />
<glyph unicode="." glyph-name="period" horiz-adv-x="233" d="M105 130Q134 130 152 109T168 57Q167 27 147 6T98 -16Q68 -16 50 5T33 57Q35 87 56 108T105 130Z" />
<glyph unicode="/" glyph-name="slash" horiz-adv-x="661" d="M597 757L672 706L44 -271L-19 -226L597 757Z" />
<glyph unicode="0" glyph-name="zero" horiz-adv-x="616" d="M333 716Q405 716 453 683T530 596T569 478T577 351Q574 289 555 225T501 106T414 18T293 -16Q217 -16 168 16T91 103T53 221T46 348Q49 411 68 476T123 595T211 682T333 716ZM329 658Q291 658 264
634T218 569T191 476T178 368Q176 326 176 281T183 194T204 117T241 62T301 42Q339 42 365 66T408 131T432 224T444 331Q447 392 445 450T431 555T395 630T329 658Z" />
<glyph unicode="1" glyph-name="one" horiz-adv-x="383" d="M295 716L266 146Q265 121 263 99T258 63Q275 64 298 65T336 66L332 0H60L63 55Q90 56 107 64T133 92T144 151L165 576L49 507L22 557L243 716H295Z" />
<glyph unicode="2" glyph-name="two" horiz-adv-x="523" d="M276 716Q316 716 354 706T423 675T470 618T485 530Q484 505 473 477T436 416T368 343T259 250Q197 202 164 162T122 93L311 88Q342 87 366 90T405 108T421 155H473L458 0H22Q25 52 41 93T83 168T141
231T206 290Q277 353 312 409T351 517Q353 552 345 584T314 636T250 656Q219 656 193 641T156 604Q165 593 169 579T172 554Q171 535 156 516T108 497Q80 497 66 516T53 562Q53 585 68 611T112 662T182 701T276 716Z" />
<glyph unicode="3" glyph-name="three" horiz-adv-x="546" d="M231 -16Q157 -16 111 6T43 63T24 130Q26 158 43 177T88 197Q109 198 121 189T139 166T144 139Q144 130 140 118T128 95Q137 71 165 59T226 47Q292 47 329 87T370 189Q371 213 366 239T346 289T303
326T231 340Q219 340 202 339T174 337L177 400Q186 399 194 399T210 399Q257 399 289 418T338 466T357 529Q359 566 351 595T321 640T260 656Q238 656 219 648T185 628T165 603Q174 593 176 580T178 558Q178 546 171 533T151 510T117 501Q90 501 76 519T62 564Q64
594 88 629T161 690T279 716Q338 716 385 699T460 644T484 540Q483 512 466 480T415 420T323 380Q419 365 462 314T502 196Q499 128 462 81T365 9T231 -16Z" />
<glyph unicode="4" glyph-name="four" horiz-adv-x="531" d="M190 0L193 55Q219 56 236 63T263 92T275 155L276 185H1L5 264L372 716H424L401 264H500L495 185H397L394 124Q393 104 392 90T387 62L463 65L459 0H190ZM281 266L295 522H294L87 268L281 266Z" />
<glyph unicode="5" glyph-name="five" horiz-adv-x="527" d="M484 765L468 614L159 608L139 415Q162 425 197 432T267 440Q329 440 372 422T442 371T481 299T491 215Q487 139 448 88T351 10T227 -16Q162 -16 118 5T52 59T31 123Q33 150 50 170T95 190Q116 191
129 182T147 160T152 133Q151 125 148 114T138 92Q141 76 155 66T189 50T226 44Q269 45 297 67T340 123T356 195Q358 220 356 250T341 310T303 357T231 376Q209 376 177 369T110 340L74 371L98 700H346Q387 700 409 713T433 765H484Z" />
<glyph unicode="6" glyph-name="six" horiz-adv-x="558" d="M334 716Q396 716 434 696T491 645T507 585Q506 560 490 541T447 522Q415 522 403 540T390 578Q391 586 394 598T406 620Q400 634 381 646T331 657Q296 655 271 636T228 587T199 520T182 446T173 378Q187
394 209 408T259 432T316 443Q373 444 412 427T474 377T506 303T513 214Q510 152 477 100T388 16T263 -16Q175 -16 126 26T58 144T46 325Q48 360 57 409T85 512T136 611T217 687T334 716ZM288 375Q264 375 240 364T198 334T168 294Q167 255 170 212T185 130T216
68T269 44Q308 44 332 64T367 119T381 190Q383 215 381 246T371 307T343 356T288 375Z" />
<glyph unicode="7" glyph-name="seven" horiz-adv-x="457" d="M181 -16Q154 -15 143 0T132 36Q132 52 140 76T164 138T208 232Q228 274 255 331T315 459T388 610L160 611Q124 612 102 597T77 539H27L41 700H464L460 617Q422 546 393 480T341 348T297 210T250 55Q242
28 227 6T181 -16Z" />
<glyph unicode="8" glyph-name="eight" horiz-adv-x="563" d="M264 -16Q227 -16 188 -7T117 21T65 74T48 156Q51 196 72 232T126 299T196 350Q131 392 104 439T78 528Q81 576 102 611T157 670T230 704T309 716Q360 716 405 697T479 641T504 550Q502 515 482 483T432
424T371 381Q407 350 434 327T480 281T506 233T513 170Q510 106 474 65T383 4T264 -16ZM269 44Q320 43 351 74T386 150Q388 175 382 196T359 238T316 278T251 320Q204 286 182 243T158 167Q153 113 184 79T269 44ZM317 414Q355 440 379 476T406 543Q411 598 383
627T311 656Q279 656 255 642T217 605T201 554Q200 526 214 499T254 451T317 414Z" />
<glyph unicode="9" glyph-name="nine" horiz-adv-x="558" d="M298 716Q365 716 409 690T478 617T512 508T518 373Q516 328 508 276T481 172T431 78T351 10T233 -16Q169 -16 130 3T74 53T59 116Q61 141 77 161T121 181Q153 181 165 163T176 125Q176 117 172 104T159
83Q167 69 185 56T236 44Q270 45 296 62T339 109T369 174T386 248T392 323Q372 300 334 280T250 257Q193 257 154 274T92 324T60 399T53 487Q57 553 88 604T173 686T298 716ZM292 657Q257 657 234 636T199 582T184 510Q183 486 184 455T195 394T224 345T279 326Q303
326 326 337T367 366T395 405Q397 454 394 499T379 579T346 636T292 657Z" />
<glyph unicode=":" glyph-name="colon" horiz-adv-x="250" d="M128 130Q157 130 175 109T191 57Q190 27 170 6T121 -16Q91 -16 73 5T56 57Q58 87 79 108T128 130ZM133 534Q162 534 180 513T196 461Q195 431 175 410T126 388Q96 388 78 409T61 461Q63 491 84 512T133 534Z" />
<glyph unicode=";" glyph-name="semicolon" horiz-adv-x="270" d="M124 124Q165 125 184 97T202 28Q202 -2 191 -37T159 -110T106 -184L73 -159Q86 -143 100 -117T125 -60T135 -1Q129 -2 124 -3T113 -4Q89 -4 72 11T54 55Q56 84 75 104T124 124ZM140 534Q169 534
187 513T203 461Q202 431 182 410T133 388Q103 388 85 409T68 461Q70 491 91 512T140 534Z" />
<glyph unicode="&lt;" glyph-name="less" horiz-adv-x="530" d="M480 76L42 272L46 353L505 553L500 465L153 315L485 165L480 76Z" />
<glyph unicode="=" glyph-name="equal" horiz-adv-x="530" d="M54 484H500L497 415H51L54 484ZM45 315H491L488 246H42L45 315Z" />
<glyph unicode="&gt;" glyph-name="greater" horiz-adv-x="530" d="M57 553L495 357L491 276L32 76L37 164L384 314L52 464L57 553Z" />
<glyph unicode="?" glyph-name="question" horiz-adv-x="481" d="M224 183Q206 183 187 190T155 212T143 252Q145 270 154 286T183 323T234 372Q259 395 280 419T316 472T333 539Q335 572 328 598T300 640T240 656Q220 656 202 649T170 632T150 612Q160 603 163
588T166 563Q165 550 158 537T137 514T102 506Q75 507 61 524T47 569Q48 603 76 637T152 693T261 716Q340 716 384 692T446 631T460 552Q457 510 434 476T377 414T312 361T257 316T233 276Q232 263 241 254T272 245Q279 245 287 246T305 250L317 204Q295 192 270
188T224 183ZM222 -16Q195 -16 177 4T159 56Q161 85 182 106T230 127Q258 127 276 106T292 56Q291 26 270 5T222 -16Z" />
<glyph unicode="@" glyph-name="at" horiz-adv-x="775" d="M418 637Q503 638 565 611T667 536T724 429T738 308Q734 241 711 194T655 119T586 79T521 69Q498 72 481 82T455 109T443 153T446 214Q414 139 377 107T302 74Q259 74 231 108T206 217Q208 268 225 315T272
401T347 461T448 484Q470 484 500 480T560 466Q554 432 547 393T532 315T520 244T514 190Q511 162 517 139T549 113Q576 111 597 128T633 173T658 234T669 300Q675 401 642 467T548 565T410 595Q347 593 294 565T201 491T138 386T111 262Q107 185 128 127T189 29T282
-31T395 -51Q434 -52 477 -42T563 -10T640 50L662 24Q606 -36 535 -66T384 -98Q293 -100 226 -72T115 5T51 119T35 256Q39 320 65 386T139 508T258 600T418 637ZM423 441Q394 439 371 418T330 364T304 293T292 218Q290 178 299 156T328 133Q350 133 372 162T415
238T450 337T468 436Q460 439 448 440T423 441Z" />
<glyph unicode="A" glyph-name="A" horiz-adv-x="655" d="M370 718L557 165Q563 148 571 117T579 63L639 66L636 0H385L388 55Q419 55 431 68T442 102T433 145L412 213L181 209L155 142Q149 125 140 104T121 65L195 68L191 0H-13L-10 57Q17 57 35 73T66 115T94
175L318 718H370ZM312 555Q306 534 295 502T266 429L206 273H394L346 423Q336 457 327 491T312 555Z" />
<glyph unicode="B" glyph-name="B" horiz-adv-x="646" d="M331 702Q449 703 514 659T571 524Q568 494 551 465T500 413T416 378V377Q518 366 564 316T607 198Q604 134 571 90T483 23T358 0H37L40 55Q67 56 83 65T106 95T115 156L136 551Q138 578 140 601T144 637Q128
636 106 636T70 634L74 700Q138 701 201 701T331 702ZM335 331Q309 331 289 331T247 329L238 146Q237 119 234 97T229 61Q247 61 265 61T300 60T330 61Q396 63 432 99T472 198Q475 248 456 277T405 319T335 331ZM328 643Q306 643 292 637T269 612T259 555L250 390Q265
390 280 390T309 391Q357 393 385 412T427 462T442 531Q444 575 427 599T383 634T328 643Z" />
<glyph unicode="C" glyph-name="C" horiz-adv-x="689" d="M409 716Q454 716 500 703T588 663H589L587 709H657L645 477H589Q581 564 537 610T417 657Q364 657 322 634T248 569T199 473T177 358Q173 269 198 200T273 92T392 52Q454 51 518 80T632 172L666 138Q616
74 562 41T456 -4T363 -16Q287 -16 226 11T123 87T59 200T42 340Q46 409 71 476T142 597T255 683T409 716Z" />
<glyph unicode="D" glyph-name="D" horiz-adv-x="749" d="M344 701Q439 701 509 675T625 602T694 494T714 363Q712 298 688 234T614 117T490 32T312 0H37L40 55Q67 56 83 64T106 94T115 154L136 553Q138 578 140 601T145 637Q128 636 106 636T70 634L74 700L344
701ZM338 644Q309 645 292 637T268 609T258 550L237 149Q236 122 234 99T230 63Q244 63 261 63T297 62T329 61Q408 61 462 101T546 208T578 351Q583 496 521 569T338 644Z" />
<glyph unicode="E" glyph-name="E" horiz-adv-x="622" d="M565 700L560 512H506Q509 569 492 597T446 636T387 645L334 644Q308 643 292 635T269 607T259 546L251 393L353 392Q367 402 376 414T389 442T395 482H457L445 247H390Q392 290 380 308T345 331T289 335L248
333L238 148Q237 121 235 99T230 63L383 64Q418 64 448 77T497 123T520 212H575L558 0H37L40 55Q68 56 83 64T106 94T115 154L137 553Q138 578 140 601T145 637Q128 636 106 636T71 634L74 700H565Z" />
<glyph unicode="F" glyph-name="F" horiz-adv-x="558" d="M559 700L555 512H500Q503 569 486 597T440 636T380 645L332 644Q306 643 291 635T268 607T259 549L249 371H345Q357 381 364 393T375 421T380 460H442L430 225H375Q377 267 366 285T333 309T281 313Q272
313 264 313T247 312L238 149Q237 122 235 99T230 63Q243 64 260 64T295 65T323 66L319 0H37L40 55Q68 56 83 64T106 94T115 154L137 553Q138 578 140 601T145 637Q128 636 106 636T71 634L74 700H559Z" />
<glyph unicode="G" glyph-name="G" horiz-adv-x="755" d="M363 -16Q257 -16 184 29T74 155T43 338Q46 407 71 474T142 596T254 683T408 716Q438 716 472 710T541 693T601 665L600 709H670L658 477H602Q598 536 573 575T508 634T416 655Q364 655 321 631T248 566T199
472T177 359Q173 271 196 202T270 93T392 53Q413 53 441 56T497 68T546 87L552 188Q554 215 555 240T559 282Q542 281 520 281T485 279L489 345H738L736 290Q715 289 702 282T680 263T668 233T662 192L654 35H630Q607 35 580 29T521 11Q488 1 448 -7T363 -16Z"
/>
<glyph unicode="H" glyph-name="H" horiz-adv-x="792" d="M763 700L760 645Q735 644 719 637T694 610T684 550L663 149Q662 122 660 99T655 63Q672 64 694 65T729 66L726 0H463L465 55Q493 56 509 64T532 94T541 154L550 323L247 319L238 149Q237 122 235 99T230
63Q247 64 269 65T304 66L301 0H37L40 55Q68 56 83 64T106 94T115 154L136 553Q138 578 140 601T145 637Q128 636 106 636T71 634L74 700H337L334 645Q309 644 293 637T269 609T259 550L250 387H553L562 553Q564 578 566 601T570 637Q554 636 532 636T496 634L499
700H763Z" />
<glyph unicode="I" glyph-name="I" horiz-adv-x="367" d="M337 700L334 645Q308 644 292 636T269 609T259 549L238 149Q237 122 235 99T230 63Q247 64 269 65T304 66L301 0H37L40 55Q68 56 83 64T106 94T115 154L136 553Q138 578 140 601T145 637Q128 636 106
636T71 634L74 700H337Z" />
<glyph unicode="J" glyph-name="J" horiz-adv-x="419" d="M414 700L411 645Q385 644 369 637T344 610T333 554L317 251Q312 155 288 97T221 11T112 -16Q78 -16 50 -5T4 28T-12 79Q-11 107 5 129T51 152Q85 154 98 135T112 94Q112 87 110 78T104 61Q109 52 119
49T135 45Q149 46 160 53T179 82T189 141L210 541Q212 568 214 593T218 637Q205 637 189 637T157 636T130 634L134 700H414Z" />
<glyph unicode="K" glyph-name="K" horiz-adv-x="696" d="M37 0L40 55Q68 56 83 64T106 94T115 154L136 553Q138 578 140 601T145 637Q128 636 106 636T71 634L74 700H337L334 645Q309 644 293 636T269 609T259 549L250 390H325L425 543Q443 570 463 597T500 638Q484
637 467 637T437 635L439 700H674L672 645Q643 643 615 635T557 604T495 532L391 377Q413 363 428 346T456 310L554 163Q578 128 599 104T642 68T685 55L681 0H541Q532 1 515 17T480 56T447 101L349 251Q335 272 319 292T289 324Q284 324 271 324T247 323L238 149Q237
122 235 99T230 63Q247 64 269 65T304 66L301 0H37Z" />
<glyph unicode="L" glyph-name="L" horiz-adv-x="596" d="M337 700L334 645Q308 644 292 636T268 606T258 546L237 148Q236 121 234 99T230 63L381 64Q442 65 477 105T517 229H572L555 0H37L40 55Q67 56 82 64T105 94T115 154L136 553Q138 578 140 601T145 637Q128
636 106 636T71 634L74 700H337Z" />
<glyph unicode="M" glyph-name="M" horiz-adv-x="952" d="M403 -10L264 367Q256 388 247 417T228 482T210 554H209Q207 502 205 454T200 362L184 151Q182 126 180 102T174 63Q192 64 214 65T250 66L247 0H31L35 55Q60 56 75 63T98 90T109 144L141 549Q143 574
145 598T150 637Q134 636 112 636T76 634L80 700H272L415 305Q431 260 443 220T468 141H469Q483 173 497 209T525 275Q555 345 586 416T649 559T711 700H914L911 645Q888 645 871 638T845 612T835 551L833 144Q833 120 831 98T826 63Q844 64 866 65T902 66L898
0H638L641 55Q666 56 682 63T706 90T715 153L717 408Q717 421 717 446T717 500T718 555H716L673 453L473 -10H403Z" />
<glyph unicode="N" glyph-name="N" horiz-adv-x="769" d="M575 -10L263 426Q249 445 235 466T206 508H204L190 156Q189 129 187 104T181 63Q199 64 221 65T256 66L252 0H39L42 55Q68 56 83 63T107 89T116 139L135 544Q137 570 139 595T142 637Q126 636 104 636T69
634L73 700H218L514 291Q536 260 553 235T585 187H586L604 553Q606 579 608 601T612 637Q596 636 574 636T538 634L542 700H754L752 645Q724 644 709 636T686 606T677 546L647 -10H575Z" />
<glyph unicode="O" glyph-name="O" horiz-adv-x="771" d="M408 716Q498 716 561 684T664 598T720 482T735 356Q733 294 710 229T641 108T528 18T371 -16Q278 -16 214 15T112 99T57 215T43 342Q45 410 69 476T140 597T254 683T408 716ZM395 657Q340 657 300 629T233
557T193 460T178 358Q175 309 184 255T217 152T281 74T382 43Q438 43 478 70T545 142T585 238T601 340Q603 405 592 463T555 565T490 633T395 657Z" />
<glyph unicode="P" glyph-name="P" horiz-adv-x="620" d="M335 702Q426 703 489 680T585 608T613 485Q611 446 593 406T539 333T444 279T305 256Q288 256 273 256T244 257L238 150Q237 122 235 99T230 63Q243 64 259 64T291 65T317 66L314 0H37L40 55Q68 56 83
64T106 94T115 154L136 553Q138 578 140 601T145 637Q128 636 106 636T70 634L74 700Q139 701 204 701T335 702ZM330 642Q306 642 291 635T268 607T259 552L247 321Q261 319 273 319T299 318Q354 318 394 337T456 394T481 486Q483 535 471 566T436 613T386 636T330
642Z" />
<glyph unicode="Q" glyph-name="Q" horiz-adv-x="772" d="M409 716Q499 716 562 684T665 598T722 482T737 356Q735 304 719 250T670 147T591 59T482 2V1Q510 1 532 -3T577 -19T627 -58Q663 -92 685 -113T720 -144T744 -158T771 -162L769 -218H731Q688 -218 662
-215T613 -201T563 -163Q531 -133 507 -107T461 -60T418 -28T364 -16Q273 -16 211 16T110 100T56 215T42 342Q44 410 69 476T141 597T254 683T409 716ZM396 654Q340 653 300 626T234 555T194 460T178 358Q176 309 185 255T218 154T281 76T382 46Q438 46 478 73T546
143T586 238T601 340Q603 405 592 462T556 563T491 630T396 654Z" />
<glyph unicode="R" glyph-name="R" horiz-adv-x="662" d="M337 702Q428 702 489 680T579 614T604 498Q601 457 581 419T521 350T416 303Q427 295 435 288T451 273T466 255T482 232L531 149Q550 118 565 98T598 67T641 55L638 0H489Q471 15 453 41T416 100L351
215Q339 236 328 254T304 286Q294 285 283 285T263 285T245 286L238 150Q237 122 235 99T230 63Q241 64 256 64T286 65T310 66L307 0H37L40 55Q68 56 83 64T106 94T115 154L136 553Q138 578 140 601T145 637Q128 636 106 636T70 634L74 700Q140 701 205 701T337
702ZM332 643Q306 643 291 635T268 607T259 552L248 349Q261 348 274 347T301 346Q357 347 394 363T452 413T475 500Q477 545 465 573T431 616T384 637T332 643Z" />
<glyph unicode="S" glyph-name="S" horiz-adv-x="589" d="M284 -16Q246 -16 199 -5T113 31L114 -9H45L55 218H112Q116 161 140 123T203 65T291 46Q328 46 358 59T406 96T426 150Q428 190 404 216T342 261T263 298Q206 322 159 352T85 424T61 530Q63 559 75 591T115
652T186 698T295 716Q334 716 381 705T462 667L461 709H529L518 480H462Q458 533 438 572T383 633T296 655Q247 655 213 627T176 558Q175 524 192 500T243 455T326 413Q364 397 403 377T475 331T527 268T544 182Q542 124 509 79T419 9T284 -16Z" />
<glyph unicode="T" glyph-name="T" horiz-adv-x="644" d="M644 700L638 479H582Q584 535 572 571T534 626T465 643H404L377 149Q376 122 374 99T369 63Q381 64 396 64T426 65T450 66L447 0H176L180 55Q206 56 221 65T245 95T255 154L282 642H217Q158 641 125 602T88
479H31L48 700H644Z" />
<glyph unicode="U" glyph-name="U" horiz-adv-x="751" d="M752 700L749 645Q721 644 706 636T683 606T673 546L660 302Q655 223 633 163T574 64T484 4T367 -16Q284 -16 230 7T146 73T106 176T100 309L113 550Q115 577 116 599T121 637Q105 636 83 636T47 634L50
700H315L311 645Q285 644 269 636T246 611T236 561L222 293Q219 232 228 188T258 114T311 69T385 54Q446 52 488 79T554 157T582 285L598 553Q600 578 601 601T606 637Q589 636 567 636T532 634L535 700H752Z" />
<glyph unicode="V" glyph-name="V" horiz-adv-x="690" d="M716 700L713 645Q675 644 650 621T600 541Q587 510 573 478T544 409T511 331T472 239T425 128T368 -8H307L106 528Q94 562 87 590T79 637Q64 636 50 636T24 634L28 700H298L295 645Q253 644 236 624T235
557L315 329Q333 282 346 244T372 169H373Q386 200 400 236T430 309Q451 360 468 403T501 482T530 552Q545 588 554 607T572 638Q555 637 532 636T495 634L498 700H716Z" />
<glyph unicode="W" glyph-name="W" horiz-adv-x="1005" d="M261 -8L110 529Q99 564 91 591T83 637Q67 636 54 636T29 634L32 700H307L303 645Q259 645 243 627T238 559L292 329Q300 291 308 258T325 177H327Q331 192 340 217T358 272T376 324T388 359L512 701H581L678
330Q688 292 696 253T713 173H715Q726 204 738 238T762 309Q777 351 789 385T810 447T828 501T846 552Q853 574 863 597T888 638Q870 637 847 636T810 634L813 700H1031L1028 645Q1008 643 992 637T963 618T936 582T910 524L713 -8H646L542 362Q529 406 522 442T509
510H507Q498 477 489 445T466 379L325 -8H261Z" />
<glyph unicode="X" glyph-name="X" horiz-adv-x="684" d="M14 0L17 55Q53 63 83 90T151 166L281 331Q238 392 201 443T132 539Q113 567 100 590T77 637Q62 636 53 636T32 634L35 700H323L320 645Q280 644 263 637T248 613T266 572L359 437L448 553Q472 585 489
605T521 638Q503 637 480 636T443 634L446 700H664L660 645Q634 642 610 626T560 584T508 523L398 383L570 145Q586 124 600 104T625 63Q641 65 649 65T670 66L667 0H387L390 55Q427 55 439 64T447 90T429 125L321 276L223 146Q202 118 187 99T154 62Q173 64 194
65T230 66L227 0H14Z" />
<glyph unicode="Y" glyph-name="Y" horiz-adv-x="657" d="M196 0L199 55Q227 56 242 65T265 95T274 154L279 250L114 536Q97 564 87 592T76 637Q60 636 48 636T22 634L26 700H305L302 645Q268 646 249 636T227 607T241 557Q258 527 277 494T315 428Q320 418 328
402T346 369T361 337H363Q371 353 384 376T414 432Q431 462 448 491T483 551Q489 562 498 578T518 610T538 637Q521 636 498 636T460 634L464 700H679L676 645Q637 641 609 615T546 531L403 285L397 149Q396 122 393 99T388 63Q400 64 415 64T445 65T469 66L466
0H196Z" />
<glyph unicode="Z" glyph-name="Z" horiz-adv-x="606" d="M26 0L30 65L374 545Q395 575 411 597T447 641L246 643Q190 644 155 608T115 489H59L76 700H580L576 638L238 166Q216 135 195 109T153 60L357 58Q416 57 456 92T501 211H556L539 0H26Z" />
<glyph unicode="[" glyph-name="bracketleft" horiz-adv-x="379" d="M398 755L394 689L200 686L146 -186L345 -189L341 -255H37L96 755H398Z" />
<glyph unicode="\" glyph-name="backslash" horiz-adv-x="790" d="M673 -271L45 706L120 757L736 -226L673 -271Z" />
<glyph unicode="]" glyph-name="bracketright" horiz-adv-x="379" d="M-26 -255L-22 -189L172 -186L226 686L27 689L31 755H335L276 -255H-26Z" />
<glyph unicode="^" glyph-name="asciicircum" horiz-adv-x="823" d="M635 437L412 656L168 441H53L375 716H464L756 437H635Z" />
<glyph unicode="_" glyph-name="underscore" horiz-adv-x="793" d="M64 -50L678 -54L677 -136H63L64 -50Z" />
<glyph unicode="`" glyph-name="grave" horiz-adv-x="265" d="M180 570L69 677Q56 692 50 708T46 739T61 765Q73 775 87 775T116 768T142 741L220 604L180 570Z" />
<glyph unicode="a" glyph-name="a" horiz-adv-x="549" d="M328 511Q356 511 393 506T468 491Q462 447 455 391T440 280T428 178T423 107Q423 88 427 78T442 68Q455 68 470 86T500 153L545 140Q542 120 532 94T506 44T465 5T409 -11Q375 -11 353 10T331 80Q331
98 333 120T340 163H338Q318 110 296 76T251 22T205 -4T160 -11Q105 -11 67 32T29 168Q29 238 48 299T106 409T199 484T328 511ZM293 455Q259 455 232 435T186 377T158 287T148 171Q148 122 159 93T195 63Q219 63 241 87T281 152T313 243T336 346T346 447Q338 450
323 452T293 455Z" />
<glyph unicode="b" glyph-name="b" horiz-adv-x="512" d="M215 755Q211 726 207 690T200 619T194 563Q192 541 189 507T181 435T172 361H174Q192 407 212 436T255 482T298 504T337 511Q386 511 416 485T460 415T474 322Q474 255 459 195T411 88T327 15T201 -11Q185
-11 159 -9T104 -1T50 14Q55 100 58 169T66 304T74 437T84 586Q86 606 87 626T92 665Q75 664 55 664T22 662L26 726Q71 726 100 730T145 742T169 755H215ZM300 434Q278 434 258 413T220 354T189 269T167 167T158 58Q168 52 185 49T216 45Q252 45 276 63T317 113T341
181T351 255T354 323Q353 382 338 408T300 434Z" />
<glyph unicode="c" glyph-name="c" horiz-adv-x="469" d="M275 511Q320 511 355 496T412 455T433 392Q433 365 418 348T376 330Q345 329 333 348T320 382Q320 391 322 402T331 423Q327 438 311 446T273 455Q237 455 214 433T178 377T158 305T152 232Q150 173 163
137T199 85T248 67Q269 66 294 74T345 106T390 178L440 154Q413 91 379 55T306 5T226 -11Q138 -10 85 43T31 207Q31 256 45 309T90 407T166 482T275 511Z" />
<glyph unicode="d" glyph-name="d" horiz-adv-x="561" d="M175 -11Q126 -11 94 14T47 83T31 180Q31 276 61 350T155 468T313 511Q323 511 339 511T364 508Q368 551 371 581T377 632T383 665Q366 664 346 664T312 662L316 726Q362 726 391 730T436 742T460 755H506Q497
684 488 605T467 432Q460 366 453 303T441 188T436 105Q436 86 440 77T455 68Q468 68 482 86T511 153L557 140Q553 120 544 94T518 44T479 5T423 -11Q388 -11 366 10T344 80Q344 103 346 121T352 163H350Q325 93 295 55T234 3T175 -11ZM207 65Q234 65 258 94T302
172T334 281Q342 317 347 358T357 446Q347 450 329 452T299 455Q262 455 236 437T194 388T168 321T155 250T151 186Q151 129 165 97T207 65Z" />
<glyph unicode="e" glyph-name="e" horiz-adv-x="472" d="M281 511Q322 511 355 499T408 459T427 389Q427 348 402 319T335 272T245 241T152 224Q152 165 165 131T200 82T250 67Q271 67 296 75T347 107T391 171L439 147Q411 86 377 52T305 3T226 -11Q133 -12 82
44T31 206Q31 258 46 311T91 410T169 483T281 511ZM269 456Q231 456 207 430T171 363T154 279Q208 288 245 305T302 347T322 400Q321 427 306 441T269 456Z" />
<glyph unicode="f" glyph-name="f" horiz-adv-x="344" d="M325 760Q367 760 390 742T413 693Q413 684 408 671T391 649T358 639Q337 640 323 656T312 697Q311 699 306 699T294 700Q275 699 263 682T242 635T230 570T222 500H356L350 441L219 439Q216 402 213 355T206
256T198 157T190 71Q184 16 175 -34T150 -128T111 -203T53 -253T-29 -271Q-72 -271 -95 -254T-118 -206Q-118 -195 -113 -182T-96 -159T-63 -150Q-42 -151 -29 -167T-18 -207Q-10 -211 1 -211Q24 -211 37 -187T58 -121T69 -29T79 74Q82 112 85 159T92 257T100 355T107
438L24 437L32 500H114Q124 576 147 634T214 726T325 760Z" />
<glyph unicode="g" glyph-name="g" horiz-adv-x="519" d="M175 -271Q145 -271 117 -266T66 -248T31 -218T17 -174Q17 -160 24 -145T44 -119T78 -109Q102 -109 118 -124T135 -166Q135 -181 129 -195Q135 -204 152 -209T184 -215Q229 -215 255 -190T294 -123T314
-28Q321 27 327 73T344 163H343Q323 110 302 76T259 23T214 -3T168 -11Q128 -11 97 10T49 73T31 175Q31 243 47 303T99 410T190 484T321 511Q351 511 391 506T466 491Q463 447 459 388T451 265T441 140T431 31Q423 -64 394 -131T311 -235T175 -271ZM202 64Q226
64 247 88T287 153T318 244T341 347T353 447Q344 450 330 452T300 455Q259 455 230 434T184 375T158 286T149 177Q149 144 155 119T173 79T202 64Z" />
<glyph unicode="h" glyph-name="h" horiz-adv-x="573" d="M422 -11Q370 -11 351 17T332 96Q332 126 336 163T345 241T354 319T358 386Q358 400 355 411T344 428T323 434Q302 434 280 411T238 349T201 262T176 163T166 66Q166 52 167 32T169 0H56Q55 16 55 23T54
41Q54 82 56 138T62 255T71 378T81 492T91 586Q94 606 97 627T103 665L33 662L37 726Q83 726 112 730T157 742T181 755H226Q223 727 218 690T209 618T201 562Q199 549 196 522T189 462T181 396T172 336H174Q200 406 230 444T292 496T353 511Q416 511 443 471T471
365Q471 323 465 275T452 181T445 100Q445 84 449 76T464 68Q477 68 492 86T521 153L565 140Q561 120 551 94T522 44T480 5T422 -11Z" />
<glyph unicode="i" glyph-name="i" horiz-adv-x="337" d="M148 511Q197 511 217 481T238 399Q238 373 233 333T222 248T210 164T204 99Q204 82 210 75T225 68Q238 68 253 86T282 153L327 140Q323 119 312 93T284 44T241 5T184 -11Q132 -11 111 17T90 96Q90 130
95 170T108 252T120 332T125 400Q125 416 120 424T105 432Q93 432 78 414T49 347L4 360Q7 380 18 406T47 456T91 495T148 511ZM191 751Q220 751 239 730T256 677Q256 646 236 625T186 604Q156 604 138 625T119 677Q121 709 142 730T191 751Z" />
<glyph unicode="j" glyph-name="j" horiz-adv-x="308" d="M153 511Q201 511 222 482T245 400Q246 352 243 286T234 153Q229 98 220 39T195 -76T151 -175T83 -245T-16 -271Q-55 -271 -81 -254T-107 -204Q-107 -192 -102 -179T-83 -155T-50 -146Q-29 -147 -14 -164T-4
-210Q2 -213 13 -213Q34 -213 50 -190T77 -130T97 -48T111 38T119 114T123 163Q128 226 130 290T132 400Q131 416 126 424T111 432Q99 431 85 413T57 346L11 359Q15 379 25 405T52 455T95 495T153 511ZM193 751Q223 751 241 730T259 677Q258 646 238 625T188 604Q158
604 140 625T122 677Q123 709 144 730T193 751Z" />
<glyph unicode="k" glyph-name="k" horiz-adv-x="519" d="M375 -11Q333 -11 306 18T252 119Q239 153 229 174T201 201Q196 203 191 204T180 203Q173 171 169 132T164 62Q164 49 165 32T167 0H53Q51 16 51 24T51 41Q51 58 53 99T58 198T67 323T79 457T95 586Q97
608 100 627T108 665Q91 664 70 664T36 662L40 726Q86 726 115 730T160 742T184 755H230Q225 723 220 687T210 615T201 542Q195 492 189 446T178 357H179Q204 416 233 449T292 497T351 511Q388 511 411 497T445 459T456 404Q456 373 437 336T377 267T265 222V221Q304
220 322 201T352 155Q362 134 370 115T388 85T407 74Q420 73 431 87T453 140L498 127Q491 94 475 63T434 10T375 -11ZM188 256Q269 256 309 294T349 401Q349 414 346 425T336 444T316 451Q296 451 271 427T224 358T188 256Z" />
<glyph unicode="l" glyph-name="l" horiz-adv-x="296" d="M233 755Q230 726 226 696T219 638T212 585Q203 507 196 442T183 323T173 228T167 156T165 104Q165 86 169 77T183 68Q197 68 212 86T240 153L286 140Q281 117 270 91T242 42T199 4T140 -11Q102 -11 78
10T53 80Q53 112 56 157T63 255T74 364T86 477T99 585Q102 608 105 627T111 665Q94 664 74 664T41 662L45 726Q90 726 119 730T164 742T188 755H233Z" />
<glyph unicode="m" glyph-name="m" horiz-adv-x="877" d="M725 -11Q673 -11 655 17T636 96Q636 126 640 163T650 241T659 319T664 386Q664 400 661 411T651 428T630 434Q608 434 587 411T546 349T512 262T488 164T479 69Q479 55 480 36T482 0H368Q366 16 366 30T366
53Q366 95 370 142T379 235T389 321T393 387Q393 408 386 421T358 434Q337 434 315 411T274 348T239 260T214 162T205 66Q205 52 205 32T207 0H94Q92 16 92 23T92 41Q92 60 93 85T99 143T109 219Q113 258 116 287T123 337T127 374T129 400Q129 417 124 424T110
432Q98 432 83 414T54 347L8 360Q12 380 21 406T47 456T86 495T141 511Q166 511 184 500T212 468T221 411Q221 389 218 372T212 336H214Q241 406 271 444T332 496T391 511Q426 511 448 496T481 455T492 396Q492 382 491 369T485 337H487Q514 407 543 445T602 497T660
511Q702 511 727 493T764 441T776 365Q776 323 770 275T756 181T748 100Q748 84 753 76T767 68Q780 68 795 86T824 153L870 140Q866 120 855 94T826 44T783 5T725 -11Z" />
<glyph unicode="n" glyph-name="n" horiz-adv-x="612" d="M460 -11Q407 -11 389 17T370 96Q370 126 374 163T383 241T393 319T397 386Q397 400 394 411T384 428T363 434Q341 434 319 411T277 348T240 260T215 162T205 66Q205 52 206 32T208 0H94Q92 16 92 23T91
41Q91 60 93 86T100 148T109 226Q114 264 117 292T123 340T127 375T128 400Q128 417 124 424T110 432Q97 432 82 414T54 347L8 360Q12 380 21 406T46 456T85 495T140 511Q166 511 184 500T212 466T221 408Q220 386 218 369T212 334H214Q241 405 271 443T332 496T393
511Q435 511 460 493T498 441T510 365Q510 323 504 275T490 181T483 100Q483 84 488 76T502 68Q515 68 530 86T558 153L604 140Q600 120 589 94T560 44T517 5T460 -11Z" />
<glyph unicode="o" glyph-name="o" horiz-adv-x="517" d="M281 511Q337 511 381 485T452 410T479 289Q479 210 449 141T364 31T230 -11Q163 -11 119 19T54 101T32 215Q32 295 62 362T148 470T281 511ZM266 455Q232 456 206 428T166 351T152 245Q151 213 155 179T169
114T198 65T243 46Q274 45 295 66T330 120T349 190T357 260Q358 289 355 323T342 387T314 435T266 455Z" />
<glyph unicode="p" glyph-name="p" horiz-adv-x="574" d="M33 -255V-202Q59 -202 71 -188T88 -150T95 -95Q105 12 112 95T123 240T130 339T133 395Q133 414 129 423T114 432Q101 432 86 414T58 347L12 360Q16 380 25 406T50 456T89 495T145 511Q181 511 203 488T225
415Q225 393 223 375T217 337H219Q244 408 273 445T334 497T392 511Q440 511 472 486T520 418T536 319Q536 223 505 149T410 32T250 -11Q242 -11 232 -11T213 -9Q210 -67 208 -102T204 -158T199 -194Q215 -192 233 -192T264 -191V-255H33ZM263 44Q300 44 326 63T370
112T398 178T412 249T417 312Q417 352 411 379T393 421T361 435Q338 435 318 415T280 357T249 268T227 155Q224 131 221 106T216 52Q229 49 241 47T263 44Z" />
<glyph unicode="q" glyph-name="q" horiz-adv-x="521" d="M320 511Q339 511 366 509T421 504T470 496Q465 427 459 351T447 196T434 42T423 -107Q422 -123 420 -148T414 -194Q431 -192 449 -192T480 -191V-255H249V-202Q280 -202 292 -184T308 -130T316 -35Q320
7 325 53T335 140H334Q308 76 280 44T225 0T171 -11Q124 -11 93 15T47 84T31 177Q31 270 62 345T157 466T320 511ZM305 456Q260 455 230 431T183 368T158 281T151 188Q151 124 167 95T209 65Q231 65 251 88T290 151T323 240T346 344T357 449Q348 452 332 454T305
456Z" />
<glyph unicode="r" glyph-name="r" horiz-adv-x="458" d="M95 0Q93 16 93 23T93 41Q93 60 95 87T100 151T109 230Q115 275 119 308T126 362T128 396Q129 414 125 423T110 432Q97 432 82 414T54 347L8 360Q12 380 21 406T46 456T85 495T140 511Q177 511 199 488T221
412Q220 394 217 371T209 318H211Q238 398 267 439T326 496T383 511Q418 511 440 492T462 441Q462 418 446 399T402 380Q382 380 366 393T350 428Q330 432 310 410T271 347T238 258T216 158T207 62Q207 49 208 31T210 0H95Z" />
<glyph unicode="s" glyph-name="s" horiz-adv-x="440" d="M197 -11Q151 -11 112 2T49 41T24 102Q24 130 40 147T81 165Q106 165 120 149T135 110Q135 103 134 95T128 79Q134 65 156 55T198 45Q245 45 266 66T287 118Q287 140 271 156T230 188T177 220Q136 244
107 266T62 312T47 370Q47 406 69 438T132 490T231 511Q270 511 307 499T368 462T392 405Q392 381 377 364T336 346Q312 346 298 362T283 400Q283 408 284 415T290 429Q283 442 266 449T227 456Q211 456 194 449T164 428T152 395Q152 379 160 367T188 341T242 307Q276
287 311 265T371 213T395 140Q395 96 370 62T299 9T197 -11Z" />
<glyph unicode="t" glyph-name="t" horiz-adv-x="385" d="M241 648L222 500H358L353 441L216 439Q212 401 207 359T199 275T192 200T189 143Q189 128 192 111T205 82T237 70Q246 70 261 74T294 92T328 135L371 108Q339 49 295 19T198 -11Q148 -11 122 10T87 65T78
136Q80 172 83 221T91 326T102 438L19 437L26 500Q99 500 133 538T184 648H241Z" />
<glyph unicode="u" glyph-name="u" horiz-adv-x="596" d="M210 -11Q169 -11 143 7T106 59T94 135Q94 178 101 226T115 320T122 399Q122 417 117 424T102 432Q89 432 75 414T47 347L1 360Q5 380 15 406T44 456T87 495T144 511Q195 511 215 483T235 403Q235 374
231 336T221 256T211 178T206 115Q206 101 209 90T220 73T241 66Q261 66 282 89T323 152T358 240T383 338T392 434Q392 449 392 468T390 500H504Q505 484 505 477T506 459Q506 440 504 413T497 350T487 270Q483 233 480 205T474 158T470 124T468 100Q468 83 473
76T487 68Q500 68 514 86T543 153L588 140Q585 120 576 94T550 44T511 5T456 -11Q422 -11 399 10T375 80Q375 103 378 123T384 168H382Q356 97 328 59T270 5T210 -11Z" />
<glyph unicode="v" glyph-name="v" horiz-adv-x="524" d="M362 511Q398 511 424 492T464 441T483 368T481 286Q476 238 456 187T403 90T324 17T224 -11Q180 -11 153 7T114 59T101 136Q101 167 103 204T109 279T116 348T119 400Q119 417 114 424T99 432Q86 432
72 414T44 347L-1 360Q2 380 12 405T41 455T83 495T141 511Q176 511 195 497T223 459T232 402Q232 371 230 332T224 253T217 179T214 120Q214 108 216 93T227 68T254 57Q280 58 307 76T359 126T399 199T419 288Q421 302 421 320T419 357T410 391T391 413Q383 404
372 398T347 392Q330 392 311 405T292 448Q292 460 298 475T320 500T362 511Z" />
<glyph unicode="w" glyph-name="w" horiz-adv-x="797" d="M636 511Q672 511 697 492T738 441T757 368T755 286Q750 236 728 184T669 88T585 16T484 -11Q446 -11 422 6T388 57T383 137Q368 87 341 54T281 5T213 -11Q151 -11 124 29T97 136Q97 167 101 204T109 278T117
348T121 399Q121 417 116 424T102 432Q88 432 74 414T46 347L0 360Q4 380 14 406T43 456T86 495T143 511Q178 511 198 497T226 458T235 401Q235 369 232 329T223 248T214 172T210 115Q210 103 212 90T221 67T243 57Q271 57 293 79T333 138T361 222T378 319T384
415Q384 433 383 457T379 500H494Q496 483 496 473T497 453Q497 415 493 369T484 275T474 188T470 120Q470 100 479 79T515 56Q542 56 571 74T626 125T670 199T693 288Q695 302 695 320T693 357T684 391T665 413Q657 404 646 398T621 392Q603 392 584 405T565 448Q565
461 571 476T594 501T636 511Z" />
<glyph unicode="x" glyph-name="x" horiz-adv-x="544" d="M90 -11Q56 -11 36 6T16 52Q16 80 32 97T71 114Q95 114 106 102T121 76Q141 80 163 121T215 251Q198 297 187 330T164 391Q154 413 146 420T126 429Q112 429 99 413T81 346L34 351Q35 372 42 399T63 452T103
494T167 511Q206 511 226 489T262 427Q269 409 275 391T290 342Q313 400 334 433T375 484T411 506T442 511Q474 511 490 494T506 449Q506 427 490 410T451 393Q431 393 421 401T403 417Q393 412 381 398T353 353T315 271Q330 232 344 197T373 133T401 88T427 71Q443
71 453 87T470 148L516 141Q514 118 507 92T486 43T449 4T391 -11Q366 -11 348 -3T315 25T283 81T242 175H241Q220 113 201 76T163 20T126 -5T90 -11Z" />
<glyph unicode="y" glyph-name="y" horiz-adv-x="545" d="M103 -271Q61 -270 38 -250T15 -198Q15 -169 33 -153T71 -136Q121 -136 126 -189Q129 -191 133 -191T140 -192Q159 -193 179 -179T217 -143T250 -101T272 -66Q264 -14 250 43T216 159T176 273T136 374Q129
391 118 409T88 427Q73 427 61 408T47 343L-1 347Q-1 370 5 398T27 452T66 494T128 511Q162 511 184 495T222 454T248 404Q264 364 283 306T319 183T346 55H347Q370 102 388 150T417 245T430 332Q431 347 429 369T417 402Q413 400 409 400T400 399Q377 399 362
414T346 451Q346 482 365 496T407 511Q442 511 463 491T493 439T502 375Q502 324 487 261T444 129T382 -4Q340 -83 295 -143T201 -237T103 -271Z" />
<glyph unicode="z" glyph-name="z" horiz-adv-x="484" d="M57 -11L18 24Q42 58 75 102T145 193T213 277Q244 315 267 340T313 386T360 434H358Q323 402 297 393T248 384Q227 385 209 391T174 404T136 410Q117 410 104 397T90 357Q90 340 96 322L54 307Q48 323
45 341T42 381Q42 416 56 445T96 493T160 511Q188 511 216 504T273 488T331 480Q343 480 366 485T414 511L453 475Q431 448 404 414T347 342T287 265Q229 192 185 148T103 66H104Q139 97 168 107T225 117Q250 117 270 110T308 97T347 90Q366 90 379 101T392 136Q393
146 391 156T385 177L428 191Q433 176 437 158T441 119Q441 85 428 55T388 7T324 -11Q295 -11 263 -3T199 13T138 21Q123 21 103 16T57 -11Z" />
<glyph unicode="{" glyph-name="braceleft" horiz-adv-x="341" d="M353 760L350 705Q302 707 275 687T235 632T219 548Q218 537 219 516T221 470T223 422T223 384Q221 329 190 300T114 257V255Q157 240 184 209T209 124Q209 111 206 88T199 36T192 -18T189 -62Q188
-105 198 -140T234 -197T306 -218L303 -271Q291 -271 281 -271T261 -271Q194 -271 156 -243T103 -166T89 -52Q89 -37 91 -11T97 44T104 100T107 143Q108 181 94 202T38 224H0L4 287H41Q84 287 100 306T119 365Q120 374 120 396T119 444T118 496T117 536Q119 608
137 658T198 734T310 760Q322 760 331 760T353 760Z" />
<glyph unicode="|" glyph-name="bar" horiz-adv-x="234" d="M190 760L132 -271H41L92 760H190Z" />
<glyph unicode="}" glyph-name="braceright" horiz-adv-x="341" d="M-20 -271L-18 -216Q31 -217 58 -198T98 -142T114 -59Q114 -48 114 -27T112 19T110 67T110 105Q112 160 143 189T219 232V234Q176 250 149 281T123 365Q124 378 127 401T134 453T141 507T144
551Q145 594 135 629T98 686T27 707L30 760Q42 760 51 760T72 760Q139 760 177 732T230 655T244 541Q244 526 242 501T236 446T229 389T226 346Q224 308 239 287T295 265H333L329 202H292Q249 202 233 183T213 124Q213 115 213 93T214 45T215 -7T215 -47Q215 -119
196 -168T135 -244T22 -271Q11 -271 2 -271T-20 -271Z" />
<glyph unicode="~" glyph-name="asciitilde" horiz-adv-x="530" d="M366 211Q328 211 303 222T259 248T218 274T167 286Q127 286 99 272T42 238L47 338Q80 364 108 377T177 391Q216 391 240 381T282 356T318 330T363 316Q399 313 432 326T493 363L488 263Q466
241 436 226T366 211Z" />
<glyph unicode="&#xa0;" glyph-name="uni00A0" horiz-adv-x="263" />
<glyph unicode="&#xa1;" glyph-name="exclamdown" horiz-adv-x="241" d="M91 -216Q66 -216 52 -203T32 -171T30 -131L88 281H145L161 -131Q163 -161 145 -188T91 -216ZM122 369Q93 369 75 390T58 443Q60 473 82 494T130 516Q157 516 176 495T193 443Q192 412 171
391T122 369Z" />
<glyph unicode="&#xa2;" glyph-name="cent" horiz-adv-x="486" d="M337 624L325 507Q375 497 406 467T438 392Q438 365 423 348T381 330Q351 329 339 348T326 382Q326 391 328 402T337 423Q332 438 316 447T279 456Q243 456 220 434T183 378T164 305T157 232Q156
173 169 137T204 84T253 66Q274 65 299 74T350 107T396 179L446 155Q410 73 363 36T264 -9L251 -132H170L182 -6Q115 8 76 60T36 207Q36 252 48 300T85 391T149 465T238 506L249 624H337Z" />
<glyph unicode="&#xa3;" glyph-name="sterling" horiz-adv-x="549" d="M73 -16Q47 -16 36 -1T26 34Q28 62 53 84T116 119Q142 161 142 207T133 303H53L57 370H117Q113 394 111 421T109 482Q113 556 143 608T221 688T323 716Q384 716 419 696T468 647T481 593Q480
567 465 548T422 528Q401 528 389 537T371 558T366 582Q367 593 371 606T385 629Q381 640 367 649T329 658Q294 658 270 637T235 585T221 520Q218 477 221 441T230 370H387L383 307L237 305Q241 268 235 234T213 171T169 119Q193 128 211 131T245 134Q267 134 286
129T322 115Q347 104 368 93T409 82Q424 82 438 96T455 141H507Q500 72 470 28T387 -16Q353 -16 324 0T266 35Q242 49 213 61T156 73Q146 36 123 10T73 -16Z" />
<glyph unicode="&#xa4;" glyph-name="currency" horiz-adv-x="554" d="M107 31L49 80L110 146Q83 194 86 254Q88 283 97 312T125 366L68 435L131 484L179 420Q200 434 226 442T284 451Q314 451 339 443T385 420L440 484L497 433L433 364Q448 339 455 311T460 254Q459
225 450 197T425 146L479 80L417 31L370 93Q348 79 321 72T263 64Q231 64 205 71T159 93L107 31ZM266 125Q290 125 306 139T332 176T347 224T353 270Q354 285 351 306T340 346T318 379T280 392Q258 392 243 379T217 347T202 306T196 270Q195 249 197 224T206 177T228
140T266 125Z" />
<glyph unicode="&#xa5;" glyph-name="yen" horiz-adv-x="704" d="M222 0L224 55Q249 56 264 62T288 88T299 146H184L188 213H302L305 267L189 266L193 334L262 333L139 536Q122 565 112 592T101 637Q85 636 73 636T48 634L52 700H331L328 645Q276 647 259 624T266
557Q284 524 302 493T338 430Q344 421 352 406T370 373T385 341H390Q410 378 438 428T508 551Q514 562 523 578T544 610T564 637Q547 636 524 636T486 634L490 700H705L702 645Q662 641 634 615T571 531Q541 480 513 430T456 332H543L540 268L428 267L425 212L538
211L535 148L422 147Q421 123 419 102T414 63Q432 64 456 65T495 66L491 0H222Z" />
<glyph unicode="&#xa6;" glyph-name="brokenbar" horiz-adv-x="253" d="M198 760L174 379H84L101 760H198ZM164 109L140 -271H51L67 109H164Z" />
<glyph unicode="&#xa7;" glyph-name="section" horiz-adv-x="526" d="M224 -228Q170 -228 130 -209T68 -160T47 -98Q49 -72 64 -52T106 -31Q127 -31 139 -40T156 -62T160 -86Q160 -107 147 -124Q151 -136 162 -146T191 -162T226 -168Q263 -168 286 -155T321 -123T335
-82Q338 -52 325 -29T288 14T238 49T184 83Q155 103 128 124T78 170T43 228T34 300Q36 340 60 385T123 466Q102 492 95 518T89 575Q90 602 102 634T138 695T201 742T295 760Q349 760 389 741T452 692T472 629Q471 604 456 585T413 564Q393 564 381 573T363 594T359
617Q359 628 362 638T372 657Q369 669 358 679T330 694T295 700Q259 700 236 686T200 652T186 610Q185 577 199 553T239 509T292 472T347 436Q392 405 424 376T472 311T487 226Q487 202 475 172T443 112T397 60Q411 40 422 14T432 -49Q431 -77 420 -108T384 -166T320
-210T224 -228ZM359 105Q371 122 378 150T385 198Q386 233 371 259T331 307T275 347T215 383T163 421Q151 403 144 376T136 328Q135 293 150 267T191 219T247 179T306 143T359 105Z" />
<glyph unicode="&#xa8;" glyph-name="dieresis" horiz-adv-x="394" d="M276 605Q252 605 236 624T221 670Q221 700 240 721T284 742Q308 742 323 723T338 677Q337 647 319 626T276 605ZM111 605Q87 605 71 624T56 670Q56 700 75 721T119 742Q143 742 158 723T173
677Q172 647 154 626T111 605Z" />
<glyph unicode="&#xa9;" glyph-name="copyright" horiz-adv-x="885" d="M440 97Q371 97 318 129T237 217T212 341Q215 385 232 430T281 512T361 572T468 593Q500 592 530 584T586 556V589H650L641 416H587Q583 478 548 504T469 531Q433 531 400 509T344 447T319
352Q317 304 335 263T388 197T473 171Q507 171 548 190T619 245L655 207Q621 164 582 140T506 107T440 97ZM425 -64Q334 -64 261 -34T137 51T61 180T39 343Q44 428 78 502T171 632T305 721T470 753Q559 753 631 721T754 633T831 502T852 342Q848 258 813 184T719
55T585 -32T425 -64ZM431 -10Q507 -10 570 18T680 95T753 207T784 343Q788 414 768 478T705 592T602 670T465 699Q389 699 326 671T215 594T140 480T108 343Q104 271 124 208T186 95T289 18T431 -10Z" />
<glyph unicode="&#xaa;" glyph-name="ordfeminine" horiz-adv-x="405" d="M244 716Q262 716 292 713T347 704Q343 675 338 638T327 564T319 495T316 448Q316 436 318 430T326 424Q334 424 343 434T362 475L391 467Q388 449 378 427T349 388T301 371Q274 371 261
385T247 430Q247 441 249 455T253 483H252Q235 437 216 413T178 380T140 371Q106 371 80 399T53 487Q53 552 74 604T139 686T244 716ZM221 673Q196 672 179 653T151 595T139 496Q139 466 146 449T167 431Q183 431 198 453T226 511T247 589T258 668Q253 671 242
672T221 673Z" />
<glyph unicode="&#xab;" glyph-name="guillemotleft" horiz-adv-x="498" d="M270 -11L20 259V276L306 555L340 516L133 266V265L309 25L270 -11ZM404 69L237 262V278L429 475L464 445L344 273V272L443 100L404 69Z" />
<glyph unicode="&#xac;" glyph-name="logicalnot" horiz-adv-x="530" d="M408 152L412 272L42 270L47 356L495 353L484 152H408Z" />
<glyph unicode="&#xad;" glyph-name="uni00AD" horiz-adv-x="476" d="M422 364L418 278L56 275L59 364H422Z" />
<glyph unicode="&#xae;" glyph-name="registered" horiz-adv-x="885" d="M470 753Q559 753 631 721T754 633T831 502T852 342Q848 258 813 184T719 55T585 -32T425 -64Q334 -64 261 -34T137 51T61 180T39 343Q44 428 78 502T171 632T305 721T470 753ZM465 699Q389
699 326 671T215 594T140 480T108 343Q104 271 124 208T186 95T289 18T431 -10Q507 -10 570 18T680 95T753 207T784 343Q788 414 768 478T705 592T602 670T465 699ZM246 165Q273 166 284 179T297 231L310 486Q311 504 313 519T316 543Q304 542 290 542T265 540L268
589Q297 589 328 589T392 590T453 591Q513 590 554 575T614 529T630 450Q629 424 617 398T579 351T511 318Q524 311 532 301T549 276Q578 226 593 202T620 171T648 163L646 123H550Q538 130 524 147T495 191Q473 231 461 253T443 286T432 305Q421 305 410 305T388
306L384 228Q383 210 382 194T379 170Q391 171 407 171T433 172L431 124H243L246 165ZM390 360Q400 358 408 358T425 357Q455 358 480 368T521 400T539 453Q541 490 525 509T486 534T443 539Q417 538 408 524T397 475L390 360Z" />
<glyph unicode="&#xaf;" glyph-name="overscore" horiz-adv-x="371" d="M45 634L49 715H326L323 638L45 634Z" />
<glyph unicode="&#xb0;" glyph-name="degree" horiz-adv-x="385" d="M219 716Q292 716 332 671T369 558Q367 513 343 478T282 422T200 401Q152 401 118 421T66 477T50 558Q53 603 77 638T138 695T219 716ZM214 655Q178 655 153 626T126 557Q126 518 146 491T205
463Q244 463 268 492T294 561Q294 602 273 628T214 655Z" />
<glyph unicode="&#xb1;" glyph-name="plusminus" horiz-adv-x="530" d="M50 396H496L492 327H46L50 396ZM317 583L293 137H224L248 583H317ZM50 69H496L492 0H46L50 69Z" />
<glyph unicode="&#xb2;" glyph-name="uni00B2" horiz-adv-x="375" d="M209 716Q241 716 269 706T316 674T333 616Q333 589 322 568T292 528T245 488T186 439Q166 422 152 408T131 376L241 374Q257 374 268 375T287 385T295 412H334L324 303H53Q55 348 71 380T113
438T168 487Q212 524 225 556T239 608Q240 637 226 652T188 667Q173 667 160 660T142 642Q149 636 151 628T153 613Q153 601 143 586T108 570Q90 570 80 582T69 614Q69 635 85 658T132 699T209 716Z" />
<glyph unicode="&#xb3;" glyph-name="uni00B3" horiz-adv-x="363" d="M171 297Q112 297 80 325T48 391Q49 411 61 427T95 444Q118 444 127 430T135 400Q135 395 132 385T121 368Q126 355 141 349T170 342Q204 342 224 364T246 416Q247 436 239 454T213 483T165
494Q158 494 149 494T133 493L135 538Q142 537 149 537T162 537Q192 537 209 549T233 577T241 608Q243 635 229 653T185 671Q168 671 156 663T140 648Q147 641 149 633T150 619Q150 607 140 593T107 578Q88 579 78 591T67 622Q68 642 83 663T128 700T202 716Q257
716 292 690T325 614Q324 585 300 560T241 525Q290 517 312 490T334 423Q333 370 291 333T171 297Z" />
<glyph unicode="&#xb4;" glyph-name="acute" horiz-adv-x="275" d="M82 570L45 604L130 741Q142 760 158 768T189 776T214 765Q226 754 228 739T224 707T201 676L82 570Z" />
<glyph unicode="&#xb5;" glyph-name="uni00B5" horiz-adv-x="595" d="M111 -271Q75 -271 64 -245T54 -174L89 500H197L183 233Q180 182 186 144T210 85T261 63Q289 63 314 77T357 112L377 500H484L464 140Q464 123 465 108T472 84T492 75Q500 75 509 79T531 93L556
59Q545 45 527 30T485 4T438 -7Q406 -7 389 10T365 59H364Q309 -11 244 -11Q209 -11 185 6T146 57H144Q144 -2 151 -54T164 -144T169 -203Q168 -228 155 -249T111 -271Z" />
<glyph unicode="&#xb6;" glyph-name="paragraph" horiz-adv-x="535" d="M135 -255L172 403Q139 408 110 424T63 470T47 551Q50 601 73 634T132 683T204 700H470L418 -255H323L371 640L279 639L231 -255H135Z" />
<glyph unicode="&#xb7;" glyph-name="middot" horiz-adv-x="230" d="M122 409Q151 409 169 388T185 336Q184 306 164 285T115 263Q85 263 67 284T50 336Q52 366 73 387T122 409Z" />
<glyph unicode="&#xb8;" glyph-name="cedilla" horiz-adv-x="318" d="M50 -253L45 -208Q62 -205 83 -200T124 -186T157 -167T171 -140Q172 -122 159 -117T128 -115T98 -128L62 -111L99 9H167L135 -72Q149 -64 169 -60T204 -55Q235 -55 254 -72T272 -123Q269 -156
245 -179T186 -217T115 -240T50 -253Z" />
<glyph unicode="&#xb9;" glyph-name="uni00B9" horiz-adv-x="274" d="M70 304L72 339Q95 340 105 352T118 397L130 628L64 591L47 626L184 716H215L199 391Q198 377 197 365T194 344Q205 345 218 345T240 345L238 304H70Z" />
<glyph unicode="&#xba;" glyph-name="ordmasculine" horiz-adv-x="366" d="M217 716Q271 716 309 677T348 567Q348 516 328 471T272 397T184 368Q139 368 110 389T67 445T52 521Q52 573 72 617T129 689T217 716ZM208 673Q179 673 161 634T142 534Q142 502 146
475T161 431T192 414Q215 414 229 434T250 485T258 551Q258 586 254 613T239 656T208 673Z" />
<glyph unicode="&#xbb;" glyph-name="guillemotright" horiz-adv-x="500" d="M224 552L474 282V265L188 -14L154 25L361 275V276L185 516L224 552ZM90 472L257 279V263L65 66L30 96L150 268V269L51 441L90 472Z" />
<glyph unicode="&#xbc;" glyph-name="onequarter" horiz-adv-x="769" d="M70 304L72 339Q95 340 105 352T118 397L130 628L64 591L47 626L184 716H215L199 391Q198 377 197 365T194 344Q205 345 218 345T240 345L238 304H70ZM593 716L648 673L159 -16L108 23L593
716ZM534 1L536 36Q559 37 570 48T583 91V104H426L428 153L650 415H681L668 153L726 152L724 103H666L661 41L704 42L701 1H534ZM587 154L598 293H597L488 156L587 154Z" />
<glyph unicode="&#xbd;" glyph-name="onehalf" horiz-adv-x="800" d="M70 304L72 339Q95 340 105 352T118 397L130 628L64 591L47 626L184 716H215L199 391Q198 377 197 365T194 344Q205 345 218 345T240 345L238 304H70ZM590 716L645 673L156 -16L105 23L590
716ZM630 414Q662 414 690 404T737 372T754 314Q754 287 743 266T713 226T666 186T607 137Q587 120 573 106T552 74L662 72Q678 72 689 73T708 83T716 110H755L745 1H474Q476 46 492 78T534 136T589 185Q633 222 646 254T660 306Q661 335 647 350T609 365Q594 365
581 358T563 340Q570 334 572 326T574 311Q574 299 564 284T529 268Q511 268 501 280T490 312Q490 333 506 356T553 397T630 414Z" />
<glyph unicode="&#xbe;" glyph-name="threequarters" horiz-adv-x="857" d="M171 297Q112 297 80 325T48 391Q49 411 61 427T95 444Q118 444 127 430T135 400Q135 395 132 385T121 368Q126 355 141 349T170 342Q204 342 224 364T246 416Q247 436 239 454T213 483T165
494Q158 494 149 494T133 493L135 538Q142 537 149 537T162 537Q192 537 209 549T233 577T241 608Q243 635 229 653T185 671Q168 671 156 663T140 648Q147 641 149 633T150 619Q150 607 140 593T107 578Q88 579 78 591T67 622Q68 642 83 663T128 700T202 716Q257
716 292 690T325 614Q324 585 300 560T241 525Q290 517 312 490T334 423Q333 370 291 333T171 297ZM678 716L733 673L244 -16L193 23L678 716ZM622 1L624 36Q647 37 658 48T671 91V104H514L516 153L738 415H769L756 153L814 152L812 103H754L749 41L792 42L789
1H622ZM675 154L686 293H685L576 156L675 154Z" />
<glyph unicode="&#xbf;" glyph-name="questiondown" horiz-adv-x="474" d="M245 317Q264 317 283 310T315 288T326 248Q325 231 316 214T287 177T236 128Q211 106 189 82T153 29T136 -39Q135 -72 142 -98T171 -140T229 -156Q250 -156 268 -149T300 -132T319 -112Q310
-102 307 -87T304 -63Q305 -49 312 -36T333 -13T367 -6Q395 -6 409 -24T422 -69Q421 -103 393 -137T317 -193T208 -216Q130 -216 86 -192T24 -130T10 -52Q13 -10 36 24T92 86T158 139T213 184T236 224Q237 237 228 246T197 255Q191 255 182 254T164 250L152 296Q175
308 200 312T245 317ZM248 516Q274 516 293 496T310 444Q309 415 288 394T239 373Q211 373 194 394T177 444Q179 474 200 495T248 516Z" />
<glyph unicode="&#xc0;" glyph-name="Agrave" horiz-adv-x="655" d="M370 718L557 165Q563 148 571 117T579 63L639 66L636 0H385L388 55Q419 55 431 68T442 102T433 145L412 213L181 209L155 142Q149 125 140 104T121 65L195 68L191 0H-13L-10 57Q17 57 35 73T66
115T94 175L318 718H370ZM312 555Q306 534 295 502T266 429L206 273H394L346 423Q336 457 327 491T312 555ZM386 768L243 855Q226 866 217 880T207 908T217 935Q227 947 241 950T272 948T304 927L419 810L386 768Z" />
<glyph unicode="&#xc1;" glyph-name="Aacute" horiz-adv-x="655" d="M370 718L557 165Q563 148 571 117T579 63L639 66L636 0H385L388 55Q419 55 431 68T442 102T433 145L412 213L181 209L155 142Q149 125 140 104T121 65L195 68L191 0H-13L-10 57Q17 57 35 73T66
115T94 175L318 718H370ZM312 555Q306 534 295 502T266 429L206 273H394L346 423Q336 457 327 491T312 555ZM312 768L282 809L406 927Q422 942 438 948T469 951T492 935Q501 922 500 908T489 880T460 855L312 768Z" />
<glyph unicode="&#xc2;" glyph-name="Acircumflex" horiz-adv-x="655" d="M370 718L557 165Q563 148 571 117T579 63L639 66L636 0H385L388 55Q419 55 431 68T442 102T433 145L412 213L181 209L155 142Q149 125 140 104T121 65L195 68L191 0H-13L-10 57Q17 57
35 73T66 115T94 175L318 718H370ZM312 555Q306 534 295 502T266 429L206 273H394L346 423Q336 457 327 491T312 555ZM524 774L346 862L161 776L143 812L350 958H363L549 811L524 774Z" />
<glyph unicode="&#xc3;" glyph-name="Atilde" horiz-adv-x="655" d="M370 718L557 165Q563 148 571 117T579 63L639 66L636 0H385L388 55Q419 55 431 68T442 102T433 145L412 213L181 209L155 142Q149 125 140 104T121 65L195 68L191 0H-13L-10 57Q17 57 35 73T66
115T94 175L318 718H370ZM312 555Q306 534 295 502T266 429L206 273H394L346 423Q336 457 327 491T312 555ZM272 849Q252 849 229 838T185 797L142 824Q164 876 201 901T272 927Q299 928 318 920T354 900T386 881T422 872Q444 872 469 889T508 933L552 910Q534
863 512 838T467 803T422 794Q398 794 380 802T344 821T310 840T272 849Z" />
<glyph unicode="&#xc4;" glyph-name="Adieresis" horiz-adv-x="655" d="M370 718L557 165Q563 148 571 117T579 63L639 66L636 0H385L388 55Q419 55 431 68T442 102T433 145L412 213L181 209L155 142Q149 125 140 104T121 65L195 68L191 0H-13L-10 57Q17 57 35
73T66 115T94 175L318 718H370ZM312 555Q306 534 295 502T266 429L206 273H394L346 423Q336 457 327 491T312 555ZM258 792Q234 792 218 811T202 859Q203 889 222 911T267 933Q291 933 306 913T321 865Q321 836 303 814T258 792ZM428 792Q404 792 389 811T373 859Q373
889 392 911T437 933Q462 933 476 913T491 865Q491 835 473 814T428 792Z" />
<glyph unicode="&#xc5;" glyph-name="Aring" horiz-adv-x="655" d="M370 718L557 165Q563 148 571 117T579 63L639 66L636 0H385L388 55Q419 55 431 68T442 102T433 145L412 213L181 209L155 142Q149 125 140 104T121 65L195 68L191 0H-13L-10 57Q17 57 35 73T66
115T94 175L318 718H370ZM312 555Q306 534 295 502T266 429L206 273H394L346 423Q336 457 327 491T312 555ZM347 741Q316 741 287 753T240 792T220 859Q220 897 238 924T286 967T346 983Q376 983 404 971T452 932T472 864Q473 826 454 798T407 756T347 741ZM350
785Q368 785 382 802T397 852Q397 895 383 918T344 940Q320 940 308 917T296 868Q296 829 311 807T350 785Z" />
<glyph unicode="&#xc6;" glyph-name="AE" horiz-adv-x="939" d="M-24 0L-21 55Q3 55 24 71T65 110T101 156L462 637Q444 636 420 636T381 634L384 700H882L878 512H823Q826 569 809 597T763 636T703 645L651 644Q624 643 609 635T586 607T576 546L568 392H671Q685
402 694 414T707 442T712 482H774L762 247H707Q710 290 698 308T663 331T607 335Q596 335 586 335T564 334L555 149Q554 122 552 100T547 64L700 63Q735 63 765 77T814 123T837 212H892L875 0H354L357 56Q382 57 398 64T422 90T432 145L435 212Q384 211 330 210T224
207L184 152Q166 127 148 104T112 64V63L191 66L187 0H-24ZM269 270H439L455 528H454Q441 507 430 491T405 456T372 411L269 270Z" />
<glyph unicode="&#xc7;" glyph-name="Ccedilla" horiz-adv-x="689" d="M409 716Q454 716 500 703T588 663H589L587 709H657L645 477H589Q581 564 537 610T417 657Q364 657 322 634T248 569T199 473T177 358Q173 269 198 200T273 92T392 52Q454 51 518 80T632 172L666
138Q616 74 562 41T456 -4T363 -16Q287 -16 226 11T123 87T59 200T42 340Q46 409 71 476T142 597T255 683T409 716ZM276 -267L271 -219Q288 -216 309 -210T350 -194T384 -171T398 -143Q399 -128 391 -122T370 -115Q359 -115 347 -119T326 -130L288 -115L324 9H397L364
-70Q379 -63 400 -58T434 -54Q467 -54 486 -73T504 -126Q502 -159 477 -184T416 -226T342 -253T276 -267Z" />
<glyph unicode="&#xc8;" glyph-name="Egrave" horiz-adv-x="622" d="M565 700L560 512H506Q509 569 492 597T446 636T387 645L334 644Q308 643 292 635T269 607T259 546L251 393L353 392Q367 402 376 414T389 442T395 482H457L445 247H390Q392 290 380 308T345
331T289 335L248 333L238 148Q237 121 235 99T230 63L383 64Q418 64 448 77T497 123T520 212H575L558 0H37L40 55Q68 56 83 64T106 94T115 154L137 553Q138 578 140 601T145 637Q128 636 106 636T71 634L74 700H565ZM398 768L255 855Q238 866 229 880T219 908T229
935Q239 947 253 950T284 948T316 927L431 810L398 768Z" />
<glyph unicode="&#xc9;" glyph-name="Eacute" horiz-adv-x="622" d="M565 700L560 512H506Q509 569 492 597T446 636T387 645L334 644Q308 643 292 635T269 607T259 546L251 393L353 392Q367 402 376 414T389 442T395 482H457L445 247H390Q392 290 380 308T345
331T289 335L248 333L238 148Q237 121 235 99T230 63L383 64Q418 64 448 77T497 123T520 212H575L558 0H37L40 55Q68 56 83 64T106 94T115 154L137 553Q138 578 140 601T145 637Q128 636 106 636T71 634L74 700H565ZM324 768L294 809L418 927Q434 942 450 948T481
951T504 935Q513 922 512 908T501 880T472 855L324 768Z" />
<glyph unicode="&#xca;" glyph-name="Ecircumflex" horiz-adv-x="622" d="M565 700L560 512H506Q509 569 492 597T446 636T387 645L334 644Q308 643 292 635T269 607T259 546L251 393L353 392Q367 402 376 414T389 442T395 482H457L445 247H390Q392 290 380 308T345
331T289 335L248 333L238 148Q237 121 235 99T230 63L383 64Q418 64 448 77T497 123T520 212H575L558 0H37L40 55Q68 56 83 64T106 94T115 154L137 553Q138 578 140 601T145 637Q128 636 106 636T71 634L74 700H565ZM535 774L357 862L172 776L154 812L361 958H374L560
811L535 774Z" />
<glyph unicode="&#xcb;" glyph-name="Edieresis" horiz-adv-x="622" d="M565 700L560 512H506Q509 569 492 597T446 636T387 645L334 644Q308 643 292 635T269 607T259 546L251 393L353 392Q367 402 376 414T389 442T395 482H457L445 247H390Q392 290 380 308T345
331T289 335L248 333L238 148Q237 121 235 99T230 63L383 64Q418 64 448 77T497 123T520 212H575L558 0H37L40 55Q68 56 83 64T106 94T115 154L137 553Q138 578 140 601T145 637Q128 636 106 636T71 634L74 700H565ZM270 792Q246 792 230 811T214 859Q215 889 234
911T279 933Q303 933 318 913T333 865Q333 836 315 814T270 792ZM440 792Q416 792 401 811T385 859Q385 889 404 911T449 933Q474 933 488 913T503 865Q503 835 485 814T440 792Z" />
<glyph unicode="&#xcc;" glyph-name="Igrave" horiz-adv-x="367" d="M337 700L334 645Q308 644 292 636T269 609T259 549L238 149Q237 122 235 99T230 63Q247 64 269 65T304 66L301 0H37L40 55Q68 56 83 64T106 94T115 154L136 553Q138 578 140 601T145 637Q128
636 106 636T71 634L74 700H337ZM265 768L122 855Q105 866 96 880T86 908T96 935Q106 947 120 950T151 948T183 927L298 810L265 768Z" />
<glyph unicode="&#xcd;" glyph-name="Iacute" horiz-adv-x="367" d="M337 700L334 645Q308 644 292 636T269 609T259 549L238 149Q237 122 235 99T230 63Q247 64 269 65T304 66L301 0H37L40 55Q68 56 83 64T106 94T115 154L136 553Q138 578 140 601T145 637Q128
636 106 636T71 634L74 700H337ZM190 768L160 809L284 927Q300 942 316 948T347 951T370 935Q379 922 378 908T367 880T338 855L190 768Z" />
<glyph unicode="&#xce;" glyph-name="Icircumflex" horiz-adv-x="367" d="M337 700L334 645Q308 644 292 636T269 609T259 549L238 149Q237 122 235 99T230 63Q247 64 269 65T304 66L301 0H37L40 55Q68 56 83 64T106 94T115 154L136 553Q138 578 140 601T145 637Q128
636 106 636T71 634L74 700H337ZM607 768L477 863L337 772L307 810L480 959H490L642 807L607 768Z" />
<glyph unicode="&#xcf;" glyph-name="Idieresis" horiz-adv-x="367" d="M337 700L334 645Q308 644 292 636T269 609T259 549L238 149Q237 122 235 99T230 63Q247 64 269 65T304 66L301 0H37L40 55Q68 56 83 64T106 94T115 154L136 553Q138 578 140 601T145 637Q128
636 106 636T71 634L74 700H337ZM136 792Q112 792 96 811T80 859Q81 889 100 911T145 933Q169 933 184 913T199 865Q199 836 181 814T136 792ZM306 792Q282 792 267 811T251 859Q251 889 270 911T315 933Q340 933 354 913T369 865Q369 835 351 814T306 792Z" />
<glyph unicode="&#xd0;" glyph-name="Eth" horiz-adv-x="750" d="M37 0L41 55Q68 56 83 64T106 94T116 154L124 312L24 311L28 393H128L137 553Q139 578 141 601T145 637Q128 636 106 636T71 634L74 700L344 701Q439 701 509 675T626 602T694 494T714 363Q712
298 688 234T615 117T491 32T313 0H37ZM329 61Q408 61 463 101T547 208T579 351Q584 496 522 569T338 644Q310 645 293 637T269 609T259 550L251 393H362L358 317L246 315L238 149Q237 122 235 99T230 63Q244 63 262 63T298 62T329 61Z" />
<glyph unicode="&#xd1;" glyph-name="Ntilde" horiz-adv-x="769" d="M575 -10L263 426Q249 445 235 466T206 508H204L190 156Q189 129 187 104T181 63Q199 64 221 65T256 66L252 0H39L42 55Q68 56 83 63T107 89T116 139L135 544Q137 570 139 595T142 637Q126 636
104 636T69 634L73 700H218L514 291Q536 260 553 235T585 187H586L604 553Q606 579 608 601T612 637Q596 636 574 636T538 634L542 700H754L752 645Q724 644 709 636T686 606T677 546L647 -10H575ZM342 849Q322 849 299 838T255 797L212 824Q234 876 271 901T342
927Q369 928 388 920T424 900T456 881T492 872Q514 872 539 889T578 933L622 910Q604 863 582 838T537 803T492 794Q468 794 450 802T414 821T380 840T342 849Z" />
<glyph unicode="&#xd2;" glyph-name="Ograve" horiz-adv-x="771" d="M408 716Q498 716 561 684T664 598T720 482T735 356Q733 294 710 229T641 108T528 18T371 -16Q278 -16 214 15T112 99T57 215T43 342Q45 410 69 476T140 597T254 683T408 716ZM395 657Q340 657
300 629T233 557T193 460T178 358Q175 309 184 255T217 152T281 74T382 43Q438 43 478 70T545 142T585 238T601 340Q603 405 592 463T555 565T490 633T395 657ZM453 768L310 855Q293 866 284 880T274 908T284 935Q294 947 308 950T339 948T371 927L486 810L453
768Z" />
<glyph unicode="&#xd3;" glyph-name="Oacute" horiz-adv-x="771" d="M408 716Q498 716 561 684T664 598T720 482T735 356Q733 294 710 229T641 108T528 18T371 -16Q278 -16 214 15T112 99T57 215T43 342Q45 410 69 476T140 597T254 683T408 716ZM395 657Q340 657
300 629T233 557T193 460T178 358Q175 309 184 255T217 152T281 74T382 43Q438 43 478 70T545 142T585 238T601 340Q603 405 592 463T555 565T490 633T395 657ZM379 768L349 809L473 927Q489 942 505 948T536 951T559 935Q568 922 567 908T556 880T527 855L379
768Z" />
<glyph unicode="&#xd4;" glyph-name="Ocircumflex" horiz-adv-x="771" d="M408 716Q498 716 561 684T664 598T720 482T735 356Q733 294 710 229T641 108T528 18T371 -16Q278 -16 214 15T112 99T57 215T43 342Q45 410 69 476T140 597T254 683T408 716ZM395 657Q340
657 300 629T233 557T193 460T178 358Q175 309 184 255T217 152T281 74T382 43Q438 43 478 70T545 142T585 238T601 340Q603 405 592 463T555 565T490 633T395 657ZM591 774L413 862L228 776L210 812L417 958H430L616 811L591 774Z" />
<glyph unicode="&#xd5;" glyph-name="Otilde" horiz-adv-x="771" d="M408 716Q498 716 561 684T664 598T720 482T735 356Q733 294 710 229T641 108T528 18T371 -16Q278 -16 214 15T112 99T57 215T43 342Q45 410 69 476T140 597T254 683T408 716ZM395 657Q340 657
300 629T233 557T193 460T178 358Q175 309 184 255T217 152T281 74T382 43Q438 43 478 70T545 142T585 238T601 340Q603 405 592 463T555 565T490 633T395 657ZM339 849Q319 849 296 838T252 797L209 824Q231 876 268 901T339 927Q366 928 385 920T421 900T453
881T489 872Q511 872 536 889T575 933L619 910Q601 863 579 838T534 803T489 794Q465 794 447 802T411 821T377 840T339 849Z" />
<glyph unicode="&#xd6;" glyph-name="Odieresis" horiz-adv-x="771" d="M408 716Q498 716 561 684T664 598T720 482T735 356Q733 294 710 229T641 108T528 18T371 -16Q278 -16 214 15T112 99T57 215T43 342Q45 410 69 476T140 597T254 683T408 716ZM395 657Q340
657 300 629T233 557T193 460T178 358Q175 309 184 255T217 152T281 74T382 43Q438 43 478 70T545 142T585 238T601 340Q603 405 592 463T555 565T490 633T395 657ZM325 792Q301 792 285 811T269 859Q270 889 289 911T334 933Q358 933 373 913T388 865Q388 836
370 814T325 792ZM495 792Q471 792 456 811T440 859Q440 889 459 911T504 933Q529 933 543 913T558 865Q558 835 540 814T495 792Z" />
<glyph unicode="&#xd7;" glyph-name="multiply" horiz-adv-x="530" d="M148 543L446 228L395 179L96 495L148 543ZM459 494L126 178L81 226L414 542L459 494Z" />
<glyph unicode="&#xd8;" glyph-name="Oslash" horiz-adv-x="770" d="M162 -94L99 -51L162 47Q117 83 90 131T52 233T43 342Q45 410 69 476T140 597T254 683T408 716Q454 716 493 707T564 682L623 774L690 730L630 636Q688 582 713 506T735 356Q733 294 709 229T640
108T528 18T370 -16Q329 -16 294 -9T229 10L162 -94ZM223 144L519 610Q495 634 464 646T395 657Q340 657 300 629T233 557T193 460T177 358Q175 307 185 250T223 144ZM381 43Q438 43 478 70T545 142T585 238T600 340Q602 395 594 445T566 537L273 79Q295 62 321
53T381 43Z" />
<glyph unicode="&#xd9;" glyph-name="Ugrave" horiz-adv-x="751" d="M752 700L749 645Q721 644 706 636T683 606T673 546L660 302Q655 223 633 163T574 64T484 4T367 -16Q284 -16 230 7T146 73T106 176T100 309L113 550Q115 577 116 599T121 637Q105 636 83 636T47
634L50 700H315L311 645Q285 644 269 636T246 611T236 561L222 293Q219 232 228 188T258 114T311 69T385 54Q446 52 488 79T554 157T582 285L598 553Q600 578 601 601T606 637Q589 636 567 636T532 634L535 700H752ZM466 768L323 855Q306 866 297 880T287 908T297
935Q307 947 321 950T352 948T384 927L499 810L466 768Z" />
<glyph unicode="&#xda;" glyph-name="Uacute" horiz-adv-x="751" d="M752 700L749 645Q721 644 706 636T683 606T673 546L660 302Q655 223 633 163T574 64T484 4T367 -16Q284 -16 230 7T146 73T106 176T100 309L113 550Q115 577 116 599T121 637Q105 636 83 636T47
634L50 700H315L311 645Q285 644 269 636T246 611T236 561L222 293Q219 232 228 188T258 114T311 69T385 54Q446 52 488 79T554 157T582 285L598 553Q600 578 601 601T606 637Q589 636 567 636T532 634L535 700H752ZM391 768L361 809L485 927Q501 942 517 948T548
951T571 935Q580 922 579 908T568 880T539 855L391 768Z" />
<glyph unicode="&#xdb;" glyph-name="Ucircumflex" horiz-adv-x="751" d="M752 700L749 645Q721 644 706 636T683 606T673 546L660 302Q655 223 633 163T574 64T484 4T367 -16Q284 -16 230 7T146 73T106 176T100 309L113 550Q115 577 116 599T121 637Q105 636
83 636T47 634L50 700H315L311 645Q285 644 269 636T246 611T236 561L222 293Q219 232 228 188T258 114T311 69T385 54Q446 52 488 79T554 157T582 285L598 553Q600 578 601 601T606 637Q589 636 567 636T532 634L535 700H752ZM603 774L425 862L240 776L222 812L429
958H442L628 811L603 774Z" />
<glyph unicode="&#xdc;" glyph-name="Udieresis" horiz-adv-x="751" d="M752 700L749 645Q721 644 706 636T683 606T673 546L660 302Q655 223 633 163T574 64T484 4T367 -16Q284 -16 230 7T146 73T106 176T100 309L113 550Q115 577 116 599T121 637Q105 636 83
636T47 634L50 700H315L311 645Q285 644 269 636T246 611T236 561L222 293Q219 232 228 188T258 114T311 69T385 54Q446 52 488 79T554 157T582 285L598 553Q600 578 601 601T606 637Q589 636 567 636T532 634L535 700H752ZM337 792Q313 792 297 811T281 859Q282
889 301 911T346 933Q370 933 385 913T400 865Q400 836 382 814T337 792ZM507 792Q483 792 468 811T452 859Q452 889 471 911T516 933Q541 933 555 913T570 865Q570 835 552 814T507 792Z" />
<glyph unicode="&#xdd;" glyph-name="Yacute" horiz-adv-x="657" d="M196 0L199 55Q227 56 242 65T265 95T274 154L279 250L114 536Q97 564 87 592T76 637Q60 636 48 636T22 634L26 700H305L302 645Q268 646 249 636T227 607T241 557Q258 527 277 494T315 428Q320
418 328 402T346 369T361 337H363Q371 353 384 376T414 432Q431 462 448 491T483 551Q489 562 498 578T518 610T538 637Q521 636 498 636T460 634L464 700H679L676 645Q637 641 609 615T546 531L403 285L397 149Q396 122 393 99T388 63Q400 64 415 64T445 65T469
66L466 0H196ZM345 768L315 809L439 927Q455 942 471 948T502 951T525 935Q534 922 533 908T522 880T493 855L345 768Z" />
<glyph unicode="&#xde;" glyph-name="Thorn" horiz-adv-x="612" d="M37 0L40 55Q68 56 83 64T106 94T115 154L136 553Q138 578 140 601T145 637Q128 636 106 636T71 634L74 700H337L334 645Q299 644 282 630T260 572Q275 573 289 573T318 573Q409 574 472 553T569
488T598 370Q596 332 578 294T522 225T426 175T286 154Q271 154 260 154T238 154Q236 128 235 111T233 83T230 63Q247 64 269 65T304 66L301 0H37ZM241 216Q251 215 260 215T281 215Q368 215 414 255T464 370Q467 417 454 445T417 488T365 508T311 513Q298 513
285 513T257 513L241 216Z" />
<glyph unicode="&#xdf;" glyph-name="germandbls" horiz-adv-x="664" d="M-29 -271Q-73 -271 -96 -254T-119 -206Q-119 -195 -114 -182T-96 -159T-63 -150Q-42 -151 -29 -167T-18 -207Q-15 -209 -10 -210T1 -211Q20 -211 32 -194T52 -147T64 -83T72 -11Q76 33
80 92T88 214T98 336T107 438L24 437L31 500H115Q125 570 148 619T206 700T285 745T379 760Q418 760 455 753T522 728T570 685T588 620Q588 588 575 563T541 519T496 481Q466 459 442 440T418 394Q418 380 425 367T451 339T506 301Q537 282 567 260T617 209T637
140Q637 96 613 62T547 9T449 -11Q403 -11 365 2T304 41T281 102Q281 130 297 147T338 165Q363 165 377 149T392 110Q392 103 391 95T385 79Q391 65 411 55T450 45Q495 45 512 66T529 118Q529 148 502 170T437 216Q397 241 370 263T329 308T315 357Q315 388 328
410T361 451T404 485T445 520Q465 538 477 560T489 613Q488 643 474 662T438 691T387 701Q340 701 310 681T261 626T234 548T221 460Q217 419 214 372T206 276T198 176T190 79T181 -12Q172 -87 148 -146T80 -238T-29 -271Z" />
<glyph unicode="&#xe0;" glyph-name="agrave" horiz-adv-x="549" d="M328 511Q356 511 393 506T468 491Q462 447 455 391T440 280T428 178T423 107Q423 88 427 78T442 68Q455 68 470 86T500 153L545 140Q542 120 532 94T506 44T465 5T409 -11Q375 -11 353 10T331
80Q331 98 333 120T340 163H338Q318 110 296 76T251 22T205 -4T160 -11Q105 -11 67 32T29 168Q29 238 48 299T106 409T199 484T328 511ZM293 455Q259 455 232 435T186 377T158 287T148 171Q148 122 159 93T195 63Q219 63 241 87T281 152T313 243T336 346T346 447Q338
450 323 452T293 455ZM357 570L246 677Q233 692 227 708T223 739T238 765Q250 775 264 775T293 768T319 741L397 604L357 570Z" />
<glyph unicode="&#xe1;" glyph-name="aacute" horiz-adv-x="549" d="M328 511Q356 511 393 506T468 491Q462 447 455 391T440 280T428 178T423 107Q423 88 427 78T442 68Q455 68 470 86T500 153L545 140Q542 120 532 94T506 44T465 5T409 -11Q375 -11 353 10T331
80Q331 98 333 120T340 163H338Q318 110 296 76T251 22T205 -4T160 -11Q105 -11 67 32T29 168Q29 238 48 299T106 409T199 484T328 511ZM293 455Q259 455 232 435T186 377T158 287T148 171Q148 122 159 93T195 63Q219 63 241 87T281 152T313 243T336 346T346 447Q338
450 323 452T293 455ZM267 570L230 604L315 741Q327 760 343 768T374 776T399 765Q411 754 413 739T409 707T386 676L267 570Z" />
<glyph unicode="&#xe2;" glyph-name="acircumflex" horiz-adv-x="549" d="M328 511Q356 511 393 506T468 491Q462 447 455 391T440 280T428 178T423 107Q423 88 427 78T442 68Q455 68 470 86T500 153L545 140Q542 120 532 94T506 44T465 5T409 -11Q375 -11 353
10T331 80Q331 98 333 120T340 163H338Q318 110 296 76T251 22T205 -4T160 -11Q105 -11 67 32T29 168Q29 238 48 299T106 409T199 484T328 511ZM293 455Q259 455 232 435T186 377T158 287T148 171Q148 122 159 93T195 63Q219 63 241 87T281 152T313 243T336 346T346
447Q338 450 323 452T293 455ZM450 574L325 681H324L188 578L157 618L333 781H340L488 614L450 574Z" />
<glyph unicode="&#xe3;" glyph-name="atilde" horiz-adv-x="549" d="M328 511Q356 511 393 506T468 491Q462 447 455 391T440 280T428 178T423 107Q423 88 427 78T442 68Q455 68 470 86T500 153L545 140Q542 120 532 94T506 44T465 5T409 -11Q375 -11 353 10T331
80Q331 98 333 120T340 163H338Q318 110 296 76T251 22T205 -4T160 -11Q105 -11 67 32T29 168Q29 238 48 299T106 409T199 484T328 511ZM293 455Q259 455 232 435T186 377T158 287T148 171Q148 122 159 93T195 63Q219 63 241 87T281 152T313 243T336 346T346 447Q338
450 323 452T293 455ZM192 612L148 639Q163 681 196 706T260 732Q291 733 310 722T345 701T384 690Q404 689 421 703T452 741L495 718Q476 660 444 636T383 612Q355 612 335 622T298 644T259 655Q245 655 226 646T192 612Z" />
<glyph unicode="&#xe4;" glyph-name="adieresis" horiz-adv-x="549" d="M328 511Q356 511 393 506T468 491Q462 447 455 391T440 280T428 178T423 107Q423 88 427 78T442 68Q455 68 470 86T500 153L545 140Q542 120 532 94T506 44T465 5T409 -11Q375 -11 353 10T331
80Q331 98 333 120T340 163H338Q318 110 296 76T251 22T205 -4T160 -11Q105 -11 67 32T29 168Q29 238 48 299T106 409T199 484T328 511ZM293 455Q259 455 232 435T186 377T158 287T148 171Q148 122 159 93T195 63Q219 63 241 87T281 152T313 243T336 346T346 447Q338
450 323 452T293 455ZM401 605Q377 605 361 624T346 670Q346 700 365 721T409 742Q433 742 448 723T463 677Q462 647 444 626T401 605ZM236 605Q212 605 196 624T181 670Q181 700 200 721T244 742Q268 742 283 723T298 677Q297 647 279 626T236 605Z" />
<glyph unicode="&#xe5;" glyph-name="aring" horiz-adv-x="549" d="M328 511Q356 511 393 506T468 491Q462 447 455 391T440 280T428 178T423 107Q423 88 427 78T442 68Q455 68 470 86T500 153L545 140Q542 120 532 94T506 44T465 5T409 -11Q375 -11 353 10T331
80Q331 98 333 120T340 163H338Q318 110 296 76T251 22T205 -4T160 -11Q105 -11 67 32T29 168Q29 238 48 299T106 409T199 484T328 511ZM293 455Q259 455 232 435T186 377T158 287T148 171Q148 122 159 93T195 63Q219 63 241 87T281 152T313 243T336 346T346 447Q338
450 323 452T293 455ZM317 565Q291 565 266 577T226 612T210 670Q211 703 227 728T271 769T327 784Q354 784 378 773T419 739T434 680Q433 645 415 620T371 580T317 565ZM324 615Q338 616 350 630T364 668Q366 701 354 718T324 735Q309 734 297 721T282 681Q281
651 292 633T324 615Z" />
<glyph unicode="&#xe6;" glyph-name="ae" horiz-adv-x="736" d="M543 511Q581 511 608 502T653 476T680 438T689 391Q689 356 668 329T610 283T522 250T412 229Q412 172 425 136T462 84T515 67Q537 67 562 77T613 110T656 172L704 147Q675 84 640 50T566 2T491
-11Q436 -12 402 8T342 68Q298 23 250 7T157 -11Q88 -11 54 24T21 114Q23 160 48 191T115 242T207 269T308 278Q309 290 309 304T311 339Q314 370 309 396T287 437T238 452Q213 452 192 442T159 413Q166 405 167 395T169 376Q168 357 153 339T108 321Q83 322 69
339T56 381Q58 415 84 445T155 493T258 511Q306 511 339 493T386 432Q415 470 455 490T543 511ZM305 227Q275 224 245 219T191 203T152 175T136 130Q135 99 155 85T197 70Q226 69 259 81T313 116Q308 146 306 172T305 227ZM530 456Q494 456 471 432T433 368T415
283Q468 292 506 307T565 347T585 401Q585 423 576 434T555 451T530 456Z" />
<glyph unicode="&#xe7;" glyph-name="ccedilla" horiz-adv-x="469" d="M275 511Q320 511 355 496T412 455T433 392Q433 365 418 348T376 330Q345 329 333 348T320 382Q320 391 322 402T331 423Q327 438 311 446T273 455Q237 455 214 433T178 377T158 305T152 232Q150
173 163 137T199 85T248 67Q269 66 294 74T345 106T390 178L440 154Q413 91 379 55T306 5T226 -11Q138 -10 85 43T31 207Q31 256 45 309T90 407T166 482T275 511ZM125 -253L120 -208Q137 -205 158 -200T199 -186T232 -167T246 -140Q247 -122 234 -117T203 -115T173
-128L137 -111L174 9H242L210 -72Q224 -64 244 -60T279 -55Q310 -55 329 -72T347 -123Q344 -156 320 -179T261 -217T190 -240T125 -253Z" />
<glyph unicode="&#xe8;" glyph-name="egrave" horiz-adv-x="472" d="M281 511Q322 511 355 499T408 459T427 389Q427 348 402 319T335 272T245 241T152 224Q152 165 165 131T200 82T250 67Q271 67 296 75T347 107T391 171L439 147Q411 86 377 52T305 3T226 -11Q133
-12 82 44T31 206Q31 258 46 311T91 410T169 483T281 511ZM269 456Q231 456 207 430T171 363T154 279Q208 288 245 305T302 347T322 400Q321 427 306 441T269 456ZM306 570L195 677Q182 692 176 708T172 739T187 765Q199 775 213 775T242 768T268 741L346 604L306
570Z" />
<glyph unicode="&#xe9;" glyph-name="eacute" horiz-adv-x="472" d="M281 511Q322 511 355 499T408 459T427 389Q427 348 402 319T335 272T245 241T152 224Q152 165 165 131T200 82T250 67Q271 67 296 75T347 107T391 171L439 147Q411 86 377 52T305 3T226 -11Q133
-12 82 44T31 206Q31 258 46 311T91 410T169 483T281 511ZM269 456Q231 456 207 430T171 363T154 279Q208 288 245 305T302 347T322 400Q321 427 306 441T269 456ZM215 570L178 604L263 741Q275 760 291 768T322 776T347 765Q359 754 361 739T357 707T334 676L215
570Z" />
<glyph unicode="&#xea;" glyph-name="ecircumflex" horiz-adv-x="472" d="M281 511Q322 511 355 499T408 459T427 389Q427 348 402 319T335 272T245 241T152 224Q152 165 165 131T200 82T250 67Q271 67 296 75T347 107T391 171L439 147Q411 86 377 52T305 3T226
-11Q133 -12 82 44T31 206Q31 258 46 311T91 410T169 483T281 511ZM269 456Q231 456 207 430T171 363T154 279Q208 288 245 305T302 347T322 400Q321 427 306 441T269 456ZM398 574L273 681H272L136 578L105 618L281 781H288L436 614L398 574Z" />
<glyph unicode="&#xeb;" glyph-name="edieresis" horiz-adv-x="472" d="M281 511Q322 511 355 499T408 459T427 389Q427 348 402 319T335 272T245 241T152 224Q152 165 165 131T200 82T250 67Q271 67 296 75T347 107T391 171L439 147Q411 86 377 52T305 3T226
-11Q133 -12 82 44T31 206Q31 258 46 311T91 410T169 483T281 511ZM269 456Q231 456 207 430T171 363T154 279Q208 288 245 305T302 347T322 400Q321 427 306 441T269 456ZM350 605Q326 605 310 624T295 670Q295 700 314 721T358 742Q382 742 397 723T412 677Q411
647 393 626T350 605ZM185 605Q161 605 145 624T130 670Q130 700 149 721T193 742Q217 742 232 723T247 677Q246 647 228 626T185 605Z" />
<glyph unicode="&#xec;" glyph-name="igrave" horiz-adv-x="337" d="M148 511Q197 511 217 481T238 399Q238 373 233 333T222 248T210 164T204 99Q204 82 210 75T225 68Q238 68 253 86T282 153L327 140Q323 119 312 93T284 44T241 5T184 -11Q132 -11 111 17T90
96Q90 130 95 170T108 252T120 332T125 400Q125 416 120 424T105 432Q93 432 78 414T49 347L4 360Q7 380 18 406T47 456T91 495T148 511ZM220 570L109 677Q96 692 90 708T86 739T101 765Q113 775 127 775T156 768T182 741L260 604L220 570Z" />
<glyph unicode="&#xed;" glyph-name="iacute" horiz-adv-x="337" d="M148 511Q197 511 217 481T238 399Q238 373 233 333T222 248T210 164T204 99Q204 82 210 75T225 68Q238 68 253 86T282 153L327 140Q323 119 312 93T284 44T241 5T184 -11Q132 -11 111 17T90
96Q90 130 95 170T108 252T120 332T125 400Q125 416 120 424T105 432Q93 432 78 414T49 347L4 360Q7 380 18 406T47 456T91 495T148 511ZM129 570L92 604L177 741Q189 760 205 768T236 776T261 765Q273 754 275 739T271 707T248 676L129 570Z" />
<glyph unicode="&#xee;" glyph-name="icircumflex" horiz-adv-x="337" d="M148 511Q197 511 217 481T238 399Q238 373 233 333T222 248T210 164T204 99Q204 82 210 75T225 68Q238 68 253 86T282 153L327 140Q323 119 312 93T284 44T241 5T184 -11Q132 -11 111
17T90 96Q90 130 95 170T108 252T120 332T125 400Q125 416 120 424T105 432Q93 432 78 414T49 347L4 360Q7 380 18 406T47 456T91 495T148 511ZM190 781L324 614L286 574L174 681H172L48 578L18 618L183 781H190Z" />
<glyph unicode="&#xef;" glyph-name="idieresis" horiz-adv-x="337" d="M148 511Q197 511 217 481T238 399Q238 373 233 333T222 248T210 164T204 99Q204 82 210 75T225 68Q238 68 253 86T282 153L327 140Q323 119 312 93T284 44T241 5T184 -11Q132 -11 111 17T90
96Q90 130 95 170T108 252T120 332T125 400Q125 416 120 424T105 432Q93 432 78 414T49 347L4 360Q7 380 18 406T47 456T91 495T148 511ZM520 605Q496 605 480 624T465 670Q465 700 484 721T528 742Q552 742 567 723T582 677Q581 647 563 626T520 605ZM355 605Q331
605 315 624T300 670Q300 700 319 721T363 742Q387 742 402 723T417 677Q416 647 398 626T355 605Z" />
<glyph unicode="&#xf0;" glyph-name="eth" horiz-adv-x="520" d="M304 794L350 751L297 697Q351 660 389 605T448 478T469 324Q469 248 453 186T405 80T327 13T223 -11Q173 -11 130 12T60 86T33 217Q33 269 47 319T89 411T160 477T257 501Q293 501 316 488T357
455Q354 488 339 523T302 589T254 638L191 564L142 610L197 671Q177 682 153 690T97 701L108 759Q153 758 187 749T248 727L304 794ZM267 444Q231 444 205 414T165 334T151 225Q151 144 172 95T238 46Q265 46 284 61T318 104T340 163T351 228T355 291Q355 335 346
369T318 424T267 444Z" />
<glyph unicode="&#xf1;" glyph-name="ntilde" horiz-adv-x="612" d="M460 -11Q407 -11 389 17T370 96Q370 126 374 163T383 241T393 319T397 386Q397 400 394 411T384 428T363 434Q341 434 319 411T277 348T240 260T215 162T205 66Q205 52 206 32T208 0H94Q92
16 92 23T91 41Q91 60 93 86T100 148T109 226Q114 264 117 292T123 340T127 375T128 400Q128 417 124 424T110 432Q97 432 82 414T54 347L8 360Q12 380 21 406T46 456T85 495T140 511Q166 511 184 500T212 466T221 408Q220 386 218 369T212 334H214Q241 405 271
443T332 496T393 511Q435 511 460 493T498 441T510 365Q510 323 504 275T490 181T483 100Q483 84 488 76T502 68Q515 68 530 86T558 153L604 140Q600 120 589 94T560 44T517 5T460 -11ZM213 612L169 639Q184 681 217 706T281 732Q312 733 331 722T366 701T405 690Q425
689 442 703T473 741L516 718Q497 660 465 636T404 612Q376 612 356 622T319 644T280 655Q266 655 247 646T213 612Z" />
<glyph unicode="&#xf2;" glyph-name="ograve" horiz-adv-x="517" d="M281 511Q337 511 381 485T452 410T479 289Q479 210 449 141T364 31T230 -11Q163 -11 119 19T54 101T32 215Q32 295 62 362T148 470T281 511ZM266 455Q232 456 206 428T166 351T152 245Q151
213 155 179T169 114T198 65T243 46Q274 45 295 66T330 120T349 190T357 260Q358 289 355 323T342 387T314 435T266 455ZM318 570L207 677Q194 692 188 708T184 739T199 765Q211 775 225 775T254 768T280 741L358 604L318 570Z" />
<glyph unicode="&#xf3;" glyph-name="oacute" horiz-adv-x="517" d="M281 511Q337 511 381 485T452 410T479 289Q479 210 449 141T364 31T230 -11Q163 -11 119 19T54 101T32 215Q32 295 62 362T148 470T281 511ZM266 455Q232 456 206 428T166 351T152 245Q151
213 155 179T169 114T198 65T243 46Q274 45 295 66T330 120T349 190T357 260Q358 289 355 323T342 387T314 435T266 455ZM227 570L190 604L275 741Q287 760 303 768T334 776T359 765Q371 754 373 739T369 707T346 676L227 570Z" />
<glyph unicode="&#xf4;" glyph-name="ocircumflex" horiz-adv-x="517" d="M281 511Q337 511 381 485T452 410T479 289Q479 210 449 141T364 31T230 -11Q163 -11 119 19T54 101T32 215Q32 295 62 362T148 470T281 511ZM266 455Q232 456 206 428T166 351T152 245Q151
213 155 179T169 114T198 65T243 46Q274 45 295 66T330 120T349 190T357 260Q358 289 355 323T342 387T314 435T266 455ZM410 574L285 681H284L148 578L117 618L293 781H300L448 614L410 574Z" />
<glyph unicode="&#xf5;" glyph-name="otilde" horiz-adv-x="517" d="M281 511Q337 511 381 485T452 410T479 289Q479 210 449 141T364 31T230 -11Q163 -11 119 19T54 101T32 215Q32 295 62 362T148 470T281 511ZM266 455Q232 456 206 428T166 351T152 245Q151
213 155 179T169 114T198 65T243 46Q274 45 295 66T330 120T349 190T357 260Q358 289 355 323T342 387T314 435T266 455ZM153 612L109 639Q124 681 157 706T221 732Q252 733 271 722T306 701T345 690Q365 689 382 703T413 741L456 718Q437 660 405 636T344 612Q316
612 296 622T259 644T220 655Q206 655 187 646T153 612Z" />
<glyph unicode="&#xf6;" glyph-name="odieresis" horiz-adv-x="517" d="M281 511Q337 511 381 485T452 410T479 289Q479 210 449 141T364 31T230 -11Q163 -11 119 19T54 101T32 215Q32 295 62 362T148 470T281 511ZM266 455Q232 456 206 428T166 351T152 245Q151
213 155 179T169 114T198 65T243 46Q274 45 295 66T330 120T349 190T357 260Q358 289 355 323T342 387T314 435T266 455ZM362 605Q338 605 322 624T307 670Q307 700 326 721T370 742Q394 742 409 723T424 677Q423 647 405 626T362 605ZM197 605Q173 605 157 624T142
670Q142 700 161 721T205 742Q229 742 244 723T259 677Q258 647 240 626T197 605Z" />
<glyph unicode="&#xf7;" glyph-name="divide" horiz-adv-x="530" d="M268 271Q297 271 315 250T331 198Q330 168 310 147T261 125Q231 125 213 146T196 198Q198 228 219 249T268 271ZM285 597Q314 597 332 576T348 524Q347 494 327 473T278 451Q248 451 230 472T213
524Q215 554 236 575T285 597ZM50 396H496L492 327H46L50 396Z" />
<glyph unicode="&#xf8;" glyph-name="oslash" horiz-adv-x="517" d="M439 567L496 525L434 439Q455 411 467 374T479 289Q479 210 449 141T364 31T230 -11Q172 -11 130 13L66 -77L20 -39L84 52Q57 83 45 125T32 215Q32 295 62 362T148 470T281 511Q338 511 382
484L439 567ZM360 341L179 86Q191 68 207 57T245 46Q277 45 300 66T337 120T358 190T366 260Q366 279 365 300T360 341ZM266 455Q230 455 202 427T159 351T143 245Q143 221 145 196T154 147L336 411Q325 431 308 443T266 455Z" />
<glyph unicode="&#xf9;" glyph-name="ugrave" horiz-adv-x="596" d="M210 -11Q169 -11 143 7T106 59T94 135Q94 178 101 226T115 320T122 399Q122 417 117 424T102 432Q89 432 75 414T47 347L1 360Q5 380 15 406T44 456T87 495T144 511Q195 511 215 483T235 403Q235
374 231 336T221 256T211 178T206 115Q206 101 209 90T220 73T241 66Q261 66 282 89T323 152T358 240T383 338T392 434Q392 449 392 468T390 500H504Q505 484 505 477T506 459Q506 440 504 413T497 350T487 270Q483 233 480 205T474 158T470 124T468 100Q468 83
473 76T487 68Q500 68 514 86T543 153L588 140Q585 120 576 94T550 44T511 5T456 -11Q422 -11 399 10T375 80Q375 103 378 123T384 168H382Q356 97 328 59T270 5T210 -11ZM351 570L240 677Q227 692 221 708T217 739T232 765Q244 775 258 775T287 768T313 741L391
604L351 570Z" />
<glyph unicode="&#xfa;" glyph-name="uacute" horiz-adv-x="596" d="M210 -11Q169 -11 143 7T106 59T94 135Q94 178 101 226T115 320T122 399Q122 417 117 424T102 432Q89 432 75 414T47 347L1 360Q5 380 15 406T44 456T87 495T144 511Q195 511 215 483T235 403Q235
374 231 336T221 256T211 178T206 115Q206 101 209 90T220 73T241 66Q261 66 282 89T323 152T358 240T383 338T392 434Q392 449 392 468T390 500H504Q505 484 505 477T506 459Q506 440 504 413T497 350T487 270Q483 233 480 205T474 158T470 124T468 100Q468 83
473 76T487 68Q500 68 514 86T543 153L588 140Q585 120 576 94T550 44T511 5T456 -11Q422 -11 399 10T375 80Q375 103 378 123T384 168H382Q356 97 328 59T270 5T210 -11ZM261 570L224 604L309 741Q321 760 337 768T368 776T393 765Q405 754 407 739T403 707T380
676L261 570Z" />
<glyph unicode="&#xfb;" glyph-name="ucircumflex" horiz-adv-x="596" d="M210 -11Q169 -11 143 7T106 59T94 135Q94 178 101 226T115 320T122 399Q122 417 117 424T102 432Q89 432 75 414T47 347L1 360Q5 380 15 406T44 456T87 495T144 511Q195 511 215 483T235
403Q235 374 231 336T221 256T211 178T206 115Q206 101 209 90T220 73T241 66Q261 66 282 89T323 152T358 240T383 338T392 434Q392 449 392 468T390 500H504Q505 484 505 477T506 459Q506 440 504 413T497 350T487 270Q483 233 480 205T474 158T470 124T468 100Q468
83 473 76T487 68Q500 68 514 86T543 153L588 140Q585 120 576 94T550 44T511 5T456 -11Q422 -11 399 10T375 80Q375 103 378 123T384 168H382Q356 97 328 59T270 5T210 -11ZM444 574L319 681H318L182 578L151 618L327 781H334L482 614L444 574Z" />
<glyph unicode="&#xfc;" glyph-name="udieresis" horiz-adv-x="596" d="M210 -11Q169 -11 143 7T106 59T94 135Q94 178 101 226T115 320T122 399Q122 417 117 424T102 432Q89 432 75 414T47 347L1 360Q5 380 15 406T44 456T87 495T144 511Q195 511 215 483T235
403Q235 374 231 336T221 256T211 178T206 115Q206 101 209 90T220 73T241 66Q261 66 282 89T323 152T358 240T383 338T392 434Q392 449 392 468T390 500H504Q505 484 505 477T506 459Q506 440 504 413T497 350T487 270Q483 233 480 205T474 158T470 124T468 100Q468
83 473 76T487 68Q500 68 514 86T543 153L588 140Q585 120 576 94T550 44T511 5T456 -11Q422 -11 399 10T375 80Q375 103 378 123T384 168H382Q356 97 328 59T270 5T210 -11ZM395 605Q371 605 355 624T340 670Q340 700 359 721T403 742Q427 742 442 723T457 677Q456
647 438 626T395 605ZM230 605Q206 605 190 624T175 670Q175 700 194 721T238 742Q262 742 277 723T292 677Q291 647 273 626T230 605Z" />
<glyph unicode="&#xfd;" glyph-name="yacute" horiz-adv-x="545" d="M103 -271Q61 -270 38 -250T15 -198Q15 -169 33 -153T71 -136Q121 -136 126 -189Q129 -191 133 -191T140 -192Q159 -193 179 -179T217 -143T250 -101T272 -66Q264 -14 250 43T216 159T176 273T136
374Q129 391 118 409T88 427Q73 427 61 408T47 343L-1 347Q-1 370 5 398T27 452T66 494T128 511Q162 511 184 495T222 454T248 404Q264 364 283 306T319 183T346 55H347Q370 102 388 150T417 245T430 332Q431 347 429 369T417 402Q413 400 409 400T400 399Q377
399 362 414T346 451Q346 482 365 496T407 511Q442 511 463 491T493 439T502 375Q502 324 487 261T444 129T382 -4Q340 -83 295 -143T201 -237T103 -271ZM220 570L183 604L268 741Q280 760 296 768T327 776T352 765Q364 754 366 739T362 707T339 676L220 570Z"
/>
<glyph unicode="&#xfe;" glyph-name="thorn" horiz-adv-x="517" d="M215 755Q210 707 205 658T194 563Q191 528 188 498T182 435T173 360L175 359Q193 406 213 436T255 482T299 505T342 511Q390 511 420 486T464 417T478 323Q478 252 462 192T413 86T328 15T203
-11Q196 -11 184 -11T159 -9L154 -106Q153 -122 152 -147T146 -194Q163 -192 181 -192T212 -191V-255H-20V-202Q6 -202 18 -188T36 -150T42 -95Q48 3 53 86T64 247T74 406T85 580Q87 598 88 621T92 665Q75 664 55 664T22 662L26 726Q71 726 100 730T145 742T170
755H215ZM300 435Q279 434 259 416T223 364T194 284T173 180T161 57Q172 51 189 48T217 45Q255 45 280 64T321 114T345 183T356 255T359 319Q358 379 342 407T300 435Z" />
<glyph unicode="&#xff;" glyph-name="ydieresis" horiz-adv-x="545" d="M103 -271Q61 -270 38 -250T15 -198Q15 -169 33 -153T71 -136Q121 -136 126 -189Q129 -191 133 -191T140 -192Q159 -193 179 -179T217 -143T250 -101T272 -66Q264 -14 250 43T216 159T176
273T136 374Q129 391 118 409T88 427Q73 427 61 408T47 343L-1 347Q-1 370 5 398T27 452T66 494T128 511Q162 511 184 495T222 454T248 404Q264 364 283 306T319 183T346 55H347Q370 102 388 150T417 245T430 332Q431 347 429 369T417 402Q413 400 409 400T400
399Q377 399 362 414T346 451Q346 482 365 496T407 511Q442 511 463 491T493 439T502 375Q502 324 487 261T444 129T382 -4Q340 -83 295 -143T201 -237T103 -271ZM354 605Q330 605 314 624T299 670Q299 700 318 721T362 742Q386 742 401 723T416 677Q415 647 397
626T354 605ZM189 605Q165 605 149 624T134 670Q134 700 153 721T197 742Q221 742 236 723T251 677Q250 647 232 626T189 605Z" />
<glyph unicode="&#x2013;" glyph-name="endash" horiz-adv-x="570" d="M516 362L512 274L54 270L59 362H516Z" />
<glyph unicode="&#x2014;" glyph-name="emdash" horiz-adv-x="769" d="M716 362L712 274L54 270L59 362H716Z" />
<glyph unicode="&#x2018;" glyph-name="quoteleft" horiz-adv-x="220" d="M135 454Q95 453 75 481T57 550Q58 580 68 615T100 689T153 762L186 737Q173 722 159 695T134 638T124 579Q131 581 135 581T146 582Q170 582 188 567T205 523Q204 494 184 474T135 454Z" />
<glyph unicode="&#x2019;" glyph-name="quoteright" horiz-adv-x="207" d="M121 759Q162 760 181 732T199 663Q199 633 188 598T156 525T103 451L70 476Q83 492 97 518T122 575T132 634Q126 633 121 632T110 631Q86 631 69 646T51 690Q53 719 72 739T121 759Z" />
<glyph unicode="&#x201a;" glyph-name="quotesinglbase" horiz-adv-x="245" d="M102 124Q143 125 162 97T180 28Q180 -2 169 -37T137 -110T84 -184L51 -159Q64 -143 78 -117T103 -60T113 -1Q107 -2 102 -3T91 -4Q67 -4 50 11T32 55Q34 84 53 104T102 124Z" />
<glyph unicode="&#x201c;" glyph-name="quotedblleft" horiz-adv-x="406" d="M135 454Q95 453 75 481T57 550Q58 580 68 615T100 689T153 762L186 737Q173 722 159 695T134 638T124 579Q131 581 135 581T146 582Q170 582 188 567T205 523Q204 494 184 474T135
454ZM321 454Q280 453 261 481T242 550Q243 580 254 615T286 689T338 762L371 737Q358 722 344 695T320 638T309 579Q316 581 321 581T331 582Q356 582 373 567T390 523Q389 494 370 474T321 454Z" />
<glyph unicode="&#x201d;" glyph-name="quotedblright" horiz-adv-x="388" d="M120 760Q161 761 180 733T198 664Q198 634 187 599T155 526T102 452L69 477Q82 493 96 519T121 576T131 635Q125 634 120 633T109 632Q85 632 68 647T50 691Q52 720 71 740T120 760ZM303
760Q344 761 363 733T381 664Q381 634 370 599T338 526T285 452L252 477Q265 493 279 519T304 576T314 635Q308 634 303 633T292 632Q268 632 251 647T233 691Q235 720 254 740T303 760Z" />
<glyph unicode="&#x201e;" glyph-name="quotedblbase" horiz-adv-x="430" d="M102 124Q143 125 162 97T180 28Q180 -2 169 -37T137 -110T84 -184L51 -159Q64 -143 78 -117T103 -60T113 -1Q107 -2 102 -3T91 -4Q67 -4 50 11T32 55Q34 84 53 104T102 124ZM287 124Q328
125 347 97T365 28Q365 -2 354 -37T322 -110T269 -184L236 -159Q249 -143 263 -117T288 -60T298 -1Q292 -2 287 -3T276 -4Q252 -4 235 11T217 55Q219 84 238 104T287 124Z" />
<glyph unicode="&#x2022;" glyph-name="bullet" horiz-adv-x="382" d="M203 519Q246 519 280 499T333 445T351 367Q349 324 326 289T266 234T187 214Q144 214 110 234T57 289T40 367Q42 410 64 444T123 499T203 519Z" />
<glyph unicode="&#x2039;" glyph-name="guilsinglleft" horiz-adv-x="371" d="M274 -13L19 260L20 276L309 552L348 509L143 266V265L317 28L274 -13Z" />
<glyph unicode="&#x203a;" glyph-name="guilsinglright" horiz-adv-x="370" d="M57 -13L18 30L223 273V274L49 511L92 552L347 279L346 263L57 -13Z" />
</font>
</defs>
</svg>
