<?xml version="1.0" standalone="no"?>
<!DOCTYPE svg PUBLIC "-//W3C//DTD SVG 1.1//EN" "http://www.w3.org/Graphics/SVG/1.1/DTD/svg11.dtd">
<svg xmlns="http://www.w3.org/2000/svg">
<defs >
<font id="EBGaramond" horiz-adv-x="523" ><font-face
    font-family="EB Garamond Medium"
    units-per-em="1000"
    panose-1="0 0 0 0 0 0 0 0 0 0"
    ascent="1007"
    descent="-298"
    alphabetic="0" />
<glyph unicode=" " glyph-name="space" horiz-adv-x="213" />
<glyph unicode="!" glyph-name="exclam" horiz-adv-x="292" d="M142 195Q133 195 131 204T133 238Q142 286 153 335T174 431T193 511T205 561Q211 586 223 605T250 637T282 649Q298 649 307 637T319 604T311 555Q307 542 294 509T261 430T219 335T177 238Q169
220 160 208T142 195ZM84 -14Q62 -14 47 2T32 40Q32 71 55 92T110 114Q134 114 148 97T163 59Q163 29 140 8T84 -14Z" />
<glyph unicode="&quot;" glyph-name="quotedbl" horiz-adv-x="354" d="M147 431Q142 431 143 440T147 456Q153 471 156 484T164 509Q173 537 179 563T193 618Q196 631 206 641T225 656Q241 666 253 672T280 679Q291 679 289 663T280 631Q271 605 258 581T230 534T202
492T178 458Q171 449 161 440T147 431ZM288 431Q283 431 284 440T288 456Q294 471 297 484T305 509Q314 537 320 563T334 618Q337 631 347 641T366 656Q382 666 394 672T421 679Q432 679 430 663T421 631Q412 605 399 581T371 534T343 492T319 458Q312 449 302
440T288 431Z" />
<glyph unicode="#" glyph-name="numbersign" horiz-adv-x="459" d="M-17 -90Q-22 -90 -25 -86T-26 -76L-25 -73L60 98L1 96Q-6 95 -9 100T-11 110Q-9 122 -4 134T10 156T30 166L97 169L157 297L94 294Q87 294 84 298T81 309Q83 321 89 333T103 355T122 364L193
367L272 530Q278 543 292 546T318 550Q322 550 323 546T324 536Q323 534 322 533T321 530L243 370L355 375L436 541Q442 554 454 557T479 561Q483 561 485 557T486 547Q485 545 485 544T483 541L405 377L461 380Q469 381 472 377T475 366Q474 358 467 345T449 322T428
310L370 307L307 178L369 181Q377 182 380 178T383 166Q382 158 374 145T356 122T335 111L273 108L191 -60Q186 -72 176 -75T154 -78Q149 -78 146 -74T144 -64L145 -60L226 106L111 101L25 -73Q20 -84 8 -87T-17 -90ZM145 171L260 176L321 305L208 300L145 171Z"
/>
<glyph unicode="$" glyph-name="dollar" horiz-adv-x="506" d="M203 -15Q173 -15 144 -11T87 5Q74 10 65 13T51 17Q45 17 39 15T28 11Q21 7 16 4T6 0Q1 0 -7 7T-16 20Q-16 27 -6 49T17 104T35 177Q37 190 41 195T55 201Q65 201 67 190T70 154Q70 118 83 87T124
36T195 17Q239 17 272 35T323 82T342 147Q342 172 335 192T307 236T251 292Q203 334 175 375T147 477Q147 531 177 573T258 639T375 664Q399 664 421 660T463 650Q483 644 497 639T520 634Q533 634 542 639Q547 642 552 644T563 646Q572 646 574 640T575 628Q571
622 562 606T543 560T524 487Q522 473 517 466T506 458Q497 458 494 466T491 489Q491 557 457 595T369 633Q331 633 303 615T260 568T244 511Q244 486 253 464T285 419T344 362Q400 315 423 274T447 188Q447 135 419 89T336 14T203 -15ZM103 -95Q94 -95 92 -89T91
-75L421 709Q426 720 437 724T459 728Q466 728 467 722T466 706L134 -81Q131 -88 122 -91T103 -95Z" />
<glyph unicode="%" glyph-name="percent" horiz-adv-x="675" d="M174 263Q135 263 112 288T85 357T97 455Q109 494 136 531T200 591T279 615Q319 615 340 591T364 525T353 433Q340 390 314 351T253 288T174 263ZM180 288Q206 288 225 311T259 367T283 433Q291
460 297 487T303 537T296 574T269 588Q245 588 225 567T191 513T166 449Q157 421 151 393T144 341T151 303T180 288ZM64 -26Q55 -26 50 -19T51 -5L657 654Q667 664 677 667T698 670Q711 670 714 663T712 650L106 -8Q97 -19 87 -22T64 -26ZM461 -17Q422 -17 399
8T372 77T384 175Q396 214 423 251T487 311T566 335Q606 335 627 311T651 245T640 153Q627 110 601 71T540 8T461 -17ZM467 8Q493 8 512 31T546 87T570 153Q578 180 584 207T590 257T583 294T556 308Q532 308 512 287T478 233T453 169Q444 141 438 113T431 61T438
23T467 8Z" />
<glyph unicode="&amp;" glyph-name="ampersand" horiz-adv-x="833" d="M415 -15Q320 -15 247 18T131 111T89 249Q89 322 116 379T191 469T296 502Q349 501 378 477T407 416Q407 391 394 371T357 338T303 326Q257 326 222 352T166 424T145 532Q145 585 173 627T246
694T346 718Q394 717 421 693T449 628Q449 606 436 592T402 578Q390 578 379 589T368 611Q368 630 356 642T325 655Q290 655 262 639T218 594T201 525Q201 367 301 367Q329 367 345 381T362 419Q362 439 344 452T294 466Q228 466 190 419T152 296Q152 240 180 191T271
112T441 82Q533 82 595 115T689 204T720 321Q720 377 692 414T594 450Q560 450 540 430T519 380Q519 361 530 347T562 333Q573 333 578 339T589 353Q595 361 601 368T621 376Q645 376 656 364T666 333Q666 307 647 289T601 270Q546 270 513 300T479 379Q479 423
501 455T561 506T644 525L729 526Q804 527 839 551T874 628Q874 655 859 671T821 687Q811 687 805 682T799 669Q799 662 802 656T814 647Q822 644 826 637T830 621Q830 605 817 593T784 581Q759 581 744 598T729 639Q729 660 740 677T773 706T823 717Q863 717 889
687T916 602Q916 558 895 523T837 469T748 448Q734 448 731 445T731 435Q749 405 756 374T763 301Q763 207 719 136T596 25T415 -15Z" />
<glyph unicode="&apos;" glyph-name="quotesingle" horiz-adv-x="213" d="M147 431Q142 431 143 440T147 456Q153 471 156 484T164 509Q173 537 179 563T193 618Q196 631 206 641T225 656Q241 666 253 672T280 679Q291 679 289 663T280 631Q271 605 258 581T230
534T202 492T178 458Q171 449 161 440T147 431Z" />
<glyph unicode="(" glyph-name="parenleft" horiz-adv-x="305" d="M123 -216Q95 -216 77 -175Q52 -113 41 -52T29 73Q29 194 71 307T189 518T369 693Q387 705 403 705Q416 705 416 697Q416 693 413 688T402 675Q340 616 286 546T192 397T128 236T104 70Q104 12
107 -33T118 -116T135 -192Q137 -202 134 -209T123 -216Z" />
<glyph unicode=")" glyph-name="parenright" horiz-adv-x="306" d="M209 707Q237 707 254 666Q280 605 291 543T303 419Q303 299 261 185T143 -27T-37 -201Q-55 -214 -71 -214Q-84 -214 -84 -205Q-84 -201 -81 -196T-70 -183Q-8 -124 45 -54T140 95T204 256T228
422Q228 480 225 525T215 608T196 684Q194 694 197 700T209 707Z" />
<glyph unicode="*" glyph-name="asterisk" horiz-adv-x="346" d="M218 370Q207 370 204 380T203 403Q204 409 207 422T214 448T221 472T224 486Q207 483 183 481T135 478Q125 477 117 481T109 493Q109 502 116 508T131 515Q137 517 149 520T175 527T200 533T213
537Q203 551 190 568T163 606Q157 615 157 624Q157 633 161 637T173 642Q178 642 184 638T195 630Q211 613 225 600T253 571Q259 590 268 609T286 650Q290 657 295 663T308 669Q319 669 322 661T324 642Q323 636 319 621T310 587T301 555Q312 556 331 558T368 562T392
564Q401 564 408 560T416 547Q416 539 409 533T394 525Q373 520 353 515T312 504Q323 490 335 474T362 439Q365 435 368 428T371 416Q371 408 367 404T355 399Q350 399 343 402T333 409Q317 427 302 441T273 469Q267 453 259 432T240 389Q237 382 232 376T218 370Z"
/>
<glyph unicode="+" glyph-name="plus" horiz-adv-x="593" d="M285 -9Q281 -9 277 -5T273 6V214Q273 221 267 221H62Q56 221 52 225T47 233Q47 239 49 249T57 267T73 275H264Q271 275 272 277T273 285V459Q273 470 282 477T303 487T319 491Q325 491 329 486T334
475V283Q334 278 335 277T341 275H544Q550 275 555 271T560 260Q557 247 550 234T528 221H341Q334 221 334 215V16Q334 6 324 1T303 -7T285 -9Z" />
<glyph unicode="," glyph-name="comma" horiz-adv-x="234" d="M-37 -140Q-45 -140 -51 -138T-56 -130Q-55 -124 -48 -121T-29 -112Q-1 -100 20 -83T54 -46T66 -6Q66 10 56 17T34 30Q23 36 14 44T5 67Q5 89 24 104T68 120Q98 120 119 101T140 44Q140 9 124 -25T81
-84T23 -124T-37 -140Z" />
<glyph unicode="-" glyph-name="hyphen" horiz-adv-x="287" d="M36 168Q31 167 28 171T24 181Q24 202 37 216T60 232Q109 239 160 246T260 258Q267 259 268 256T270 248Q270 237 265 226T251 206T233 195Q185 188 134 181T36 168Z" />
<glyph unicode="." glyph-name="period" horiz-adv-x="234" d="M55 -20Q33 -20 18 -3T3 36Q3 57 14 74T42 102T80 113Q104 113 118 95T133 55Q133 35 123 18T95 -9T55 -20Z" />
<glyph unicode="/" glyph-name="slash" horiz-adv-x="276" d="M-45 -61Q-52 -61 -56 -55T-58 -44L341 647Q349 659 360 662T385 664Q392 664 395 658T395 645L-5 -46Q-11 -57 -22 -59T-45 -61Z" />
<glyph unicode="0" glyph-name="zero" horiz-adv-x="497" d="M203 -14Q154 -14 124 13T83 85T75 187T97 302Q115 362 146 421T218 527T308 602T411 630Q461 630 491 603T533 531T541 429T519 316Q500 255 469 197T396 91T306 15T203 -14ZM216 17Q242 17 269 40T323
102T372 192T412 298Q429 352 438 405T447 502T434 572T394 598Q359 598 324 559T258 457T205 320Q189 266 179 213T168 115T178 44T216 17Z" />
<glyph unicode="1" glyph-name="one" horiz-adv-x="497" d="M44 -3Q39 -3 35 0T32 8Q32 15 38 19T52 25Q100 35 134 50T180 101L294 468Q305 504 284 517T225 537Q220 538 215 542T210 553Q210 562 219 567T238 574Q270 577 303 586T368 608T426 632Q429 634 433
635T440 637Q445 637 448 634T449 627Q443 613 437 596T423 556L279 89Q272 67 281 56T310 40T358 25Q364 24 368 20T371 9Q370 5 364 1T352 -3Q327 -3 301 -2T249 1T201 2Q177 2 150 1T96 -1T44 -3Z" />
<glyph unicode="2" glyph-name="two" horiz-adv-x="497" d="M369 -3Q342 -2 324 -1T293 1T265 2T231 2Q200 2 171 2T114 2T60 0T8 -2Q1 -2 0 7T7 25L223 204Q276 248 317 293T382 383T406 472Q406 517 383 537T320 557Q285 557 251 537T187 478Q182 473 177 468T166
462Q161 462 159 469T160 485Q165 499 183 523T229 572T294 614T373 631Q439 631 476 597T513 508Q513 467 495 429T447 357T384 293Q366 278 336 254T272 203T205 150T151 108T125 88Q120 84 125 82T135 78Q151 76 173 75T220 74Q244 74 271 75T323 78Q348 80
363 84T391 99T420 130Q425 136 434 143T453 152Q459 153 461 146T461 132Q445 108 435 94T419 69T407 48T394 20Q388 6 381 2T369 -3Z" />
<glyph unicode="3" glyph-name="three" horiz-adv-x="497" d="M90 -38Q49 -38 30 -27T10 2Q10 21 17 34T40 47Q46 47 57 42T78 29Q92 21 108 13T144 5Q199 5 240 35T304 112T327 213Q327 249 311 274T259 299Q244 299 226 294T192 281Q187 280 182 281T176 291Q176
301 184 309T203 323T222 333Q248 343 276 358T330 395T370 443T386 498Q386 528 369 548T323 568Q283 568 255 549T201 493Q196 486 193 482T182 477Q178 477 171 487T163 508Q163 520 181 540T231 581T298 616T368 630Q404 630 432 617T475 582T491 531Q491 504
477 480T440 433T389 393T330 361Q327 360 326 358T329 354Q360 350 386 336T427 297T443 235Q443 195 422 155T363 78T278 15Q234 -11 185 -24T90 -38Z" />
<glyph unicode="4" glyph-name="four" horiz-adv-x="497" d="M385 -3Q381 -3 377 -1T373 7Q373 15 379 19T394 25Q444 32 464 44T492 82L516 161Q518 169 515 171T505 174Q470 174 434 173T360 170T276 167Q272 167 271 173T272 182Q287 196 293 202T305 213T319
227L683 611Q693 622 705 632T727 642H747Q751 642 750 639T745 632T740 626L381 245Q377 241 377 238T380 234H529Q532 234 535 236T540 242L591 406Q595 420 598 424T610 433Q632 443 654 446T684 449Q699 449 696 432T682 380L638 238Q636 232 641 232Q653 231
660 231T677 231Q692 231 704 231T733 233Q738 233 741 231T742 224Q738 216 731 205T717 185T706 176Q696 176 684 176T660 177Q652 177 645 177T632 175Q625 174 621 172T616 164L594 89Q584 58 594 45T644 25Q650 24 654 21T657 9Q656 5 650 1T636 -3Q611 -3
592 -2T554 1T514 2Q480 2 451 0T385 -3Z" />
<glyph unicode="5" glyph-name="five" horiz-adv-x="497" d="M74 -38Q43 -38 30 -22T17 12Q17 23 21 31T32 39Q47 39 58 30T91 12Q100 8 112 6T141 3Q171 3 205 13T268 45T315 101T334 184Q334 219 318 245T269 292T189 338Q166 350 158 357T150 375Q150 380 151
383T153 390Q158 405 169 426T195 472T222 517T244 552Q255 570 267 578T295 591Q317 597 344 602T401 612T458 621T510 628Q522 628 522 614Q522 608 515 594T497 565T473 538T448 526Q430 525 403 523T349 520T299 517T265 513Q259 512 248 500T227 472T213 449Q207
437 219 432Q278 408 326 381T404 318T434 229Q434 172 402 124T317 39T201 -18T74 -38Z" />
<glyph unicode="6" glyph-name="six" horiz-adv-x="497" d="M203 -14Q119 -14 83 26T48 127Q50 196 81 264T164 394T282 507T421 594T566 645Q576 647 582 646T589 639Q589 633 586 630T572 623Q514 604 455 565T341 475T243 365T174 249T149 139Q149 85 171 55T239
24Q273 24 302 47T349 108T365 189Q364 227 345 246T298 265Q284 265 270 261T240 247Q226 240 226 246T235 263Q252 282 274 297T320 322T363 331Q408 331 436 301T465 226Q465 179 442 136T381 59T297 6T203 -14Z" />
<glyph unicode="7" glyph-name="seven" horiz-adv-x="497" d="M60 -31Q50 -31 44 -23T41 -3Q42 2 54 15T76 41L486 521Q490 526 490 528T480 532H260Q235 532 215 523T177 493Q172 487 161 479T140 470Q130 470 131 481T139 503Q154 531 168 558T188 608Q192 617
197 619T206 621Q214 621 234 620T275 617Q293 617 315 617T362 616T407 615Q450 615 489 615T557 617T597 620Q602 620 605 614T607 603Q599 592 583 574T550 535L88 -2Q81 -11 72 -21T60 -31Z" />
<glyph unicode="8" glyph-name="eight" horiz-adv-x="497" d="M190 -14Q143 -14 110 4T59 51T40 116Q40 158 58 190T118 251T232 307Q240 311 238 314T231 322Q212 348 197 368T171 410T161 459Q161 487 178 517T224 572T292 614T375 630Q421 630 451 614T497
572T513 520Q513 496 502 473T464 424T388 368Q380 363 371 358T352 347Q343 342 343 339T347 328Q388 283 413 247T438 160Q438 126 420 95T369 39T290 0T190 -14ZM205 18Q260 18 298 51T336 143Q336 178 318 210T269 281Q265 286 262 288T255 291Q251 291 241
284Q195 252 170 227T137 174T128 109Q128 86 137 65T164 31T205 18ZM334 363Q365 384 385 413T417 473T429 530Q428 561 411 581T358 601Q330 601 306 585T266 544T250 490Q250 459 266 430T313 365Q318 360 322 359T334 363Z" />
<glyph unicode="9" glyph-name="nine" horiz-adv-x="498" d="M26 -26Q15 -26 9 -24T3 -16Q3 -9 8 -5T25 0Q69 4 116 26T209 86T298 170T371 268T422 372T441 473Q441 522 421 556T361 591Q328 591 300 569T254 511T236 437Q236 402 255 378T301 353Q325 353 339
359T369 373Q381 379 381 371Q381 369 380 364T375 356Q358 335 335 321Q325 315 310 307T277 293T243 287Q199 287 169 316T138 390Q138 429 162 471T225 549T312 607T407 629Q446 629 475 607T520 549T536 468Q536 419 515 364T455 255T366 151T259 62T142 0T26
-26Z" />
<glyph unicode=":" glyph-name="colon" horiz-adv-x="235" d="M141 256Q119 256 104 273T89 312Q89 333 100 350T128 378T166 389Q190 389 204 371T219 331Q219 311 209 294T181 267T141 256ZM56 -20Q34 -20 19 -3T4 36Q4 57 15 74T43 102T81 113Q105 113 119
95T134 55Q134 35 124 18T96 -9T56 -20Z" />
<glyph unicode=";" glyph-name="semicolon" horiz-adv-x="234" d="M-37 -140Q-45 -140 -51 -138T-56 -130Q-55 -124 -48 -121T-29 -112Q-1 -100 20 -83T54 -46T66 -6Q66 10 56 17T34 30Q23 36 14 44T5 67Q5 89 24 104T68 120Q98 120 119 101T140 44Q140 9 124
-25T81 -84T23 -124T-37 -140ZM141 256Q119 256 104 273T89 312Q89 333 100 350T128 378T166 389Q190 389 204 371T219 331Q219 311 209 294T181 267T141 256Z" />
<glyph unicode="&lt;" glyph-name="less" horiz-adv-x="593" d="M515 -3L91 193Q78 200 63 208T48 221Q48 229 57 245T83 269L511 466Q521 471 527 468T534 452Q534 438 525 425T501 405L133 235Q131 234 131 232T134 229L506 60Q521 53 527 39T534 14Q534 4 528
0T515 -3Z" />
<glyph unicode="=" glyph-name="equal" horiz-adv-x="605" d="M76 315Q70 315 66 319T61 327Q61 332 63 341T71 359T87 367H560Q566 367 571 364T576 354Q576 344 567 330T544 315H76ZM76 140Q70 140 66 144T61 152Q61 158 63 167T71 184T87 192H560Q566 192 571
189T576 180Q576 167 567 154T544 140H76Z" />
<glyph unicode="&gt;" glyph-name="greater" horiz-adv-x="593" d="M80 0Q71 -4 64 -1T56 17Q56 28 64 41T89 61L456 230Q459 232 459 234T455 237L83 406Q69 414 62 430T55 455Q55 460 58 465T68 471Q69 471 70 471T72 470L498 272Q512 266 527 258T542 244Q542
237 533 220T506 196L80 0Z" />
<glyph unicode="?" glyph-name="question" horiz-adv-x="342" d="M155 176Q151 176 140 190T119 225T110 266Q110 295 119 318T158 364T249 411Q292 429 321 456T351 525Q351 557 331 574T272 592Q259 592 250 588T232 580Q223 577 216 573T200 569Q187 569 179
577T171 601Q171 626 194 643T248 661Q288 661 319 639T368 577T386 488Q386 454 375 428T344 382T298 349L209 306Q179 292 169 278T159 242Q159 233 161 224T164 207Q166 201 168 195T170 184Q170 179 165 178T155 176ZM133 -14Q113 -14 100 1T86 36Q86 65 106
86T155 107Q178 107 191 91T204 55Q204 27 183 7T133 -14Z" />
<glyph unicode="@" glyph-name="at" horiz-adv-x="772" d="M303 -143Q212 -143 150 -113T57 -29T25 90Q25 152 47 213T110 330T208 427T334 493T482 517Q544 517 593 498T676 447T729 376T747 297Q747 250 727 202T672 116T587 53T479 29Q457 29 446 38T432 59T429
82Q429 91 426 91T414 85Q406 79 388 68T345 48T293 38Q240 38 214 67T187 139Q188 179 209 220T268 294T358 347T475 367Q490 366 504 364T533 357Q544 355 549 353T558 351Q567 350 575 360T591 371Q593 371 599 370T611 367T615 362Q601 342 589 321T571 287L497
133Q488 115 488 98T512 80Q564 80 604 111T666 191T689 291Q689 341 664 382T587 448T461 473Q395 473 329 445T208 367T120 252T87 110Q87 40 116 -6T199 -74T327 -97Q396 -97 454 -78T561 -25Q569 -19 577 -16T590 -13Q597 -13 600 -16T602 -27Q599 -37 574
-56T507 -95T412 -129T303 -143ZM329 79Q347 79 363 86T396 104Q407 110 417 120T438 153L492 265Q497 276 500 284T503 300Q503 317 489 324T439 332Q400 332 368 315T314 272T280 214T268 154Q268 122 284 101T329 79Z" />
<glyph unicode="A" glyph-name="A" horiz-adv-x="689" d="M-39 -5Q-50 -5 -55 -2T-62 9Q-62 18 -53 22T-30 30Q-5 37 19 47T64 72T102 105Q173 184 235 259T356 408T476 558Q490 575 500 590T517 614T528 623Q551 623 563 629T590 648Q605 662 613 668T628 675Q635
675 637 665T634 633L532 119Q523 76 533 56T575 28Q590 24 597 21T605 9Q605 2 597 -1T574 -4Q559 -4 536 -3T489 0T442 1Q424 1 403 1T361 0T326 -1Q305 -1 303 12Q303 20 311 25T331 33Q361 38 379 45T407 67T424 108L455 228Q458 240 451 246T430 252L304 250Q290
250 282 246T266 232L175 113Q155 87 153 71T159 47T185 34Q195 31 202 26T210 12Q210 5 202 2T181 -1Q162 -1 140 0T90 1Q59 1 23 -2T-39 -5ZM336 288L448 289Q458 289 463 294T472 312L520 531Q522 541 522 546T517 552Q514 552 510 550T500 541L321 309Q313
299 313 294T336 288Z" />
<glyph unicode="B" glyph-name="B" horiz-adv-x="591" d="M-6 -5Q-28 -5 -28 6Q-28 14 -19 18T6 26Q42 34 64 48T97 98L235 550Q246 585 237 599T195 620Q182 623 177 626T172 637Q172 644 181 647T203 651Q224 651 238 650T266 648T296 646Q314 646 333 648T373
652T412 655Q478 655 519 638T579 592T598 525Q598 491 582 464T539 417T481 383T418 365Q411 364 411 361T415 355Q473 334 507 298T542 194Q542 146 520 110T459 48T367 9T254 -4Q213 -4 183 -1T122 2Q99 2 80 1T40 -3T-6 -5ZM256 24Q289 25 320 40T378 82T420
141T436 212Q436 273 400 307T295 341Q283 341 276 336T265 320L201 105Q197 90 198 74T208 48Q218 38 229 31T256 24ZM304 368Q327 368 348 372T392 383Q437 405 468 441T499 529Q499 568 471 596T391 625Q371 625 362 621T349 603L287 387Q282 368 304 368Z"
/>
<glyph unicode="C" glyph-name="C" horiz-adv-x="643" d="M325 -14Q280 -14 236 4T154 57T94 138T72 244Q72 334 105 410T197 544T332 633T493 665Q523 665 550 660T604 645Q623 639 636 635T659 630Q665 630 670 632T682 638Q688 641 694 643T707 646Q716 646
717 640T714 628Q703 612 689 585T662 530T645 477Q643 469 638 463T625 456Q616 456 612 466T609 490Q613 512 610 535T592 580Q575 603 549 617T490 632Q445 632 400 610T316 548T247 455T200 341T183 216Q183 162 198 125T237 64T293 31T356 20Q403 20 437 36T497
82T547 149Q553 157 558 163T571 170Q576 170 578 164T580 148Q578 136 569 110T546 57T522 10T504 -9Q499 -9 494 -6T483 2Q479 6 473 8T457 11Q449 11 438 8T412 0Q396 -5 374 -9T325 -14Z" />
<glyph unicode="D" glyph-name="D" horiz-adv-x="745" d="M313 -7Q295 -7 260 -5T187 -1T119 1Q100 1 82 0T44 -2T0 -4Q-10 -4 -15 -2T-21 8Q-19 24 13 27Q43 29 59 37T85 60T102 98L249 557Q257 581 247 592T217 610T174 621Q161 624 157 629T154 641Q154 648
162 651T182 654Q220 654 255 652T322 649Q342 649 358 650T393 653T438 655Q532 655 600 622T706 528T744 379Q744 302 712 233T622 110T485 24T313 -7ZM316 25Q384 25 441 56T542 141T609 261T633 397Q633 475 610 524T543 596T440 620Q404 620 388 615T365 599T352
571L217 135Q204 94 214 70T251 36T316 25Z" />
<glyph unicode="E" glyph-name="E" horiz-adv-x="575" d="M-19 -5Q-30 -5 -35 -2T-40 7Q-39 20 -7 26Q39 35 59 50T90 98L228 550Q241 589 229 602T177 623Q163 625 158 629T153 641Q154 647 163 650T188 654Q198 654 219 653T265 651T311 650H473Q524 650 552
653T593 658T609 661Q614 661 618 656T623 645Q623 637 617 620T604 578T594 527Q593 517 588 513T577 508Q572 508 569 514T565 531Q565 580 553 600T502 620H395Q371 620 359 611T339 575L279 380Q274 363 277 357T296 351L408 353Q434 354 450 366T480 397Q487
405 495 414T511 424Q519 424 520 417T516 398Q507 379 500 363T488 330Q482 313 477 295T467 255Q465 245 462 238T453 231Q445 231 442 241T438 258Q439 289 430 303T403 317L293 319Q278 319 267 314T250 290L200 111Q187 64 196 47T240 29H370Q394 29 414 37T450
56Q467 68 482 87T512 130Q516 136 520 141T530 146Q535 146 536 140T538 125Q538 115 531 94T513 51T493 14Q488 5 481 0T462 -5Q432 -5 396 -5T323 -3T248 -1T175 0T109 1Q86 1 66 0T25 -3T-19 -5Z" />
<glyph unicode="F" glyph-name="F" horiz-adv-x="518" d="M0 -4Q-10 -4 -15 -2T-21 8Q-20 16 -12 20T12 27Q51 34 68 48T97 98L235 550Q246 584 236 599T193 621Q178 624 174 629T169 641Q170 647 179 650T201 654Q217 654 252 652T317 650H477Q545 650 579 656T622
663Q628 663 631 660T633 649Q633 645 632 640T628 627Q623 609 615 582T602 528Q601 521 598 516T585 510Q579 510 577 516T574 531Q574 552 572 569T561 598Q554 607 543 612T515 617L398 618Q377 618 366 608T350 582Q348 577 340 551T320 490T300 424T285 377Q282
367 285 359T303 350L407 352Q455 353 487 395Q493 404 500 410T513 416Q518 416 521 411T521 397Q504 359 494 329T474 261Q472 252 469 247T460 241Q452 241 448 249T444 264Q444 294 435 305T408 317Q398 318 376 318T332 318T301 318Q284 318 273 313T256 288L204
109Q195 78 198 62T218 39T262 27Q275 24 279 21T283 8Q282 1 274 -1T256 -4Q232 -4 211 -3T169 0T129 2Q96 2 67 -1T0 -4Z" />
<glyph unicode="G" glyph-name="G" horiz-adv-x="701" d="M371 -14Q304 -14 247 5T150 63T90 157T78 286Q84 365 119 433T212 553T348 634T516 663Q549 663 573 657T616 644Q632 638 644 634T669 630Q674 630 680 632T692 638Q698 641 704 643T715 646Q725 646
726 640T723 628Q711 612 697 586T671 532T654 479Q651 469 646 463T634 456Q613 456 618 490Q621 515 618 539T600 584Q587 602 562 617T501 632Q440 632 386 602T289 520T219 398T184 251Q179 198 193 155T237 81T303 34T381 17Q424 17 450 42T487 101L516 211Q521
227 517 236T499 250Q486 255 473 258T449 263Q440 265 431 268T422 280Q423 287 432 291T452 295Q475 295 496 293T539 290T582 288Q608 288 629 291T683 295Q703 295 701 280Q700 274 693 269T671 260Q646 255 633 245T610 215Q602 197 593 173T579 128T573 99Q573
90 576 83T587 65Q581 50 557 36T499 10T431 -7T371 -14Z" />
<glyph unicode="H" glyph-name="H" horiz-adv-x="761" d="M-7 -4Q-18 -4 -23 -2T-28 8Q-27 15 -19 19T4 28Q37 36 53 45T77 79L223 551Q234 585 230 599T192 621Q179 624 175 629T171 641Q172 648 180 651T199 654Q224 654 241 653T273 651T308 650Q327 650 344
650T381 652T424 653Q446 653 444 641Q443 633 435 629T410 621Q385 616 368 607T341 585T325 551L266 358Q263 348 276 348H580Q588 348 592 360L652 551Q660 579 653 595T610 621Q598 624 594 628T590 641Q590 648 598 650T617 653Q641 653 660 652T698 651T738
650Q755 650 769 651T799 653T840 654Q851 654 856 651T861 641Q859 627 827 621Q790 613 777 598T754 552L611 86Q603 60 610 47T647 27Q660 24 664 20T668 8Q667 1 659 -1T640 -4Q617 -4 600 -3T567 0T531 1Q512 1 494 0T457 -2T414 -4Q393 -4 394 8Q395 16 403
20T427 27Q462 34 482 50T512 97L573 291Q575 297 576 302T571 307H260Q252 307 248 294L189 102Q178 64 191 50T236 27Q249 24 253 20T257 8Q257 2 249 -1T230 -4Q206 -4 187 -3T148 0T109 1Q89 1 71 0T35 -2T-7 -4Z" />
<glyph unicode="I" glyph-name="I" horiz-adv-x="368" d="M-7 -4Q-17 -4 -22 -2T-28 8Q-26 21 6 27Q44 34 66 49T98 98L237 550Q248 584 239 598T195 621Q182 624 178 629T174 641Q175 648 183 651T202 654Q226 654 245 653T283 651T322 650Q342 650 360 650T397
652T440 653Q461 653 460 641Q459 633 450 629T426 621Q400 616 383 608T356 587T339 550L204 111Q196 83 198 67T212 42T247 28Q264 24 269 20T274 8Q274 2 266 -1T247 -4Q223 -4 203 -3T163 0T123 1Q90 1 60 -1T-7 -4Z" />
<glyph unicode="J" glyph-name="J" horiz-adv-x="323" d="M-86 -200Q-140 -200 -164 -183T-190 -146Q-190 -122 -183 -107T-161 -92Q-151 -92 -138 -104T-108 -129Q-94 -140 -78 -151T-46 -162Q-27 -162 -11 -147T21 -96T57 4L224 551Q235 585 227 599T184 621Q171
624 167 629T162 641Q163 648 172 651T191 654Q215 654 234 653T271 651T310 650Q328 650 343 650T377 652T418 653Q439 653 438 641Q437 633 429 629T405 621Q379 616 365 608T342 587T327 551L194 116Q175 54 159 14T126 -53T94 -97T62 -131Q30 -162 -6 -181T-86
-200Z" />
<glyph unicode="K" glyph-name="K" horiz-adv-x="721" d="M-2 -5Q-13 -5 -19 -2T-26 8Q-24 21 9 27Q47 34 65 49T93 100L232 551Q243 585 234 599T190 621Q177 624 173 628T168 639Q168 646 177 650T200 654Q223 654 241 653T276 652T313 651Q332 651 347 651T381
652T423 653Q444 653 444 642Q444 634 435 629T410 621Q384 616 370 609T349 589T334 551L278 363Q276 356 279 353T290 350Q307 350 325 360T364 391L557 561Q569 572 577 581T587 598Q588 604 581 609T561 618Q550 621 544 625T538 638Q538 645 548 648T571 651H629Q673
651 716 653T797 655Q816 655 816 643Q816 635 805 630T779 622Q737 616 697 601T618 558Q578 528 542 498T468 435T390 364Q384 358 384 353T386 342Q442 237 484 175T559 78Q581 56 602 46T648 28Q662 24 669 20T676 8Q676 2 667 -1T644 -5Q616 -5 595 -4T550
-1T485 0Q471 0 459 0T434 0T399 -1Q388 -1 382 2T376 11Q376 19 384 23T406 30Q425 35 431 41T436 56T424 80L301 299Q295 312 284 317T269 322Q264 322 262 316T258 305L201 107Q191 68 199 52T241 27Q254 24 259 20T265 9Q265 2 255 -1T233 -5Q206 -5 190 -3T158
1T124 3Q91 3 66 -1T-2 -5Z" />
<glyph unicode="L" glyph-name="L" horiz-adv-x="582" d="M-5 -5Q-16 -5 -21 -2T-26 7Q-25 20 7 26Q43 34 69 49T106 98L247 557Q258 592 250 602T208 621Q195 624 191 629T186 641Q187 648 195 651T214 654Q238 654 257 653T293 651T331 649Q353 649 374 650T417
652T463 653Q484 653 482 641Q482 633 472 629T448 623Q420 619 401 612T370 594T351 562L220 125Q206 78 214 56T257 33H321Q372 33 405 44T460 73Q482 92 497 113T528 161Q533 168 536 171T546 174Q551 174 553 170T555 160Q555 150 550 131T535 88T517 44T501
12Q497 6 491 1T478 -5Q433 -5 387 -4T296 -2T207 0T126 1Q91 1 61 -2T-5 -5Z" />
<glyph unicode="M" glyph-name="M" horiz-adv-x="990" d="M377 -14Q372 -14 369 -8T366 10Q369 132 366 252T357 493Q356 512 348 511T331 489Q288 405 249 321T175 152Q157 107 153 81T155 44T179 28Q192 26 200 22T207 10Q206 4 196 1T174 -3Q149 -3 134 -2T104
-1T68 0Q49 0 35 -1T6 -3T-27 -5Q-51 -5 -49 6Q-48 14 -39 18T-15 25Q13 31 33 42T73 78T117 149L305 521Q320 551 320 571T302 605T240 625Q221 628 213 631T205 642Q205 651 216 654T245 658Q263 658 295 657T361 655T418 653Q435 653 442 644T449 617T450 574L460
182Q461 164 468 165T487 178Q546 243 602 310T713 444T818 574Q830 595 837 609T853 636Q861 650 874 650H915Q930 650 950 652T989 656T1020 658Q1032 658 1041 655T1050 643Q1050 635 1040 629T1005 619Q977 614 961 607T936 582T916 532Q889 437 867 337T824
138Q814 83 825 59T869 28Q882 26 887 22T892 10Q891 5 883 1T863 -3Q840 -3 818 -1T775 3T731 6Q709 6 691 4T653 -1T610 -3Q600 -3 595 0T589 10Q590 17 599 21T622 30Q657 38 674 53T701 102Q724 172 741 233T774 355T806 480Q808 485 804 485T795 481L513 155L402
9Q394 -2 388 -8T377 -14Z" />
<glyph unicode="N" glyph-name="N" horiz-adv-x="774" d="M12 -4Q2 -4 -4 -2T-10 8Q-9 15 -2 19T20 27Q62 37 81 55T109 101L252 521Q263 553 262 575T244 609T189 624Q173 626 163 630T153 643Q153 652 163 655T180 658Q206 658 232 657T283 655T329 653Q339
653 346 648T358 635L576 167Q578 163 583 157T593 150Q599 150 606 168Q610 178 618 203T638 264T660 340T683 417T702 483T713 528Q723 573 704 592T635 620Q611 624 611 638Q611 644 621 647T642 651Q673 651 700 649T751 646Q771 646 787 648T822 651T869 653Q891
653 891 641Q891 634 881 629T855 621Q830 618 815 612T790 589T767 541Q764 530 754 501T730 431T701 344T672 255T646 178T630 126Q624 106 625 94T635 67Q640 55 648 48T665 33Q673 27 678 22T684 9Q684 3 681 2T672 0Q651 0 635 -1T607 -4T583 -6Q563 -6 552
2T532 30Q517 62 500 102T463 187T424 277T385 365T350 444T318 507Q314 515 309 521T299 527Q294 527 288 519T278 497Q267 461 252 414T220 312T189 204T161 101Q154 70 168 53T222 26Q235 23 242 20T249 8Q248 2 239 -1T219 -4Q193 -4 178 -3T150 -1T121 0Q100
0 82 -1T47 -3T12 -4Z" />
<glyph unicode="O" glyph-name="O" horiz-adv-x="693" d="M300 -14Q225 -14 174 20T97 113T71 243Q71 318 98 392T178 528T303 627T469 664Q543 664 594 630T672 537T698 407Q698 332 671 258T591 122T465 23T300 -14ZM302 19Q352 19 396 46T477 118T540 221T580
338T594 453Q594 499 581 540T540 608T466 634Q417 634 373 607T293 533T231 430T190 313T175 197Q175 151 187 111T228 45T302 19Z" />
<glyph unicode="P" glyph-name="P" horiz-adv-x="587" d="M10 -4Q0 -4 -6 -2T-12 8Q-12 15 -3 19T22 27Q60 34 80 49T112 99L248 541Q261 582 249 600T192 624Q179 627 174 630T168 641Q169 647 178 650T200 654Q210 654 229 654T269 652T305 651Q318 652 339
653T382 655T422 656Q488 656 536 634T611 570T637 471Q636 422 614 381T552 310T462 264T355 247Q340 247 326 250T312 263Q312 269 319 272T335 277Q348 279 360 281T385 286Q429 296 462 323T514 389T533 478Q533 526 517 558T470 608T397 625Q388 625 382 621T371
605T359 571L216 107Q204 70 216 53T268 27Q281 24 287 20T293 8Q293 2 283 -1T261 -4Q238 -4 217 -3T178 0T141 2Q107 2 77 -1T10 -4Z" />
<glyph unicode="Q" glyph-name="Q" horiz-adv-x="697" d="M552 -276Q498 -276 446 -251T345 -200Q299 -174 254 -154T161 -134Q144 -134 129 -136T101 -143Q87 -149 75 -155T54 -161Q46 -161 44 -159T41 -150Q41 -138 61 -125T112 -98T180 -71T248 -45T302 -23Q397
24 463 94T563 255T598 453Q598 501 584 541T539 606T460 631Q412 631 369 605T291 533T230 431T190 314T175 197Q175 152 192 110T249 40T359 12Q367 12 375 12T392 14L357 -10Q350 -11 337 -12T308 -14Q231 -14 179 20T99 113T71 243Q71 318 98 392T177 528T302
627T469 664Q544 664 596 630T675 537T702 407Q702 337 675 268T597 137T471 29Q427 1 390 -20T309 -59T200 -98L185 -91Q202 -84 220 -81T256 -77Q297 -77 343 -95T431 -136Q478 -163 522 -185T601 -208Q633 -208 657 -194T698 -157Q708 -145 715 -145T724 -150T723
-165Q715 -183 698 -202T658 -238T607 -265T552 -276Z" />
<glyph unicode="R" glyph-name="R" horiz-adv-x="712" d="M13 -4Q2 -4 -3 -2T-9 8Q-7 21 25 27Q63 34 83 49T115 99L251 543Q261 574 260 589T244 610T196 621Q182 623 175 627T168 639Q168 647 180 650T203 654Q216 654 236 653T276 652T307 651Q328 651 348
652T388 654T429 656Q485 656 529 640T599 590T625 507Q625 456 600 418T535 355T451 318Q439 313 443 302Q451 283 462 257T487 202T513 149T533 108Q552 70 572 54T624 34Q637 33 647 30T658 17Q658 4 638 1T580 -3Q544 -3 518 3T474 21T448 52Q433 81 417 116T387
187T360 255Q351 279 341 289T307 299Q289 299 283 295T273 280L219 107Q208 73 217 54T261 27Q274 24 278 20T283 8Q282 2 274 -1T255 -4Q231 -4 213 -3T178 0T144 2Q109 2 79 -1T13 -4ZM342 321Q368 321 398 331T457 364T502 424T520 513Q520 561 490 594T413
628Q400 628 391 623T374 601T355 548L303 359Q297 337 305 329T342 321Z" />
<glyph unicode="S" glyph-name="S" horiz-adv-x="488" d="M195 -15Q166 -15 138 -11T84 5Q70 10 61 13T49 17Q44 17 38 15T27 11Q21 7 16 4T6 0Q1 0 -7 7T-15 20Q-15 27 -5 49T16 104T33 177Q37 201 53 201Q63 201 65 190T68 154Q68 118 80 87T119 38T188 19Q250
19 291 54T332 149Q332 174 324 195T297 239T243 295Q198 336 170 377T141 477Q141 531 170 573T248 639T360 664Q383 664 404 660T445 650Q465 644 478 639T500 634Q512 634 521 639Q526 642 531 644T541 646Q550 646 552 640T552 628Q548 622 540 606T522 560T504
487Q502 473 497 466T485 458Q478 458 475 466T471 489Q471 557 439 594T354 632Q319 632 292 614T249 569T233 511Q233 486 241 464T271 417T328 359Q382 312 406 273T430 188Q430 135 403 89T324 14T195 -15Z" />
<glyph unicode="T" glyph-name="T" horiz-adv-x="641" d="M141 -4Q131 -4 125 -2T120 8Q120 15 129 19T154 25Q192 33 215 49T248 101L374 528Q389 581 388 597T371 614H301Q257 614 228 595T179 552Q170 543 161 531T143 511T127 502Q120 502 118 505T116 516Q117
519 119 527T127 546Q144 571 157 598T180 654Q183 663 189 669T201 676Q207 676 214 671T227 660Q232 656 239 652T262 646T310 644L638 645Q673 645 691 647T717 652T729 658Q739 664 746 670T760 676Q771 676 770 663Q769 657 766 650T760 638Q750 620 738 588T717
516Q715 505 711 501T701 496Q693 496 690 503T686 523Q686 567 671 590T616 614H534Q520 614 511 608T494 583T475 526L350 101Q341 67 354 51T401 25Q414 22 419 19T423 8Q422 2 414 -1T395 -4Q371 -4 351 -3T312 0T273 1Q251 1 230 0T187 -2T141 -4Z" />
<glyph unicode="U" glyph-name="U" horiz-adv-x="704" d="M306 -14Q252 -14 209 3T137 53T103 136T117 252L206 544Q216 577 209 596T184 619Q155 628 156 641Q156 648 168 651T192 654Q216 654 241 652T294 650Q318 650 344 651T390 653Q415 653 413 640Q411
632 399 628T370 617Q353 612 335 593T305 534L215 238Q195 171 208 127T257 60T340 38Q406 38 454 70T534 155T584 266Q596 306 608 345T631 416T646 466Q664 525 665 555T656 599T623 620Q614 623 604 627T595 640Q595 646 604 649T626 652Q644 652 661 652T696
651T728 650Q744 650 757 651T782 653T808 654Q820 654 826 651T831 641Q829 629 794 621Q776 616 763 608T737 579T709 514Q687 454 666 389T620 255Q593 177 554 116T455 21T306 -14Z" />
<glyph unicode="V" glyph-name="V" horiz-adv-x="698" d="M189 -15Q169 -15 161 7T163 80Q190 232 208 346T235 551Q238 582 231 598T189 621Q173 624 167 629T161 642Q161 649 170 652T192 655Q215 655 247 653T309 650Q328 650 349 651T390 652T424 652Q435
652 441 649T448 640Q447 632 436 627T413 620Q382 615 366 603T344 554L276 153Q273 139 274 134T279 129Q282 129 287 135T302 155L571 484Q609 530 620 558T624 601T600 620Q586 622 581 627T577 641Q577 647 586 650T608 653Q627 653 652 652T703 650Q734 650
754 653T800 656Q811 656 818 653T825 642Q825 635 814 630T788 620Q760 613 730 595T671 542L304 107Q287 87 270 66T237 27T209 -3T189 -15Z" />
<glyph unicode="W" glyph-name="W" horiz-adv-x="1083" d="M204 -15Q190 -15 183 1T176 41T179 91Q189 147 199 206T219 324T236 436T249 532Q253 567 251 584T235 608T193 621Q178 624 170 628T161 642Q161 650 171 652T197 655Q220 655 250 653T316 650Q335
650 356 651T398 652T432 652Q443 652 450 649T457 639Q456 632 444 627T419 619Q395 617 382 610T363 588T351 544Q337 453 322 362T291 178Q287 151 294 151T323 176L581 483Q606 512 617 532T628 568Q628 592 615 603T569 621Q554 624 546 629T537 642Q537 650
548 652T573 655Q589 655 613 654T661 652T705 650Q724 650 745 651T786 654T825 656Q848 656 848 642Q848 635 838 630T813 622Q769 615 753 601T732 552L673 178Q669 151 676 151T704 177L947 483Q984 530 994 558T997 601T966 620Q952 623 947 627T942 639Q942
646 952 649T974 653Q986 653 1006 652T1048 651T1088 650Q1118 650 1138 653T1184 656Q1196 656 1203 653T1210 642Q1210 635 1199 629T1172 620Q1141 614 1112 596T1054 542L690 108Q668 81 645 53T604 5T577 -14Q562 -14 556 -3T550 26T552 67T560 112Q570 169
581 233T604 361T624 482L313 109Q299 92 284 71T253 30T226 -2T204 -15Z" />
<glyph unicode="X" glyph-name="X" horiz-adv-x="661" d="M-27 -6Q-39 -6 -46 -3T-53 7Q-53 15 -43 20T-18 29Q3 32 24 41T71 70T129 125L283 293Q297 309 303 322T302 360L250 536Q241 571 227 588T198 611T163 621Q150 623 142 628T134 642Q134 648 145 651T166
655Q197 655 232 652T305 649Q335 649 359 651T404 653Q414 653 421 650T428 641Q428 633 419 628T394 620Q359 616 351 599T355 534L393 396Q397 382 404 382T421 393L521 514Q553 553 562 574T565 605T540 619Q530 621 522 626T514 640Q514 646 523 649T544 652Q562
652 582 651T623 650Q651 650 679 653T729 656Q741 656 748 654T756 644Q756 636 746 632T721 624Q704 619 680 605T630 572T583 529L436 367Q423 351 420 342T419 319L481 105Q488 81 498 67T526 45T574 29Q587 25 594 20T602 7Q602 1 594 -2T574 -5Q552 -5 526
-4T472 -1T419 1Q390 1 367 0T322 -1Q311 -1 304 2T297 12Q297 19 309 24T332 32Q366 41 376 58T378 106L331 274Q328 285 322 286T309 278L175 112Q156 87 152 71T157 45T183 31Q197 27 203 23T209 11Q209 5 200 2T179 -2Q161 -2 139 -1T89 1Q59 1 29 -2T-27 -6Z"
/>
<glyph unicode="Y" glyph-name="Y" horiz-adv-x="602" d="M122 -5Q110 -5 104 -2T98 7Q99 15 109 19T134 27Q172 34 196 54T231 109L279 262Q287 285 286 303T278 345L221 550Q213 580 200 597T164 618Q149 621 142 627T136 641Q136 648 146 650T168 653Q196 653
225 651T292 649Q316 649 338 651T383 653Q394 653 400 650T406 641Q405 633 395 628T369 620Q335 614 327 602T326 555L368 388Q373 370 377 362T385 354Q390 354 398 361T417 382Q450 420 478 456T542 536Q573 574 572 593T537 619Q527 621 520 626T513 640Q513
646 522 649T544 652Q565 652 584 651T628 650Q657 650 683 652T730 654Q741 654 748 652T754 641Q754 634 744 631T721 622Q701 616 678 603T634 573T599 541Q573 513 542 479T482 411T430 354Q409 331 398 309T378 257L333 109Q322 74 333 55T379 27Q392 24 398
20T403 8Q402 1 393 -2T373 -5Q349 -5 330 -4T291 -1T251 1Q229 1 209 0T167 -3T122 -5Z" />
<glyph unicode="Z" glyph-name="Z" horiz-adv-x="637" d="M502 -5Q476 -5 437 -5T354 -3T264 -1T181 0Q153 0 117 -1T44 -3T-20 -4Q-26 -4 -25 5T-23 15Q-17 24 -4 40T27 75T59 109Q123 175 178 235T287 353T396 472T517 599Q521 604 522 610T508 616Q494 617
469 617T413 615T354 612T305 608Q278 605 242 585T175 519Q167 508 160 500T143 492Q136 492 134 497T131 510Q132 514 134 521T140 536Q151 559 163 585T184 631Q189 645 196 651T214 658Q232 658 260 654T321 648Q355 647 393 647T463 647Q499 647 533 648T601
649T666 651Q672 651 676 641T678 628L594 540Q532 476 477 419T370 307T265 194T153 68Q130 42 159 39Q178 38 206 37T266 36Q290 36 320 37T380 42T431 51Q475 60 513 84T580 154Q585 160 590 165T601 171Q609 171 610 166T611 153Q610 143 601 125T579 86T554
45T534 13Q530 6 523 1T502 -5Z" />
<glyph unicode="[" glyph-name="bracketleft" horiz-adv-x="366" d="M18 -200Q5 -200 -2 -198T-9 -187T-3 -163L244 641Q249 658 253 671T266 693T290 702L462 701Q469 701 473 698T476 687Q475 676 464 672T444 668Q424 668 406 668T367 666Q352 665 341 653T325
627Q312 585 293 526T251 397T207 254T163 112T123 -19T91 -126Q86 -143 90 -152T113 -161Q126 -162 135 -162T156 -164T187 -167Q195 -168 202 -171T208 -183Q206 -192 197 -196T180 -200H18Z" />
<glyph unicode="\" glyph-name="backslash" horiz-adv-x="406" d="M285 -67Q273 -66 264 -62T253 -48L163 652Q162 660 168 665T184 670Q197 669 206 665T216 649L307 -51Q308 -59 301 -63T285 -67Z" />
<glyph unicode="]" glyph-name="bracketright" horiz-adv-x="365" d="M377 702Q391 702 397 700T404 690T398 665L151 -139Q146 -155 142 -169T129 -191T105 -200L-67 -199Q-74 -199 -78 -196T-81 -185Q-80 -174 -69 -170T-49 -166Q-29 -166 -11 -165T28 -164Q43
-163 54 -151T70 -125Q84 -82 103 -23T144 105T188 248T232 390T272 521T304 628Q310 646 305 654T282 663Q269 664 260 664T239 666T208 669Q200 670 193 673T187 685Q189 694 198 698T215 702H377Z" />
<glyph unicode="^" glyph-name="asciicircum" horiz-adv-x="506" d="M82 272Q76 272 72 275T68 285Q68 290 71 294L275 605H280L485 294Q489 287 487 280T474 272Q462 272 450 279T431 295L282 510Q278 515 277 515T272 510L125 296Q118 285 106 279T82 272Z" />
<glyph unicode="_" glyph-name="underscore" horiz-adv-x="506" d="M386 -131Q393 -131 396 -135T397 -146Q392 -159 382 -171T358 -184H-106Q-112 -184 -114 -180T-116 -171Q-115 -166 -110 -156T-97 -139T-81 -131H386Z" />
<glyph unicode="`" glyph-name="grave" horiz-adv-x="213" d="M282 473Q276 473 269 478T257 489L159 601Q150 612 145 620T140 634Q140 643 148 652T168 668T186 675Q195 675 202 667T215 647L289 497Q294 489 293 481T282 473Z" />
<glyph unicode="a" glyph-name="a" horiz-adv-x="509" d="M42 -14Q30 -14 17 -7T-4 10T-12 32Q-12 66 9 110T73 206T177 318Q227 365 262 390T315 416Q335 416 354 397Q365 383 365 384T365 385Q367 385 368 386T371 391Q383 411 386 416T388 422Q393 432 404
432Q415 432 427 428T447 417T455 403Q455 398 449 383L342 95Q330 64 354 64Q370 64 394 81T440 124Q442 126 444 127T448 128Q452 128 454 125T456 116Q456 106 441 84T405 44Q374 16 343 1T289 -14Q277 -14 265 -7T245 10T237 31Q237 40 243 54Q241 50 244 59T255
84T271 119T285 151Q290 160 289 164T282 163Q224 99 181 60T105 3T42 -14ZM116 64Q136 64 177 99T268 193Q304 235 324 269T345 321Q345 329 330 342Q322 348 314 351T301 355Q283 355 254 337T199 295Q170 267 144 231T102 159T86 99Q86 83 94 74T116 64Z" />
<glyph unicode="b" glyph-name="b" horiz-adv-x="476" d="M152 -10Q106 -10 80 14T54 81Q54 105 59 133T76 193L196 563Q202 581 204 594T207 619Q207 626 201 630T179 640Q151 648 151 656Q151 661 155 664T171 672Q184 677 204 683T245 694T282 703T303 707Q322
707 322 696Q322 686 321 679T314 660Q305 639 292 604T264 525T234 436T203 344T175 259Q172 250 175 248T185 255Q244 334 299 377T394 421Q427 421 449 399T472 343Q472 296 453 247T401 151T327 69T240 12T152 -10ZM179 25Q192 25 212 38T254 75T298 127Q321
160 341 199T372 273T384 332Q384 348 376 358T356 368Q329 368 291 336T204 238Q171 191 151 151T130 90Q130 65 144 45T179 25Z" />
<glyph unicode="c" glyph-name="c" horiz-adv-x="332" d="M115 -15Q91 -15 68 0T29 42T14 101Q15 142 27 186T61 272T115 347T188 401T278 421Q309 421 326 409T344 379Q344 362 333 345T310 327Q302 327 297 334T284 354Q277 367 267 377T241 388Q218 388 194
363T150 297T117 211T103 125Q103 91 118 76T159 60Q189 60 210 72T249 105Q255 111 259 114T268 117Q277 117 277 105Q277 91 264 71T227 31T175 -2T115 -15Z" />
<glyph unicode="d" glyph-name="d" horiz-adv-x="533" d="M73 -14Q42 -14 22 7T2 62Q2 100 18 145T61 238T125 327Q166 374 206 399T281 425Q298 425 310 419T348 396Q364 386 367 385T369 383Q373 383 375 391L435 590Q439 602 440 608T442 615T443 618T442 622Q442
632 435 639T410 653Q391 661 387 663T383 668Q383 675 390 679T416 687Q430 690 448 693T484 699T515 704T534 706Q550 706 550 692Q550 685 549 679T544 663L375 110Q374 103 373 97T371 85Q371 67 383 67Q394 67 411 76T446 101T477 134Q480 137 481 137T484
138Q494 138 492 128Q492 116 480 98T449 60T407 24T363 -3T326 -14Q314 -14 302 -7T282 11T274 35Q274 40 278 60Q281 71 286 87T296 118T303 140T303 139Q305 146 302 149T296 147Q227 61 175 24T73 -14ZM127 51Q151 51 181 69T240 118T294 186T333 259T348 327Q348
355 336 371T301 387Q280 387 253 366T198 311T147 237T109 157T94 87Q94 67 101 59T127 51Z" />
<glyph unicode="e" glyph-name="e" horiz-adv-x="355" d="M116 -15Q93 -15 69 1T28 43T11 95Q11 150 32 207T91 312T175 391T275 421Q318 421 340 404T362 359Q362 327 342 304T287 263T213 235T131 216Q126 215 123 214T118 207Q113 190 108 170T102 133Q102
98 117 77T164 55Q197 55 221 71T264 108Q274 119 281 119Q291 119 291 109Q291 107 291 104T289 99Q269 65 243 40T186 0T116 -15ZM138 244Q153 246 178 253T228 274T272 309T290 360Q290 372 283 382T263 392Q243 392 221 376T179 337T146 290T131 250Q131 243
138 244Z" />
<glyph unicode="f" glyph-name="f" horiz-adv-x="343" d="M-96 -290Q-145 -290 -170 -274T-196 -231Q-196 -213 -181 -199T-153 -184Q-144 -184 -136 -194T-117 -217Q-108 -229 -96 -238T-65 -248Q-48 -248 -35 -237T-9 -198T17 -123L152 341Q157 359 138 359L76
358Q68 358 65 362T62 372Q62 380 69 390T86 401L153 405Q165 406 170 423L178 453Q204 546 246 601T334 681T419 706Q464 706 491 686T518 634Q518 609 505 593T475 577Q465 577 459 590T444 621Q435 641 422 653T388 665Q363 665 345 650T312 602T280 512Q274
492 270 474T259 437Q258 431 257 427T255 417Q255 411 258 409T267 406Q296 406 322 407T373 409Q381 409 381 397Q381 393 377 385T367 371T353 365L265 363Q253 363 246 359T236 344Q202 233 170 119T108 -106Q99 -144 75 -177T19 -235T-43 -275T-96 -290Z"
/>
<glyph unicode="g" glyph-name="g" horiz-adv-x="434" d="M116 -290Q56 -290 8 -277T-69 -239T-98 -182Q-98 -157 -69 -136T5 -97T98 -64Q108 -61 100 -55Q79 -39 65 -24T50 9Q50 26 67 42T111 75Q116 80 118 83T121 87Q121 91 112 94Q93 104 79 117T58 150T51
192Q51 226 66 265T107 339T172 398T255 421Q275 421 287 416T308 407Q318 402 327 398T344 394Q357 394 374 397T409 404T440 407Q447 407 455 402T464 383Q464 365 458 356T443 346Q434 346 420 348T391 353T368 356Q363 356 359 354T357 343Q359 335 359 327T360
310Q360 271 345 231T302 158T241 104T168 83Q161 83 154 81T142 75Q132 63 132 50Q132 35 142 23T174 -4Q192 -16 216 -31T264 -62T305 -89Q327 -105 337 -120T348 -153Q348 -180 327 -204T271 -248T196 -279T116 -290ZM150 -258Q186 -258 210 -249T248 -224T261
-190Q261 -177 253 -162T224 -135Q212 -126 189 -112T153 -91Q138 -83 129 -83Q123 -83 118 -84T106 -87Q50 -104 18 -125T-14 -179Q-14 -201 8 -218T68 -247T150 -258ZM160 113Q178 112 196 129T232 175T263 235T285 297T293 346Q293 363 284 377T261 391Q243
391 225 375T189 333T157 275T135 214T126 159Q126 139 136 126T160 113Z" />
<glyph unicode="h" glyph-name="h" horiz-adv-x="514" d="M71 -17Q65 -17 58 -12T46 0T41 17Q41 33 44 48T54 85L193 551Q198 568 202 586T207 616Q207 627 195 632T169 642Q162 645 156 647T150 655Q150 659 154 663T171 672Q180 675 197 681T235 693T271 703T294
707Q300 707 307 706T314 696Q314 686 312 679T308 664L171 210Q169 203 172 203T178 207Q219 270 264 319T352 397T428 426Q464 426 482 403T501 347Q501 296 484 242T440 139T380 54Q373 47 359 36T325 13T288 -6T256 -14Q247 -14 236 -8T217 9T209 26Q209 31
213 39T225 55T239 62Q248 62 254 58T266 48Q273 42 279 38T295 33Q309 33 325 53T357 106T385 178T404 255T411 325Q411 346 403 357T378 369Q358 369 334 348T282 292T227 216T175 136T134 66Q111 24 98 4T71 -17Z" />
<glyph unicode="i" glyph-name="i" horiz-adv-x="307" d="M73 -14Q54 -14 40 -1T26 27Q26 31 27 35T30 45Q67 121 94 190T143 316Q147 326 138 326Q133 326 120 321T92 308T66 291Q58 286 53 288T47 297Q47 303 56 314T82 339T120 368T163 396T208 419Q219 424
230 418T248 401T252 383L134 98Q131 92 130 86T128 74Q128 68 132 66T141 64Q153 64 171 76T210 107T248 143Q250 146 252 146Q255 146 258 144T261 137Q261 121 241 96T191 45T130 3T73 -14ZM268 766Q250 766 239 779T227 811Q227 838 246 859T293 881Q312 881
322 865T333 831Q333 806 314 786T268 766Z" />
<glyph unicode="j" glyph-name="j" horiz-adv-x="278" d="M-125 -290Q-166 -290 -187 -275T-209 -243Q-208 -231 -201 -221T-184 -204T-165 -197Q-154 -197 -145 -204T-129 -221Q-120 -230 -110 -237T-83 -245Q-57 -245 -39 -215T-5 -139L132 280Q138 301 136
309T124 318Q115 318 100 311T64 295Q58 293 52 294T46 301Q46 307 49 310T59 320Q81 339 103 353T146 379T188 400T228 420Q241 425 253 414T262 391Q253 367 242 339T221 279L95 -105Q83 -140 57 -173T-3 -232T-68 -274T-125 -290ZM253 511Q235 511 224 524T212
556Q212 583 231 604T278 626Q297 626 307 610T318 576Q318 551 299 531T253 511Z" />
<glyph unicode="k" glyph-name="k" horiz-adv-x="483" d="M304 -19Q282 -19 268 -7T243 30L203 143Q198 159 189 170T165 181Q158 181 152 169T141 145Q137 135 131 119T117 83T103 47T92 20Q86 5 78 -3T54 -12Q44 -12 32 -3T19 20Q19 27 21 37T27 61L186 556Q192
574 195 587T198 614Q198 630 175 638Q166 642 158 645T150 653Q150 657 152 660T163 667Q174 672 193 678T232 691T268 702T292 706Q298 706 304 705T311 695Q311 686 310 680T306 666L176 275Q172 265 176 266T185 272Q217 316 253 349T328 402T403 421Q427 421
446 410T465 373Q465 348 446 321T397 269T334 225T274 198Q264 195 269 184L312 84Q317 75 325 66T343 56Q361 56 381 73T414 112Q419 120 422 122T429 125Q432 125 434 121T436 112Q436 94 422 72T386 29T342 -5T304 -19ZM203 206Q233 206 263 220T320 255T362
299T378 337Q378 352 369 359T344 367Q324 367 298 349T248 305T208 255T192 221Q192 216 195 211T203 206Z" />
<glyph unicode="l" glyph-name="l" horiz-adv-x="296" d="M61 -14Q44 -14 28 1T12 34Q12 41 15 49L197 576Q205 597 205 610T199 634Q195 641 188 648T170 659Q163 662 160 666T160 673Q168 677 178 680T197 687T213 691Q227 695 248 699T287 705T311 708Q316
708 319 704T323 691Q322 685 320 676T314 658L119 101Q117 94 116 88T115 77Q115 62 126 62Q138 62 156 75T193 108T224 144Q229 150 235 155T244 161Q249 161 250 157T251 147Q251 128 238 107T201 64T153 25T103 -3T61 -14Z" />
<glyph unicode="m" glyph-name="m" horiz-adv-x="804" d="M84 -16Q77 -16 70 -11T57 4T52 23Q52 28 57 43T70 80L167 325Q171 337 167 345T152 353Q138 353 120 347T77 310Q73 306 68 306T61 314Q61 321 64 331T74 352T86 369Q105 390 130 405T195 421Q212 421
226 414T245 391T242 354L185 211Q182 204 186 203T195 208Q236 273 274 320T348 394T421 421Q447 421 463 406T482 364T472 305L444 226Q441 219 446 218T455 222Q493 284 530 328T605 397T678 421Q704 421 719 405T736 362T723 299L643 98Q629 64 648 64Q658
64 672 73T703 95T731 119T747 135Q750 138 752 139T756 141Q759 141 762 138T765 131Q765 122 761 113T747 94Q710 52 664 19T567 -14Q559 -14 549 -8T532 10T531 32L654 332Q662 351 655 360T637 371Q622 372 598 354T545 297Q528 275 502 236T449 153T398 68Q383
40 367 22T338 -6T316 -16Q310 -16 303 -11T292 2T287 17Q287 23 292 40T306 81L404 335Q413 356 405 364T388 374Q373 375 348 356T291 296Q278 279 261 253T224 195T186 131T151 69Q128 27 113 6T84 -16Z" />
<glyph unicode="n" glyph-name="n" horiz-adv-x="552" d="M82 -15Q75 -15 67 -10T53 3T43 22T45 42L155 315Q171 352 153 352Q145 352 133 350T107 339T77 310Q73 306 68 306T60 314Q60 321 64 331T75 352T87 369Q105 392 133 406T201 421Q217 421 227 413T242
391T240 363L179 206Q176 199 182 198T191 203Q230 270 270 319T348 394T421 421Q448 421 464 404T484 360T474 301L388 98Q373 64 392 64Q402 64 417 72T448 91T476 112T493 126Q496 128 498 130T502 132Q505 132 508 129T511 122Q511 110 504 100Q476 68 444
42T378 1T311 -14Q301 -14 291 -7T275 11T274 33Q304 103 335 171T394 309Q407 342 403 356T386 371Q374 371 359 360T326 329T287 283Q276 269 258 241T216 177T170 102T125 27Q114 7 104 -4T82 -15Z" />
<glyph unicode="o" glyph-name="o" horiz-adv-x="408" d="M125 -14Q96 -14 71 2T30 47T14 109Q14 156 33 210T87 312T169 390T272 421Q328 421 360 386T392 294Q392 249 374 196T320 95T236 17T125 -14ZM142 19Q164 19 187 40T231 97T269 174T296 258T306 334Q306
359 298 373T266 388Q245 388 222 368T178 315T139 241T112 157T102 75Q102 46 112 33T142 19Z" />
<glyph unicode="p" glyph-name="p" horiz-adv-x="471" d="M-105 -286Q-109 -286 -114 -284T-119 -276Q-118 -268 -109 -263T-92 -256Q-67 -251 -55 -244T-34 -215L151 317Q155 329 156 336T155 347T141 349Q118 345 102 340T64 326Q56 322 49 324T41 334Q41 343
47 348T60 357Q76 365 102 377T168 402Q175 404 180 409T189 425Q204 473 221 494T263 516Q275 516 281 509T284 487L269 435Q266 425 268 420T274 416Q287 419 298 420T321 421Q372 421 403 405T448 359T462 293Q462 243 440 190T379 90T292 15T192 -14Q180 -14
168 -8T146 5Q136 12 130 10T118 -12L56 -205Q49 -225 60 -236T100 -252Q109 -253 118 -256T127 -269Q127 -275 119 -277T100 -280Q85 -280 66 -280T30 -279T2 -280Q-23 -282 -50 -284T-105 -286ZM204 21Q226 21 254 45T308 108T351 192T369 281Q369 336 348 357T291
379Q283 379 275 379T257 377L167 107Q162 91 162 76T166 49Q171 36 179 29T204 21Z" />
<glyph unicode="q" glyph-name="q" horiz-adv-x="498" d="M109 -287Q105 -288 99 -285T93 -276Q93 -268 102 -263T120 -257Q144 -252 160 -241T185 -209Q204 -158 224 -104T264 6T306 117Q310 127 306 132T291 125Q252 79 217 48T148 2T79 -14Q45 -14 24 7T3 59Q3
102 22 150T74 246T146 335Q186 377 234 402T322 427Q343 427 357 419T379 400Q387 392 391 386T401 380Q411 380 419 395L428 412Q437 428 447 434T467 440Q476 440 479 426T471 380L279 -199Q272 -220 280 -232T307 -246Q320 -248 329 -251T338 -262Q338 -268
330 -270T311 -273Q272 -273 233 -275T161 -281T109 -287ZM119 35Q137 35 161 49T210 87T259 139T299 195Q322 234 340 271T358 337Q358 349 353 361T338 381T317 389Q297 389 269 366T211 307T155 228T112 144T95 71Q95 53 100 44T119 35Z" />
<glyph unicode="r" glyph-name="r" horiz-adv-x="407" d="M72 -16Q65 -16 57 -12T42 -1T35 15Q35 26 40 40T53 77L148 324Q153 336 152 345T140 355Q124 355 111 350T88 338Q82 334 76 336T70 346Q69 358 80 372T110 397Q125 408 145 414T185 421Q213 421 222
407T228 368T211 312L168 207Q164 200 170 198T180 202Q218 269 256 318T329 396T392 424Q420 424 432 408T445 369Q445 348 437 327T415 293T387 279Q377 279 373 289T366 317Q365 332 361 342T345 353Q332 353 315 337T274 285Q264 271 247 246T211 189T173 127T140
71Q116 28 101 6T72 -16Z" />
<glyph unicode="s" glyph-name="s" horiz-adv-x="290" d="M41 -14Q12 -14 -7 1T-27 39Q-27 63 -16 76T6 90Q13 90 21 83T40 67Q52 57 67 46T104 35Q127 35 140 51T154 87Q154 107 144 132T119 182Q104 206 94 230T84 274Q84 303 100 329T141 376T190 409T228 421Q246
421 262 412T290 392T301 372Q301 364 294 353T276 334T258 325Q251 325 245 331T231 346Q224 354 214 360T189 367Q174 367 164 355T153 325Q153 317 159 301T175 268T193 236Q210 210 221 182T232 129Q232 102 215 77T169 31T108 -2T41 -14Z" />
<glyph unicode="t" glyph-name="t" horiz-adv-x="318" d="M74 -14Q64 -14 53 -6T34 12T26 31Q26 45 29 55T39 82L134 344Q137 354 133 357T123 361L81 363Q66 364 63 369T60 379Q60 381 65 387T80 400T99 407H140Q152 407 156 411T167 427L192 479Q198 489 209
501T234 521T254 530Q265 530 268 518T267 493L242 423Q239 413 242 411T255 408Q273 408 292 405T326 400Q344 397 348 393T352 383Q352 381 348 376T330 369Q311 368 294 367T255 364Q238 363 231 359T220 347L136 115Q131 100 131 91T136 77T150 73Q164 73 181
84T214 109T242 135Q250 143 256 143T262 138Q264 133 262 126T254 110Q242 94 225 77T188 43T146 14T107 -6T74 -14Z" />
<glyph unicode="u" glyph-name="u" horiz-adv-x="540" d="M84 -14Q69 -14 56 -2T36 27T34 56L135 294Q142 310 143 321T136 332Q131 332 118 324T90 303T62 279Q56 274 50 274T43 280Q43 286 46 294T57 313Q84 348 115 372T175 410T225 424Q233 424 242 416T257
396T257 376Q229 317 200 251T139 114Q130 95 129 81T138 66Q148 66 168 84T213 132T265 193Q297 229 326 268T377 340T409 389Q418 405 427 413T447 421Q457 421 466 413T480 395T481 375L364 94Q357 79 358 70T367 61Q378 61 398 74T441 106T478 138Q480 140
481 140Q485 140 488 137T492 129Q492 123 487 116T472 99T453 82T431 67T411 56Q394 39 373 26T329 6T284 3Q275 4 268 18T266 43Q278 69 292 99T318 156T337 203Q341 214 336 215T325 210Q281 159 245 118T178 47T125 2T84 -14Z" />
<glyph unicode="v" glyph-name="v" horiz-adv-x="434" d="M132 -14Q104 -14 85 5T59 54T65 117L129 288Q136 307 135 316T125 326Q117 326 100 313T69 286Q63 280 59 278T53 276Q44 276 44 283Q44 289 47 296T59 315Q76 338 96 357T136 392T174 415T205 424Q215
424 223 417T236 400T238 381L152 125Q141 91 148 72T182 52Q213 52 244 72T302 125T345 198T361 276Q361 296 354 313T334 343Q326 352 323 360T319 378Q319 387 331 397T359 416T390 424Q403 424 413 406T423 350Q423 306 411 263T376 178T316 97Q270 44 223
15T132 -14Z" />
<glyph unicode="w" glyph-name="w" horiz-adv-x="648" d="M131 -14Q105 -14 86 4T64 57T79 144L138 300Q143 314 141 320T132 326Q126 326 109 317T75 293Q70 289 65 286T57 283Q47 283 47 292Q47 297 49 303T62 322Q80 342 101 360T144 393T185 415T217 424Q227
424 234 418T244 399T238 364L153 126Q141 92 150 72T184 52Q201 52 222 67T263 107T298 155T318 196Q321 207 324 225T332 263T340 303T346 334Q349 346 355 358T371 378Q385 388 398 395T434 402Q443 402 447 390T450 360T442 321Q431 287 419 260T396 211Q388
193 382 172T375 138Q370 99 378 75T410 51Q437 51 465 72T516 127T554 202T569 282Q569 296 565 307T555 330Q548 343 541 352T534 369Q534 379 547 392T578 415T606 425Q619 425 629 406T640 350Q640 306 626 262T586 173T521 84Q481 37 440 12T361 -14Q332 -14
316 7T296 62T302 131L310 122Q286 85 254 54T189 5T131 -14Z" />
<glyph unicode="x" glyph-name="x" horiz-adv-x="459" d="M27 -14Q9 -14 -3 -3T-16 27Q-16 41 -9 56T10 81T30 92Q37 92 41 87T48 75Q51 65 57 60T70 55Q78 54 86 58T102 71Q118 88 132 104T161 137T193 174Q197 179 198 184T196 195L158 331Q156 342 153 345T144
348Q135 348 120 336T85 297Q83 295 80 290T70 284Q66 284 64 288T62 300Q62 316 72 336T100 376T138 408T180 421Q199 421 210 406T229 364L255 263Q258 248 269 262L335 356Q355 384 379 402T429 421Q451 421 467 404T484 374Q484 363 477 349T459 325T439 315Q431
315 427 320T419 332Q414 344 409 348T396 353Q385 353 372 345T341 315Q327 299 311 279T278 231Q273 225 272 217T274 196L306 80Q310 66 315 61T327 55Q339 55 356 73T390 127Q396 139 403 139Q407 139 409 136T412 119Q412 105 403 83T379 38T342 1T298 -14Q270
-14 255 4T232 52Q228 72 222 97T211 142Q209 152 206 153T197 147Q176 121 156 93T113 38Q91 10 70 -2T27 -14Z" />
<glyph unicode="y" glyph-name="y" horiz-adv-x="432" d="M-52 -290Q-71 -290 -89 -278T-107 -240Q-107 -225 -100 -212T-83 -191T-60 -182Q-50 -182 -42 -188T-24 -201Q-15 -208 -6 -213T15 -219Q48 -219 83 -180T147 -80Q169 -34 177 21T185 143Q185 220 175
265T151 331T128 352Q119 352 108 340T87 313T73 286Q72 281 66 270T54 259Q50 259 48 267T45 287Q45 312 56 335T84 379T122 411T162 423Q188 423 204 405T232 353Q246 310 256 245T262 80Q261 62 265 63T277 77Q311 141 333 223T354 408Q354 414 363 421T378
429Q384 429 394 423T413 405T422 378Q422 316 390 233T299 56T163 -130Q126 -173 88 -209T13 -268T-52 -290Z" />
<glyph unicode="z" glyph-name="z" horiz-adv-x="430" d="M242 -34Q215 -34 193 -19T151 15Q134 29 120 41T93 53Q64 53 48 35T32 -6Q32 -16 27 -18T17 -20Q12 -20 7 -11T0 8Q-1 19 4 33T25 61L315 332L343 336Q331 322 317 315T289 308Q272 308 256 316T222 336Q204
347 185 355T146 364Q129 364 117 349T104 319Q104 309 106 299T114 280Q121 270 114 262Q107 255 92 248T71 240Q65 240 57 250T48 278Q48 308 62 328T102 371Q115 382 134 393T172 413T203 421Q222 421 238 416T274 404Q292 397 309 391T342 385Q358 385 367
390T388 406Q393 411 402 417T419 424Q422 424 426 420T431 411Q431 404 421 390T397 361L109 84L90 92Q103 103 113 108T136 113Q159 113 179 100T218 70Q236 56 253 43T289 30Q308 30 317 43T329 76T333 117Q333 135 335 143T347 152Q359 152 371 139T383 99Q383
78 367 55T327 12T280 -21T242 -34Z" />
<glyph unicode="{" glyph-name="braceleft" horiz-adv-x="365" d="M201 -153Q165 -153 132 -146T74 -122T40 -81T41 -20Q52 12 64 42T88 101T108 160Q122 204 108 230T60 271Q55 274 51 275T48 284Q49 290 54 291T68 296Q95 306 118 319T158 354T184 407Q198 452
205 493T226 582Q236 617 261 642T321 684T393 707T467 715Q475 715 479 711T482 697Q479 688 469 686T449 684Q402 684 367 662T314 587Q306 558 300 529T289 471T274 416Q259 366 216 331T115 283Q110 281 115 279Q162 268 185 233T193 145Q185 118 173 90T150
33T128 -25Q113 -78 134 -99T202 -123Q212 -124 220 -126T226 -137Q225 -145 217 -149T201 -153Z" />
<glyph unicode="|" glyph-name="bar" horiz-adv-x="266" d="M110 -289Q104 -289 99 -283T94 -271V667Q94 677 102 684T120 697T141 704T153 706Q160 706 165 701T171 690V-258Q171 -268 164 -274T145 -283T124 -288T110 -289Z" />
<glyph unicode="}" glyph-name="braceright" horiz-adv-x="365" d="M212 715Q248 715 281 708T339 684T373 643T372 582Q362 550 350 520T326 461T305 402Q292 359 306 333T353 291Q358 289 362 288T365 278Q365 273 359 271T345 266Q318 257 295 243T255 208T229
155Q215 111 208 70T187 -20Q177 -55 152 -80T92 -122T20 -145T-54 -153Q-62 -153 -66 -148T-69 -135Q-66 -126 -56 -124T-36 -122Q11 -122 47 -100T99 -25Q108 4 113 33T124 91T139 146Q154 197 197 232T299 279Q303 281 299 283Q251 294 228 329T220 417Q229
444 240 472T264 529T285 587Q301 640 279 661T211 685Q202 686 194 688T187 699Q188 707 196 711T212 715Z" />
<glyph unicode="~" glyph-name="asciitilde" horiz-adv-x="516" d="M100 257Q95 254 88 264T83 279Q88 292 101 310T134 346T174 376T215 388Q235 388 257 380T302 361Q322 353 343 347T388 341Q409 341 426 349T457 366Q470 375 478 382T494 389Q499 389 504
379T507 365Q504 356 491 339T458 303T418 272T375 258Q358 258 337 265T294 280Q270 289 246 297T198 305Q183 305 163 296T125 275T100 257Z" />
<glyph unicode="&#xa0;" glyph-name="uni00A0" horiz-adv-x="213" />
<glyph unicode="&#xa1;" glyph-name="exclamdown" horiz-adv-x="293" d="M173 285Q183 285 185 276T182 242Q173 194 163 145T142 49T123 -31T111 -81Q105 -105 93 -125T66 -157T33 -169Q18 -169 8 -157T-3 -123T5 -75Q9 -62 22 -29T55 50T96 145T138 242Q146
260 155 272T173 285ZM231 494Q253 494 268 478T283 440Q283 410 260 388T205 366Q181 366 167 383T152 421Q152 452 175 473T231 494Z" />
<glyph unicode="&#xa2;" glyph-name="cent" horiz-adv-x="408" d="M118 -81Q110 -81 106 -77T106 -64L128 -12Q76 4 48 43T19 136Q19 183 40 232T100 324T191 393T305 419L326 471Q330 480 339 484T358 489Q365 489 367 484T366 471L345 419Q368 418 392 409T431
386T444 356Q444 347 434 338T411 322T388 315Q380 315 374 318T366 327Q361 346 352 359T328 377L200 67Q205 66 209 66T219 65Q252 65 287 74T347 111Q354 117 361 117Q368 117 369 111T366 97Q325 43 277 16T167 -14L146 -64Q142 -72 134 -76T118 -81ZM163 74L291
383Q254 383 222 364T165 315T126 246T112 168Q112 137 124 112T163 74Z" />
<glyph unicode="&#xa3;" glyph-name="sterling" horiz-adv-x="542" d="M95 291Q89 291 84 295T79 305Q79 312 87 322T106 334L427 355Q432 355 437 350T441 340Q438 331 429 322T407 313L95 291ZM287 -37Q245 -37 215 -21T162 15Q140 32 121 46T79 60Q53 43 36
26T3 -8Q-4 -16 -18 -14T-43 -3T-55 20Q-55 38 -35 58T16 91T82 104Q110 136 129 177T165 267T198 366Q228 455 272 513T371 600T490 629Q535 629 560 614T595 576T598 532T574 494T528 479Q521 479 519 481T516 489Q516 494 524 507T532 545Q532 566 520 581T481
596Q449 596 427 578T386 527T349 448T309 345Q292 303 269 260T216 181T144 116Q141 115 141 112T145 107Q184 107 209 95T255 68Q277 54 299 41T355 28Q386 28 411 47T437 97Q437 111 433 119T429 138Q429 153 438 160T458 168Q476 168 484 159T493 129Q493 101
480 72T440 18T375 -22T287 -37Z" />
<glyph unicode="&#xa4;" glyph-name="currency" horiz-adv-x="492" d="M209 70Q161 70 129 90T79 142T62 214Q62 258 81 302T136 383T220 442T328 464Q378 464 410 444T457 390T473 319Q473 277 455 233T403 152T320 93T209 70ZM30 61Q20 61 10 74T1 97Q3 102
9 107L80 160L112 117L40 63Q37 61 35 61T30 61ZM385 62Q379 63 374 69L328 132L371 165L418 100Q421 97 421 95T421 91Q421 81 408 71T385 62ZM225 123Q268 123 303 139T364 181T404 240T418 305Q418 348 391 379T311 411Q268 411 233 395T172 352T132 293T118
229Q118 186 144 155T225 123ZM164 370L114 439Q112 441 112 446Q112 456 126 466T150 474Q155 473 158 470L207 403L164 370ZM454 379L421 422L491 473Q493 475 496 475T501 476Q512 476 522 464T530 440Q529 435 525 431L454 379Z" />
<glyph unicode="&#xa5;" glyph-name="yen" horiz-adv-x="590" d="M117 -5Q105 -5 99 -2T94 7Q96 15 105 19T130 27Q168 34 191 54T226 109L252 192H138Q132 192 129 196T126 206Q127 214 136 223T157 232H265L271 253Q273 260 274 266T277 278H165Q159 278 156
282T153 292Q155 299 164 308T184 318H279Q278 323 277 328T274 337L214 556Q207 583 196 598T157 619Q146 622 140 627T136 641Q138 648 146 650T164 653Q193 653 225 651T293 649Q317 649 337 651T378 653Q389 653 396 650T402 641Q400 633 390 629T365 620Q343
614 329 600T321 555L361 387Q365 369 368 361T376 352Q381 352 389 360T411 385Q427 404 448 429T492 483T534 535Q562 571 562 591T532 619Q522 622 514 627T507 640Q509 646 518 649T539 652Q562 652 581 651T623 650Q650 650 674 652T719 654Q731 654 738 652T743
641Q741 634 732 630T708 621Q690 618 668 603T626 569T591 535Q542 481 499 431T425 348Q417 340 410 332T399 317H507Q512 317 516 312T517 302Q512 293 502 286T479 278H381L366 232H480Q486 232 489 227T490 217Q485 207 475 200T452 192H355L329 109Q318 74
329 55T374 27Q388 24 394 20T398 8Q397 1 389 -2T368 -5Q344 -5 325 -4T288 -1T247 1Q225 1 205 0T163 -3T117 -5Z" />
<glyph unicode="&#xa6;" glyph-name="brokenbar" horiz-adv-x="266" d="M110 -290Q104 -290 100 -284T95 -272V147Q95 154 102 160T121 171T141 178T154 181Q160 181 166 174T172 158V-259Q172 -269 164 -275T145 -284T124 -289T110 -290ZM110 269Q104 269 99
277T94 293V665Q94 676 102 683T120 695T141 702T153 705Q160 705 165 700T171 688V298Q171 290 164 285T145 276T124 271T110 269Z" />
<glyph unicode="&#xa7;" glyph-name="section" horiz-adv-x="401" d="M35 -148Q11 -148 -5 -141T-21 -121Q-21 -108 -11 -93T12 -67T34 -55Q41 -55 49 -62T66 -76Q75 -82 87 -85T113 -89Q135 -89 151 -74T178 -36T189 8Q190 44 169 80T125 152Q104 185 90 217T75
281Q75 325 92 365T139 443T202 509Q220 541 249 571T312 621T381 640Q400 640 417 635T446 622T458 603Q458 596 447 582T423 557T401 545Q395 545 388 553T372 570Q364 578 355 584T334 591Q314 591 296 580T267 549T256 510Q256 480 273 446T317 378Q342 345
355 312T369 243Q369 173 336 108T252 -14Q220 -49 184 -79T110 -129T35 -148ZM256 55Q256 51 260 51T265 55Q277 76 285 95T298 136Q309 184 299 223T261 304Q248 325 233 350T206 400T194 450Q194 454 191 453T185 450Q166 421 155 392T144 328Q143 297 156 268T190
205Q204 184 219 158T245 106T256 55Z" />
<glyph unicode="&#xa8;" glyph-name="dieresis" horiz-adv-x="355" d="M364 506Q347 506 336 519T324 551Q324 570 333 586T358 611T393 621Q413 621 424 607T435 574Q435 548 415 527T364 506ZM184 506Q166 506 155 519T143 551Q143 570 152 586T178 611T213
621Q232 621 243 607T254 574Q254 548 234 527T184 506Z" />
<glyph unicode="&#xa9;" glyph-name="copyright" horiz-adv-x="671" d="M372 21Q309 21 254 45T157 111T92 208T68 327Q68 391 91 446T157 543T255 609T373 633Q437 633 492 609T589 543T655 446T679 327Q679 264 655 209T589 111T492 45T372 21ZM386 148Q336
148 294 173T227 238T202 326Q202 376 230 415T304 476T406 499Q427 499 451 495T493 483Q500 481 503 479T508 469Q511 454 511 436T511 405Q511 400 507 395T498 391Q493 391 490 395T484 406Q480 417 474 426T458 442Q448 451 433 456T398 462Q347 462 319 424T290
331Q290 293 302 260T339 206T402 185Q432 185 454 195T489 233Q493 242 498 245T508 248Q516 247 516 233Q516 222 512 208T502 181Q497 173 496 172T485 166Q468 158 442 153T386 148ZM372 61Q427 61 474 82T557 139T613 224T634 327Q634 380 614 427T558 510T475
566T373 587Q320 587 273 567T190 511T134 428T113 327Q113 273 133 225T188 140T271 82T372 61Z" />
<glyph unicode="&#xaa;" glyph-name="ordfeminine" horiz-adv-x="313" d="M41 160Q37 160 34 164T30 173Q30 180 39 189T59 199H256Q261 199 263 195T266 184Q266 176 254 168T230 160H41ZM125 273Q103 273 88 289T72 323Q72 352 88 367T134 393L217 419Q231 424
235 428T243 444L250 467Q255 486 249 496T228 506Q217 506 205 502T188 491Q183 486 182 477T179 462Q178 458 171 454T155 446T137 441T120 439Q115 439 114 444T115 455Q120 467 130 478T158 500Q173 508 192 517T232 533T271 539Q299 539 313 520T319 472L279
353Q274 337 275 327T288 316Q295 316 298 318T306 322Q310 326 313 326Q317 326 319 322T321 313Q321 310 315 305T304 295Q293 288 279 281T250 273Q232 273 224 279T214 294T210 309H207Q193 298 174 286T125 273ZM163 313Q173 313 182 316T199 325Q203 328
205 332T211 344L226 391Q229 398 225 400T215 401Q180 390 161 377T139 341Q138 330 146 322T163 313Z" />
<glyph unicode="&#xab;" glyph-name="guillemotleft" horiz-adv-x="621" d="M287 18Q278 18 269 25T257 37Q239 56 215 76T166 116T116 153T71 183Q64 187 60 190T56 200Q56 206 61 210T71 215Q122 241 175 269T277 326T368 383Q373 387 379 390T395 394Q402 394
400 385T390 368Q354 334 315 304T241 248T179 206Q171 201 172 198T178 190Q195 171 216 148T257 98T292 42Q297 34 295 26T287 18ZM498 18Q489 18 480 25T468 37Q450 56 426 76T377 116T327 153T282 183Q275 187 271 190T267 200Q267 206 272 210T282 215Q333
241 386 269T488 326T579 383Q584 387 590 390T606 394Q613 394 611 385T601 368Q565 334 526 304T452 248T390 206Q382 201 383 198T389 190Q406 171 427 148T468 98T503 42Q508 34 506 26T498 18Z" />
<glyph unicode="&#xac;" glyph-name="logicalnot" horiz-adv-x="600" d="M501 43Q496 43 492 48T488 58V303Q488 320 473 320H60Q54 320 49 324T44 333Q44 339 46 351T54 373T71 384H537Q544 384 548 379T552 368V70Q552 59 542 53T519 45T501 43Z" />
<glyph unicode="&#xad;" glyph-name="uni00AD" horiz-adv-x="287" d="M36 168Q31 167 28 171T24 181Q24 202 37 216T60 232Q109 239 160 246T260 258Q267 259 268 256T270 248Q270 237 265 226T251 206T233 195Q185 188 134 181T36 168Z" />
<glyph unicode="&#xae;" glyph-name="registered" horiz-adv-x="681" d="M378 21Q314 21 259 45T162 111T97 208T73 327Q73 391 97 446T163 543T260 609T379 633Q442 633 497 609T594 543T660 446T684 327Q684 264 661 209T595 111T497 45T378 21ZM378 61Q432
61 479 82T562 139T618 224T639 327Q639 380 619 427T563 510T480 566T379 587Q325 587 278 567T195 511T139 428T119 327Q119 273 138 225T193 140T276 82T378 61ZM512 172Q494 172 475 185T438 218T406 262T383 305Q381 311 374 315T353 319Q348 319 344 317T340
309V230Q340 214 350 208T376 198Q383 196 388 193T393 183Q393 178 389 175T379 171Q357 171 342 173T307 175Q294 175 285 174T266 172T241 171Q237 171 232 175T227 183Q227 189 232 192T244 198Q258 202 264 208T271 230V430Q271 448 270 455T262 465T246 470Q229
474 229 485Q229 497 246 495Q263 494 276 492T305 490Q327 490 347 492T392 495Q438 497 470 477T503 416Q503 384 484 365T442 336Q436 334 438 330T441 322Q454 291 474 265T515 222T549 206Q552 206 557 206T563 201Q563 188 548 180T512 172ZM364 349Q393
349 413 366T434 410Q434 435 417 449T373 464Q353 464 346 457T339 437V368Q339 356 346 353T364 349Z" />
<glyph unicode="&#xaf;" glyph-name="overscore" horiz-adv-x="319" d="M145 534Q139 534 137 537T134 546Q134 555 140 565T154 583T171 590H393Q407 590 407 579Q407 570 400 560T383 542T364 534H145Z" />
<glyph unicode="&#xb0;" glyph-name="degree" horiz-adv-x="310" d="M256 394Q221 394 191 413T143 462T125 527Q125 562 143 590T191 636T256 654Q292 654 321 637T367 592T385 529Q385 495 368 464T321 414T256 394ZM256 442Q288 442 311 466T334 524Q334 558
311 581T256 605Q223 605 200 582T177 524Q177 490 200 466T256 442Z" />
<glyph unicode="&#xb1;" glyph-name="plusminus" horiz-adv-x="593" d="M283 122Q279 122 275 127T270 137V345Q270 353 264 353H59Q53 353 49 357T44 365Q44 373 50 389T70 405H261Q268 405 269 407T270 415V586Q270 596 278 602T295 613T308 618Q314 618 318
613T323 602V414Q323 408 324 407T330 405H533Q539 405 544 401T549 391Q546 378 539 366T517 353H330Q323 353 323 346V148Q323 134 307 128T283 122ZM60 35Q54 35 49 39T44 48Q44 54 47 63T55 81T71 89H532Q539 89 545 85T549 74Q546 61 539 48T516 35H60Z" />
<glyph unicode="&#xb2;" glyph-name="uni00B2" horiz-adv-x="299" d="M311 437Q286 439 257 440T202 441Q186 441 168 441T133 440T101 438Q96 438 96 442Q96 449 104 454L199 534Q253 579 283 619T314 683Q314 702 302 713T269 724Q249 724 230 713T194 683Q190
679 188 677T182 675Q177 675 177 678T177 688Q185 708 205 728T254 762T314 776Q347 776 368 758T389 707Q389 674 369 651T326 604Q315 594 295 578T254 545T216 517T197 503Q194 501 198 500T206 498H281Q301 498 322 511T360 545Q362 549 367 551T377 554Q381
554 381 550T378 542Q366 523 356 506T338 476T324 451Q321 443 318 440T311 437Z" />
<glyph unicode="&#xb3;" glyph-name="uni00B3" horiz-adv-x="290" d="M176 434Q156 434 139 439T122 459Q124 469 133 482T149 496Q156 496 163 490T180 478Q187 474 196 471T213 467Q234 467 250 479T277 511T288 550Q288 569 278 583T246 598Q234 598 221 593T205
588Q200 588 197 592T196 600Q204 607 214 611T235 620T253 628Q285 644 304 660T324 698Q324 714 315 722T289 730Q270 730 253 723T217 701Q213 699 211 697T205 694Q201 694 200 698T199 707Q213 725 233 741T277 767T328 776Q357 776 374 760T392 717Q392 689
367 668T309 635Q306 634 306 633T307 631Q332 631 346 612T361 569Q361 542 343 518T297 475T236 445T176 434Z" />
<glyph unicode="&#xb4;" glyph-name="acute" horiz-adv-x="213" d="M151 473Q142 473 141 481T144 497L218 647Q225 659 232 667T248 675Q254 675 265 668T285 652T294 634Q294 629 289 621T274 601L177 489Q172 483 165 478T151 473Z" />
<glyph unicode="&#xb5;" glyph-name="uni03BC.1" horiz-adv-x="526" d="M10 -286Q-4 -286 -14 -278T-29 -256T-35 -226Q-35 -195 -27 -157T-6 -78T18 0Q23 13 35 40T54 92Q57 102 65 130T83 195T104 272T124 344T140 397Q144 408 151 414T169 421Q189 421 206
413T233 395T242 376Q241 363 232 342T205 291T168 227T125 152Q120 140 119 130T117 112Q117 92 131 77T167 61Q184 62 204 75T249 117T306 187Q325 241 344 290T389 401Q395 413 401 417T416 421Q430 421 446 413T474 393T484 372Q480 359 466 332T432 270T390
202T349 145Q340 117 354 96T401 75Q420 75 439 87T474 110T493 122Q497 122 500 119T501 112Q491 74 469 46T419 2T367 -14Q347 -14 333 -4T313 26T309 68Q311 80 314 92T323 117H321Q317 111 302 90T265 46T222 4T181 -14Q150 -14 135 8T107 56Q105 60 102 65T95
75T87 80Q81 80 75 71T64 46Q60 34 54 8T44 -46T39 -93Q39 -123 48 -144T67 -180Q76 -192 83 -199T90 -213Q90 -222 81 -234T58 -258T31 -278T10 -286Z" />
<glyph unicode="&#xb6;" glyph-name="paragraph" horiz-adv-x="596" d="M134 -288Q75 -288 37 -258T-1 -179Q-1 -138 16 -108T64 -60T130 -42Q162 -42 181 -57T200 -99Q200 -126 183 -143T137 -160Q126 -160 115 -155T95 -143Q87 -137 80 -132T64 -127Q54 -127
48 -140T42 -165Q42 -203 68 -223T133 -244Q189 -244 232 -211T295 -111L356 87Q358 95 357 101T348 107Q264 107 204 135T115 217T94 345Q102 437 139 496T241 588T389 633T574 646Q593 646 615 646T656 644T686 641Q693 640 695 634T696 620Q694 612 690 604T678
596Q676 596 664 597T636 599T605 602T582 604Q574 604 568 599T558 583L351 -92Q331 -159 301 -202T229 -267T134 -288ZM353 147Q357 147 361 150T367 160L502 584Q502 585 502 585T502 586Q502 590 497 591T486 593Q468 593 451 589T416 565T379 505T335 390Q300
274 300 217Q300 180 313 164T353 147Z" />
<glyph unicode="&#xb7;" glyph-name="middot" horiz-adv-x="220" d="M99 143Q77 143 62 160T47 199Q47 220 58 237T86 265T124 276Q148 276 162 258T177 218Q177 198 167 181T139 154T99 143Z" />
<glyph unicode="&#xb8;" glyph-name="cedilla" horiz-adv-x="213" d="M-42 -281Q-65 -281 -84 -273T-113 -251T-123 -222Q-123 -192 -100 -192Q-89 -192 -79 -198T-60 -213Q-48 -223 -37 -231T-11 -240Q-1 -240 6 -232T13 -214Q13 -198 3 -188T-19 -165Q-29 -154
-39 -140T-49 -109Q-49 -92 -31 -69T13 -23T68 17H101Q58 -17 44 -41T29 -79Q29 -89 38 -100T59 -123Q71 -134 80 -146T89 -171Q89 -187 75 -206T39 -242T-4 -270T-42 -281Z" />
<glyph unicode="&#xb9;" glyph-name="uni00B9" horiz-adv-x="247" d="M119 437Q115 437 113 440T112 448Q113 454 117 459T127 465Q148 467 163 473T186 504L240 683Q246 704 235 713T202 729Q193 732 194 740Q196 754 209 755Q246 760 277 766T325 778Q327 779
330 780T334 781Q343 781 339 769Q336 760 329 745T315 708L252 505Q246 481 251 476T283 465Q288 463 290 460T290 450Q289 445 286 442T277 438Q259 438 245 439T219 441T198 442Q184 442 165 440T119 437Z" />
<glyph unicode="&#xba;" glyph-name="ordmasculine" horiz-adv-x="333" d="M48 160Q43 160 40 164T37 174Q37 181 46 190T65 199H275Q280 199 283 196T286 185Q286 177 274 169T250 160H48ZM186 275Q136 275 111 304T90 388Q94 427 116 461T179 518T272 541Q322
541 347 513T367 438Q364 397 343 359T283 298T186 275ZM201 301Q220 301 236 314T265 347T285 389T295 431Q298 453 295 472T284 502T259 514Q241 514 224 501T193 468T171 425T161 383Q158 362 162 344T175 313T201 301Z" />
<glyph unicode="&#xbb;" glyph-name="guillemotright" horiz-adv-x="677" d="M363 394Q372 394 381 386T394 375Q413 356 436 336T484 295T534 258T580 229Q587 225 591 222T595 212Q595 206 590 202T580 196Q529 172 476 144T374 86T282 28Q277 24 271 21T256
18Q249 18 251 27T261 44Q297 78 335 108T409 164T471 206Q479 211 479 214T473 222Q455 241 434 264T393 315T358 369Q354 377 356 385T363 394ZM152 394Q161 394 170 386T183 375Q202 356 225 336T273 295T323 258T369 229Q376 225 380 222T384 212Q384 206 379
202T369 196Q318 172 265 144T163 86T71 28Q66 24 60 21T45 18Q38 18 40 27T50 44Q86 78 124 108T198 164T260 206Q268 211 268 214T262 222Q244 241 223 264T182 315T147 369Q143 377 145 385T152 394Z" />
<glyph unicode="&#xbc;" glyph-name="onequarter" horiz-adv-x="647" d="M69 277Q65 277 63 280T62 288Q63 294 67 299T77 305Q98 307 113 313T136 344L190 523Q196 544 185 553T152 569Q143 572 144 580Q146 594 159 595Q196 600 227 606T275 618Q277 619 280
620T284 621Q293 621 289 609Q286 600 279 585T265 548L202 345Q196 321 201 316T233 305Q238 303 240 300T240 290Q239 285 236 282T227 278Q209 278 195 279T169 281T148 282Q134 282 115 280T69 277ZM64 -26Q55 -26 50 -19T51 -5L657 654Q667 664 677 667T698
670Q711 670 714 663T712 650L106 -8Q97 -19 87 -22T64 -26ZM459 -8Q450 -8 453 0L477 82Q481 95 469 95Q434 95 403 94T330 91Q326 91 326 95T328 101Q372 143 418 185T510 267Q523 278 546 296T592 333Q598 338 603 342T612 346Q615 346 616 343T616 337L555
137Q553 133 558 133Q582 133 591 133T609 134Q614 134 613 129Q613 121 603 109T590 97Q585 97 574 97T553 97Q542 97 540 89L520 22Q518 16 510 11T490 2T471 -5T459 -8ZM400 134H487Q493 134 495 138L529 247Q529 248 528 248T524 247Q503 229 481 210T438 173T400
138Q396 134 400 134Z" />
<glyph unicode="&#xbd;" glyph-name="onehalf" horiz-adv-x="680" d="M69 277Q65 277 63 280T62 288Q63 294 67 299T77 305Q98 307 113 313T136 344L190 523Q196 544 185 553T152 569Q143 572 144 580Q146 594 159 595Q196 600 227 606T275 618Q277 619 280 620T284
621Q293 621 289 609Q286 600 279 585T265 548L202 345Q196 321 201 316T233 305Q238 303 240 300T240 290Q239 285 236 282T227 278Q209 278 195 279T169 281T148 282Q134 282 115 280T69 277ZM61 -26Q52 -26 47 -19T48 -5L654 654Q664 664 674 667T695 670Q708
670 711 663T709 650L103 -8Q94 -19 84 -22T61 -26ZM552 -17Q527 -15 498 -14T443 -13Q427 -13 409 -13T374 -14T342 -16Q337 -16 337 -12Q337 -5 345 0L440 80Q494 125 524 165T555 229Q555 248 543 259T510 270Q490 270 471 259T435 229Q431 225 429 223T423
221Q418 221 418 224T418 234Q426 254 446 274T495 308T555 322Q588 322 609 304T630 253Q630 220 610 197T567 150Q556 140 536 124T495 91T457 63T438 49Q435 47 439 46T447 44H522Q542 44 563 57T601 91Q603 95 608 97T618 100Q622 100 622 96T619 88Q607 69
597 52T579 22T565 -3Q562 -11 559 -14T552 -17Z" />
<glyph unicode="&#xbe;" glyph-name="threequarters" horiz-adv-x="662" d="M126 274Q106 274 89 279T72 299Q74 309 83 322T99 336Q106 336 113 330T130 318Q137 314 146 311T163 307Q184 307 200 319T227 351T238 390Q238 409 228 423T196 438Q184 438 171 433T155
428Q150 428 147 432T146 440Q154 447 164 451T185 460T203 468Q235 484 254 500T274 538Q274 554 265 562T239 570Q220 570 203 563T167 541Q163 539 161 537T155 534Q151 534 150 538T149 547Q163 565 183 581T227 607T278 616Q307 616 324 600T342 557Q342 529
317 508T259 475Q256 474 256 473T257 471Q282 471 296 452T311 409Q311 382 293 358T247 315T186 285T126 274ZM84 -26Q75 -26 70 -19T71 -5L677 654Q687 664 697 667T718 670Q731 670 734 663T732 650L126 -8Q117 -19 107 -22T84 -26ZM474 -8Q465 -8 468 0L492
82Q496 95 484 95Q449 95 418 94T345 91Q341 91 341 95T343 101Q387 143 433 185T525 267Q538 278 561 296T607 333Q613 338 618 342T627 346Q630 346 631 343T631 337L570 137Q568 133 573 133Q597 133 606 133T624 134Q629 134 628 129Q628 121 618 109T605 97Q600
97 589 97T568 97Q557 97 555 89L535 22Q533 16 525 11T505 2T486 -5T474 -8ZM415 134H502Q508 134 510 138L544 247Q544 248 543 248T539 247Q518 229 496 210T453 173T415 138Q411 134 415 134Z" />
<glyph unicode="&#xbf;" glyph-name="questiondown" horiz-adv-x="342" d="M210 307Q215 307 226 293T246 258T256 217Q256 189 247 165T208 119T117 72Q75 54 45 27T14 -42Q14 -73 35 -91T93 -109Q107 -109 116 -105T134 -97Q142 -94 149 -90T165 -86Q178 -86
186 -94T194 -118Q194 -143 172 -160T118 -178Q78 -178 47 -156T-2 -94T-20 -5Q-20 29 -9 55T21 102T67 134L157 177Q186 191 196 205T206 241Q206 251 205 259T201 276Q199 282 197 288T195 299Q195 304 200 305T210 307ZM233 497Q252 497 265 482T279 447Q279
418 259 397T210 376Q188 376 175 392T162 428Q162 456 183 476T233 497Z" />
<glyph unicode="&#xc0;" glyph-name="Agrave" horiz-adv-x="689" d="M-39 -5Q-50 -5 -55 -2T-62 9Q-62 18 -53 22T-30 30Q-5 37 19 47T64 72T102 105Q173 184 235 259T356 408T476 558Q490 575 500 590T517 614T528 623Q551 623 563 629T590 648Q605 662 613 668T628
675Q635 675 637 665T634 633L532 119Q523 76 533 56T575 28Q590 24 597 21T605 9Q605 2 597 -1T574 -4Q559 -4 536 -3T489 0T442 1Q424 1 403 1T361 0T326 -1Q305 -1 303 12Q303 20 311 25T331 33Q361 38 379 45T407 67T424 108L455 228Q458 240 451 246T430 252L304
250Q290 250 282 246T266 232L175 113Q155 87 153 71T159 47T185 34Q195 31 202 26T210 12Q210 5 202 2T181 -1Q162 -1 140 0T90 1Q59 1 23 -2T-39 -5ZM336 288L448 289Q458 289 463 294T472 312L520 531Q522 541 522 546T517 552Q514 552 510 550T500 541L321
309Q313 299 313 294T336 288ZM653 696Q651 696 646 697T632 704Q599 726 560 751T488 801Q474 812 473 821Q472 828 484 834T512 845T534 850Q553 852 564 839Q588 809 609 779T653 720Q661 711 661 703Q661 696 653 696Z" />
<glyph unicode="&#xc1;" glyph-name="Aacute" horiz-adv-x="689" d="M-39 -5Q-50 -5 -55 -2T-62 9Q-62 18 -53 22T-30 30Q-5 37 19 47T64 72T102 105Q173 184 235 259T356 408T476 558Q490 575 500 590T517 614T528 623Q551 623 563 629T590 648Q605 662 613 668T628
675Q635 675 637 665T634 633L532 119Q523 76 533 56T575 28Q590 24 597 21T605 9Q605 2 597 -1T574 -4Q559 -4 536 -3T489 0T442 1Q424 1 403 1T361 0T326 -1Q305 -1 303 12Q303 20 311 25T331 33Q361 38 379 45T407 67T424 108L455 228Q458 240 451 246T430 252L304
250Q290 250 282 246T266 232L175 113Q155 87 153 71T159 47T185 34Q195 31 202 26T210 12Q210 5 202 2T181 -1Q162 -1 140 0T90 1Q59 1 23 -2T-39 -5ZM336 288L448 289Q458 289 463 294T472 312L520 531Q522 541 522 546T517 552Q514 552 510 550T500 541L321
309Q313 299 313 294T336 288ZM581 692Q574 692 573 699Q573 706 579 716Q599 748 619 779T662 841Q672 854 691 854Q699 854 714 851T742 842T755 828Q755 820 741 808Q709 781 672 754T602 702Q594 696 589 694T581 692Z" />
<glyph unicode="&#xc2;" glyph-name="Acircumflex" horiz-adv-x="689" d="M-39 -5Q-50 -5 -55 -2T-62 9Q-62 18 -53 22T-30 30Q-5 37 19 47T64 72T102 105Q173 184 235 259T356 408T476 558Q490 575 500 590T517 614T528 623Q551 623 563 629T590 648Q605 662
613 668T628 675Q635 675 637 665T634 633L532 119Q523 76 533 56T575 28Q590 24 597 21T605 9Q605 2 597 -1T574 -4Q559 -4 536 -3T489 0T442 1Q424 1 403 1T361 0T326 -1Q305 -1 303 12Q303 20 311 25T331 33Q361 38 379 45T407 67T424 108L455 228Q458 240 451
246T430 252L304 250Q290 250 282 246T266 232L175 113Q155 87 153 71T159 47T185 34Q195 31 202 26T210 12Q210 5 202 2T181 -1Q162 -1 140 0T90 1Q59 1 23 -2T-39 -5ZM336 288L448 289Q458 289 463 294T472 312L520 531Q522 541 522 546T517 552Q514 552 510
550T500 541L321 309Q313 299 313 294T336 288ZM485 695Q468 695 470 706Q471 712 479 719L606 805Q626 818 636 823T655 829Q667 829 676 823T694 805L768 719Q771 715 772 712T773 706Q772 694 757 694Q750 694 730 703T689 726T654 747Q642 756 628 748Q618
743 597 734T553 716T511 701T485 695Z" />
<glyph unicode="&#xc3;" glyph-name="Atilde" horiz-adv-x="689" d="M-39 -5Q-50 -5 -55 -2T-62 9Q-62 18 -53 22T-30 30Q-5 37 19 47T64 72T102 105Q173 184 235 259T356 408T476 558Q490 575 500 590T517 614T528 623Q551 623 563 629T590 648Q605 662 613 668T628
675Q635 675 637 665T634 633L532 119Q523 76 533 56T575 28Q590 24 597 21T605 9Q605 2 597 -1T574 -4Q559 -4 536 -3T489 0T442 1Q424 1 403 1T361 0T326 -1Q305 -1 303 12Q303 20 311 25T331 33Q361 38 379 45T407 67T424 108L455 228Q458 240 451 246T430 252L304
250Q290 250 282 246T266 232L175 113Q155 87 153 71T159 47T185 34Q195 31 202 26T210 12Q210 5 202 2T181 -1Q162 -1 140 0T90 1Q59 1 23 -2T-39 -5ZM336 288L448 289Q458 289 463 294T472 312L520 531Q522 541 522 546T517 552Q514 552 510 550T500 541L321
309Q313 299 313 294T336 288ZM498 692Q493 692 487 697T481 708Q481 712 490 726T512 756T539 785T561 798Q579 798 598 797T635 794Q652 793 670 792T706 791Q717 791 726 797T743 810Q751 817 755 823T763 830Q770 830 777 825T784 813Q784 810 780 804T768
791Q757 778 745 762T724 734Q718 726 708 723T694 720Q687 720 669 721T627 724T582 727T550 729Q543 729 534 725T518 714Q510 707 505 700T498 692Z" />
<glyph unicode="&#xc4;" glyph-name="Adieresis" horiz-adv-x="689" d="M-39 -5Q-50 -5 -55 -2T-62 9Q-62 18 -53 22T-30 30Q-5 37 19 47T64 72T102 105Q173 184 235 259T356 408T476 558Q490 575 500 590T517 614T528 623Q551 623 563 629T590 648Q605 662 613
668T628 675Q635 675 637 665T634 633L532 119Q523 76 533 56T575 28Q590 24 597 21T605 9Q605 2 597 -1T574 -4Q559 -4 536 -3T489 0T442 1Q424 1 403 1T361 0T326 -1Q305 -1 303 12Q303 20 311 25T331 33Q361 38 379 45T407 67T424 108L455 228Q458 240 451 246T430
252L304 250Q290 250 282 246T266 232L175 113Q155 87 153 71T159 47T185 34Q195 31 202 26T210 12Q210 5 202 2T181 -1Q162 -1 140 0T90 1Q59 1 23 -2T-39 -5ZM336 288L448 289Q458 289 463 294T472 312L520 531Q522 541 522 546T517 552Q514 552 510 550T500
541L321 309Q313 299 313 294T336 288ZM721 696Q702 696 690 710T677 741Q677 770 697 790T747 811Q767 811 779 796T791 762Q791 744 781 729T756 705T721 696ZM521 696Q502 696 489 710T476 741Q476 770 496 790T547 811Q566 811 578 796T590 762Q590 736 570
716T521 696Z" />
<glyph unicode="&#xc5;" glyph-name="Aring" horiz-adv-x="689" d="M-39 -5Q-50 -5 -55 -2T-62 9Q-62 18 -53 22T-30 30Q-5 37 19 47T64 72T102 105Q173 184 235 259T356 408T476 558Q490 575 500 590T517 614T528 623Q551 623 563 629T590 648Q605 662 613 668T628
675Q635 675 637 665T634 633L532 119Q523 76 533 56T575 28Q590 24 597 21T605 9Q605 2 597 -1T574 -4Q559 -4 536 -3T489 0T442 1Q424 1 403 1T361 0T326 -1Q305 -1 303 12Q303 20 311 25T331 33Q361 38 379 45T407 67T424 108L455 228Q458 240 451 246T430 252L304
250Q290 250 282 246T266 232L175 113Q155 87 153 71T159 47T185 34Q195 31 202 26T210 12Q210 5 202 2T181 -1Q162 -1 140 0T90 1Q59 1 23 -2T-39 -5ZM336 288L448 289Q458 289 463 294T472 312L520 531Q522 541 522 546T517 552Q514 552 510 550T500 541L321
309Q313 299 313 294T336 288ZM623 699Q594 699 569 714T544 756Q544 798 577 824T654 851Q673 851 691 844T721 824T733 791Q733 748 701 724T623 699ZM633 724Q658 724 671 742T684 787Q684 803 673 813T646 824Q621 824 607 805T593 760Q593 745 605 735T633
724Z" />
<glyph unicode="&#xc6;" glyph-name="AE" horiz-adv-x="833" d="M-40 -5Q-52 -5 -58 -2T-63 8Q-61 16 -52 20T-28 30Q0 38 33 62T92 118L503 595Q508 601 506 606T492 613L425 624Q410 628 410 638Q410 643 417 647T433 652Q454 652 482 651T543 650T602 649Q636
649 675 649T750 650Q797 650 825 653T871 659T901 662Q907 662 912 659T916 646Q914 620 908 586T894 529Q891 519 886 515T876 511Q871 511 869 514T866 523Q866 543 864 561T856 589Q849 602 834 609T799 617H690Q674 617 665 606T650 582Q638 553 624 514T599
435T579 368Q573 349 576 341T588 332Q618 332 639 332T680 334Q698 336 710 345T733 366Q741 374 746 382T756 397Q761 402 766 403T774 402Q774 396 774 387T770 367Q756 334 750 303T735 238Q732 229 728 224T719 218Q711 218 708 226T705 241Q705 267 696 281T673
295Q646 295 624 295T577 296Q567 296 559 289T545 262Q534 224 524 188T501 108Q493 78 500 58T536 38H630Q657 38 677 44T714 63Q731 76 744 93T771 131Q775 138 780 141T791 145Q797 145 799 140T800 129Q792 107 783 86T763 46T743 11Q740 5 735 0T722 -5Q693
-5 655 -4T574 -2T491 0T415 1Q394 1 376 0T338 -3T295 -5Q284 -5 279 -2T275 7Q279 20 308 26Q345 34 365 48T396 98Q408 137 421 183T444 262Q446 270 445 275T430 280H303Q294 280 286 275T270 259Q252 237 233 213T195 164T154 111Q134 85 135 70T150 45T183
31Q196 28 201 23T205 11Q203 4 196 2T176 -1Q157 -1 131 0T78 1Q47 1 16 -2T-40 -5ZM340 318H446Q456 318 458 320T465 332L536 569Q538 573 538 576T534 579Q530 579 524 571L333 334Q325 323 327 321T340 318Z" />
<glyph unicode="&#xc7;" glyph-name="Ccedilla" horiz-adv-x="643" d="M325 -14Q280 -14 236 4T154 57T94 138T72 244Q72 334 105 410T197 544T332 633T493 665Q523 665 550 660T604 645Q623 639 636 635T659 630Q665 630 670 632T682 638Q688 641 694 643T707
646Q716 646 717 640T714 628Q703 612 689 585T662 530T645 477Q643 469 638 463T625 456Q616 456 612 466T609 490Q613 512 610 535T592 580Q575 603 549 617T490 632Q445 632 400 610T316 548T247 455T200 341T183 216Q183 162 198 125T237 64T293 31T356 20Q403
20 437 36T497 82T547 149Q553 157 558 163T571 170Q576 170 578 164T580 148Q578 136 569 110T546 57T522 10T504 -9Q499 -9 494 -6T483 2Q479 6 473 8T457 11Q449 11 438 8T412 0Q396 -5 374 -9T325 -14ZM248 -281Q225 -281 206 -273T177 -251T167 -222Q167 -192
190 -192Q201 -192 211 -198T230 -213Q242 -223 253 -231T279 -240Q289 -240 296 -232T303 -214Q303 -198 293 -188T271 -165Q261 -154 251 -140T241 -109Q241 -92 259 -69T303 -23T358 17H391Q348 -17 334 -41T319 -79Q319 -89 328 -100T349 -123Q361 -134 370
-146T379 -171Q379 -187 365 -206T329 -242T286 -270T248 -281Z" />
<glyph unicode="&#xc8;" glyph-name="Egrave" horiz-adv-x="575" d="M-19 -5Q-30 -5 -35 -2T-40 7Q-39 20 -7 26Q39 35 59 50T90 98L228 550Q241 589 229 602T177 623Q163 625 158 629T153 641Q154 647 163 650T188 654Q198 654 219 653T265 651T311 650H473Q524
650 552 653T593 658T609 661Q614 661 618 656T623 645Q623 637 617 620T604 578T594 527Q593 517 588 513T577 508Q572 508 569 514T565 531Q565 580 553 600T502 620H395Q371 620 359 611T339 575L279 380Q274 363 277 357T296 351L408 353Q434 354 450 366T480
397Q487 405 495 414T511 424Q519 424 520 417T516 398Q507 379 500 363T488 330Q482 313 477 295T467 255Q465 245 462 238T453 231Q445 231 442 241T438 258Q439 289 430 303T403 317L293 319Q278 319 267 314T250 290L200 111Q187 64 196 47T240 29H370Q394
29 414 37T450 56Q467 68 482 87T512 130Q516 136 520 141T530 146Q535 146 536 140T538 125Q538 115 531 94T513 51T493 14Q488 5 481 0T462 -5Q432 -5 396 -5T323 -3T248 -1T175 0T109 1Q86 1 66 0T25 -3T-19 -5ZM457 696Q455 696 450 697T436 704Q403 726 364
751T292 801Q278 812 277 821Q276 828 288 834T316 845T338 850Q357 852 368 839Q392 809 413 779T457 720Q465 711 465 703Q465 696 457 696Z" />
<glyph unicode="&#xc9;" glyph-name="Eacute" horiz-adv-x="575" d="M-19 -5Q-30 -5 -35 -2T-40 7Q-39 20 -7 26Q39 35 59 50T90 98L228 550Q241 589 229 602T177 623Q163 625 158 629T153 641Q154 647 163 650T188 654Q198 654 219 653T265 651T311 650H473Q524
650 552 653T593 658T609 661Q614 661 618 656T623 645Q623 637 617 620T604 578T594 527Q593 517 588 513T577 508Q572 508 569 514T565 531Q565 580 553 600T502 620H395Q371 620 359 611T339 575L279 380Q274 363 277 357T296 351L408 353Q434 354 450 366T480
397Q487 405 495 414T511 424Q519 424 520 417T516 398Q507 379 500 363T488 330Q482 313 477 295T467 255Q465 245 462 238T453 231Q445 231 442 241T438 258Q439 289 430 303T403 317L293 319Q278 319 267 314T250 290L200 111Q187 64 196 47T240 29H370Q394
29 414 37T450 56Q467 68 482 87T512 130Q516 136 520 141T530 146Q535 146 536 140T538 125Q538 115 531 94T513 51T493 14Q488 5 481 0T462 -5Q432 -5 396 -5T323 -3T248 -1T175 0T109 1Q86 1 66 0T25 -3T-19 -5ZM385 692Q378 692 377 699Q377 706 383 716Q403
748 423 779T466 841Q476 854 495 854Q503 854 518 851T546 842T559 828Q559 820 545 808Q513 781 476 754T406 702Q398 696 393 694T385 692Z" />
<glyph unicode="&#xca;" glyph-name="Ecircumflex" horiz-adv-x="575" d="M-19 -5Q-30 -5 -35 -2T-40 7Q-39 20 -7 26Q39 35 59 50T90 98L228 550Q241 589 229 602T177 623Q163 625 158 629T153 641Q154 647 163 650T188 654Q198 654 219 653T265 651T311 650H473Q524
650 552 653T593 658T609 661Q614 661 618 656T623 645Q623 637 617 620T604 578T594 527Q593 517 588 513T577 508Q572 508 569 514T565 531Q565 580 553 600T502 620H395Q371 620 359 611T339 575L279 380Q274 363 277 357T296 351L408 353Q434 354 450 366T480
397Q487 405 495 414T511 424Q519 424 520 417T516 398Q507 379 500 363T488 330Q482 313 477 295T467 255Q465 245 462 238T453 231Q445 231 442 241T438 258Q439 289 430 303T403 317L293 319Q278 319 267 314T250 290L200 111Q187 64 196 47T240 29H370Q394
29 414 37T450 56Q467 68 482 87T512 130Q516 136 520 141T530 146Q535 146 536 140T538 125Q538 115 531 94T513 51T493 14Q488 5 481 0T462 -5Q432 -5 396 -5T323 -3T248 -1T175 0T109 1Q86 1 66 0T25 -3T-19 -5ZM289 695Q272 695 274 706Q275 712 283 719L410
805Q430 818 440 823T459 829Q471 829 480 823T498 805L572 719Q575 715 576 712T577 706Q576 694 561 694Q554 694 534 703T493 726T458 747Q446 756 432 748Q422 743 401 734T357 716T315 701T289 695Z" />
<glyph unicode="&#xcb;" glyph-name="Edieresis" horiz-adv-x="575" d="M-19 -5Q-30 -5 -35 -2T-40 7Q-39 20 -7 26Q39 35 59 50T90 98L228 550Q241 589 229 602T177 623Q163 625 158 629T153 641Q154 647 163 650T188 654Q198 654 219 653T265 651T311 650H473Q524
650 552 653T593 658T609 661Q614 661 618 656T623 645Q623 637 617 620T604 578T594 527Q593 517 588 513T577 508Q572 508 569 514T565 531Q565 580 553 600T502 620H395Q371 620 359 611T339 575L279 380Q274 363 277 357T296 351L408 353Q434 354 450 366T480
397Q487 405 495 414T511 424Q519 424 520 417T516 398Q507 379 500 363T488 330Q482 313 477 295T467 255Q465 245 462 238T453 231Q445 231 442 241T438 258Q439 289 430 303T403 317L293 319Q278 319 267 314T250 290L200 111Q187 64 196 47T240 29H370Q394
29 414 37T450 56Q467 68 482 87T512 130Q516 136 520 141T530 146Q535 146 536 140T538 125Q538 115 531 94T513 51T493 14Q488 5 481 0T462 -5Q432 -5 396 -5T323 -3T248 -1T175 0T109 1Q86 1 66 0T25 -3T-19 -5ZM525 696Q506 696 494 710T481 741Q481 770 501
790T551 811Q571 811 583 796T595 762Q595 744 585 729T560 705T525 696ZM325 696Q306 696 293 710T280 741Q280 770 300 790T351 811Q370 811 382 796T394 762Q394 736 374 716T325 696Z" />
<glyph unicode="&#xcc;" glyph-name="Igrave" horiz-adv-x="368" d="M-7 -4Q-17 -4 -22 -2T-28 8Q-26 21 6 27Q44 34 66 49T98 98L237 550Q248 584 239 598T195 621Q182 624 178 629T174 641Q175 648 183 651T202 654Q226 654 245 653T283 651T322 650Q342 650
360 650T397 652T440 653Q461 653 460 641Q459 633 450 629T426 621Q400 616 383 608T356 587T339 550L204 111Q196 83 198 67T212 42T247 28Q264 24 269 20T274 8Q274 2 266 -1T247 -4Q223 -4 203 -3T163 0T123 1Q90 1 60 -1T-7 -4ZM369 696Q367 696 362 697T348
704Q315 726 276 751T204 801Q190 812 189 821Q188 828 200 834T228 845T250 850Q269 852 280 839Q304 809 325 779T369 720Q377 711 377 703Q377 696 369 696Z" />
<glyph unicode="&#xcd;" glyph-name="Iacute" horiz-adv-x="368" d="M-7 -4Q-17 -4 -22 -2T-28 8Q-26 21 6 27Q44 34 66 49T98 98L237 550Q248 584 239 598T195 621Q182 624 178 629T174 641Q175 648 183 651T202 654Q226 654 245 653T283 651T322 650Q342 650
360 650T397 652T440 653Q461 653 460 641Q459 633 450 629T426 621Q400 616 383 608T356 587T339 550L204 111Q196 83 198 67T212 42T247 28Q264 24 269 20T274 8Q274 2 266 -1T247 -4Q223 -4 203 -3T163 0T123 1Q90 1 60 -1T-7 -4ZM296 692Q289 692 288 699Q288
706 294 716Q314 748 334 779T377 841Q387 854 406 854Q414 854 429 851T457 842T470 828Q470 820 456 808Q424 781 387 754T317 702Q309 696 304 694T296 692Z" />
<glyph unicode="&#xce;" glyph-name="Icircumflex" horiz-adv-x="368" d="M-7 -4Q-17 -4 -22 -2T-28 8Q-26 21 6 27Q44 34 66 49T98 98L237 550Q248 584 239 598T195 621Q182 624 178 629T174 641Q175 648 183 651T202 654Q226 654 245 653T283 651T322 650Q342
650 360 650T397 652T440 653Q461 653 460 641Q459 633 450 629T426 621Q400 616 383 608T356 587T339 550L204 111Q196 83 198 67T212 42T247 28Q264 24 269 20T274 8Q274 2 266 -1T247 -4Q223 -4 203 -3T163 0T123 1Q90 1 60 -1T-7 -4ZM200 695Q183 695 185 706Q186
712 194 719L321 805Q341 818 351 823T370 829Q382 829 391 823T409 805L483 719Q486 715 487 712T488 706Q487 694 472 694Q465 694 445 703T404 726T369 747Q357 756 343 748Q333 743 312 734T268 716T226 701T200 695Z" />
<glyph unicode="&#xcf;" glyph-name="Idieresis" horiz-adv-x="368" d="M-7 -4Q-17 -4 -22 -2T-28 8Q-26 21 6 27Q44 34 66 49T98 98L237 550Q248 584 239 598T195 621Q182 624 178 629T174 641Q175 648 183 651T202 654Q226 654 245 653T283 651T322 650Q342
650 360 650T397 652T440 653Q461 653 460 641Q459 633 450 629T426 621Q400 616 383 608T356 587T339 550L204 111Q196 83 198 67T212 42T247 28Q264 24 269 20T274 8Q274 2 266 -1T247 -4Q223 -4 203 -3T163 0T123 1Q90 1 60 -1T-7 -4ZM436 696Q417 696 405 710T392
741Q392 770 412 790T462 811Q482 811 494 796T506 762Q506 744 496 729T471 705T436 696ZM236 696Q217 696 204 710T191 741Q191 770 211 790T262 811Q281 811 293 796T305 762Q305 736 285 716T236 696Z" />
<glyph unicode="&#xd0;" glyph-name="Eth" horiz-adv-x="745" d="M90 313Q82 313 81 321T80 335Q83 344 92 350T111 357H437Q443 357 447 352T447 341Q439 329 429 321T406 313H90ZM313 -7Q295 -7 260 -5T187 -1T119 1Q100 1 82 0T44 -2T0 -4Q-10 -4 -15 -2T-21
8Q-19 24 13 27Q43 29 59 37T85 60T102 98L249 557Q257 581 247 592T217 610T174 621Q161 624 157 629T154 641Q154 648 162 651T182 654Q220 654 255 652T322 649Q342 649 358 650T393 653T438 655Q532 655 600 622T706 528T744 379Q744 302 712 233T622 110T485
24T313 -7ZM316 25Q384 25 441 56T542 141T609 261T633 397Q633 475 610 524T543 596T440 620Q404 620 388 615T365 599T352 571L217 135Q204 94 214 70T251 36T316 25Z" />
<glyph unicode="&#xd1;" glyph-name="Ntilde" horiz-adv-x="774" d="M12 -4Q2 -4 -4 -2T-10 8Q-9 15 -2 19T20 27Q62 37 81 55T109 101L252 521Q263 553 262 575T244 609T189 624Q173 626 163 630T153 643Q153 652 163 655T180 658Q206 658 232 657T283 655T329
653Q339 653 346 648T358 635L576 167Q578 163 583 157T593 150Q599 150 606 168Q610 178 618 203T638 264T660 340T683 417T702 483T713 528Q723 573 704 592T635 620Q611 624 611 638Q611 644 621 647T642 651Q673 651 700 649T751 646Q771 646 787 648T822 651T869
653Q891 653 891 641Q891 634 881 629T855 621Q830 618 815 612T790 589T767 541Q764 530 754 501T730 431T701 344T672 255T646 178T630 126Q624 106 625 94T635 67Q640 55 648 48T665 33Q673 27 678 22T684 9Q684 3 681 2T672 0Q651 0 635 -1T607 -4T583 -6Q563
-6 552 2T532 30Q517 62 500 102T463 187T424 277T385 365T350 444T318 507Q314 515 309 521T299 527Q294 527 288 519T278 497Q267 461 252 414T220 312T189 204T161 101Q154 70 168 53T222 26Q235 23 242 20T249 8Q248 2 239 -1T219 -4Q193 -4 178 -3T150 -1T121
0Q100 0 82 -1T47 -3T12 -4ZM417 692Q412 692 406 697T400 708Q400 712 409 726T431 756T458 785T480 798Q498 798 517 797T554 794Q571 793 589 792T625 791Q636 791 645 797T662 810Q670 817 674 823T682 830Q689 830 696 825T703 813Q703 810 699 804T687 791Q676
778 664 762T643 734Q637 726 627 723T613 720Q606 720 588 721T546 724T501 727T469 729Q462 729 453 725T437 714Q429 707 424 700T417 692Z" />
<glyph unicode="&#xd2;" glyph-name="Ograve" horiz-adv-x="693" d="M300 -14Q225 -14 174 20T97 113T71 243Q71 318 98 392T178 528T303 627T469 664Q543 664 594 630T672 537T698 407Q698 332 671 258T591 122T465 23T300 -14ZM302 19Q352 19 396 46T477 118T540
221T580 338T594 453Q594 499 581 540T540 608T466 634Q417 634 373 607T293 533T231 430T190 313T175 197Q175 151 187 111T228 45T302 19ZM531 696Q529 696 524 697T510 704Q477 726 438 751T366 801Q352 812 351 821Q350 828 362 834T390 845T412 850Q431 852
442 839Q466 809 487 779T531 720Q539 711 539 703Q539 696 531 696Z" />
<glyph unicode="&#xd3;" glyph-name="Oacute" horiz-adv-x="693" d="M300 -14Q225 -14 174 20T97 113T71 243Q71 318 98 392T178 528T303 627T469 664Q543 664 594 630T672 537T698 407Q698 332 671 258T591 122T465 23T300 -14ZM302 19Q352 19 396 46T477 118T540
221T580 338T594 453Q594 499 581 540T540 608T466 634Q417 634 373 607T293 533T231 430T190 313T175 197Q175 151 187 111T228 45T302 19ZM459 692Q452 692 451 699Q451 706 457 716Q477 748 497 779T540 841Q550 854 569 854Q577 854 592 851T620 842T633 828Q633
820 619 808Q587 781 550 754T480 702Q472 696 467 694T459 692Z" />
<glyph unicode="&#xd4;" glyph-name="Ocircumflex" horiz-adv-x="693" d="M300 -14Q225 -14 174 20T97 113T71 243Q71 318 98 392T178 528T303 627T469 664Q543 664 594 630T672 537T698 407Q698 332 671 258T591 122T465 23T300 -14ZM302 19Q352 19 396 46T477
118T540 221T580 338T594 453Q594 499 581 540T540 608T466 634Q417 634 373 607T293 533T231 430T190 313T175 197Q175 151 187 111T228 45T302 19ZM363 695Q346 695 348 706Q349 712 357 719L484 805Q504 818 514 823T533 829Q545 829 554 823T572 805L646 719Q649
715 650 712T651 706Q650 694 635 694Q628 694 608 703T567 726T532 747Q520 756 506 748Q496 743 475 734T431 716T389 701T363 695Z" />
<glyph unicode="&#xd5;" glyph-name="Otilde" horiz-adv-x="693" d="M300 -14Q225 -14 174 20T97 113T71 243Q71 318 98 392T178 528T303 627T469 664Q543 664 594 630T672 537T698 407Q698 332 671 258T591 122T465 23T300 -14ZM302 19Q352 19 396 46T477 118T540
221T580 338T594 453Q594 499 581 540T540 608T466 634Q417 634 373 607T293 533T231 430T190 313T175 197Q175 151 187 111T228 45T302 19ZM377 692Q372 692 366 697T360 708Q360 712 369 726T391 756T418 785T440 798Q458 798 477 797T514 794Q531 793 549 792T585
791Q596 791 605 797T622 810Q630 817 634 823T642 830Q649 830 656 825T663 813Q663 810 659 804T647 791Q636 778 624 762T603 734Q597 726 587 723T573 720Q566 720 548 721T506 724T461 727T429 729Q422 729 413 725T397 714Q389 707 384 700T377 692Z" />
<glyph unicode="&#xd6;" glyph-name="Odieresis" horiz-adv-x="693" d="M300 -14Q225 -14 174 20T97 113T71 243Q71 318 98 392T178 528T303 627T469 664Q543 664 594 630T672 537T698 407Q698 332 671 258T591 122T465 23T300 -14ZM302 19Q352 19 396 46T477
118T540 221T580 338T594 453Q594 499 581 540T540 608T466 634Q417 634 373 607T293 533T231 430T190 313T175 197Q175 151 187 111T228 45T302 19ZM599 696Q580 696 568 710T555 741Q555 770 575 790T625 811Q645 811 657 796T669 762Q669 744 659 729T634 705T599
696ZM399 696Q380 696 367 710T354 741Q354 770 374 790T425 811Q444 811 456 796T468 762Q468 736 448 716T399 696Z" />
<glyph unicode="&#xd7;" glyph-name="multiply" horiz-adv-x="591" d="M463 52Q455 52 450 57L303 205Q298 210 293 204L152 64Q148 60 143 59T134 60Q129 63 120 76T111 101Q111 109 117 115L249 246Q252 250 252 252T248 259L124 384Q119 389 119 398Q119 410
126 422T136 439Q140 443 146 443T156 438L292 301Q296 297 298 297T302 300L446 443Q451 448 457 448Q463 448 466 444Q471 435 477 424T483 403Q483 395 477 389L345 257Q341 253 345 248L486 108Q491 103 491 94Q491 82 481 67T463 52Z" />
<glyph unicode="&#xd8;" glyph-name="Oslash" horiz-adv-x="707" d="M80 -14Q70 -14 60 -6T49 11Q49 27 65 42L132 100L170 130L603 565L629 584L699 651Q705 656 712 660T726 665Q735 665 742 659T749 643Q749 624 730 605L662 540L622 508L192 75L160 48L107
4Q101 -1 94 -7T80 -14ZM300 -14Q225 -14 174 20T97 113T71 243Q71 318 98 392T178 528T303 627T469 664Q543 664 594 630T672 537T698 407Q698 332 671 258T591 122T465 23T300 -14ZM302 19Q352 19 396 46T477 118T540 221T580 338T594 453Q594 499 581 540T540
608T466 634Q417 634 373 607T293 533T231 430T190 313T175 197Q175 151 187 111T228 45T302 19Z" />
<glyph unicode="&#xd9;" glyph-name="Ugrave" horiz-adv-x="704" d="M306 -14Q252 -14 209 3T137 53T103 136T117 252L206 544Q216 577 209 596T184 619Q155 628 156 641Q156 648 168 651T192 654Q216 654 241 652T294 650Q318 650 344 651T390 653Q415 653 413
640Q411 632 399 628T370 617Q353 612 335 593T305 534L215 238Q195 171 208 127T257 60T340 38Q406 38 454 70T534 155T584 266Q596 306 608 345T631 416T646 466Q664 525 665 555T656 599T623 620Q614 623 604 627T595 640Q595 646 604 649T626 652Q644 652 661
652T696 651T728 650Q744 650 757 651T782 653T808 654Q820 654 826 651T831 641Q829 629 794 621Q776 616 763 608T737 579T709 514Q687 454 666 389T620 255Q593 177 554 116T455 21T306 -14ZM554 696Q552 696 547 697T533 704Q500 726 461 751T389 801Q375 812
374 821Q373 828 385 834T413 845T435 850Q454 852 465 839Q489 809 510 779T554 720Q562 711 562 703Q562 696 554 696Z" />
<glyph unicode="&#xda;" glyph-name="Uacute" horiz-adv-x="704" d="M306 -14Q252 -14 209 3T137 53T103 136T117 252L206 544Q216 577 209 596T184 619Q155 628 156 641Q156 648 168 651T192 654Q216 654 241 652T294 650Q318 650 344 651T390 653Q415 653 413
640Q411 632 399 628T370 617Q353 612 335 593T305 534L215 238Q195 171 208 127T257 60T340 38Q406 38 454 70T534 155T584 266Q596 306 608 345T631 416T646 466Q664 525 665 555T656 599T623 620Q614 623 604 627T595 640Q595 646 604 649T626 652Q644 652 661
652T696 651T728 650Q744 650 757 651T782 653T808 654Q820 654 826 651T831 641Q829 629 794 621Q776 616 763 608T737 579T709 514Q687 454 666 389T620 255Q593 177 554 116T455 21T306 -14ZM482 692Q475 692 474 699Q474 706 480 716Q500 748 520 779T563 841Q573
854 592 854Q600 854 615 851T643 842T656 828Q656 820 642 808Q610 781 573 754T503 702Q495 696 490 694T482 692Z" />
<glyph unicode="&#xdb;" glyph-name="Ucircumflex" horiz-adv-x="704" d="M306 -14Q252 -14 209 3T137 53T103 136T117 252L206 544Q216 577 209 596T184 619Q155 628 156 641Q156 648 168 651T192 654Q216 654 241 652T294 650Q318 650 344 651T390 653Q415 653
413 640Q411 632 399 628T370 617Q353 612 335 593T305 534L215 238Q195 171 208 127T257 60T340 38Q406 38 454 70T534 155T584 266Q596 306 608 345T631 416T646 466Q664 525 665 555T656 599T623 620Q614 623 604 627T595 640Q595 646 604 649T626 652Q644 652
661 652T696 651T728 650Q744 650 757 651T782 653T808 654Q820 654 826 651T831 641Q829 629 794 621Q776 616 763 608T737 579T709 514Q687 454 666 389T620 255Q593 177 554 116T455 21T306 -14ZM386 695Q369 695 371 706Q372 712 380 719L507 805Q527 818 537
823T556 829Q568 829 577 823T595 805L669 719Q672 715 673 712T674 706Q673 694 658 694Q651 694 631 703T590 726T555 747Q543 756 529 748Q519 743 498 734T454 716T412 701T386 695Z" />
<glyph unicode="&#xdc;" glyph-name="Udieresis" horiz-adv-x="704" d="M306 -14Q252 -14 209 3T137 53T103 136T117 252L206 544Q216 577 209 596T184 619Q155 628 156 641Q156 648 168 651T192 654Q216 654 241 652T294 650Q318 650 344 651T390 653Q415 653
413 640Q411 632 399 628T370 617Q353 612 335 593T305 534L215 238Q195 171 208 127T257 60T340 38Q406 38 454 70T534 155T584 266Q596 306 608 345T631 416T646 466Q664 525 665 555T656 599T623 620Q614 623 604 627T595 640Q595 646 604 649T626 652Q644 652
661 652T696 651T728 650Q744 650 757 651T782 653T808 654Q820 654 826 651T831 641Q829 629 794 621Q776 616 763 608T737 579T709 514Q687 454 666 389T620 255Q593 177 554 116T455 21T306 -14ZM622 696Q603 696 591 710T578 741Q578 770 598 790T648 811Q668
811 680 796T692 762Q692 744 682 729T657 705T622 696ZM422 696Q403 696 390 710T377 741Q377 770 397 790T448 811Q467 811 479 796T491 762Q491 736 471 716T422 696Z" />
<glyph unicode="&#xdd;" glyph-name="Yacute" horiz-adv-x="602" d="M122 -5Q110 -5 104 -2T98 7Q99 15 109 19T134 27Q172 34 196 54T231 109L279 262Q287 285 286 303T278 345L221 550Q213 580 200 597T164 618Q149 621 142 627T136 641Q136 648 146 650T168
653Q196 653 225 651T292 649Q316 649 338 651T383 653Q394 653 400 650T406 641Q405 633 395 628T369 620Q335 614 327 602T326 555L368 388Q373 370 377 362T385 354Q390 354 398 361T417 382Q450 420 478 456T542 536Q573 574 572 593T537 619Q527 621 520 626T513
640Q513 646 522 649T544 652Q565 652 584 651T628 650Q657 650 683 652T730 654Q741 654 748 652T754 641Q754 634 744 631T721 622Q701 616 678 603T634 573T599 541Q573 513 542 479T482 411T430 354Q409 331 398 309T378 257L333 109Q322 74 333 55T379 27Q392
24 398 20T403 8Q402 1 393 -2T373 -5Q349 -5 330 -4T291 -1T251 1Q229 1 209 0T167 -3T122 -5ZM424 692Q417 692 416 699Q416 706 422 716Q442 748 462 779T505 841Q515 854 534 854Q542 854 557 851T585 842T598 828Q598 820 584 808Q552 781 515 754T445 702Q437
696 432 694T424 692Z" />
<glyph unicode="&#xde;" glyph-name="Thorn" horiz-adv-x="574" d="M-7 -4Q-17 -4 -22 -2T-28 8Q-26 21 6 27Q44 34 66 49T98 98L237 550Q248 584 239 598T195 621Q182 624 178 629T174 641Q175 648 183 651T202 654Q226 654 245 653T283 651T322 650Q342 650
360 650T397 652T440 653Q461 653 460 641Q459 633 450 629T426 621Q400 616 384 608T357 587T339 550L325 507L298 534Q310 535 331 536T372 537Q437 537 485 514T559 448T585 347Q585 298 562 258T499 188T407 142T298 125Q283 125 269 128T255 142Q255 148 261
151T277 156Q290 158 303 159T329 163Q364 171 391 189T439 233T471 291T482 356Q482 403 466 436T420 486T356 504Q342 504 334 500T321 484T308 450L200 98Q191 65 203 51T250 27Q263 24 267 20T271 8Q270 2 262 -1T244 -4Q220 -4 201 -3T163 0T123 1Q90 1 60
-1T-7 -4Z" />
<glyph unicode="&#xdf;" glyph-name="germandbls" horiz-adv-x="539" d="M-85 -289Q-112 -289 -135 -284T-172 -266T-186 -231Q-186 -211 -173 -196T-143 -181Q-134 -181 -127 -190T-109 -209Q-99 -219 -87 -230T-55 -241Q-25 -241 -11 -213T18 -120Q22 -100 29
-68T45 1T60 72T73 128Q88 198 106 265T147 395Q185 505 240 573T364 674T513 706Q582 706 613 682T644 625Q644 600 627 575T581 527T524 481T471 441Q452 426 434 412T404 380T392 334Q392 324 399 305T415 266T430 233Q444 207 454 182T464 132Q464 100 445
74T405 31Q382 14 351 0T284 -14Q251 -14 231 0T210 38Q210 58 219 73T243 88Q251 88 260 81T277 65Q287 54 299 44T332 34Q353 34 370 49T387 90Q387 108 379 132T357 180Q344 204 331 233T318 286Q318 316 330 342T367 394T424 445Q442 459 464 477T508 517T543
562T558 610Q558 636 539 654T479 673Q436 673 398 650T328 586T272 498T233 402Q216 346 197 279T162 142T133 5Q123 -46 104 -98T57 -193T-6 -262T-85 -289Z" />
<glyph unicode="&#xe0;" glyph-name="agrave" horiz-adv-x="509" d="M351 473Q345 473 338 478T326 489L228 601Q219 612 214 620T209 634Q209 643 217 652T237 668T255 675Q264 675 270 667T284 647L358 497Q362 489 361 481T351 473ZM42 -14Q30 -14 17 -7T-4
10T-12 32Q-12 66 9 110T73 206T177 318Q227 365 262 390T315 416Q335 416 354 397Q365 383 365 384T365 385Q367 385 368 386T371 391Q383 411 386 416T388 422Q393 432 404 432Q415 432 427 428T447 417T455 403Q455 398 449 383L342 95Q330 64 354 64Q370 64
394 81T440 124Q442 126 444 127T448 128Q452 128 454 125T456 116Q456 106 441 84T405 44Q374 16 343 1T289 -14Q277 -14 265 -7T245 10T237 31Q237 40 243 54Q241 50 244 59T255 84T271 119T285 151Q290 160 289 164T282 163Q224 99 181 60T105 3T42 -14ZM116
64Q136 64 177 99T268 193Q304 235 324 269T345 321Q345 329 330 342Q322 348 314 351T301 355Q283 355 254 337T199 295Q170 267 144 231T102 159T86 99Q86 83 94 74T116 64Z" />
<glyph unicode="&#xe1;" glyph-name="aacute" horiz-adv-x="509" d="M42 -14Q30 -14 17 -7T-4 10T-12 32Q-12 66 9 110T73 206T177 318Q227 365 262 390T315 416Q335 416 354 397Q365 383 365 384T365 385Q367 385 368 386T371 391Q383 411 386 416T388 422Q393
432 404 432Q415 432 427 428T447 417T455 403Q455 398 449 383L342 95Q330 64 354 64Q370 64 394 81T440 124Q442 126 444 127T448 128Q452 128 454 125T456 116Q456 106 441 84T405 44Q374 16 343 1T289 -14Q277 -14 265 -7T245 10T237 31Q237 40 243 54Q241
50 244 59T255 84T271 119T285 151Q290 160 289 164T282 163Q224 99 181 60T105 3T42 -14ZM116 64Q136 64 177 99T268 193Q304 235 324 269T345 321Q345 329 330 342Q322 348 314 351T301 355Q283 355 254 337T199 295Q170 267 144 231T102 159T86 99Q86 83 94
74T116 64ZM340 473Q331 473 330 481T333 497L407 647Q414 659 421 667T437 675Q443 675 454 668T474 652T483 634Q483 629 478 621T463 601L366 489Q361 483 354 478T340 473Z" />
<glyph unicode="&#xe2;" glyph-name="acircumflex" horiz-adv-x="509" d="M408 658Q416 658 420 650T428 624Q433 608 437 588T445 546T451 508T455 483Q457 473 454 464T443 455Q432 455 422 477Q416 492 406 515T385 561Q382 569 375 561Q353 539 328 516T286
476Q277 468 268 462T254 455Q245 455 245 465Q245 470 247 475T254 487Q265 502 284 526T323 574T357 616Q372 633 386 645T408 658ZM42 -14Q30 -14 17 -7T-4 10T-12 32Q-12 66 9 110T73 206T177 318Q227 365 262 390T315 416Q335 416 354 397Q365 383 365 384T365
385Q367 385 368 386T371 391Q383 411 386 416T388 422Q393 432 404 432Q415 432 427 428T447 417T455 403Q455 398 449 383L342 95Q330 64 354 64Q370 64 394 81T440 124Q442 126 444 127T448 128Q452 128 454 125T456 116Q456 106 441 84T405 44Q374 16 343 1T289
-14Q277 -14 265 -7T245 10T237 31Q237 40 243 54Q241 50 244 59T255 84T271 119T285 151Q290 160 289 164T282 163Q224 99 181 60T105 3T42 -14ZM116 64Q136 64 177 99T268 193Q304 235 324 269T345 321Q345 329 330 342Q322 348 314 351T301 355Q283 355 254
337T199 295Q170 267 144 231T102 159T86 99Q86 83 94 74T116 64Z" />
<glyph unicode="&#xe3;" glyph-name="atilde" horiz-adv-x="509" d="M42 -14Q30 -14 17 -7T-4 10T-12 32Q-12 66 9 110T73 206T177 318Q227 365 262 390T315 416Q335 416 354 397Q365 383 365 384T365 385Q367 385 368 386T371 391Q383 411 386 416T388 422Q393
432 404 432Q415 432 427 428T447 417T455 403Q455 398 449 383L342 95Q330 64 354 64Q370 64 394 81T440 124Q442 126 444 127T448 128Q452 128 454 125T456 116Q456 106 441 84T405 44Q374 16 343 1T289 -14Q277 -14 265 -7T245 10T237 31Q237 40 243 54Q241
50 244 59T255 84T271 119T285 151Q290 160 289 164T282 163Q224 99 181 60T105 3T42 -14ZM116 64Q136 64 177 99T268 193Q304 235 324 269T345 321Q345 329 330 342Q322 348 314 351T301 355Q283 355 254 337T199 295Q170 267 144 231T102 159T86 99Q86 83 94
74T116 64ZM236 468Q229 468 223 473T217 485Q217 489 228 503T254 535T284 565T307 577Q322 577 333 576T364 572Q383 571 397 570T424 568Q443 568 459 584Q470 595 474 601T483 608Q490 608 496 603T503 590Q503 587 498 581T484 565Q472 552 462 537T441 509Q435
501 426 498T411 495Q405 495 390 496T356 499T318 502T283 503Q271 503 263 495Q253 485 246 477T236 468Z" />
<glyph unicode="&#xe4;" glyph-name="adieresis" horiz-adv-x="509" d="M42 -14Q30 -14 17 -7T-4 10T-12 32Q-12 66 9 110T73 206T177 318Q227 365 262 390T315 416Q335 416 354 397Q365 383 365 384T365 385Q367 385 368 386T371 391Q383 411 386 416T388 422Q393
432 404 432Q415 432 427 428T447 417T455 403Q455 398 449 383L342 95Q330 64 354 64Q370 64 394 81T440 124Q442 126 444 127T448 128Q452 128 454 125T456 116Q456 106 441 84T405 44Q374 16 343 1T289 -14Q277 -14 265 -7T245 10T237 31Q237 40 243 54Q241
50 244 59T255 84T271 119T285 151Q290 160 289 164T282 163Q224 99 181 60T105 3T42 -14ZM116 64Q136 64 177 99T268 193Q304 235 324 269T345 321Q345 329 330 342Q322 348 314 351T301 355Q283 355 254 337T199 295Q170 267 144 231T102 159T86 99Q86 83 94
74T116 64ZM446 506Q429 506 418 519T406 551Q406 570 415 586T440 611T475 621Q495 621 506 607T517 574Q517 548 497 527T446 506ZM266 506Q248 506 237 519T225 551Q225 570 234 586T260 611T295 621Q314 621 325 607T336 574Q336 548 316 527T266 506Z" />
<glyph unicode="&#xe5;" glyph-name="aring" horiz-adv-x="509" d="M42 -14Q30 -14 17 -7T-4 10T-12 32Q-12 66 9 110T73 206T177 318Q227 365 262 390T315 416Q335 416 354 397Q365 383 365 384T365 385Q367 385 368 386T371 391Q383 411 386 416T388 422Q393
432 404 432Q415 432 427 428T447 417T455 403Q455 398 449 383L342 95Q330 64 354 64Q370 64 394 81T440 124Q442 126 444 127T448 128Q452 128 454 125T456 116Q456 106 441 84T405 44Q374 16 343 1T289 -14Q277 -14 265 -7T245 10T237 31Q237 40 243 54Q241
50 244 59T255 84T271 119T285 151Q290 160 289 164T282 163Q224 99 181 60T105 3T42 -14ZM116 64Q136 64 177 99T268 193Q304 235 324 269T345 321Q345 329 330 342Q322 348 314 351T301 355Q283 355 254 337T199 295Q170 267 144 231T102 159T86 99Q86 83 94
74T116 64ZM350 489Q323 489 305 506T287 550Q287 582 305 608T351 650T407 666Q435 666 453 650T472 607Q472 572 454 546T407 504T350 489ZM365 520Q381 520 394 531T417 560T427 595Q427 612 417 623T391 634Q375 634 362 623T341 595T332 559Q332 543 341 532T365
520Z" />
<glyph unicode="&#xe6;" glyph-name="ae" horiz-adv-x="537" d="M41 -14Q30 -14 18 -8T-3 8T-12 33Q-12 69 14 120T86 225T193 323Q243 360 284 381T360 410T424 418L341 359Q309 359 276 344T209 300Q174 272 147 235T104 160T88 95Q88 78 95 71T115 64Q131 64
162 89T234 180L265 146Q212 87 173 52T103 2T41 -14ZM316 -14Q292 -14 267 3T226 46T209 100Q206 153 224 209T274 313T350 391T445 421Q486 421 507 404T530 359Q532 327 510 301T453 257T383 229T322 221Q312 222 309 212Q304 192 301 176T299 133Q300 97 314
75T355 53Q385 53 409 72T449 112Q457 124 465 124Q475 124 475 112Q475 110 475 106T472 99Q454 66 430 41T378 1T316 -14ZM327 248Q338 248 359 254T403 275T443 310T458 360Q457 373 452 383T431 393Q414 393 396 379T361 344T334 298T321 254Q320 248 327 248Z"
/>
<glyph unicode="&#xe7;" glyph-name="ccedilla" horiz-adv-x="332" d="M115 -15Q91 -15 68 0T29 42T14 101Q15 142 27 186T61 272T115 347T188 401T278 421Q309 421 326 409T344 379Q344 362 333 345T310 327Q302 327 297 334T284 354Q277 367 267 377T241 388Q218
388 194 363T150 297T117 211T103 125Q103 91 118 76T159 60Q189 60 210 72T249 105Q255 111 259 114T268 117Q277 117 277 105Q277 91 264 71T227 31T175 -2T115 -15ZM35 -281Q12 -281 -7 -273T-36 -251T-46 -222Q-46 -192 -23 -192Q-12 -192 -2 -198T17 -213Q29
-223 40 -231T66 -240Q76 -240 83 -232T90 -214Q90 -198 80 -188T58 -165Q48 -154 38 -140T28 -109Q28 -92 46 -69T90 -23T145 17H178Q135 -17 121 -41T106 -79Q106 -89 115 -100T136 -123Q148 -134 157 -146T166 -171Q166 -187 152 -206T116 -242T73 -270T35 -281Z"
/>
<glyph unicode="&#xe8;" glyph-name="egrave" horiz-adv-x="355" d="M292 473Q285 473 279 478T266 489L169 601Q159 612 154 620T149 634Q149 643 157 652T177 668T195 675Q204 675 211 667T224 647L299 497Q303 489 302 481T292 473ZM116 -15Q93 -15 69 1T28
43T11 95Q11 150 32 207T91 312T175 391T275 421Q318 421 340 404T362 359Q362 327 342 304T287 263T213 235T131 216Q126 215 123 214T118 207Q113 190 108 170T102 133Q102 98 117 77T164 55Q197 55 221 71T264 108Q274 119 281 119Q291 119 291 109Q291 107
291 104T289 99Q269 65 243 40T186 0T116 -15ZM138 244Q153 246 178 253T228 274T272 309T290 360Q290 372 283 382T263 392Q243 392 221 376T179 337T146 290T131 250Q131 243 138 244Z" />
<glyph unicode="&#xe9;" glyph-name="eacute" horiz-adv-x="355" d="M116 -15Q93 -15 69 1T28 43T11 95Q11 150 32 207T91 312T175 391T275 421Q318 421 340 404T362 359Q362 327 342 304T287 263T213 235T131 216Q126 215 123 214T118 207Q113 190 108 170T102
133Q102 98 117 77T164 55Q197 55 221 71T264 108Q274 119 281 119Q291 119 291 109Q291 107 291 104T289 99Q269 65 243 40T186 0T116 -15ZM138 244Q153 246 178 253T228 274T272 309T290 360Q290 372 283 382T263 392Q243 392 221 376T179 337T146 290T131 250Q131
243 138 244ZM281 473Q272 473 271 481T274 497L348 647Q355 659 362 667T378 675Q384 675 395 668T415 652T424 634Q424 629 419 621T404 601L307 489Q302 483 295 478T281 473Z" />
<glyph unicode="&#xea;" glyph-name="ecircumflex" horiz-adv-x="355" d="M349 658Q357 658 360 650T369 624Q373 608 377 588T386 546T392 508T396 483Q397 473 394 464T384 455Q373 455 363 477Q357 492 347 515T326 561Q323 569 316 561Q294 539 269 516T227
476Q218 468 209 462T195 455Q185 455 185 465Q185 470 187 475T195 487Q206 502 225 526T264 574T298 616Q313 633 327 645T349 658ZM116 -15Q93 -15 69 1T28 43T11 95Q11 150 32 207T91 312T175 391T275 421Q318 421 340 404T362 359Q362 327 342 304T287 263T213
235T131 216Q126 215 123 214T118 207Q113 190 108 170T102 133Q102 98 117 77T164 55Q197 55 221 71T264 108Q274 119 281 119Q291 119 291 109Q291 107 291 104T289 99Q269 65 243 40T186 0T116 -15ZM138 244Q153 246 178 253T228 274T272 309T290 360Q290 372
283 382T263 392Q243 392 221 376T179 337T146 290T131 250Q131 243 138 244Z" />
<glyph unicode="&#xeb;" glyph-name="edieresis" horiz-adv-x="355" d="M116 -15Q93 -15 69 1T28 43T11 95Q11 150 32 207T91 312T175 391T275 421Q318 421 340 404T362 359Q362 327 342 304T287 263T213 235T131 216Q126 215 123 214T118 207Q113 190 108 170T102
133Q102 98 117 77T164 55Q197 55 221 71T264 108Q274 119 281 119Q291 119 291 109Q291 107 291 104T289 99Q269 65 243 40T186 0T116 -15ZM138 244Q153 246 178 253T228 274T272 309T290 360Q290 372 283 382T263 392Q243 392 221 376T179 337T146 290T131 250Q131
243 138 244ZM387 506Q370 506 359 519T347 551Q347 570 356 586T381 611T416 621Q436 621 447 607T458 574Q458 548 438 527T387 506ZM207 506Q189 506 178 519T166 551Q166 570 175 586T201 611T236 621Q255 621 266 607T277 574Q277 548 257 527T207 506Z" />
<glyph unicode="&#xec;" glyph-name="igrave" horiz-adv-x="307" d="M249 472Q243 472 236 477T224 488L126 600Q117 611 112 619T107 634Q107 642 115 651T135 667T153 674Q162 674 169 667T182 646L256 496Q261 488 260 480T249 472ZM73 -14Q54 -14 40 -1T26
27Q26 31 27 35T30 45Q67 121 94 190T143 316Q147 326 138 326Q133 326 120 321T92 308T66 291Q58 286 53 288T47 297Q47 303 56 314T82 339T120 368T163 396T208 419Q219 424 230 418T248 401T252 383L134 98Q131 92 130 86T128 74Q128 68 132 66T141 64Q153 64
171 76T210 107T248 143Q250 146 252 146Q255 146 258 144T261 137Q261 121 241 96T191 45T130 3T73 -14Z" />
<glyph unicode="&#xed;" glyph-name="iacute" horiz-adv-x="307" d="M73 -14Q54 -14 40 -1T26 27Q26 31 27 35T30 45Q67 121 94 190T143 316Q147 326 138 326Q133 326 120 321T92 308T66 291Q58 286 53 288T47 297Q47 303 56 314T82 339T120 368T163 396T208 419Q219
424 230 418T248 401T252 383L134 98Q131 92 130 86T128 74Q128 68 132 66T141 64Q153 64 171 76T210 107T248 143Q250 146 252 146Q255 146 258 144T261 137Q261 121 241 96T191 45T130 3T73 -14ZM239 472Q230 472 229 480T232 496L306 646Q313 658 320 666T336
674Q342 674 353 667T373 651T382 633Q382 628 377 620T362 600L265 488Q260 482 253 477T239 472Z" />
<glyph unicode="&#xee;" glyph-name="icircumflex" horiz-adv-x="307" d="M306 657Q314 657 318 649T327 623Q331 607 335 587T343 545T350 507T354 482Q355 473 352 464T342 454Q331 454 320 476Q314 491 304 515T284 560Q280 568 274 560Q252 538 226 515T184
475Q175 467 167 461T153 454Q143 454 143 464Q143 470 145 475T152 486Q164 502 182 525T221 574T256 615Q271 632 284 644T306 657ZM73 -14Q54 -14 40 -1T26 27Q26 31 27 35T30 45Q67 121 94 190T143 316Q147 326 138 326Q133 326 120 321T92 308T66 291Q58 286
53 288T47 297Q47 303 56 314T82 339T120 368T163 396T208 419Q219 424 230 418T248 401T252 383L134 98Q131 92 130 86T128 74Q128 68 132 66T141 64Q153 64 171 76T210 107T248 143Q250 146 252 146Q255 146 258 144T261 137Q261 121 241 96T191 45T130 3T73
-14Z" />
<glyph unicode="&#xef;" glyph-name="idieresis" horiz-adv-x="307" d="M73 -14Q54 -14 40 -1T26 27Q26 31 27 35T30 45Q67 121 94 190T143 316Q147 326 138 326Q133 326 120 321T92 308T66 291Q58 286 53 288T47 297Q47 303 56 314T82 339T120 368T163 396T208
419Q219 424 230 418T248 401T252 383L134 98Q131 92 130 86T128 74Q128 68 132 66T141 64Q153 64 171 76T210 107T248 143Q250 146 252 146Q255 146 258 144T261 137Q261 121 241 96T191 45T130 3T73 -14ZM344 505Q327 505 316 518T304 550Q304 569 313 585T338
610T373 620Q393 620 404 606T415 573Q415 547 395 526T344 505ZM164 505Q146 505 135 518T123 550Q123 569 132 585T158 610T193 620Q212 620 223 606T234 573Q234 547 214 526T164 505Z" />
<glyph unicode="&#xf0;" glyph-name="eth" horiz-adv-x="427" d="M146 -14Q121 -14 97 1T56 44T41 110Q42 156 60 210T112 312T193 390T299 421Q309 421 318 419T334 412Q338 411 341 409T347 407Q351 407 354 422T357 461Q357 510 342 549L209 483Q198 478 191
479T184 491Q185 502 190 515T207 535L326 594Q308 626 282 646T217 674Q209 676 204 679T198 689Q198 700 207 702T228 705Q281 705 322 683T392 623L483 669Q492 673 501 672T511 660Q511 647 503 634T482 616L415 583Q442 523 442 448Q442 386 429 321T390 196T328
89T246 14T146 -14ZM161 19Q184 19 207 40T253 95T293 170T322 250T334 320Q334 353 326 370T295 388Q273 388 250 367T204 312T164 237T135 158T122 88Q122 56 131 38T161 19Z" />
<glyph unicode="&#xf1;" glyph-name="ntilde" horiz-adv-x="552" d="M82 -15Q75 -15 67 -10T53 3T43 22T45 42L155 315Q171 352 153 352Q145 352 133 350T107 339T77 310Q73 306 68 306T60 314Q60 321 64 331T75 352T87 369Q105 392 133 406T201 421Q217 421 227
413T242 391T240 363L179 206Q176 199 182 198T191 203Q230 270 270 319T348 394T421 421Q448 421 464 404T484 360T474 301L388 98Q373 64 392 64Q402 64 417 72T448 91T476 112T493 126Q496 128 498 130T502 132Q505 132 508 129T511 122Q511 110 504 100Q476
68 444 42T378 1T311 -14Q301 -14 291 -7T275 11T274 33Q304 103 335 171T394 309Q407 342 403 356T386 371Q374 371 359 360T326 329T287 283Q276 269 258 241T216 177T170 102T125 27Q114 7 104 -4T82 -15ZM234 468Q227 468 221 473T215 485Q215 489 226 503T252
535T282 565T305 577Q320 577 331 576T362 572Q381 571 395 570T422 568Q441 568 457 584Q468 595 472 601T481 608Q488 608 494 603T501 590Q501 587 496 581T482 565Q470 552 460 537T439 509Q433 501 424 498T409 495Q403 495 388 496T354 499T316 502T281 503Q269
503 261 495Q251 485 244 477T234 468Z" />
<glyph unicode="&#xf2;" glyph-name="ograve" horiz-adv-x="408" d="M310 473Q304 473 297 478T285 489L187 601Q178 612 173 620T168 634Q168 643 176 652T196 668T214 675Q223 675 230 667T243 647L317 497Q322 489 321 481T310 473ZM125 -14Q96 -14 71 2T30
47T14 109Q14 156 33 210T87 312T169 390T272 421Q328 421 360 386T392 294Q392 249 374 196T320 95T236 17T125 -14ZM142 19Q164 19 187 40T231 97T269 174T296 258T306 334Q306 359 298 373T266 388Q245 388 222 368T178 315T139 241T112 157T102 75Q102 46 112
33T142 19Z" />
<glyph unicode="&#xf3;" glyph-name="oacute" horiz-adv-x="408" d="M125 -14Q96 -14 71 2T30 47T14 109Q14 156 33 210T87 312T169 390T272 421Q328 421 360 386T392 294Q392 249 374 196T320 95T236 17T125 -14ZM142 19Q164 19 187 40T231 97T269 174T296 258T306
334Q306 359 298 373T266 388Q245 388 222 368T178 315T139 241T112 157T102 75Q102 46 112 33T142 19ZM300 473Q291 473 290 481T293 497L367 647Q374 659 381 667T397 675Q403 675 414 668T434 652T443 634Q443 629 438 621T423 601L326 489Q321 483 314 478T300
473Z" />
<glyph unicode="&#xf4;" glyph-name="ocircumflex" horiz-adv-x="408" d="M367 658Q375 658 379 650T388 624Q392 608 396 588T404 546T411 508T415 483Q416 473 413 464T403 455Q391 455 381 477Q375 492 365 515T345 561Q341 569 335 561Q312 539 287 516T245
476Q236 468 228 462T214 455Q204 455 204 465Q204 470 206 475T213 487Q224 502 243 526T282 574T317 616Q331 633 345 645T367 658ZM125 -14Q96 -14 71 2T30 47T14 109Q14 156 33 210T87 312T169 390T272 421Q328 421 360 386T392 294Q392 249 374 196T320 95T236
17T125 -14ZM142 19Q164 19 187 40T231 97T269 174T296 258T306 334Q306 359 298 373T266 388Q245 388 222 368T178 315T139 241T112 157T102 75Q102 46 112 33T142 19Z" />
<glyph unicode="&#xf5;" glyph-name="otilde" horiz-adv-x="408" d="M125 -14Q96 -14 71 2T30 47T14 109Q14 156 33 210T87 312T169 390T272 421Q328 421 360 386T392 294Q392 249 374 196T320 95T236 17T125 -14ZM142 19Q164 19 187 40T231 97T269 174T296 258T306
334Q306 359 298 373T266 388Q245 388 222 368T178 315T139 241T112 157T102 75Q102 46 112 33T142 19ZM198 468Q191 468 185 473T179 485Q179 489 190 503T216 535T246 565T269 577Q284 577 295 576T326 572Q345 571 359 570T386 568Q405 568 421 584Q432 595
436 601T445 608Q452 608 458 603T465 590Q465 587 460 581T446 565Q434 552 424 537T403 509Q397 501 388 498T373 495Q367 495 352 496T318 499T280 502T245 503Q233 503 225 495Q215 485 208 477T198 468Z" />
<glyph unicode="&#xf6;" glyph-name="odieresis" horiz-adv-x="408" d="M125 -14Q96 -14 71 2T30 47T14 109Q14 156 33 210T87 312T169 390T272 421Q328 421 360 386T392 294Q392 249 374 196T320 95T236 17T125 -14ZM142 19Q164 19 187 40T231 97T269 174T296
258T306 334Q306 359 298 373T266 388Q245 388 222 368T178 315T139 241T112 157T102 75Q102 46 112 33T142 19ZM405 506Q388 506 377 519T365 551Q365 570 374 586T399 611T434 621Q454 621 465 607T476 574Q476 548 456 527T405 506ZM225 506Q207 506 196 519T184
551Q184 570 193 586T219 611T254 621Q273 621 284 607T295 574Q295 548 275 527T225 506Z" />
<glyph unicode="&#xf7;" glyph-name="divide" horiz-adv-x="589" d="M77 239Q72 239 67 242T62 250Q62 255 64 265T71 283T88 292H549Q555 292 560 289T565 281Q565 267 557 253T533 239H77ZM315 66Q293 66 277 82T260 121Q260 144 276 160T315 176Q338 176 354
160T370 121Q370 99 355 83T315 66ZM314 351Q292 351 276 367T259 406Q259 429 275 445T314 461Q337 461 353 445T369 406Q369 384 354 368T314 351Z" />
<glyph unicode="&#xf8;" glyph-name="oslash" horiz-adv-x="399" d="M-1 -14Q-10 -14 -18 -8T-27 7Q-26 22 -15 31L38 80L70 101L314 342L346 365L399 415Q402 417 405 419T414 421Q422 420 424 415T428 402Q429 395 425 387T415 374L359 320L320 289L84 51L61
38L12 -9Q9 -11 7 -12T-1 -14ZM125 -14Q96 -14 71 2T30 47T14 109Q14 156 33 210T87 312T169 390T272 421Q328 421 360 386T392 294Q392 249 374 196T320 95T236 17T125 -14ZM142 19Q164 19 187 40T231 97T269 174T296 258T306 334Q306 359 298 373T266 388Q245
388 222 368T178 315T139 241T112 157T102 75Q102 46 112 33T142 19Z" />
<glyph unicode="&#xf9;" glyph-name="ugrave" horiz-adv-x="540" d="M369 473Q363 473 356 478T344 489L246 601Q237 612 232 620T227 634Q227 643 235 652T255 668T273 675Q282 675 288 667T302 647L376 497Q380 489 379 481T369 473ZM84 -14Q69 -14 56 -2T36
27T34 56L135 294Q142 310 143 321T136 332Q131 332 118 324T90 303T62 279Q56 274 50 274T43 280Q43 286 46 294T57 313Q84 348 115 372T175 410T225 424Q233 424 242 416T257 396T257 376Q229 317 200 251T139 114Q130 95 129 81T138 66Q148 66 168 84T213 132T265
193Q297 229 326 268T377 340T409 389Q418 405 427 413T447 421Q457 421 466 413T480 395T481 375L364 94Q357 79 358 70T367 61Q378 61 398 74T441 106T478 138Q480 140 481 140Q485 140 488 137T492 129Q492 123 487 116T472 99T453 82T431 67T411 56Q394 39
373 26T329 6T284 3Q275 4 268 18T266 43Q278 69 292 99T318 156T337 203Q341 214 336 215T325 210Q281 159 245 118T178 47T125 2T84 -14Z" />
<glyph unicode="&#xfa;" glyph-name="uacute" horiz-adv-x="540" d="M84 -14Q69 -14 56 -2T36 27T34 56L135 294Q142 310 143 321T136 332Q131 332 118 324T90 303T62 279Q56 274 50 274T43 280Q43 286 46 294T57 313Q84 348 115 372T175 410T225 424Q233 424
242 416T257 396T257 376Q229 317 200 251T139 114Q130 95 129 81T138 66Q148 66 168 84T213 132T265 193Q297 229 326 268T377 340T409 389Q418 405 427 413T447 421Q457 421 466 413T480 395T481 375L364 94Q357 79 358 70T367 61Q378 61 398 74T441 106T478
138Q480 140 481 140Q485 140 488 137T492 129Q492 123 487 116T472 99T453 82T431 67T411 56Q394 39 373 26T329 6T284 3Q275 4 268 18T266 43Q278 69 292 99T318 156T337 203Q341 214 336 215T325 210Q281 159 245 118T178 47T125 2T84 -14ZM358 473Q349 473
348 481T351 497L425 647Q432 659 439 667T455 675Q461 675 472 668T492 652T501 634Q501 629 496 621T481 601L384 489Q379 483 372 478T358 473Z" />
<glyph unicode="&#xfb;" glyph-name="ucircumflex" horiz-adv-x="540" d="M426 658Q434 658 438 650T446 624Q451 608 455 588T463 546T470 508T473 483Q475 473 472 464T461 455Q450 455 440 477Q434 492 424 515T403 561Q400 569 394 561Q371 539 346 516T304
476Q295 468 286 462T272 455Q263 455 263 465Q263 470 265 475T272 487Q283 502 302 526T341 574T375 616Q390 633 404 645T426 658ZM84 -14Q69 -14 56 -2T36 27T34 56L135 294Q142 310 143 321T136 332Q131 332 118 324T90 303T62 279Q56 274 50 274T43 280Q43
286 46 294T57 313Q84 348 115 372T175 410T225 424Q233 424 242 416T257 396T257 376Q229 317 200 251T139 114Q130 95 129 81T138 66Q148 66 168 84T213 132T265 193Q297 229 326 268T377 340T409 389Q418 405 427 413T447 421Q457 421 466 413T480 395T481 375L364
94Q357 79 358 70T367 61Q378 61 398 74T441 106T478 138Q480 140 481 140Q485 140 488 137T492 129Q492 123 487 116T472 99T453 82T431 67T411 56Q394 39 373 26T329 6T284 3Q275 4 268 18T266 43Q278 69 292 99T318 156T337 203Q341 214 336 215T325 210Q281
159 245 118T178 47T125 2T84 -14Z" />
<glyph unicode="&#xfc;" glyph-name="udieresis" horiz-adv-x="540" d="M84 -14Q69 -14 56 -2T36 27T34 56L135 294Q142 310 143 321T136 332Q131 332 118 324T90 303T62 279Q56 274 50 274T43 280Q43 286 46 294T57 313Q84 348 115 372T175 410T225 424Q233 424
242 416T257 396T257 376Q229 317 200 251T139 114Q130 95 129 81T138 66Q148 66 168 84T213 132T265 193Q297 229 326 268T377 340T409 389Q418 405 427 413T447 421Q457 421 466 413T480 395T481 375L364 94Q357 79 358 70T367 61Q378 61 398 74T441 106T478
138Q480 140 481 140Q485 140 488 137T492 129Q492 123 487 116T472 99T453 82T431 67T411 56Q394 39 373 26T329 6T284 3Q275 4 268 18T266 43Q278 69 292 99T318 156T337 203Q341 214 336 215T325 210Q281 159 245 118T178 47T125 2T84 -14ZM464 506Q447 506
436 519T424 551Q424 570 433 586T458 611T493 621Q513 621 524 607T535 574Q535 548 515 527T464 506ZM284 506Q266 506 255 519T243 551Q243 570 252 586T278 611T313 621Q332 621 343 607T354 574Q354 548 334 527T284 506Z" />
<glyph unicode="&#xfd;" glyph-name="yacute" horiz-adv-x="432" d="M-52 -290Q-71 -290 -89 -278T-107 -240Q-107 -225 -100 -212T-83 -191T-60 -182Q-50 -182 -42 -188T-24 -201Q-15 -208 -6 -213T15 -219Q48 -219 83 -180T147 -80Q169 -34 177 21T185 143Q185
220 175 265T151 331T128 352Q119 352 108 340T87 313T73 286Q72 281 66 270T54 259Q50 259 48 267T45 287Q45 312 56 335T84 379T122 411T162 423Q188 423 204 405T232 353Q246 310 256 245T262 80Q261 62 265 63T277 77Q311 141 333 223T354 408Q354 414 363
421T378 429Q384 429 394 423T413 405T422 378Q422 316 390 233T299 56T163 -130Q126 -173 88 -209T13 -268T-52 -290ZM266 473Q257 473 256 481T259 497L333 647Q340 659 347 667T363 675Q369 675 380 668T400 652T409 634Q409 629 404 621T389 601L292 489Q287
483 280 478T266 473Z" />
<glyph unicode="&#xfe;" glyph-name="thorn" horiz-adv-x="479" d="M-119 -286Q-124 -286 -128 -284T-133 -276Q-133 -268 -124 -263T-106 -256Q-81 -251 -68 -244T-49 -215L198 563Q203 579 206 594T209 621Q209 629 200 633T179 640Q169 644 160 647T151 656Q151
660 153 663T164 668Q175 674 196 680T239 693T279 703T304 707Q310 707 316 706T323 696Q323 686 322 679T315 660Q311 646 300 615T273 540T241 449T207 350T177 254Q173 242 176 243T185 252Q215 297 251 335T326 397T401 421Q429 421 451 401T474 338Q474 296
457 249T408 155T335 72T247 13T150 -10Q134 -10 118 -6T87 6L110 29L40 -207Q33 -228 46 -237T84 -251Q93 -252 101 -255T108 -267Q108 -272 101 -275T83 -278Q67 -278 50 -278T17 -278T-12 -280Q-37 -281 -64 -283T-119 -286ZM182 25Q196 25 216 39T258 77T300
128Q322 159 341 196T372 269T383 330T365 360Q352 363 332 352T289 319T242 268Q230 257 215 239T185 201T158 159T139 120T131 89Q131 61 148 43T182 25Z" />
<glyph unicode="&#xff;" glyph-name="ydieresis" horiz-adv-x="432" d="M-52 -290Q-71 -290 -89 -278T-107 -240Q-107 -225 -100 -212T-83 -191T-60 -182Q-50 -182 -42 -188T-24 -201Q-15 -208 -6 -213T15 -219Q48 -219 83 -180T147 -80Q169 -34 177 21T185 143Q185
220 175 265T151 331T128 352Q119 352 108 340T87 313T73 286Q72 281 66 270T54 259Q50 259 48 267T45 287Q45 312 56 335T84 379T122 411T162 423Q188 423 204 405T232 353Q246 310 256 245T262 80Q261 62 265 63T277 77Q311 141 333 223T354 408Q354 414 363
421T378 429Q384 429 394 423T413 405T422 378Q422 316 390 233T299 56T163 -130Q126 -173 88 -209T13 -268T-52 -290ZM372 506Q355 506 344 519T332 551Q332 570 341 586T366 611T401 621Q421 621 432 607T443 574Q443 548 423 527T372 506ZM192 506Q174 506 163
519T151 551Q151 570 160 586T186 611T221 621Q240 621 251 607T262 574Q262 548 242 527T192 506Z" />
<glyph unicode="&#x2013;" glyph-name="endash" horiz-adv-x="557" d="M54 184Q48 184 45 188T43 196Q45 202 50 212T63 231T81 240H506Q513 240 516 236T517 225Q511 212 500 198T475 184H54Z" />
<glyph unicode="&#x2014;" glyph-name="emdash" horiz-adv-x="912" d="M49 184Q44 184 41 188T39 196Q41 202 46 212T59 231T76 240H865Q872 240 875 236T876 225Q870 212 859 198T834 184H49Z" />
<glyph unicode="&#x2018;" glyph-name="quoteleft" horiz-adv-x="234" d="M316 692Q325 692 330 690T334 682Q334 677 327 673T308 664Q280 653 259 636T225 599T213 558Q213 543 223 535T244 522Q255 516 264 508T274 485Q274 463 255 448T210 432Q180 432 159
451T138 507Q138 544 154 577T198 635T255 676T316 692Z" />
<glyph unicode="&#x2019;" glyph-name="quoteright" horiz-adv-x="234" d="M140 432Q132 432 126 434T121 442Q122 448 129 451T148 460Q176 472 197 489T231 526T243 566Q243 582 233 589T211 602Q200 608 191 616T182 639Q182 661 201 676T245 692Q275 692 296
673T317 616Q317 581 301 547T258 488T200 448T140 432Z" />
<glyph unicode="&#x201a;" glyph-name="quotesinglbase" horiz-adv-x="234" d="M-37 -140Q-45 -140 -51 -138T-56 -130Q-55 -124 -48 -121T-29 -112Q-1 -100 20 -83T54 -46T66 -6Q66 10 56 17T34 30Q23 36 14 44T5 67Q5 89 24 104T68 120Q98 120 119 101T140 44Q140
9 124 -25T81 -84T23 -124T-37 -140Z" />
<glyph unicode="&#x201c;" glyph-name="quotedblleft" horiz-adv-x="418" d="M500 693Q509 693 514 691T519 683Q518 678 511 674T493 665Q464 654 443 637T409 600T397 559Q397 544 407 536T429 523Q440 517 449 509T458 486Q458 464 439 449T395 433Q365 433
344 452T323 508Q323 545 339 578T382 636T440 677T500 693ZM316 693Q325 693 330 691T335 683Q334 678 327 674T309 665Q280 654 259 637T226 600T214 559Q214 544 224 536T245 523Q256 517 265 509T274 486Q274 464 255 449T211 433Q181 433 160 452T139 508Q139
545 155 578T198 636T256 677T316 693Z" />
<glyph unicode="&#x201d;" glyph-name="quotedblright" horiz-adv-x="418" d="M141 433Q133 433 127 435T122 443Q123 449 130 452T149 461Q177 473 198 490T232 527T244 567Q244 583 234 590T212 603Q201 609 192 617T183 640Q183 662 202 677T246 693Q276 693
297 674T318 617Q318 582 302 548T259 489T201 449T141 433ZM325 433Q317 433 311 435T306 443Q307 449 314 452T333 461Q361 473 382 490T416 527T428 567Q428 583 418 590T396 603Q385 609 376 617T367 640Q367 662 386 677T430 693Q460 693 481 674T502 617Q502
582 486 548T443 489T385 449T325 433Z" />
<glyph unicode="&#x201e;" glyph-name="quotedblbase" horiz-adv-x="418" d="M-37 -140Q-45 -140 -51 -138T-56 -130Q-55 -124 -48 -121T-29 -112Q-1 -100 20 -83T54 -46T66 -6Q66 10 56 17T34 30Q23 36 14 44T5 67Q5 89 24 104T68 120Q98 120 119 101T140 44Q140
9 124 -25T81 -84T23 -124T-37 -140ZM147 -140Q139 -140 133 -138T128 -130Q129 -124 136 -121T155 -112Q183 -100 204 -83T238 -46T250 -6Q250 10 240 17T218 30Q207 36 198 44T189 67Q189 89 208 104T252 120Q282 120 303 101T324 44Q324 9 308 -25T265 -84T207
-124T147 -140Z" />
<glyph unicode="&#x2022;" glyph-name="bullet" horiz-adv-x="352" d="M197 222Q167 222 143 238T105 280T90 337Q90 379 112 415T169 472T248 494Q280 494 304 477T343 433T357 376Q357 334 336 299T278 243T197 222Z" />
<glyph unicode="&#x2039;" glyph-name="guilsinglleft" horiz-adv-x="410" d="M287 18Q278 18 269 25T257 37Q239 56 215 76T166 116T116 153T71 183Q64 187 60 190T56 200Q56 206 61 210T71 215Q122 241 175 269T277 326T368 383Q373 387 379 390T395 394Q402
394 400 385T390 368Q354 334 315 304T241 248T179 206Q171 201 172 198T178 190Q195 171 216 148T257 98T292 42Q297 34 295 26T287 18Z" />
<glyph unicode="&#x203a;" glyph-name="guilsinglright" horiz-adv-x="410" d="M124 394Q133 394 142 386T154 375Q173 356 196 336T245 295T295 258T340 229Q348 225 352 222T356 212Q356 206 350 202T340 196Q289 172 236 144T134 86T43 28Q38 24 32 21T16 18Q10
18 12 27T21 44Q58 78 96 108T170 164T232 206Q240 211 239 214T233 222Q216 241 195 264T154 315T119 369Q115 377 117 385T124 394Z" />
</font>
</defs>
</svg>
