<?xml version="1.0" standalone="no"?>
<!DOCTYPE svg PUBLIC "-//W3C//DTD SVG 1.1//EN" "http://www.w3.org/Graphics/SVG/1.1/DTD/svg11.dtd">
<svg xmlns="http://www.w3.org/2000/svg">
<defs >
<font id="Nunito" horiz-adv-x="566" ><font-face
    font-family="Nunito Light"
    units-per-em="1000"
    panose-1="0 0 0 0 0 0 0 0 0 0"
    ascent="1011"
    descent="-353"
    alphabetic="0" />
<glyph unicode=" " glyph-name="space" horiz-adv-x="252" />
<glyph unicode="!" glyph-name="exclam" horiz-adv-x="219" d="M101 169Q91 169 86 175T82 193L143 675Q145 693 155 702T182 711Q201 711 209 700T214 669L123 190Q121 182 116 176T101 169ZM79 -3Q59 -3 46 10T33 43Q33 63 46 76T79 89Q101 89 113 76T125 43Q125
23 113 10T79 -3Z" />
<glyph unicode="&quot;" glyph-name="quotedbl" horiz-adv-x="366" d="M137 428Q128 428 122 434T117 455L140 680Q141 693 150 702T176 711Q188 711 196 707T207 694T208 672L161 452Q159 440 153 434T137 428ZM292 428Q283 428 277 434T272 455L295 680Q296
693 305 702T331 711Q343 711 351 707T362 694T363 672L316 452Q314 440 308 434T292 428Z" />
<glyph unicode="#" glyph-name="numbersign" horiz-adv-x="600" d="M78 -6Q65 -6 61 3T62 29L123 198L139 187H53Q47 187 40 188T29 195T25 208Q25 221 33 228T56 236H154L134 229L225 489L240 477H119Q112 477 106 479T95 486T90 499Q90 512 98 519T121 527H256L234
515L295 687Q300 699 308 705T328 711Q340 711 344 702T343 676L291 527H465L521 687Q525 699 533 705T554 711Q567 711 571 702T570 676L514 515L498 527H583Q590 527 596 525T607 518T611 505Q611 492 603 485T580 477H482L504 489L413 229L396 236H517Q525 236
531 234T542 227T546 214Q546 202 538 195T515 187H380L402 198L338 18Q333 6 325 0T304 -6Q291 -6 287 3T288 29L345 187H171L112 18Q107 6 99 0T78 -6ZM188 236H362L448 477H273L188 236Z" />
<glyph unicode="$" glyph-name="dollar" horiz-adv-x="600" d="M255 -121Q242 -121 235 -113T231 -88L246 10L257 -4Q192 -1 138 17T45 68Q36 75 33 84T32 102T41 117T58 123T79 114Q119 83 168 68T288 52Q339 52 380 67T446 111T471 184Q471 217 459 240T416
281T331 313L246 336Q178 354 137 394T95 512Q95 578 131 622T229 689T364 709L355 699L370 797Q373 808 380 814T400 821Q411 821 418 814T423 789L409 698L403 706Q452 699 496 678T573 624Q579 618 580 610T579 594T570 581T554 577T534 586Q496 621 451 637T351
653Q263 653 211 618T158 515Q158 458 185 432T265 391L350 368Q448 341 491 299T534 190Q534 127 500 84T408 19T284 -4L300 11L283 -97Q281 -109 273 -115T255 -121Z" />
<glyph unicode="%" glyph-name="percent" horiz-adv-x="923" d="M250 -4Q242 -14 234 -17T218 -19T205 -9T200 7T208 26L706 705Q713 715 722 718T739 720T752 712T757 696T749 677L250 -4ZM239 282Q173 282 135 324T97 442Q97 516 120 577T188 676T300 713Q366
713 404 670T442 552Q442 478 419 417T351 319T239 282ZM239 329Q288 329 320 358T368 437T386 547Q388 610 364 638T300 666Q251 666 219 637T171 558T152 447Q151 385 175 357T239 329ZM658 -8Q591 -8 553 34T515 152Q515 226 538 287T607 386T718 423Q784 423
822 380T860 262Q860 188 837 127T769 29T658 -8ZM657 39Q706 39 738 68T786 147T805 257Q807 320 783 348T718 376Q670 376 638 347T589 268T571 157Q569 95 593 67T657 39Z" />
<glyph unicode="&amp;" glyph-name="ampersand" horiz-adv-x="678" d="M247 -8Q187 -8 143 10T75 63T50 145Q50 187 67 223T111 288T172 342T236 384L272 404L263 390Q229 437 214 475T199 545Q199 596 221 633T284 692T379 713Q441 713 477 679T514 589Q514 541
490 505T425 439T329 377L331 395L491 173H479Q499 199 515 232T545 306T567 389Q570 402 577 408T598 415Q612 415 618 407T622 384Q611 332 595 287T559 202T513 129L510 150L594 34Q602 24 601 15T592 -1T571 -7Q564 -7 557 -4T545 6L474 106L492 105Q447 51
386 22T247 -8ZM249 44Q318 44 370 70T461 148L458 125L281 366L301 363L267 343Q221 316 186 288T131 226T111 151Q111 99 146 72T249 44ZM376 663Q323 663 291 631T258 551Q258 529 263 511T280 471T315 417L298 416Q358 451 393 478T444 530T459 585Q459 620
437 641T376 663Z" />
<glyph unicode="&apos;" glyph-name="quotesingle" horiz-adv-x="211" d="M137 428Q128 428 122 434T117 455L140 680Q141 693 150 702T176 711Q188 711 196 707T207 694T208 672L161 452Q159 440 153 434T137 428Z" />
<glyph unicode="(" glyph-name="parenleft" horiz-adv-x="299" d="M138 -161Q120 -91 111 -24T101 110Q101 221 123 327T184 527T275 697Q283 709 294 710T313 708T325 693T320 669Q272 586 238 495T184 306T165 100Q165 60 168 19T177 -64T190 -149Q193 -164
187 -173T171 -184T152 -181T138 -161Z" />
<glyph unicode=")" glyph-name="parenright" horiz-adv-x="299" d="M29 -170Q21 -182 11 -184T-8 -182T-20 -167T-16 -143Q33 -59 67 31T120 221T139 426Q139 466 136 507T128 590T114 675Q112 690 118 699T134 710T153 707T166 687Q184 618 194 550T204 416Q204
306 183 201T123 3T29 -170Z" />
<glyph unicode="*" glyph-name="asterisk" horiz-adv-x="449" d="M175 372Q165 378 164 389T171 413L243 528L250 517L113 513Q98 513 89 519T80 537Q80 549 89 555T113 561L250 557L243 546L171 662Q163 675 164 686T175 703Q185 709 195 704T212 685L275 569H267L329
685Q337 699 347 704T367 703Q378 696 378 686T370 662L299 546L291 557L429 561Q444 561 453 555T462 537Q462 525 453 519T429 513L291 517L299 528L370 413Q379 400 379 390T367 373Q357 367 347 372T329 390L267 506H275L212 389Q205 376 195 371T175 372Z"
/>
<glyph unicode="+" glyph-name="plus" horiz-adv-x="600" d="M268 34Q255 34 250 42T246 66L277 262H84Q71 262 64 267T57 282Q57 296 65 304T87 312H285L315 507Q318 520 324 527T345 534Q358 534 363 526T367 503L337 312H530Q543 312 550 307T557 291Q557 277
549 270T527 262H329L297 61Q296 48 289 41T268 34Z" />
<glyph unicode="," glyph-name="comma" horiz-adv-x="219" d="M67 -91Q57 -101 48 -101T33 -96T27 -81T37 -62Q55 -43 64 -26T76 11L82 -3Q60 -3 47 10T33 43Q33 63 45 76T78 89Q99 89 110 75T122 36Q122 12 116 -11T97 -54T67 -91Z" />
<glyph unicode="-" glyph-name="hyphen" horiz-adv-x="420" d="M97 240Q84 240 78 245T71 260Q71 272 79 282T102 292H331Q345 292 351 287T357 271Q357 259 350 250T326 240H97Z" />
<glyph unicode="." glyph-name="period" horiz-adv-x="219" d="M79 -3Q59 -3 46 10T33 43Q33 63 46 76T79 89Q101 89 113 76T125 43Q125 23 113 10T79 -3Z" />
<glyph unicode="/" glyph-name="slash" horiz-adv-x="269" d="M-5 -38Q-10 -49 -18 -53T-34 -56T-47 -49T-55 -35T-52 -17L305 728Q310 738 317 742T332 745T347 738T355 724T352 705L-5 -38Z" />
<glyph unicode="0" glyph-name="zero" horiz-adv-x="600" d="M289 -8Q182 -8 127 57T71 248Q71 393 105 497T201 657T347 713Q454 713 509 648T564 458Q564 313 530 209T435 48T289 -8ZM292 47Q389 47 444 157T500 476Q501 567 462 612T343 658Q247 658 191 548T135
229Q135 138 174 93T292 47Z" />
<glyph unicode="1" glyph-name="one" horiz-adv-x="600" d="M121 0Q107 0 99 6T91 24Q91 38 100 46T124 54H263L359 656L395 653L240 556Q229 550 220 551T205 557T197 571T199 588T214 604L367 700Q377 707 384 709T401 711Q413 711 419 703T424 679L325 54H448Q463
54 470 49T478 31Q478 17 469 9T445 0H121Z" />
<glyph unicode="2" glyph-name="two" horiz-adv-x="600" d="M94 0Q80 0 72 6T63 26Q63 34 68 42T84 61L351 311Q411 366 450 423T490 546Q490 598 455 627T355 657Q311 657 267 641T177 590Q166 582 157 582T142 587T134 601T134 619T146 636Q191 673 247 693T362
713Q420 713 463 693T529 636T553 552Q553 496 531 448T471 355T386 268L131 34L129 54H477Q492 54 499 49T507 32Q507 17 499 9T474 0H94Z" />
<glyph unicode="3" glyph-name="three" horiz-adv-x="600" d="M278 -8Q222 -8 163 7T57 63Q47 70 45 79T44 97T53 111T69 116T88 109Q133 73 180 61T278 48Q326 48 365 67T426 121T449 206Q449 262 411 296T302 331H233Q219 331 211 337T203 355Q203 369 212 377T236
385H307Q356 385 396 404T460 458T484 540Q484 593 448 625T351 657Q305 657 258 641T169 592Q160 585 151 585T136 590T127 603T127 620T140 636Q185 675 242 694T356 713Q415 713 457 691T523 631T546 545Q547 496 526 457T467 390T380 353V364Q445 349 478 306T511
204Q511 141 480 93T396 19T278 -8Z" />
<glyph unicode="4" glyph-name="four" horiz-adv-x="600" d="M382 -6Q367 -6 361 3T356 28L377 159H76Q60 159 51 165T42 183Q42 192 46 201T62 223L459 692Q467 703 475 706T494 710Q508 710 515 701T519 675L446 213H529Q543 213 550 208T557 191Q557 176 549
168T525 159H438L417 24Q415 9 407 2T382 -6ZM385 213L452 635H476L104 197L105 213H385Z" />
<glyph unicode="5" glyph-name="five" horiz-adv-x="600" d="M290 -8Q237 -8 183 7T81 64Q72 71 70 80T69 98T78 111T94 117T113 109Q157 73 199 61T290 48Q343 48 385 72T452 139T477 234Q477 300 440 341T337 382Q288 382 248 362T174 304Q166 297 159 292T141
287Q129 287 122 295T116 318L173 676Q176 691 184 698T207 705H547Q562 705 569 700T577 682Q577 667 569 659T544 651H230L182 345H162Q194 389 245 413T350 438Q401 438 444 416T513 351T540 239Q540 165 506 110T415 23T290 -8Z" />
<glyph unicode="6" glyph-name="six" horiz-adv-x="600" d="M305 -8Q236 -8 186 23T108 112T80 250Q80 344 100 427T160 575T259 676T398 713Q450 713 499 692T582 633Q590 625 592 616T590 598T580 585T564 581T546 592Q517 624 478 640T393 657Q320 657 265
611T177 481T139 282L138 254H129Q138 311 170 352T248 415T345 437Q402 437 446 412T515 341T541 240Q541 170 510 114T426 25T305 -8ZM301 47Q355 47 395 72T457 141T479 237Q479 280 460 312T408 363T332 382Q279 382 239 357T176 288T154 192Q154 149 173 117T226
66T301 47Z" />
<glyph unicode="7" glyph-name="seven" horiz-adv-x="600" d="M132 -6Q120 -6 113 0T105 18T114 42L539 683L538 650H165Q151 650 143 656T135 674Q135 689 144 697T168 705H565Q581 705 589 699T597 681Q597 671 593 663T581 642L167 16Q159 4 151 -1T132 -6Z" />
<glyph unicode="8" glyph-name="eight" horiz-adv-x="600" d="M270 -8Q204 -8 153 12T73 69T44 158Q44 214 68 260T136 334T233 365L231 357Q174 370 144 410T113 507Q113 573 146 619T236 689T368 713Q429 713 476 693T551 635T578 548Q578 497 555 455T493 386T405
352L407 362Q467 353 504 313T542 209Q542 139 507 91T411 17T270 -8ZM273 45Q370 45 425 87T481 213Q481 272 436 301T316 330Q220 330 163 289T105 165Q105 105 151 75T273 45ZM324 384Q381 384 424 403T492 458T517 543Q517 599 476 629T366 659Q276 659 225
620T174 503Q174 446 215 415T324 384Z" />
<glyph unicode="9" glyph-name="nine" horiz-adv-x="600" d="M238 -8Q187 -8 137 13T52 72Q45 80 43 89T44 107T54 119T70 123T89 113Q118 82 158 65T243 48Q316 48 370 94T458 224T496 423L497 451H506Q497 394 465 353T387 290T290 268Q233 268 189 293T120
364T94 465Q94 536 125 592T209 680T330 713Q399 713 449 682T527 594T555 456Q555 362 535 279T476 130T377 29T238 -8ZM303 323Q356 323 396 348T458 417T481 513Q481 556 462 588T410 640T334 659Q281 659 241 633T178 564T156 468Q156 425 175 393T227 342T303
323Z" />
<glyph unicode=":" glyph-name="colon" horiz-adv-x="219" d="M79 -3Q59 -3 46 10T33 43Q33 63 46 76T79 89Q101 89 113 76T125 43Q125 23 113 10T79 -3ZM142 396Q122 396 109 409T96 442Q96 463 109 476T142 489Q164 489 176 476T188 442Q188 423 176 410T142 396Z" />
<glyph unicode=";" glyph-name="semicolon" horiz-adv-x="219" d="M67 -91Q57 -101 48 -101T33 -96T27 -81T37 -62Q55 -43 64 -26T76 11L82 -3Q60 -3 47 10T33 43Q33 63 45 76T78 89Q99 89 110 76T122 36Q122 12 116 -11T97 -54T67 -91ZM142 396Q122 396 109 409T96
442Q96 463 109 476T142 489Q164 489 176 476T188 442Q188 423 176 410T142 396Z" />
<glyph unicode="&lt;" glyph-name="less" horiz-adv-x="600" d="M488 48L84 250Q56 263 56 283Q56 296 63 304T84 319L557 524Q567 529 575 527T588 518T594 504T591 489T577 477L90 268L96 299L510 93Q520 89 523 81T526 66T519 52T506 45T488 48Z" />
<glyph unicode="=" glyph-name="equal" horiz-adv-x="600" d="M99 362Q86 362 79 367T72 382Q72 396 80 404T102 412H545Q559 412 566 407T573 391Q573 377 565 370T542 362H99ZM68 163Q55 163 48 168T41 183Q41 197 49 204T71 212H514Q528 212 534 207T541 192Q541
178 533 171T511 163H68Z" />
<glyph unicode="&gt;" glyph-name="greater" horiz-adv-x="600" d="M57 51Q47 46 39 48T26 57T20 70T23 85T37 97L523 305L518 274L104 481Q94 486 91 493T88 508T95 522T108 530T125 527L530 324Q557 311 557 291Q557 279 550 270T530 255L57 51Z" />
<glyph unicode="?" glyph-name="question" horiz-adv-x="436" d="M192 169Q180 169 176 177T172 198Q177 235 188 266T222 328T290 399Q328 432 351 458T384 508T394 562Q394 602 368 629T284 657Q237 657 194 641T115 595Q104 587 94 587T78 591T70 604T71 622T84
640Q126 676 181 694T289 713Q344 713 381 694T438 641T457 568Q457 530 441 496T396 429T327 363Q289 331 266 302T232 247T215 195Q213 182 208 176T192 169ZM169 -3Q148 -3 135 10T122 43Q122 63 135 76T169 89Q190 89 202 76T214 43Q214 23 202 10T169 -3Z"
/>
<glyph unicode="@" glyph-name="at" horiz-adv-x="945" d="M495 -163Q400 -163 323 -133T190 -45T105 93T75 275Q75 372 106 452T194 591T331 681T507 713Q621 713 707 667T842 538T891 345Q891 258 868 194T802 95T702 59Q643 59 614 94T592 188L605 175Q579
120 534 90T439 59Q363 59 321 106T278 238Q278 312 306 370T384 461T495 494Q551 494 586 467T631 390H622L634 463Q639 490 665 490Q678 490 684 483T687 460L646 218Q644 206 643 195T641 174Q641 139 657 122T706 104Q747 104 777 134T825 218T843 345Q843
441 801 513T682 625T506 666Q393 666 308 617T175 480T127 275Q127 153 172 66T300 -68T495 -115Q572 -115 634 -92T738 -30Q750 -20 760 -20T776 -28T783 -46T771 -67Q724 -113 653 -138T495 -163ZM444 107Q491 107 528 135T587 213T609 326Q609 386 582 415T499
445Q453 445 415 419T356 346T334 239Q334 175 363 141T444 107Z" />
<glyph unicode="A" glyph-name="A" horiz-adv-x="722" d="M34 -6Q23 -6 15 -1T6 15T11 37L399 690Q406 701 415 706T436 711Q449 711 457 705T468 687L646 39Q651 23 649 13T640 -1T623 -6Q611 -6 602 1T590 24L543 201L570 188H139L176 200L67 15Q61 4 53 -1T34
-6ZM426 629L194 231L171 241H556L534 231L428 629H426Z" />
<glyph unicode="B" glyph-name="B" horiz-adv-x="671" d="M91 0Q73 0 65 10T59 38L160 673Q163 689 172 697T198 705H422Q493 705 540 685T610 628T633 540Q633 461 584 411T453 350V364Q520 354 558 312T597 208Q597 105 534 53T352 0H91ZM123 52H354Q444 52
489 92T535 209Q535 269 495 300T380 331H167L123 52ZM175 383H389Q473 383 522 422T571 536Q571 593 533 623T415 653H218L175 383Z" />
<glyph unicode="C" glyph-name="C" horiz-adv-x="670" d="M378 -8Q289 -8 222 25T118 128T80 306Q80 393 105 467T176 596T289 682T437 713Q502 713 557 693T653 635Q661 628 663 618T663 600T652 586T636 580T618 588Q579 624 534 640T434 656Q345 656 281 611T181
487T146 306Q146 215 174 158T256 75T383 49Q433 49 475 64T560 115Q570 123 579 123T595 118T604 104T605 86T592 69Q545 29 492 11T378 -8Z" />
<glyph unicode="D" glyph-name="D" horiz-adv-x="733" d="M91 0Q73 0 65 10T59 38L160 673Q163 689 172 697T198 705H364Q520 705 605 629T690 413Q690 328 667 254T596 122T472 33T293 0H91ZM124 54H295Q385 54 448 82T550 161T607 276T625 413Q625 529 559 590T363
651H219L124 54Z" />
<glyph unicode="E" glyph-name="E" horiz-adv-x="576" d="M91 0Q73 0 65 9T59 38L160 673Q163 689 172 697T198 705H574Q587 705 594 700T602 684Q602 667 593 660T571 652H218L175 384H503Q516 384 523 379T531 363Q531 347 522 339T499 331H166L122 53H470Q484
53 491 48T499 32Q499 16 490 8T467 0H91Z" />
<glyph unicode="F" glyph-name="F" horiz-adv-x="542" d="M88 -6Q70 -6 63 3T58 31L160 673Q163 689 172 697T198 705H558Q573 705 580 700T587 683Q587 668 579 660T555 652H219L176 383H487Q501 383 508 378T516 361Q516 347 508 339T484 330H168L120 26Q114 -6 88 -6Z" />
<glyph unicode="G" glyph-name="G" horiz-adv-x="722" d="M387 -8Q290 -8 221 26T116 127T79 292Q79 387 104 464T176 597T289 683T439 713Q505 713 562 694T658 637Q667 629 669 619T669 600T660 586T644 580T623 589Q587 624 540 640T435 656Q345 656 280 612T180
486T145 293Q145 169 208 109T393 48Q446 48 489 57T571 82L550 44L592 309H433Q419 309 411 315T403 332Q403 346 412 353T435 361H622Q637 361 645 353T650 328L608 57Q606 44 601 37T585 25Q548 10 495 1T387 -8Z" />
<glyph unicode="H" glyph-name="H" horiz-adv-x="756" d="M84 -6Q69 -6 62 3T58 31L161 680Q164 696 172 703T195 711Q211 711 217 702T222 674L176 385H625L672 680Q675 696 683 703T706 711Q721 711 728 702T733 674L630 25Q628 10 620 2T596 -6Q580 -6 573
3T569 31L616 330H168L119 25Q117 10 109 2T84 -6Z" />
<glyph unicode="I" glyph-name="I" horiz-adv-x="245" d="M85 -6Q69 -6 62 3T58 31L161 680Q164 696 172 703T195 711Q211 711 217 702T222 674L119 25Q117 10 109 2T85 -6Z" />
<glyph unicode="J" glyph-name="J" horiz-adv-x="310" d="M-15 -6Q-31 -7 -39 0T-48 20Q-48 33 -41 40T-20 48L13 51Q70 55 104 90T148 192L226 682Q229 697 237 704T261 711Q276 711 282 702T287 676L208 181Q200 125 177 86T114 24T16 -3L-15 -6Z" />
<glyph unicode="K" glyph-name="K" horiz-adv-x="607" d="M85 -6Q70 -6 63 3T59 30L162 681Q165 697 173 704T196 711Q211 711 218 702T222 675L176 381H178L574 697Q584 705 590 708T607 711Q619 711 626 704T634 686T623 667L212 338L215 374L543 38Q552 29
552 19T544 1T523 -6Q513 -6 506 -2T489 12L171 336H169L119 24Q118 9 110 2T85 -6Z" />
<glyph unicode="L" glyph-name="L" horiz-adv-x="535" d="M88 0Q72 0 65 9T59 35L162 683Q165 698 173 704T196 711Q211 711 218 702T223 677L125 55H464Q478 55 485 50T493 33Q493 16 484 8T461 0H88Z" />
<glyph unicode="M" glyph-name="M" horiz-adv-x="850" d="M87 -1Q73 -1 66 7T61 31L164 683Q167 698 174 704T195 711Q207 711 213 706T225 687L421 147H394L767 692Q775 702 782 706T801 711Q815 711 821 703T825 678L722 26Q720 13 713 6T692 -1Q679 -1 672
7T666 31L761 632H785L434 120Q429 110 423 107T406 103Q394 103 388 108T377 125L191 631H212L116 26Q115 13 108 6T87 -1Z" />
<glyph unicode="N" glyph-name="N" horiz-adv-x="735" d="M82 -6Q69 -6 63 3T58 28L162 684Q165 699 173 705T192 711Q204 711 210 707T223 691L579 70H559L656 683Q659 698 667 704T690 711Q703 711 709 702T712 677L608 22Q606 8 599 1T581 -6Q569 -6 562 -1T548
15L192 635H211L114 22Q112 8 105 1T82 -6Z" />
<glyph unicode="O" glyph-name="O" horiz-adv-x="759" d="M362 -8Q276 -8 213 26T114 127T79 291Q79 381 102 457T170 591T280 681T431 713Q518 713 581 679T680 578T715 414Q715 324 692 248T624 114T514 24T362 -8ZM364 48Q457 48 520 96T616 227T649 413Q649
537 591 597T428 657Q337 657 274 609T178 479T145 292Q145 168 203 108T364 48Z" />
<glyph unicode="P" glyph-name="P" horiz-adv-x="624" d="M86 -6Q71 -6 64 3T58 29L161 675Q164 691 172 698T195 705H411Q515 705 573 659T631 518Q631 414 565 352T374 289H161L119 24Q117 9 109 2T86 -6ZM170 343H378Q471 343 519 387T568 515Q568 586 527
619T407 652H219L170 343Z" />
<glyph unicode="Q" glyph-name="Q" horiz-adv-x="759" d="M564 -150Q570 -162 568 -171T559 -186T544 -192T527 -189T512 -172L466 -71Q453 -40 424 -24T352 -8L409 16Q450 14 477 -2T525 -64L564 -150ZM362 -8Q276 -8 213 26T114 127T79 291Q79 381 102 457T170
591T280 681T431 713Q518 713 581 679T680 578T715 414Q715 324 692 248T624 114T514 24T362 -8ZM364 48Q457 48 520 96T616 227T649 413Q649 537 591 597T428 657Q337 657 274 609T178 479T145 292Q145 168 203 108T364 48Z" />
<glyph unicode="R" glyph-name="R" horiz-adv-x="661" d="M84 -6Q70 -6 63 3T59 30L161 674Q164 690 172 697T196 705H406Q519 705 575 655T631 518Q631 448 598 401T508 331T378 309V321H390Q432 321 459 297T504 226L576 36Q582 23 581 14T573 -1T554 -6Q542
-6 535 0T521 20L445 220Q427 267 399 286T316 305H163L119 24Q117 9 109 2T84 -6ZM172 357H386Q472 357 520 398T568 515Q568 583 529 617T402 652H219L172 357Z" />
<glyph unicode="S" glyph-name="S" horiz-adv-x="607" d="M296 -8Q250 -8 205 -1T120 22T47 64Q37 72 35 80T34 97T42 112T58 118T79 111Q128 75 182 62T300 48Q386 48 439 84T492 185Q492 229 461 260T350 309L249 334Q180 350 139 390T97 508Q97 554 117 592T172
657T253 698T354 713Q414 713 475 695T580 636Q589 629 591 620T592 602T583 588T567 583T546 591Q505 627 455 642T352 657Q298 657 255 639T186 588T160 510Q160 454 187 428T268 388L370 364Q466 342 510 298T555 192Q555 144 535 106T480 43T398 5T296 -8Z"
/>
<glyph unicode="T" glyph-name="T" horiz-adv-x="594" d="M258 -6Q244 -6 237 3T233 30L331 650H96Q82 650 74 656T66 674Q66 689 75 697T99 705H636Q651 705 658 700T666 683Q666 667 657 659T633 650H392L293 24Q291 10 283 2T258 -6Z" />
<glyph unicode="U" glyph-name="U" horiz-adv-x="724" d="M333 -8Q266 -8 216 10T135 67T93 161T94 292L156 682Q159 697 167 704T191 711Q206 711 212 702T217 676L155 286Q136 166 182 107T335 48Q440 48 500 101T580 272L645 682Q648 697 656 704T680 711Q695
711 701 702T705 676L641 265Q626 174 589 114T487 23T333 -8Z" />
<glyph unicode="V" glyph-name="V" horiz-adv-x="677" d="M299 -6Q284 -6 275 1T262 25L87 667Q84 679 87 687T97 700T115 705Q127 705 134 699T146 677L318 45H289L664 682Q672 694 680 699T701 705Q714 705 720 700T728 685T723 664L340 19Q332 6 323 0T299 -6Z" />
<glyph unicode="W" glyph-name="W" horiz-adv-x="1096" d="M268 -6Q254 -6 246 2T235 27L113 673Q110 691 118 701T142 711Q154 711 162 705T172 682L290 44H257L581 685Q588 699 596 705T618 711Q630 711 637 704T648 677L766 44H737L1061 688Q1067 700 1075
705T1094 711Q1113 711 1119 699T1117 669L788 20Q781 7 772 1T748 -6Q735 -6 727 2T715 27L600 641H621L307 20Q300 7 292 1T268 -6Z" />
<glyph unicode="X" glyph-name="X" horiz-adv-x="640" d="M32 -6Q20 -6 13 0T5 18T15 40L311 372V351L129 665Q122 678 122 688T131 705T151 711Q163 711 169 706T183 688L351 395H336L597 693Q605 703 613 707T632 711Q643 711 650 705T658 688T649 665L367 347V375L562
40Q570 28 569 18T560 1T539 -6Q527 -6 521 -1T507 17L326 331H348L66 12Q58 2 51 -2T32 -6Z" />
<glyph unicode="Y" glyph-name="Y" horiz-adv-x="586" d="M254 -6Q239 -6 233 3T228 29L281 366L287 318L89 665Q82 678 82 688T90 705T110 711Q123 711 129 706T143 688L319 379H300L581 693Q589 703 597 707T615 711Q626 711 633 705T640 688T631 665L320 318L343
366L288 24Q284 -6 254 -6Z" />
<glyph unicode="Z" glyph-name="Z" horiz-adv-x="582" d="M42 0Q32 0 25 5T16 18T16 38T29 61L552 678V650H140Q126 650 119 656T111 673Q111 690 121 697T144 705H585Q598 705 605 700T615 687T613 667T599 645L76 28V55H503Q517 55 524 50T532 33Q532 16 523
8T500 0H42Z" />
<glyph unicode="[" glyph-name="bracketleft" horiz-adv-x="298" d="M84 -180Q67 -180 58 -169T50 -140L180 679Q182 690 190 697T210 705H334Q349 705 358 699T367 681Q367 667 359 661T337 655H237L113 -130H211Q226 -130 230 -136T235 -152Q235 -164 228 -172T205
-180H84Z" />
<glyph unicode="\" glyph-name="backslash" horiz-adv-x="269" d="M186 -36L63 717Q62 727 66 734T77 745T91 749T105 742T114 725L238 -29Q240 -39 236 -47T225 -58T209 -60T195 -53T186 -36Z" />
<glyph unicode="]" glyph-name="bracketright" horiz-adv-x="298" d="M-30 -180Q-46 -180 -55 -174T-64 -156Q-64 -142 -56 -136T-33 -130H67L191 655H93Q78 655 73 661T68 677Q68 689 75 697T99 705H220Q236 705 246 694T253 665L124 -154Q123 -165 114 -172T93
-180H-30Z" />
<glyph unicode="^" glyph-name="asciicircum" horiz-adv-x="600" d="M69 134Q53 134 49 145T54 173L327 612Q334 625 342 629T362 634Q384 634 392 606L526 169Q531 153 525 144T504 134Q492 134 487 140T478 157L343 597H374L99 152Q94 144 87 139T69 134Z" />
<glyph unicode="_" glyph-name="underscore" horiz-adv-x="500" d="M-3 -43Q-16 -43 -22 -38T-28 -24Q-28 -12 -20 -6T-2 0H420Q433 0 439 -5T445 -19Q445 -29 437 -36T418 -43H-3Z" />
<glyph unicode="`" glyph-name="grave" horiz-adv-x="388" d="M298 556L185 718Q177 729 178 738T185 753T201 760T219 758T235 742L334 577Q340 567 338 559T329 547T314 544T298 556Z" />
<glyph unicode="a" glyph-name="a" horiz-adv-x="522" d="M202 -8Q161 -8 125 10T67 60T44 136Q44 187 73 218T163 264T319 278H400L393 233H333Q248 233 199 225T130 195T109 139Q109 91 141 66T213 41Q252 41 286 58T344 109T376 191L395 313Q406 377 380 409T288
442Q249 442 215 435T148 406Q138 399 129 399T113 405T106 419T109 436T126 451Q163 474 206 484T293 494Q356 494 394 470T447 402T452 296L409 24Q407 9 399 2T375 -6Q362 -6 356 3T351 29L365 118L374 113Q361 72 334 45T273 5T202 -8Z" />
<glyph unicode="b" glyph-name="b" horiz-adv-x="575" d="M285 -8Q225 -8 178 22T114 116L122 122L107 24Q105 9 97 2T73 -6Q58 -6 52 3T48 30L151 681Q153 696 162 703T186 711Q200 711 206 702T211 675L163 377H152Q178 431 226 462T339 494Q396 494 438 469T504
397T528 286Q528 207 500 140T418 33T285 -8ZM281 43Q341 43 382 76T444 164T466 285Q466 363 428 402T323 442Q264 442 223 409T160 322T139 200Q139 123 176 83T281 43Z" />
<glyph unicode="c" glyph-name="c" horiz-adv-x="459" d="M253 -8Q184 -8 139 18T71 93T49 205Q49 258 63 309T108 402T187 469T301 494Q339 494 375 483T437 453Q448 445 453 436T457 417T450 403T437 397T419 403Q393 423 364 432T301 441Q250 441 214 421T156
367T122 290T111 205Q111 132 145 88T259 44Q285 44 313 52T368 80Q376 86 384 86T398 80T406 67T406 51T394 36Q366 15 328 4T253 -8Z" />
<glyph unicode="d" glyph-name="d" horiz-adv-x="575" d="M236 -8Q180 -8 138 17T72 88T48 199Q48 278 75 345T157 453T290 494Q350 494 397 464T461 369H454L504 682Q506 697 515 704T539 711Q553 711 559 702T563 676L460 24Q458 10 450 2T425 -6Q411 -6 405
3T401 30L415 115L424 108Q398 55 350 24T236 -8ZM252 43Q312 43 353 76T415 164T437 285Q437 363 399 402T294 442Q235 442 194 409T131 322T110 200Q110 123 147 83T252 43Z" />
<glyph unicode="e" glyph-name="e" horiz-adv-x="527" d="M265 -8Q198 -8 149 17T74 90T48 203Q48 281 78 347T165 453T302 494Q358 494 395 474T455 421T484 344T485 257Q483 241 477 236T458 230H93L100 275H451L432 262Q440 313 429 354T388 420T301 445Q243
445 204 419T144 351T114 267L111 246Q96 155 137 99T266 43Q306 43 340 53T406 85Q418 93 426 93T441 88T448 76T446 59T432 43Q399 18 354 5T265 -8Z" />
<glyph unicode="f" glyph-name="f" horiz-adv-x="319" d="M95 -6Q80 -6 74 3T70 30L135 436H67Q55 436 49 441T42 455Q42 470 50 477T74 485H152L140 474L149 528Q161 608 210 654T344 705L374 707Q385 708 391 704T400 692T401 677T394 664T379 657L348 655Q287
651 253 619T209 525L201 477L195 485H319Q332 485 338 481T344 467Q344 451 336 444T312 436H196L130 24Q125 -6 95 -6Z" />
<glyph unicode="g" glyph-name="g" horiz-adv-x="578" d="M244 -188Q187 -188 138 -172T49 -127Q40 -122 38 -114T38 -98T47 -85T61 -78T79 -83Q116 -109 153 -123T239 -137Q305 -137 346 -103T400 4L420 129L428 128Q403 74 354 43T240 11Q182 11 139 35T72 104T48
209Q48 265 64 316T111 407T187 470T292 494Q353 494 400 464T464 369L455 362L471 462Q474 477 482 484T506 492Q520 492 526 483T530 456L459 7Q443 -91 390 -139T244 -188ZM253 63Q314 63 355 95T418 181T440 295Q440 365 402 403T296 442Q236 442 194 410T131
325T110 211Q110 140 147 102T253 63Z" />
<glyph unicode="h" glyph-name="h" horiz-adv-x="560" d="M72 -6Q57 -6 51 3T47 30L150 681Q153 696 161 703T185 711Q199 711 206 702T210 676L161 370H150Q175 428 224 461T343 494Q397 494 433 472T485 406T490 295L448 24Q446 9 437 2T412 -6Q397 -6 391 3T387
30L429 295Q441 369 416 405T331 441Q251 441 205 393T145 264L108 24Q103 -6 72 -6Z" />
<glyph unicode="i" glyph-name="i" horiz-adv-x="222" d="M72 -6Q57 -6 51 3T47 30L115 461Q118 477 126 484T150 492Q164 492 171 483T175 456L107 24Q105 9 96 2T72 -6ZM171 610Q152 610 142 619T133 646Q134 669 147 681T184 693Q203 693 213 684T222 657Q221
635 208 623T171 610Z" />
<glyph unicode="j" glyph-name="j" horiz-adv-x="225" d="M-92 -191Q-103 -191 -109 -186T-118 -174T-119 -159T-111 -146T-95 -140Q-38 -140 -3 -111T42 -19L118 461Q121 477 129 484T153 492Q167 492 174 483T178 456L103 -18Q94 -77 69 -114T4 -171T-92 -191ZM171
610Q153 610 143 619T133 646Q134 669 147 681T184 693Q203 693 213 684T222 657Q221 635 208 623T171 610Z" />
<glyph unicode="k" glyph-name="k" horiz-adv-x="484" d="M72 -6Q57 -6 51 3T47 29L150 682Q153 697 161 704T185 711Q199 711 206 702T210 675L145 265H147L407 475Q417 484 424 488T443 492Q455 492 461 485T466 467T453 446L182 225L187 268L413 39Q423 29
423 19T416 1T397 -6Q385 -6 377 -1T357 17L142 234H140L107 23Q102 -6 72 -6Z" />
<glyph unicode="l" glyph-name="l" horiz-adv-x="285" d="M182 -8Q115 -8 84 32T66 151L150 681Q153 697 161 704T185 711Q199 711 206 702T210 675L127 151Q117 94 134 70T196 45Q211 45 219 47T232 49Q238 49 241 45T245 29Q245 15 238 7T217 -5Q210 -6 200 -7T182 -8Z" />
<glyph unicode="m" glyph-name="m" horiz-adv-x="847" d="M74 -6Q59 -6 53 3T49 29L117 462Q120 477 128 484T152 492Q165 492 171 482T176 456L161 363L152 369Q178 429 223 461T327 494Q386 494 422 462T466 367L454 369Q477 427 524 460T637 494Q688 494 722
472T771 406T774 294L732 23Q730 9 721 2T697 -6Q682 -6 676 3T671 29L713 299Q724 371 703 406T624 441Q558 441 515 394T458 264L420 23Q419 9 410 2T385 -6Q370 -6 364 3T360 29L403 299Q414 371 392 406T314 441Q248 441 205 394T147 264L110 23Q105 -6 74
-6Z" />
<glyph unicode="n" glyph-name="n" horiz-adv-x="560" d="M73 -6Q58 -6 52 4T48 31L116 461Q119 477 127 484T151 492Q164 492 170 483T174 457L160 364L150 370Q175 428 224 461T343 494Q397 494 433 472T485 406T490 295L447 23Q445 9 436 2T412 -6Q397 -6 391
3T387 30L429 295Q441 369 416 405T331 441Q251 441 205 393T145 264L108 24Q103 -6 73 -6Z" />
<glyph unicode="o" glyph-name="o" horiz-adv-x="547" d="M250 -8Q188 -8 143 17T73 89T48 203Q48 262 64 315T113 408T192 471T297 494Q359 494 404 469T474 396T499 283Q499 223 482 171T433 78T355 15T250 -8ZM252 43Q312 43 353 76T415 164T437 285Q437 363
399 402T294 442Q235 442 194 409T131 322T110 200Q110 123 147 83T252 43Z" />
<glyph unicode="p" glyph-name="p" horiz-adv-x="575" d="M43 -186Q29 -186 22 -177T18 -151L115 461Q118 477 126 484T150 492Q164 492 170 483T174 456L161 370L152 377Q178 432 226 463T339 494Q396 494 438 469T504 397T528 286Q528 207 500 140T418 33T285
-8Q225 -8 178 22T114 116H122L78 -157Q76 -172 68 -179T43 -186ZM281 43Q341 43 382 76T444 164T466 285Q466 363 428 402T323 442Q264 442 223 409T160 322T139 200Q139 123 176 83T281 43Z" />
<glyph unicode="q" glyph-name="q" horiz-adv-x="575" d="M396 -186Q382 -186 376 -177T372 -151L412 108H424Q398 55 350 24T236 -8Q180 -8 138 17T72 88T48 199Q48 278 75 345T157 453T291 494Q351 494 397 464T461 369L454 363L469 461Q472 477 480 484T504
492Q518 492 524 483T529 456L432 -156Q430 -171 421 -178T396 -186ZM252 43Q312 43 353 76T415 164T437 285Q437 363 399 402T294 442Q235 442 194 409T131 322T110 200Q110 123 147 83T252 43Z" />
<glyph unicode="r" glyph-name="r" horiz-adv-x="342" d="M73 -6Q58 -6 52 3T48 29L116 462Q119 477 127 484T150 492Q164 492 171 483T175 456L162 370H151Q172 430 223 462T335 495Q355 496 362 491T369 473Q369 457 362 450T336 441L320 440Q235 433 197 389T148
274L108 23Q106 9 97 2T73 -6Z" />
<glyph unicode="s" glyph-name="s" horiz-adv-x="478" d="M221 -8Q173 -8 130 4T56 37Q46 42 43 51T41 68T49 81T63 87T83 81Q114 60 149 51T224 42Q281 42 314 65T347 131Q347 159 329 177T277 204L181 228Q134 240 107 271T79 347Q79 390 102 423T169 475T268
494Q311 494 351 481T417 446Q427 438 430 430T432 413T424 401T410 396T391 404Q366 424 334 433T266 443Q208 443 173 418T138 349Q138 323 154 304T204 276L300 251Q350 238 378 210T407 136Q407 69 356 31T221 -8Z" />
<glyph unicode="t" glyph-name="t" horiz-adv-x="335" d="M229 -8Q176 -8 142 12T94 70T88 160L132 436H62Q49 436 41 441T33 457Q33 471 42 478T66 485H139L160 612Q162 627 171 634T194 641Q209 641 215 632T220 606L200 485H331Q345 485 352 480T360 465Q360
451 352 444T328 436H192L150 168Q140 103 163 74T237 45Q259 45 271 49T292 54Q300 54 304 50T308 34Q308 19 304 12T289 1Q278 -3 261 -5T229 -8Z" />
<glyph unicode="u" glyph-name="u" horiz-adv-x="553" d="M215 -8Q163 -8 127 13T75 79T70 191L113 462Q116 477 124 484T147 492Q162 492 169 483T174 457L132 190Q120 117 144 81T227 44Q304 44 350 92T408 222L445 462Q448 477 456 484T480 492Q495 492 502
484T506 459L437 23Q433 -6 404 -6Q389 -6 383 2T378 28L393 122L403 116Q379 57 330 25T215 -8Z" />
<glyph unicode="v" glyph-name="v" horiz-adv-x="509" d="M217 -6Q201 -6 192 2T178 27L65 446Q62 460 64 470T74 486T94 492Q107 492 113 486T124 463L232 37H206L455 469Q462 481 469 486T488 492Q500 492 507 486T515 470T509 447L259 20Q251 7 242 1T217 -6Z" />
<glyph unicode="w" glyph-name="w" horiz-adv-x="835" d="M200 -6Q187 -6 177 2T163 27L79 444Q77 459 79 469T88 486T107 492Q121 492 127 485T136 462L216 35H190L414 467Q421 480 430 486T453 492Q466 492 475 485T488 461L570 35H546L768 469Q775 481 782
486T801 492Q814 492 820 486T827 471T822 450L599 20Q592 7 582 1T558 -6Q545 -6 535 2T520 27L438 437H460L242 21Q236 8 226 1T200 -6Z" />
<glyph unicode="x" glyph-name="x" horiz-adv-x="515" d="M35 -6Q22 -6 15 0T8 16T16 34L236 264L235 234L98 445Q90 460 91 470T100 486T117 492Q127 492 135 487T149 471L272 279H255L437 475Q445 483 452 487T470 492Q483 492 490 486T497 470T489 451L287
236L285 264L430 40Q440 27 438 16T428 0T411 -6Q401 -6 393 -1T378 14L247 219L265 217L69 10Q60 2 53 -2T35 -6Z" />
<glyph unicode="y" glyph-name="y" horiz-adv-x="509" d="M117 -186Q105 -186 99 -180T92 -164T99 -142L191 16L187 -12L64 447Q61 461 63 470T73 486T93 492Q107 492 113 486T123 463L231 36H204L454 469Q461 481 468 486T488 492Q500 492 507 486T516 469T509
447L150 -163Q144 -175 137 -180T117 -186Z" />
<glyph unicode="z" glyph-name="z" horiz-adv-x="459" d="M48 0Q39 0 33 4T23 14T21 29T31 45L387 453L390 437H112Q100 437 93 442T86 457Q86 471 93 478T115 485H425Q436 485 443 481T452 470T451 454T440 436L85 31L82 49H373Q399 49 399 29Q399 15 391 8T370 0H48Z" />
<glyph unicode="{" glyph-name="braceleft" horiz-adv-x="335" d="M193 -180Q155 -180 132 -169T101 -138T96 -87L134 156Q142 203 126 219T70 237Q61 237 55 243T49 259Q49 271 56 279T75 289Q118 290 139 307T168 370L206 612Q214 657 240 681T310 705H375Q391
705 397 699T404 681Q404 669 396 662T375 655H317Q296 655 284 644T267 609L228 364Q223 328 206 306T168 272T125 261V265Q146 265 163 254T191 221T195 161L157 -85Q153 -107 162 -118T193 -130H243Q255 -130 263 -136T272 -153Q272 -166 265 -173T243 -180H193Z"
/>
<glyph unicode="|" glyph-name="bar" horiz-adv-x="254" d="M59 -186Q45 -186 39 -177T34 -150L166 681Q169 697 177 704T201 711Q215 711 222 702T226 675L94 -156Q90 -186 59 -186Z" />
<glyph unicode="}" glyph-name="braceright" horiz-adv-x="335" d="M-34 -180Q-50 -180 -56 -174T-63 -156Q-63 -143 -55 -137T-34 -130H23Q45 -130 57 -119T74 -84L113 161Q119 198 135 220T174 253T215 264L216 260Q196 260 178 271T150 305T146 364L183 610Q187
633 179 644T148 655H98Q86 655 78 661T69 678Q69 692 76 698T98 705H147Q186 705 209 694T241 663T245 612L207 369Q200 322 216 306T271 288Q281 288 286 282T292 266Q292 254 285 246T266 236Q223 236 202 219T173 155L134 -87Q127 -131 101 -155T30 -180H-34Z"
/>
<glyph unicode="~" glyph-name="asciitilde" horiz-adv-x="600" d="M421 221Q386 221 355 235T295 265Q267 282 243 293T196 304Q164 304 144 289T108 252Q102 242 92 241T75 243T64 256T68 277Q93 316 123 335T193 354Q228 354 261 339T322 308Q350 293 372 282T418
270Q451 270 471 286T506 323Q512 332 521 333T539 331T550 318T545 297Q521 258 491 240T421 221Z" />
<glyph unicode="&#xa0;" glyph-name="uni00A0" horiz-adv-x="252" />
<glyph unicode="&#xa1;" glyph-name="exclamdown" horiz-adv-x="219" d="M45 -186Q27 -186 18 -175T13 -144L99 299Q101 307 106 313T120 319Q130 319 135 313T139 295L84 -150Q83 -168 73 -177T45 -186ZM142 396Q122 396 109 409T96 442Q96 463 109 476T142 489Q164
489 176 476T188 442Q188 423 176 410T142 396Z" />
<glyph unicode="&#xa2;" glyph-name="cent" horiz-adv-x="600" d="M254 -121Q243 -121 236 -114T231 -91L248 12L255 -1Q200 7 165 35T112 107T94 205Q94 255 108 304T150 394T225 461T335 490L319 466L337 586Q340 599 347 605T367 612Q377 612 385 605T390 580L373
468L365 491Q404 489 440 476T500 441Q508 435 510 427T510 412T501 401T487 396T468 403Q443 421 416 430T353 439Q300 439 263 419T202 365T168 289T157 205Q157 134 192 91T311 47Q337 47 365 55T421 83Q431 89 439 89T453 83T461 71T461 55T449 41Q412 13 366
3T286 -5L301 11L284 -96Q283 -109 275 -115T254 -121Z" />
<glyph unicode="&#xa3;" glyph-name="sterling" horiz-adv-x="600" d="M42 0Q25 0 17 7T9 25Q9 39 18 46T43 54H143L122 37L170 341L182 329H87Q72 329 66 335T60 350Q60 361 69 369T90 377H184L173 359L198 516Q209 582 236 625T310 691T425 713Q477 713 524
696T603 646Q613 638 614 629T613 612T602 599T587 595T569 604Q539 635 503 646T424 658Q354 658 313 623T260 519L235 362L226 377H398Q413 377 419 371T425 356Q425 345 417 337T395 329H230L186 54H491Q507 54 514 47T521 30Q521 17 512 9T487 0H42Z" />
<glyph unicode="&#xa4;" glyph-name="currency" horiz-adv-x="600" d="M52 -10Q43 -2 43 9T52 30L112 92Q88 123 75 162T61 245Q61 289 74 328T112 399L52 461Q44 470 44 481T52 500Q59 509 71 509T92 499L151 438Q182 464 220 478T302 493Q344 493 382 479T450
440L507 499Q516 508 528 508T548 501Q557 492 557 481T548 460L489 400Q514 368 528 329T542 245Q542 201 528 162T489 90L548 30Q556 21 556 10T548 -10Q540 -18 528 -18T507 -9L450 51Q419 25 382 11T302 -3Q259 -3 221 11T151 51L91 -9Q82 -18 71 -18T52 -10ZM301
53Q351 53 392 79T456 148T480 245Q480 298 457 341T392 411T301 437Q251 437 210 411T145 342T121 245Q121 192 145 149T210 79T301 53Z" />
<glyph unicode="&#xa5;" glyph-name="yen" horiz-adv-x="600" d="M261 -6Q246 -6 240 3T235 29L259 182H88Q74 182 68 188T61 204Q61 215 69 222T89 230H267L283 334H112Q98 334 92 340T85 355Q85 366 93 373T114 381H266L265 371L95 666Q89 678 89 688T97 705T118
711Q130 711 136 706T148 689L326 376H308L588 694Q596 703 603 707T621 711Q632 711 639 705T647 688T639 666L378 371L379 381H524Q538 381 544 375T551 359Q551 349 543 342T522 334H345L329 230H500Q514 230 520 224T526 208Q526 197 518 190T498 182H321L295
23Q291 -6 261 -6Z" />
<glyph unicode="&#xa6;" glyph-name="brokenbar" horiz-adv-x="254" d="M147 366Q132 366 126 375T122 402L167 681Q170 697 178 704T202 711Q216 711 223 702T227 675L182 396Q177 366 147 366ZM60 -186Q45 -186 39 -177T35 -150L80 129Q83 145 91 152T115 160Q129
160 136 151T140 124L95 -156Q91 -186 60 -186Z" />
<glyph unicode="&#xa7;" glyph-name="section" horiz-adv-x="534" d="M195 -188Q136 -188 89 -175T10 -137Q1 -130 -2 -121T-3 -105T5 -92T21 -87T40 -95Q70 -117 108 -127T193 -138Q242 -138 276 -121T330 -73T349 -5Q349 38 331 62T269 113L175 171Q138 194
113 219T74 271T60 328Q60 369 82 408T145 474L143 463Q137 478 134 494T130 528Q130 583 160 624T238 689T346 713Q395 713 438 701T516 661Q526 654 529 646T530 630T521 617T505 612T486 621Q459 641 422 652T347 663Q299 663 264 646T211 598T192 529Q192 487
210 462T272 409L362 354Q402 331 428 306T467 254T480 197Q480 156 458 117T394 51L396 63Q403 50 406 34T410 -3Q410 -58 381 -100T303 -165T195 -188ZM117 336Q117 302 141 274T210 217L292 166Q324 146 345 127T381 86L370 89Q396 111 409 138T423 189Q423
223 399 251T327 308L250 356Q219 375 197 394T161 436L171 437Q144 415 131 388T117 336Z" />
<glyph unicode="&#xa8;" glyph-name="dieresis" horiz-adv-x="447" d="M367 612Q350 612 341 620T332 643Q332 667 344 679T378 691Q395 691 403 683T412 659Q412 636 400 624T367 612ZM199 612Q182 612 173 620T164 643Q164 667 176 679T210 691Q227 691 236
683T245 659Q245 636 233 624T199 612Z" />
<glyph unicode="&#xa9;" glyph-name="copyright" horiz-adv-x="815" d="M425 -8Q349 -8 283 19T168 96T92 211T64 353Q64 430 91 495T168 609T282 685T425 713Q502 713 567 686T681 610T757 496T785 353Q785 277 758 211T682 96T568 20T425 -8ZM425 31Q493 31
551 55T652 124T720 226T744 353Q744 421 720 479T653 581T551 649T425 674Q357 674 299 650T197 582T129 480T105 353Q105 285 129 227T196 124T298 56T425 31ZM436 137Q341 137 287 197T232 356Q232 454 286 511T436 568Q472 568 507 556T568 522Q575 516 577
509T577 496T569 485T556 480T539 486Q513 505 488 512T437 520Q367 520 328 477T288 355Q288 277 327 232T437 186Q462 186 488 193T540 221Q551 230 560 228T574 217T578 200T568 184Q541 162 506 150T436 137Z" />
<glyph unicode="&#xaa;" glyph-name="ordfeminine" horiz-adv-x="321" d="M170 412Q128 412 100 438T71 501Q71 545 111 565T240 586H307L302 553H247Q175 553 147 542T118 503Q118 478 134 463T177 448Q201 448 224 459T263 491T283 535L294 604Q300 641 279
658T221 676Q200 676 180 671T140 654Q130 649 123 651T112 661T111 676T125 689Q145 700 170 706T224 713Q262 713 290 699T330 657T337 592L312 433Q308 413 287 413Q277 413 272 419T268 436L274 471H272Q255 444 230 428T170 412Z" />
<glyph unicode="&#xab;" glyph-name="guillemotleft" horiz-adv-x="417" d="M155 93Q145 89 135 93T119 109L63 244Q60 252 60 263T69 286L176 429Q183 437 192 439T210 438Q221 433 222 421T213 394L121 263L168 129Q173 116 170 107T155 93ZM324 93Q314 89 304
93T288 109L232 244Q229 252 229 263T238 286L345 429Q352 437 361 439T379 438Q390 433 391 421T382 394L290 263L337 129Q342 116 339 107T324 93Z" />
<glyph unicode="&#xac;" glyph-name="logicalnot" horiz-adv-x="600" d="M502 147Q489 147 484 155T482 179L511 364H100Q87 364 80 369T73 385Q73 399 81 406T103 414H531Q548 414 557 403T564 374L532 171Q529 147 502 147Z" />
<glyph unicode="&#xad;" glyph-name="uni00AD" horiz-adv-x="420" d="M97 240Q84 240 78 245T71 260Q71 272 79 282T102 292H331Q345 292 351 287T357 271Q357 259 350 250T326 240H97Z" />
<glyph unicode="&#xae;" glyph-name="registered" horiz-adv-x="815" d="M425 -8Q349 -8 283 19T168 96T92 211T64 353Q64 430 91 495T168 609T282 685T425 713Q502 713 567 686T681 610T757 496T785 353Q785 277 758 211T682 96T568 20T425 -8ZM425 31Q493 31
551 55T652 124T720 226T744 353Q744 421 720 479T653 581T551 649T425 674Q357 674 299 650T197 582T129 480T105 353Q105 285 129 227T196 124T298 56T425 31ZM313 136Q285 136 285 164V531Q285 547 293 555T318 563H452Q519 563 554 532T590 442Q590 385 554
355T453 324L460 334Q490 334 510 321T543 276L584 172Q590 156 583 146T561 136Q551 136 545 142T535 157L488 274Q478 301 458 310T408 319H327L339 328V164Q339 136 313 136ZM339 364H445Q492 364 514 382T537 441Q537 480 515 499T445 518H339V364Z" />
<glyph unicode="&#xaf;" glyph-name="overscore" horiz-adv-x="501" d="M190 629Q164 629 164 649Q164 662 172 668T192 675H440Q466 675 466 656Q466 644 459 637T438 629H190Z" />
<glyph unicode="&#xb0;" glyph-name="degree" horiz-adv-x="367" d="M235 421Q194 421 161 440T109 491T90 565Q90 606 109 639T161 691T235 710Q276 710 308 691T360 640T379 565Q379 524 360 491T309 440T235 421ZM235 468Q277 468 303 495T329 565Q329 608
303 635T235 663Q194 663 168 636T141 565Q141 522 167 495T235 468Z" />
<glyph unicode="&#xb1;" glyph-name="plusminus" horiz-adv-x="600" d="M282 116Q269 116 263 124T260 148L284 300H90Q78 300 71 305T63 321Q63 335 71 342T93 350H292L316 508Q319 521 325 528T346 535Q359 535 364 527T368 503L344 350H536Q550 350 557 345T564
330Q564 316 556 308T534 300H335L311 143Q309 130 303 123T282 116ZM43 0Q30 0 23 5T15 21Q15 35 23 42T46 50H489Q502 50 509 45T516 30Q516 16 508 8T486 0H43Z" />
<glyph unicode="&#xb2;" glyph-name="uni00B2" horiz-adv-x="380" d="M89 282Q76 282 70 288T63 303Q63 311 67 317T78 330L235 473Q270 506 292 537T316 602Q317 630 298 645T244 661Q218 661 194 653T144 630Q133 623 124 625T111 636T110 653T124 670Q152 689
185 699T254 709Q292 709 319 696T360 660T373 608Q372 559 343 521T268 442L124 312V330H321Q346 330 346 309Q346 296 339 289T318 282H89Z" />
<glyph unicode="&#xb3;" glyph-name="uni00B3" horiz-adv-x="380" d="M203 279Q168 279 132 288T68 318Q58 326 57 335T59 352T73 362T95 356Q119 339 146 333T203 326Q241 326 268 347T297 408Q298 438 277 455T216 472H163Q151 472 144 477T137 493Q137 505
144 512T166 520H221Q263 520 292 541T321 600Q322 629 302 645T247 661Q217 661 192 653T143 628Q132 621 124 623T112 634T110 651T123 667Q149 685 183 697T255 709Q313 709 345 680T376 608Q375 565 346 534T271 494L272 501Q311 493 331 467T351 405Q350 368
330 340T277 295T203 279Z" />
<glyph unicode="&#xb4;" glyph-name="acute" horiz-adv-x="346" d="M188 554Q182 545 174 544T159 547T152 558T156 576L269 744Q277 756 286 759T304 761T318 752T324 736T316 716L188 554Z" />
<glyph unicode="&#xb5;" glyph-name="uni00B5" horiz-adv-x="600" d="M66 -186Q51 -186 45 -177T41 -151L138 462Q141 477 149 484T173 492Q187 492 194 483T199 456L157 190Q145 117 169 81T252 44Q329 44 375 93T433 222L471 462Q473 477 482 484T505 492Q520
492 526 483T530 456L462 23Q458 -6 429 -6Q415 -6 408 2T403 25L417 116H427Q405 57 359 25T249 -8Q203 -8 171 9T123 62L130 64L100 -156Q99 -172 90 -179T66 -186Z" />
<glyph unicode="&#xb6;" glyph-name="paragraph" horiz-adv-x="572" d="M200 -186Q187 -186 182 -178T178 -155L253 323Q202 323 165 345T109 404T89 488Q89 552 116 601T193 677T308 705H517Q534 705 542 696T548 669L416 -160Q412 -186 385 -186Q373 -186 368
-178T364 -155L492 655H359L230 -160Q226 -186 200 -186Z" />
<glyph unicode="&#xb7;" glyph-name="middot" horiz-adv-x="219" d="M114 219Q94 219 81 232T68 266Q68 286 81 299T114 312Q135 312 147 299T160 266Q160 246 148 233T114 219Z" />
<glyph unicode="&#xb8;" glyph-name="cedilla" horiz-adv-x="391" d="M118 -191Q101 -191 84 -188T52 -180Q41 -176 38 -168T37 -152T47 -140T65 -140Q77 -145 91 -147T123 -150Q151 -150 169 -139T187 -108Q187 -95 178 -88T152 -80Q144 -80 134 -81T114 -85Q107
-87 102 -87T92 -84Q89 -80 89 -76T91 -63L117 20H162L137 -55L116 -51Q129 -48 140 -46T162 -44Q193 -44 213 -60T234 -105Q234 -143 201 -167T118 -191Z" />
<glyph unicode="&#xb9;" glyph-name="uni00B9" horiz-adv-x="380" d="M128 282Q103 282 103 303Q103 315 110 322T131 330H202L254 658L291 660L190 600Q177 593 167 595T152 607T150 626T167 644L256 697Q264 702 272 704T289 707Q299 707 303 703T309 692T309
677L254 330H308Q333 330 333 310Q333 298 326 290T305 282H128Z" />
<glyph unicode="&#xba;" glyph-name="ordmasculine" horiz-adv-x="332" d="M210 412Q171 412 141 429T94 478T76 550Q76 600 96 637T149 693T224 713Q263 713 293 696T340 649T358 575Q358 525 338 489T285 432T210 412ZM211 450Q255 450 283 482T311 576Q311
624 287 649T223 675Q178 675 151 643T123 549Q123 502 147 476T211 450Z" />
<glyph unicode="&#xbb;" glyph-name="guillemotright" horiz-adv-x="417" d="M44 93Q33 98 32 110T41 136L133 268L87 402Q82 415 85 424T99 438Q110 441 120 437T135 422L191 287Q194 278 194 267T185 245L78 101Q72 93 63 91T44 93ZM213 93Q202 98 201 110T210
136L302 268L256 402Q251 415 254 424T268 438Q279 441 289 437T304 422L360 287Q363 278 363 267T354 245L247 101Q241 93 232 91T213 93Z" />
<glyph unicode="&#xbc;" glyph-name="onequarter" horiz-adv-x="885" d="M128 282Q103 282 103 303Q103 315 110 322T131 330H202L254 658L291 660L190 600Q177 593 167 595T152 607T150 626T167 644L256 697Q264 702 272 704T289 707Q299 707 303 703T309 692T309
677L254 330H308Q333 330 333 310Q333 298 326 290T305 282H128ZM247 -4Q241 -13 233 -16T218 -17T207 -10T203 4T210 21L716 710Q722 719 730 721T744 722T755 715T760 701T753 684L247 -4ZM728 -3Q716 -3 710 4T706 24L716 89H553Q540 89 532 94T523 112Q523
119 527 125T536 139L761 407Q768 415 775 420T795 426Q808 426 813 419T817 397L776 136H813Q824 136 830 131T837 116Q837 105 830 97T810 89H768L758 21Q756 10 749 4T728 -3ZM724 136L758 357H774L575 120L574 136H724Z" />
<glyph unicode="&#xbd;" glyph-name="onehalf" horiz-adv-x="927" d="M128 282Q103 282 103 303Q103 315 110 322T131 330H202L254 658L291 660L190 600Q177 593 167 595T152 607T150 626T167 644L256 697Q264 702 272 704T289 707Q299 707 303 703T309 692T309
677L254 330H308Q333 330 333 310Q333 298 326 290T305 282H128ZM247 -4Q241 -13 233 -16T218 -17T207 -10T203 4T210 21L716 710Q722 719 730 721T744 722T755 715T760 701T753 684L247 -4ZM591 0Q578 0 572 6T565 21Q565 29 569 35T580 48L737 191Q772 224 794
255T818 320Q819 348 800 363T746 379Q720 379 696 371T646 348Q635 341 626 343T613 354T612 371T626 388Q654 407 687 417T756 427Q794 427 821 414T862 378T875 326Q874 277 845 239T770 160L626 30V48H823Q848 48 848 27Q848 14 841 7T820 0H591Z" />
<glyph unicode="&#xbe;" glyph-name="threequarters" horiz-adv-x="885" d="M203 279Q168 279 132 288T68 318Q58 326 57 335T59 352T73 362T95 356Q119 339 146 333T203 326Q241 326 268 347T297 408Q298 438 277 455T216 472H163Q151 472 144 477T137 493Q137
505 144 512T166 520H221Q263 520 292 541T321 600Q322 629 302 645T247 661Q217 661 192 653T143 628Q132 621 124 623T112 634T110 651T123 667Q149 685 183 697T255 709Q313 709 345 680T376 608Q375 565 346 534T271 494L272 501Q311 493 331 467T351 405Q350
368 330 340T277 295T203 279ZM247 -4Q241 -13 233 -16T218 -17T207 -10T203 4T210 21L716 710Q722 719 730 721T744 722T755 715T760 701T753 684L247 -4ZM728 -3Q716 -3 710 4T706 24L716 89H553Q540 89 532 94T523 112Q523 119 527 125T536 139L761 407Q768
415 775 420T795 426Q808 426 813 419T817 397L776 136H813Q824 136 830 131T837 116Q837 105 830 97T810 89H768L758 21Q756 10 749 4T728 -3ZM724 136L758 357H774L575 120L574 136H724Z" />
<glyph unicode="&#xbf;" glyph-name="questiondown" horiz-adv-x="436" d="M146 -188Q96 -188 59 -170T2 -119T-18 -48Q-19 6 14 49T99 133Q136 163 160 189T199 241T219 297Q222 308 227 313T243 319Q254 319 259 313T261 294Q255 254 243 224T206 165T141 102Q98
66 72 34T45 -41Q45 -80 72 -106T151 -132Q205 -132 249 -118T329 -77Q341 -69 350 -69T366 -74T373 -89T372 -107T358 -123Q317 -154 263 -171T146 -188ZM266 396Q246 396 233 409T219 442Q219 463 232 476T266 489Q287 489 299 476T311 442Q311 423 299 410T266
396Z" />
<glyph unicode="&#xc0;" glyph-name="Agrave" horiz-adv-x="722" d="M34 -6Q23 -6 15 -1T6 15T11 37L399 690Q406 701 415 706T436 711Q449 711 457 705T468 687L646 39Q651 23 649 13T640 -1T623 -6Q611 -6 602 1T590 24L543 201L570 188H139L176 200L67 15Q61
4 53 -1T34 -6ZM426 629L194 231L171 241H556L534 231L428 629H426ZM418 770L323 899Q315 909 315 918T322 934T338 943T356 943T372 928L455 793Q460 784 458 777T449 764T434 760T418 770Z" />
<glyph unicode="&#xc1;" glyph-name="Aacute" horiz-adv-x="722" d="M34 -6Q23 -6 15 -1T6 15T11 37L399 690Q406 701 415 706T436 711Q449 711 457 705T468 687L646 39Q651 23 649 13T640 -1T623 -6Q611 -6 602 1T590 24L543 201L570 188H139L176 200L67 15Q61
4 53 -1T34 -6ZM426 629L194 231L171 241H556L534 231L428 629H426ZM476 769Q468 761 460 760T445 764T438 776T442 792L548 930Q556 940 566 943T584 943T597 934T603 919T594 900L476 769Z" />
<glyph unicode="&#xc2;" glyph-name="Acircumflex" horiz-adv-x="722" d="M34 -6Q23 -6 15 -1T6 15T11 37L399 690Q406 701 415 706T436 711Q449 711 457 705T468 687L646 39Q651 23 649 13T640 -1T623 -6Q611 -6 602 1T590 24L543 201L570 188H139L176 200L67
15Q61 4 53 -1T34 -6ZM426 629L194 231L171 241H556L534 231L428 629H426ZM336 766Q328 759 320 758T306 761T299 772T304 787L411 918Q422 931 433 937T459 944Q473 944 481 937T499 917L578 787Q584 778 581 770T571 759T555 758T539 770L454 891L336 766Z" />
<glyph unicode="&#xc3;" glyph-name="Atilde" horiz-adv-x="722" d="M34 -6Q23 -6 15 -1T6 15T11 37L399 690Q406 701 415 706T436 711Q449 711 457 705T468 687L646 39Q651 23 649 13T640 -1T623 -6Q611 -6 602 1T590 24L543 201L570 188H139L176 200L67 15Q61
4 53 -1T34 -6ZM426 629L194 231L171 241H556L534 231L428 629H426ZM263 785Q254 786 250 792T248 810Q262 864 292 890T364 917Q391 917 414 905T459 877T501 849T541 836Q567 836 586 853T615 905Q618 914 623 918T639 922Q648 921 652 915T654 897Q640 843 610
817T538 790Q510 790 487 802T442 830T400 858T360 871Q334 871 316 854T287 802Q284 794 279 789T263 785Z" />
<glyph unicode="&#xc4;" glyph-name="Adieresis" horiz-adv-x="722" d="M34 -6Q23 -6 15 -1T6 15T11 37L399 690Q406 701 415 706T436 711Q449 711 457 705T468 687L646 39Q651 23 649 13T640 -1T623 -6Q611 -6 602 1T590 24L543 201L570 188H139L176 200L67 15Q61
4 53 -1T34 -6ZM426 629L194 231L171 241H556L534 231L428 629H426ZM538 810Q521 810 512 818T503 842Q503 865 515 877T549 889Q566 889 575 881T584 857Q584 835 572 823T538 810ZM371 810Q354 810 345 818T336 842Q336 865 348 877T382 889Q399 889 407 881T416
857Q416 835 405 823T371 810Z" />
<glyph unicode="&#xc5;" glyph-name="Aring" horiz-adv-x="722" d="M34 -6Q23 -6 15 -1T6 15T11 37L399 690Q406 701 415 706T436 711Q449 711 457 705T468 687L646 39Q651 23 649 13T640 -1T623 -6Q611 -6 602 1T590 24L543 201L570 188H139L176 200L67 15Q61
4 53 -1T34 -6ZM426 629L194 231L171 241H556L534 231L428 629H426ZM463 759Q431 759 405 774T364 815T348 872Q348 904 363 929T405 969T463 985Q496 985 522 970T563 929T578 872Q578 841 563 816T522 775T463 759ZM463 797Q497 797 517 818T538 872Q538 904
518 925T463 947Q430 947 409 926T388 872Q388 840 409 819T463 797Z" />
<glyph unicode="&#xc6;" glyph-name="AE" horiz-adv-x="976" d="M1 -6Q-12 -6 -19 0T-26 16T-18 36L477 687Q484 698 493 701T513 705H974Q987 705 994 700T1002 684Q1002 667 993 660T970 652H534L552 678L568 368L546 384H902Q916 384 923 379T931 363Q931 347
922 339T899 331H549L569 347L585 30L562 53H871Q885 53 892 48T899 32Q899 18 891 9T867 0H560Q532 0 530 29L521 206L543 188H150L179 205L36 14Q27 3 19 -1T1 -6ZM496 628L195 226L188 241H532L520 226L498 628H496Z" />
<glyph unicode="&#xc7;" glyph-name="Ccedilla" horiz-adv-x="670" d="M378 -8Q289 -8 222 25T118 128T80 306Q80 393 105 467T176 596T289 682T437 713Q502 713 557 693T653 635Q661 628 663 618T663 600T652 586T636 580T618 588Q579 624 534 640T434 656Q345
656 281 611T181 487T146 306Q146 215 174 158T256 75T383 49Q433 49 475 64T560 115Q570 123 579 123T595 118T604 104T605 86T592 69Q545 29 492 11T378 -8ZM347 -191Q330 -191 313 -188T281 -180Q270 -176 267 -168T266 -152T276 -140T294 -140Q306 -145 320
-147T352 -150Q380 -150 398 -139T416 -108Q416 -95 407 -88T381 -80Q373 -80 363 -81T343 -85Q336 -87 331 -87T321 -84Q318 -80 318 -76T320 -63L346 20H391L366 -55L345 -51Q358 -48 369 -46T391 -44Q422 -44 442 -60T463 -105Q463 -143 430 -167T347 -191Z"
/>
<glyph unicode="&#xc8;" glyph-name="Egrave" horiz-adv-x="576" d="M91 0Q73 0 65 9T59 38L160 673Q163 689 172 697T198 705H574Q587 705 594 700T602 684Q602 667 593 660T571 652H218L175 384H503Q516 384 523 379T531 363Q531 347 522 339T499 331H166L122
53H470Q484 53 491 48T499 32Q499 16 490 8T467 0H91ZM378 770L283 899Q275 909 275 918T282 934T298 943T316 943T332 928L415 793Q420 784 418 777T409 764T394 760T378 770Z" />
<glyph unicode="&#xc9;" glyph-name="Eacute" horiz-adv-x="576" d="M91 0Q73 0 65 9T59 38L160 673Q163 689 172 697T198 705H574Q587 705 594 700T602 684Q602 667 593 660T571 652H218L175 384H503Q516 384 523 379T531 363Q531 347 522 339T499 331H166L122
53H470Q484 53 491 48T499 32Q499 16 490 8T467 0H91ZM436 769Q428 761 420 760T405 764T398 776T402 792L508 930Q516 940 526 943T544 943T557 934T563 919T554 900L436 769Z" />
<glyph unicode="&#xca;" glyph-name="Ecircumflex" horiz-adv-x="576" d="M91 0Q73 0 65 9T59 38L160 673Q163 689 172 697T198 705H574Q587 705 594 700T602 684Q602 667 593 660T571 652H218L175 384H503Q516 384 523 379T531 363Q531 347 522 339T499 331H166L122
53H470Q484 53 491 48T499 32Q499 16 490 8T467 0H91ZM296 766Q288 759 280 758T266 761T259 772T264 787L371 918Q382 931 393 937T419 944Q433 944 441 937T459 917L538 787Q544 778 541 770T531 759T515 758T499 770L414 891L296 766Z" />
<glyph unicode="&#xcb;" glyph-name="Edieresis" horiz-adv-x="576" d="M91 0Q73 0 65 9T59 38L160 673Q163 689 172 697T198 705H574Q587 705 594 700T602 684Q602 667 593 660T571 652H218L175 384H503Q516 384 523 379T531 363Q531 347 522 339T499 331H166L122
53H470Q484 53 491 48T499 32Q499 16 490 8T467 0H91ZM498 810Q481 810 472 818T463 842Q463 865 475 877T509 889Q526 889 535 881T544 857Q544 835 532 823T498 810ZM331 810Q314 810 305 818T296 842Q296 865 308 877T342 889Q359 889 367 881T376 857Q376 835
365 823T331 810Z" />
<glyph unicode="&#xcc;" glyph-name="Igrave" horiz-adv-x="245" d="M85 -6Q69 -6 62 3T58 31L161 680Q164 696 172 703T195 711Q211 711 217 702T222 674L119 25Q117 10 109 2T85 -6ZM177 770L82 899Q74 909 74 918T81 934T97 943T115 943T131 928L214 793Q219
784 217 777T208 764T193 760T177 770Z" />
<glyph unicode="&#xcd;" glyph-name="Iacute" horiz-adv-x="245" d="M85 -6Q69 -6 62 3T58 31L161 680Q164 696 172 703T195 711Q211 711 217 702T222 674L119 25Q117 10 109 2T85 -6ZM235 769Q227 761 219 760T204 764T197 776T201 792L307 930Q315 940 325 943T343
943T356 934T362 919T353 900L235 769Z" />
<glyph unicode="&#xce;" glyph-name="Icircumflex" horiz-adv-x="245" d="M85 -6Q69 -6 62 3T58 31L161 680Q164 696 172 703T195 711Q211 711 217 702T222 674L119 25Q117 10 109 2T85 -6ZM95 766Q87 759 79 758T65 761T58 772T63 787L170 918Q181 931 192 937T218
944Q232 944 240 937T258 917L337 787Q343 778 340 770T330 759T314 758T298 770L213 891L95 766Z" />
<glyph unicode="&#xcf;" glyph-name="Idieresis" horiz-adv-x="245" d="M85 -6Q69 -6 62 3T58 31L161 680Q164 696 172 703T195 711Q211 711 217 702T222 674L119 25Q117 10 109 2T85 -6ZM297 810Q280 810 271 818T262 842Q262 865 274 877T308 889Q325 889 334
881T343 857Q343 835 331 823T297 810ZM130 810Q113 810 104 818T95 842Q95 865 107 877T141 889Q158 889 166 881T175 857Q175 835 164 823T130 810Z" />
<glyph unicode="&#xd0;" glyph-name="Eth" horiz-adv-x="733" d="M91 0Q73 0 65 10T59 38L160 673Q163 689 172 697T198 705H364Q520 705 605 629T690 413Q690 328 667 254T596 122T472 33T293 0H91ZM124 54H295Q385 54 448 82T550 161T607 276T625 413Q625 529
559 590T363 651H219L124 54ZM42 333Q29 333 22 339T14 354Q14 369 22 376T45 383H349Q363 383 370 378T377 363Q377 349 369 341T346 333H42Z" />
<glyph unicode="&#xd1;" glyph-name="Ntilde" horiz-adv-x="735" d="M82 -6Q69 -6 63 3T58 28L162 684Q165 699 173 705T192 711Q204 711 210 707T223 691L579 70H559L656 683Q659 698 667 704T690 711Q703 711 709 702T712 677L608 22Q606 8 599 1T581 -6Q569
-6 562 -1T548 15L192 635H211L114 22Q112 8 105 1T82 -6ZM267 785Q258 786 254 792T252 810Q266 864 296 890T368 917Q395 917 418 905T463 877T505 849T545 836Q571 836 590 853T619 905Q622 914 627 918T643 922Q652 921 656 915T658 897Q644 843 614 817T542
790Q514 790 491 802T446 830T404 858T364 871Q338 871 320 854T291 802Q288 794 283 789T267 785Z" />
<glyph unicode="&#xd2;" glyph-name="Ograve" horiz-adv-x="759" d="M362 -8Q276 -8 213 26T114 127T79 291Q79 381 102 457T170 591T280 681T431 713Q518 713 581 679T680 578T715 414Q715 324 692 248T624 114T514 24T362 -8ZM364 48Q457 48 520 96T616 227T649
413Q649 537 591 597T428 657Q337 657 274 609T178 479T145 292Q145 168 203 108T364 48ZM424 770L329 899Q321 909 321 918T328 934T344 943T362 943T378 928L461 793Q466 784 464 777T455 764T440 760T424 770Z" />
<glyph unicode="&#xd3;" glyph-name="Oacute" horiz-adv-x="759" d="M362 -8Q276 -8 213 26T114 127T79 291Q79 381 102 457T170 591T280 681T431 713Q518 713 581 679T680 578T715 414Q715 324 692 248T624 114T514 24T362 -8ZM364 48Q457 48 520 96T616 227T649
413Q649 537 591 597T428 657Q337 657 274 609T178 479T145 292Q145 168 203 108T364 48ZM482 769Q474 761 466 760T451 764T444 776T448 792L554 930Q562 940 572 943T590 943T603 934T609 919T600 900L482 769Z" />
<glyph unicode="&#xd4;" glyph-name="Ocircumflex" horiz-adv-x="759" d="M362 -8Q276 -8 213 26T114 127T79 291Q79 381 102 457T170 591T280 681T431 713Q518 713 581 679T680 578T715 414Q715 324 692 248T624 114T514 24T362 -8ZM364 48Q457 48 520 96T616
227T649 413Q649 537 591 597T428 657Q337 657 274 609T178 479T145 292Q145 168 203 108T364 48ZM342 766Q334 759 326 758T312 761T305 772T310 787L417 918Q428 931 439 937T465 944Q479 944 487 937T505 917L584 787Q590 778 587 770T577 759T561 758T545 770L460
891L342 766Z" />
<glyph unicode="&#xd5;" glyph-name="Otilde" horiz-adv-x="759" d="M362 -8Q276 -8 213 26T114 127T79 291Q79 381 102 457T170 591T280 681T431 713Q518 713 581 679T680 578T715 414Q715 324 692 248T624 114T514 24T362 -8ZM364 48Q457 48 520 96T616 227T649
413Q649 537 591 597T428 657Q337 657 274 609T178 479T145 292Q145 168 203 108T364 48ZM269 785Q260 786 256 792T254 810Q268 864 298 890T370 917Q397 917 420 905T465 877T507 849T547 836Q573 836 592 853T621 905Q624 914 629 918T645 922Q654 921 658 915T660
897Q646 843 616 817T544 790Q516 790 493 802T448 830T406 858T366 871Q340 871 322 854T293 802Q290 794 285 789T269 785Z" />
<glyph unicode="&#xd6;" glyph-name="Odieresis" horiz-adv-x="759" d="M362 -8Q276 -8 213 26T114 127T79 291Q79 381 102 457T170 591T280 681T431 713Q518 713 581 679T680 578T715 414Q715 324 692 248T624 114T514 24T362 -8ZM364 48Q457 48 520 96T616 227T649
413Q649 537 591 597T428 657Q337 657 274 609T178 479T145 292Q145 168 203 108T364 48ZM544 810Q527 810 518 818T509 842Q509 865 521 877T555 889Q572 889 581 881T590 857Q590 835 578 823T544 810ZM377 810Q360 810 351 818T342 842Q342 865 354 877T388
889Q405 889 413 881T422 857Q422 835 411 823T377 810Z" />
<glyph unicode="&#xd7;" glyph-name="multiply" horiz-adv-x="600" d="M105 63Q94 53 84 54T68 63T61 80T70 99L272 286L104 470Q98 478 97 485T100 500T112 510T127 513T144 503L310 320L511 505Q522 515 532 514T548 505T555 488T546 469L344 283L512 97Q519
89 519 81T516 67T505 57T490 54T473 64L306 248L105 63Z" />
<glyph unicode="&#xd8;" glyph-name="Oslash" horiz-adv-x="759" d="M362 -8Q276 -8 213 26T114 127T79 291Q79 381 102 457T170 591T280 681T431 713Q518 713 581 679T680 578T715 414Q715 324 692 248T624 114T514 24T362 -8ZM364 48Q457 48 520 96T616 227T649
413Q649 537 591 597T428 657Q337 657 274 609T178 479T145 292Q145 168 203 108T364 48ZM154 -16Q147 -24 140 -26T125 -27T113 -18T108 -4T114 13L167 84L189 113L565 622L587 651L640 721Q646 729 654 731T669 732T680 723T685 709T679 692L626 621L605 592L229
84L206 54L154 -16Z" />
<glyph unicode="&#xd9;" glyph-name="Ugrave" horiz-adv-x="724" d="M333 -8Q266 -8 216 10T135 67T93 161T94 292L156 682Q159 697 167 704T191 711Q206 711 212 702T217 676L155 286Q136 166 182 107T335 48Q440 48 500 101T580 272L645 682Q648 697 656 704T680
711Q695 711 701 702T705 676L641 265Q626 174 589 114T487 23T333 -8ZM416 770L321 899Q313 909 313 918T320 934T336 943T354 943T370 928L453 793Q458 784 456 777T447 764T432 760T416 770Z" />
<glyph unicode="&#xda;" glyph-name="Uacute" horiz-adv-x="724" d="M333 -8Q266 -8 216 10T135 67T93 161T94 292L156 682Q159 697 167 704T191 711Q206 711 212 702T217 676L155 286Q136 166 182 107T335 48Q440 48 500 101T580 272L645 682Q648 697 656 704T680
711Q695 711 701 702T705 676L641 265Q626 174 589 114T487 23T333 -8ZM474 769Q466 761 458 760T443 764T436 776T440 792L546 930Q554 940 564 943T582 943T595 934T601 919T592 900L474 769Z" />
<glyph unicode="&#xdb;" glyph-name="Ucircumflex" horiz-adv-x="724" d="M333 -8Q266 -8 216 10T135 67T93 161T94 292L156 682Q159 697 167 704T191 711Q206 711 212 702T217 676L155 286Q136 166 182 107T335 48Q440 48 500 101T580 272L645 682Q648 697 656
704T680 711Q695 711 701 702T705 676L641 265Q626 174 589 114T487 23T333 -8ZM334 766Q326 759 318 758T304 761T297 772T302 787L409 918Q420 931 431 937T457 944Q471 944 479 937T497 917L576 787Q582 778 579 770T569 759T553 758T537 770L452 891L334 766Z"
/>
<glyph unicode="&#xdc;" glyph-name="Udieresis" horiz-adv-x="724" d="M333 -8Q266 -8 216 10T135 67T93 161T94 292L156 682Q159 697 167 704T191 711Q206 711 212 702T217 676L155 286Q136 166 182 107T335 48Q440 48 500 101T580 272L645 682Q648 697 656
704T680 711Q695 711 701 702T705 676L641 265Q626 174 589 114T487 23T333 -8ZM536 810Q519 810 510 818T501 842Q501 865 513 877T547 889Q564 889 573 881T582 857Q582 835 570 823T536 810ZM369 810Q352 810 343 818T334 842Q334 865 346 877T380 889Q397 889
405 881T414 857Q414 835 403 823T369 810Z" />
<glyph unicode="&#xdd;" glyph-name="Yacute" horiz-adv-x="586" d="M254 -6Q239 -6 233 3T228 29L281 366L287 318L89 665Q82 678 82 688T90 705T110 711Q123 711 129 706T143 688L319 379H300L581 693Q589 703 597 707T615 711Q626 711 633 705T640 688T631
665L320 318L343 366L288 24Q284 -6 254 -6ZM398 769Q390 761 382 760T367 764T360 776T364 792L470 930Q478 940 488 943T506 943T519 934T525 919T516 900L398 769Z" />
<glyph unicode="&#xde;" glyph-name="Thorn" horiz-adv-x="625" d="M83 -6Q69 -6 62 3T58 30L161 679Q164 695 172 702T196 710Q211 710 218 701T223 678L207 574H390Q494 574 552 528T610 387Q610 283 544 221T353 158H140L119 24Q117 9 108 2T83 -6ZM149 212H357Q450
212 498 256T547 384Q547 455 506 488T387 521H198L149 212Z" />
<glyph unicode="&#xdf;" glyph-name="germandbls" horiz-adv-x="597" d="M364 -8Q316 -8 271 5T197 40Q188 47 185 55T184 72T192 85T206 90T225 84Q253 65 287 54T360 43Q421 43 453 65T486 131Q486 159 466 182T388 225Q319 248 292 276T265 348Q265 374 274
394T305 435T366 485Q401 511 420 534T440 592Q440 622 419 642T356 663Q282 663 239 620T182 496L107 23Q105 9 97 2T73 -6Q58 -6 51 3T47 29L120 492Q137 599 196 656T358 713Q402 713 434 698T483 656T500 598Q500 548 474 516T404 451Q379 433 362 418T335
388T325 351Q325 327 346 308T419 271Q480 249 513 219T546 137Q546 91 523 59T459 10T364 -8Z" />
<glyph unicode="&#xe0;" glyph-name="agrave" horiz-adv-x="522" d="M202 -8Q161 -8 125 10T67 60T44 136Q44 187 73 218T163 264T319 278H400L393 233H333Q248 233 199 225T130 195T109 139Q109 91 141 66T213 41Q252 41 286 58T344 109T376 191L395 313Q406
377 380 409T288 442Q249 442 215 435T148 406Q138 399 129 399T113 405T106 419T109 436T126 451Q163 474 206 484T293 494Q356 494 394 470T447 402T452 296L409 24Q407 9 399 2T375 -6Q362 -6 356 3T351 29L365 118L374 113Q361 72 334 45T273 5T202 -8ZM283
556L170 718Q162 729 163 738T170 753T186 760T204 758T220 742L319 577Q325 567 323 559T314 547T299 544T283 556Z" />
<glyph unicode="&#xe1;" glyph-name="aacute" horiz-adv-x="522" d="M202 -8Q161 -8 125 10T67 60T44 136Q44 187 73 218T163 264T319 278H400L393 233H333Q248 233 199 225T130 195T109 139Q109 91 141 66T213 41Q252 41 286 58T344 109T376 191L395 313Q406
377 380 409T288 442Q249 442 215 435T148 406Q138 399 129 399T113 405T106 419T109 436T126 451Q163 474 206 484T293 494Q356 494 394 470T447 402T452 296L409 24Q407 9 399 2T375 -6Q362 -6 356 3T351 29L365 118L374 113Q361 72 334 45T273 5T202 -8ZM338
554Q332 545 324 544T309 547T302 558T306 576L419 744Q427 756 436 759T454 761T468 752T474 736T466 716L338 554Z" />
<glyph unicode="&#xe2;" glyph-name="acircumflex" horiz-adv-x="522" d="M202 -8Q161 -8 125 10T67 60T44 136Q44 187 73 218T163 264T319 278H400L393 233H333Q248 233 199 225T130 195T109 139Q109 91 141 66T213 41Q252 41 286 58T344 109T376 191L395 313Q406
377 380 409T288 442Q249 442 215 435T148 406Q138 399 129 399T113 405T106 419T109 436T126 451Q163 474 206 484T293 494Q356 494 394 470T447 402T452 296L409 24Q407 9 399 2T375 -6Q362 -6 356 3T351 29L365 118L374 113Q361 72 334 45T273 5T202 -8ZM441
572Q445 562 442 556T432 546T416 545T404 555L329 705L219 554Q213 546 205 544T190 545T182 556T186 574L292 737Q302 751 312 756T334 762Q346 762 355 756T369 737L441 572Z" />
<glyph unicode="&#xe3;" glyph-name="atilde" horiz-adv-x="522" d="M202 -8Q161 -8 125 10T67 60T44 136Q44 187 73 218T163 264T319 278H400L393 233H333Q248 233 199 225T130 195T109 139Q109 91 141 66T213 41Q252 41 286 58T344 109T376 191L395 313Q406
377 380 409T288 442Q249 442 215 435T148 406Q138 399 129 399T113 405T106 419T109 436T126 451Q163 474 206 484T293 494Q356 494 394 470T447 402T452 296L409 24Q407 9 399 2T375 -6Q362 -6 356 3T351 29L365 118L374 113Q361 72 334 45T273 5T202 -8ZM163
590Q154 591 150 597T148 614Q154 640 164 660T187 694T218 715T254 722Q278 722 295 710T326 682T355 654T388 641Q411 641 428 659T454 709Q457 718 463 723T478 727Q488 726 492 720T494 703Q486 669 471 645T435 608T388 595Q364 595 347 607T315 635T286 663T253
676Q230 676 213 658T187 608Q185 599 179 594T163 590Z" />
<glyph unicode="&#xe4;" glyph-name="adieresis" horiz-adv-x="522" d="M202 -8Q161 -8 125 10T67 60T44 136Q44 187 73 218T163 264T319 278H400L393 233H333Q248 233 199 225T130 195T109 139Q109 91 141 66T213 41Q252 41 286 58T344 109T376 191L395 313Q406
377 380 409T288 442Q249 442 215 435T148 406Q138 399 129 399T113 405T106 419T109 436T126 451Q163 474 206 484T293 494Q356 494 394 470T447 402T452 296L409 24Q407 9 399 2T375 -6Q362 -6 356 3T351 29L365 118L374 113Q361 72 334 45T273 5T202 -8ZM407
612Q390 612 381 620T372 643Q372 667 384 679T418 691Q435 691 443 683T452 659Q452 636 440 624T407 612ZM239 612Q222 612 213 620T204 643Q204 667 216 679T250 691Q267 691 276 683T285 659Q285 636 273 624T239 612Z" />
<glyph unicode="&#xe5;" glyph-name="aring" horiz-adv-x="522" d="M202 -8Q161 -8 125 10T67 60T44 136Q44 187 73 218T163 264T319 278H400L393 233H333Q248 233 199 225T130 195T109 139Q109 91 141 66T213 41Q252 41 286 58T344 109T376 191L395 313Q406 377
380 409T288 442Q249 442 215 435T148 406Q138 399 129 399T113 405T106 419T109 436T126 451Q163 474 206 484T293 494Q356 494 394 470T447 402T452 296L409 24Q407 9 399 2T375 -6Q362 -6 356 3T351 29L365 118L374 113Q361 72 334 45T273 5T202 -8ZM330 547Q299
547 273 562T231 603T215 660Q215 691 230 716T272 757T330 772Q363 772 389 757T430 717T446 660Q446 629 431 603T389 562T330 547ZM330 584Q364 584 384 606T405 660Q405 692 385 713T330 735Q298 735 277 714T255 660Q255 628 276 606T330 584Z" />
<glyph unicode="&#xe6;" glyph-name="ae" horiz-adv-x="859" d="M207 -8Q165 -8 128 9T67 58T44 136Q44 187 73 218T163 263T319 278H400L393 233H333Q248 233 199 224T130 195T109 139Q109 91 141 66T213 41Q252 41 286 57T345 104T378 183L397 305Q408 374 381
408T288 442Q249 442 215 435T148 406Q138 399 129 399T113 405T106 419T109 436T126 451Q163 474 206 484T293 494Q365 494 405 461T453 364H422Q453 422 506 458T634 494Q690 494 728 474T787 421T816 346T817 261L816 251Q815 243 808 238T791 233H424L431 278H782L764
262Q771 313 761 354T719 420T633 445Q574 445 535 419T475 351T446 267L443 246Q428 155 469 99T597 43Q637 43 671 52T737 85Q749 93 757 93T772 88T779 76T777 59T764 43Q730 18 685 5T596 -8Q510 -8 456 34T388 152H415Q392 69 335 31T207 -8Z" />
<glyph unicode="&#xe7;" glyph-name="ccedilla" horiz-adv-x="459" d="M253 -8Q184 -8 139 18T71 93T49 205Q49 258 63 309T108 402T187 469T301 494Q339 494 375 483T437 453Q448 445 453 436T457 417T450 403T437 397T419 403Q393 423 364 432T301 441Q250 441
214 421T156 367T122 290T111 205Q111 132 145 88T259 44Q285 44 313 52T368 80Q376 86 384 86T398 80T406 67T406 51T394 36Q366 15 328 4T253 -8ZM218 -191Q201 -191 184 -188T152 -180Q141 -176 138 -168T137 -152T147 -140T165 -140Q177 -145 191 -147T223
-150Q251 -150 269 -139T287 -108Q287 -95 278 -88T252 -80Q244 -80 234 -81T214 -85Q207 -87 202 -87T192 -84Q189 -80 189 -76T191 -63L217 20H262L237 -55L216 -51Q229 -48 240 -46T262 -44Q293 -44 313 -60T334 -105Q334 -143 301 -167T218 -191Z" />
<glyph unicode="&#xe8;" glyph-name="egrave" horiz-adv-x="527" d="M265 -8Q198 -8 149 17T74 90T48 203Q48 281 78 347T165 453T302 494Q358 494 395 474T455 421T484 344T485 257Q483 241 477 236T458 230H93L100 275H451L432 262Q440 313 429 354T388 420T301
445Q243 445 204 419T144 351T114 267L111 246Q96 155 137 99T266 43Q306 43 340 53T406 85Q418 93 426 93T441 88T448 76T446 59T432 43Q399 18 354 5T265 -8ZM289 556L176 718Q168 729 169 738T176 753T192 760T210 758T226 742L325 577Q331 567 329 559T320
547T305 544T289 556Z" />
<glyph unicode="&#xe9;" glyph-name="eacute" horiz-adv-x="527" d="M265 -8Q198 -8 149 17T74 90T48 203Q48 281 78 347T165 453T302 494Q358 494 395 474T455 421T484 344T485 257Q483 241 477 236T458 230H93L100 275H451L432 262Q440 313 429 354T388 420T301
445Q243 445 204 419T144 351T114 267L111 246Q96 155 137 99T266 43Q306 43 340 53T406 85Q418 93 426 93T441 88T448 76T446 59T432 43Q399 18 354 5T265 -8ZM344 554Q338 545 330 544T315 547T308 558T312 576L425 744Q433 756 442 759T460 761T474 752T480
736T472 716L344 554Z" />
<glyph unicode="&#xea;" glyph-name="ecircumflex" horiz-adv-x="527" d="M265 -8Q198 -8 149 17T74 90T48 203Q48 281 78 347T165 453T302 494Q358 494 395 474T455 421T484 344T485 257Q483 241 477 236T458 230H93L100 275H451L432 262Q440 313 429 354T388
420T301 445Q243 445 204 419T144 351T114 267L111 246Q96 155 137 99T266 43Q306 43 340 53T406 85Q418 93 426 93T441 88T448 76T446 59T432 43Q399 18 354 5T265 -8ZM447 572Q451 562 448 556T438 546T422 545T410 555L335 705L225 554Q219 546 211 544T196
545T188 556T192 574L298 737Q308 751 318 756T340 762Q352 762 361 756T375 737L447 572Z" />
<glyph unicode="&#xeb;" glyph-name="edieresis" horiz-adv-x="527" d="M265 -8Q198 -8 149 17T74 90T48 203Q48 281 78 347T165 453T302 494Q358 494 395 474T455 421T484 344T485 257Q483 241 477 236T458 230H93L100 275H451L432 262Q440 313 429 354T388 420T301
445Q243 445 204 419T144 351T114 267L111 246Q96 155 137 99T266 43Q306 43 340 53T406 85Q418 93 426 93T441 88T448 76T446 59T432 43Q399 18 354 5T265 -8ZM413 612Q396 612 387 620T378 643Q378 667 390 679T424 691Q441 691 449 683T458 659Q458 636 446
624T413 612ZM245 612Q228 612 219 620T210 643Q210 667 222 679T256 691Q273 691 282 683T291 659Q291 636 279 624T245 612Z" />
<glyph unicode="&#xec;" glyph-name="igrave" horiz-adv-x="222" d="M72 -6Q57 -6 51 3T47 30L115 461Q118 477 126 484T150 492Q164 492 171 483T175 456L107 24Q105 9 96 2T72 -6ZM132 556L19 718Q11 729 12 738T19 753T35 760T53 758T69 742L168 577Q174 567
172 559T163 547T148 544T132 556Z" />
<glyph unicode="&#xed;" glyph-name="iacute" horiz-adv-x="222" d="M72 -6Q57 -6 51 3T47 30L115 461Q118 477 126 484T150 492Q164 492 171 483T175 456L107 24Q105 9 96 2T72 -6ZM187 554Q181 545 173 544T158 547T151 558T155 576L268 744Q276 756 285 759T303
761T317 752T323 736T315 716L187 554Z" />
<glyph unicode="&#xee;" glyph-name="icircumflex" horiz-adv-x="222" d="M72 -6Q57 -6 51 3T47 30L115 461Q118 477 126 484T150 492Q164 492 171 483T175 456L107 24Q105 9 96 2T72 -6ZM290 572Q294 562 291 556T281 546T265 545T253 555L178 705L68 554Q62
546 54 544T39 545T31 556T35 574L141 737Q151 751 161 756T183 762Q195 762 204 756T218 737L290 572Z" />
<glyph unicode="&#xef;" glyph-name="idieresis" horiz-adv-x="222" d="M72 -6Q57 -6 51 3T47 30L115 461Q118 477 126 484T150 492Q164 492 171 483T175 456L107 24Q105 9 96 2T72 -6ZM256 612Q239 612 230 620T221 643Q221 667 233 679T267 691Q284 691 292
683T301 659Q301 636 289 624T256 612ZM88 612Q71 612 62 620T53 643Q53 667 65 679T99 691Q116 691 125 683T134 659Q134 636 122 624T88 612Z" />
<glyph unicode="&#xf0;" glyph-name="eth" horiz-adv-x="550" d="M249 -8Q191 -8 145 15T72 83T45 186Q45 265 77 325T164 419T291 453Q339 453 377 436T440 383T468 292H452Q457 397 429 477T336 608L350 607L209 546Q199 542 191 545T180 556T179 572T193 585L311
635L310 626Q292 637 271 647T225 665Q211 669 207 677T204 694T216 707T239 708Q275 696 305 683T362 650L347 651L478 706Q490 712 498 709T509 697T509 680T494 668L383 621L385 631Q428 595 455 547T495 440T507 313Q507 252 493 194T448 91T368 19T249 -8ZM252
44Q304 44 345 68T412 141T437 256Q437 326 398 363T291 401Q241 401 199 377T132 305T107 189Q107 120 146 82T252 44Z" />
<glyph unicode="&#xf1;" glyph-name="ntilde" horiz-adv-x="560" d="M73 -6Q58 -6 52 4T48 31L116 461Q119 477 127 484T151 492Q164 492 170 483T174 457L160 364L150 370Q175 428 224 461T343 494Q397 494 433 472T485 406T490 295L447 23Q445 9 436 2T412 -6Q397
-6 391 3T387 30L429 295Q441 369 416 405T331 441Q251 441 205 393T145 264L108 24Q103 -6 73 -6ZM180 590Q171 591 167 597T165 614Q171 640 181 660T204 694T235 715T271 722Q295 722 312 710T343 682T372 654T405 641Q428 641 445 659T471 709Q474 718 480
723T495 727Q505 726 509 720T511 703Q503 669 488 645T452 608T405 595Q381 595 364 607T332 635T303 663T270 676Q247 676 230 658T204 608Q202 599 196 594T180 590Z" />
<glyph unicode="&#xf2;" glyph-name="ograve" horiz-adv-x="547" d="M250 -8Q188 -8 143 17T73 89T48 203Q48 262 64 315T113 408T192 471T297 494Q359 494 404 469T474 396T499 283Q499 223 482 171T433 78T355 15T250 -8ZM252 43Q312 43 353 76T415 164T437
285Q437 363 399 402T294 442Q235 442 194 409T131 322T110 200Q110 123 147 83T252 43ZM295 556L182 718Q174 729 175 738T182 753T198 760T216 758T232 742L331 577Q337 567 335 559T326 547T311 544T295 556Z" />
<glyph unicode="&#xf3;" glyph-name="oacute" horiz-adv-x="547" d="M250 -8Q188 -8 143 17T73 89T48 203Q48 262 64 315T113 408T192 471T297 494Q359 494 404 469T474 396T499 283Q499 223 482 171T433 78T355 15T250 -8ZM252 43Q312 43 353 76T415 164T437
285Q437 363 399 402T294 442Q235 442 194 409T131 322T110 200Q110 123 147 83T252 43ZM350 554Q344 545 336 544T321 547T314 558T318 576L431 744Q439 756 448 759T466 761T480 752T486 736T478 716L350 554Z" />
<glyph unicode="&#xf4;" glyph-name="ocircumflex" horiz-adv-x="547" d="M250 -8Q188 -8 143 17T73 89T48 203Q48 262 64 315T113 408T192 471T297 494Q359 494 404 469T474 396T499 283Q499 223 482 171T433 78T355 15T250 -8ZM252 43Q312 43 353 76T415 164T437
285Q437 363 399 402T294 442Q235 442 194 409T131 322T110 200Q110 123 147 83T252 43ZM453 572Q457 562 454 556T444 546T428 545T416 555L341 705L231 554Q225 546 217 544T202 545T194 556T198 574L304 737Q314 751 324 756T346 762Q358 762 367 756T381 737L453
572Z" />
<glyph unicode="&#xf5;" glyph-name="otilde" horiz-adv-x="547" d="M250 -8Q188 -8 143 17T73 89T48 203Q48 262 64 315T113 408T192 471T297 494Q359 494 404 469T474 396T499 283Q499 223 482 171T433 78T355 15T250 -8ZM252 43Q312 43 353 76T415 164T437
285Q437 363 399 402T294 442Q235 442 194 409T131 322T110 200Q110 123 147 83T252 43ZM175 590Q166 591 162 597T160 614Q166 640 176 660T199 694T230 715T266 722Q290 722 307 710T338 682T367 654T400 641Q423 641 440 659T466 709Q469 718 475 723T490 727Q500
726 504 720T506 703Q498 669 483 645T447 608T400 595Q376 595 359 607T327 635T298 663T265 676Q242 676 225 658T199 608Q197 599 191 594T175 590Z" />
<glyph unicode="&#xf6;" glyph-name="odieresis" horiz-adv-x="547" d="M250 -8Q188 -8 143 17T73 89T48 203Q48 262 64 315T113 408T192 471T297 494Q359 494 404 469T474 396T499 283Q499 223 482 171T433 78T355 15T250 -8ZM252 43Q312 43 353 76T415 164T437
285Q437 363 399 402T294 442Q235 442 194 409T131 322T110 200Q110 123 147 83T252 43ZM419 612Q402 612 393 620T384 643Q384 667 396 679T430 691Q447 691 455 683T464 659Q464 636 452 624T419 612ZM251 612Q234 612 225 620T216 643Q216 667 228 679T262 691Q279
691 288 683T297 659Q297 636 285 624T251 612Z" />
<glyph unicode="&#xf7;" glyph-name="divide" horiz-adv-x="600" d="M84 262Q71 262 64 267T57 282Q57 296 65 304T87 312H530Q543 312 550 307T557 291Q557 277 549 270T527 262H84ZM263 45Q245 45 236 54T226 80Q226 101 239 115T276 129Q294 129 303 120T312
94Q312 73 299 59T263 45ZM326 444Q308 444 299 454T289 479Q289 500 303 514T339 529Q357 529 366 519T375 494Q375 472 362 458T326 444Z" />
<glyph unicode="&#xf8;" glyph-name="oslash" horiz-adv-x="547" d="M250 -8Q188 -8 143 17T73 90T48 203Q48 263 65 315T114 408T192 471T297 494Q360 494 405 469T474 396T499 283Q499 223 483 171T434 78T355 15T250 -8ZM253 42Q313 42 355 75T418 163T440
286Q440 364 402 403T294 443Q234 443 192 411T129 323T107 200Q107 122 145 82T253 42ZM109 -21Q102 -31 94 -31T78 -27T69 -13T74 6L440 506Q447 516 455 516T471 512T479 498T474 479L109 -21Z" />
<glyph unicode="&#xf9;" glyph-name="ugrave" horiz-adv-x="553" d="M215 -8Q163 -8 127 13T75 79T70 191L113 462Q116 477 124 484T147 492Q162 492 169 483T174 457L132 190Q120 117 144 81T227 44Q304 44 350 92T408 222L445 462Q448 477 456 484T480 492Q495
492 502 484T506 459L437 23Q433 -6 404 -6Q389 -6 383 2T378 28L393 122L403 116Q379 57 330 25T215 -8ZM292 557L179 719Q171 730 172 739T179 754T195 761T213 759T229 743L328 578Q334 568 332 560T323 548T308 545T292 557Z" />
<glyph unicode="&#xfa;" glyph-name="uacute" horiz-adv-x="553" d="M215 -8Q163 -8 127 13T75 79T70 191L113 462Q116 477 124 484T147 492Q162 492 169 483T174 457L132 190Q120 117 144 81T227 44Q304 44 350 92T408 222L445 462Q448 477 456 484T480 492Q495
492 502 484T506 459L437 23Q433 -6 404 -6Q389 -6 383 2T378 28L393 122L403 116Q379 57 330 25T215 -8ZM347 555Q341 546 333 545T318 548T311 559T315 577L428 745Q436 757 445 760T463 762T477 753T483 737T475 717L347 555Z" />
<glyph unicode="&#xfb;" glyph-name="ucircumflex" horiz-adv-x="553" d="M215 -8Q163 -8 127 13T75 79T70 191L113 462Q116 477 124 484T147 492Q162 492 169 483T174 457L132 190Q120 117 144 81T227 44Q304 44 350 92T408 222L445 462Q448 477 456 484T480
492Q495 492 502 484T506 459L437 23Q433 -6 404 -6Q389 -6 383 2T378 28L393 122L403 116Q379 57 330 25T215 -8ZM450 573Q454 563 451 557T441 547T425 546T413 556L338 706L228 555Q222 547 214 545T199 546T191 557T195 575L301 738Q311 752 321 757T343 763Q355
763 364 757T378 738L450 573Z" />
<glyph unicode="&#xfc;" glyph-name="udieresis" horiz-adv-x="553" d="M215 -8Q163 -8 127 13T75 79T70 191L113 462Q116 477 124 484T147 492Q162 492 169 483T174 457L132 190Q120 117 144 81T227 44Q304 44 350 92T408 222L445 462Q448 477 456 484T480 492Q495
492 502 484T506 459L437 23Q433 -6 404 -6Q389 -6 383 2T378 28L393 122L403 116Q379 57 330 25T215 -8ZM416 613Q399 613 390 621T381 644Q381 668 393 680T427 692Q444 692 452 684T461 660Q461 637 449 625T416 613ZM248 613Q231 613 222 621T213 644Q213 668
225 680T259 692Q276 692 285 684T294 660Q294 637 282 625T248 613Z" />
<glyph unicode="&#xfd;" glyph-name="yacute" horiz-adv-x="509" d="M117 -186Q105 -186 99 -180T92 -164T99 -142L191 16L187 -12L64 447Q61 461 63 470T73 486T93 492Q107 492 113 486T123 463L231 36H204L454 469Q461 481 468 486T488 492Q500 492 507 486T516
469T509 447L150 -163Q144 -175 137 -180T117 -186ZM318 554Q312 545 304 544T289 547T282 558T286 576L399 744Q407 756 416 759T434 761T448 752T454 736T446 716L318 554Z" />
<glyph unicode="&#xfe;" glyph-name="thorn" horiz-adv-x="575" d="M43 -186Q29 -186 22 -177T18 -151L150 681Q153 696 161 703T185 711Q199 711 206 702T210 676L161 370L152 377Q178 432 226 463T339 494Q396 494 438 469T504 397T528 286Q528 207 500 140T418
33T285 -8Q225 -8 178 22T114 116H122L78 -157Q76 -172 68 -179T43 -186ZM281 43Q341 43 382 76T444 164T466 285Q466 363 428 402T323 442Q264 442 223 409T160 322T139 200Q139 123 176 83T281 43Z" />
<glyph unicode="&#xff;" glyph-name="ydieresis" horiz-adv-x="509" d="M117 -186Q105 -186 99 -180T92 -164T99 -142L191 16L187 -12L64 447Q61 461 63 470T73 486T93 492Q107 492 113 486T123 463L231 36H204L454 469Q461 481 468 486T488 492Q500 492 507 486T516
469T509 447L150 -163Q144 -175 137 -180T117 -186ZM387 612Q370 612 361 620T352 643Q352 667 364 679T398 691Q415 691 423 683T432 659Q432 636 420 624T387 612ZM219 612Q202 612 193 620T184 643Q184 667 196 679T230 691Q247 691 256 683T265 659Q265 636
253 624T219 612Z" />
<glyph unicode="&#x2013;" glyph-name="endash" horiz-adv-x="500" d="M18 245Q5 245 -1 250T-7 264Q-7 274 0 280T20 287H489Q503 287 509 282T515 268Q515 257 507 251T488 245H18Z" />
<glyph unicode="&#x2014;" glyph-name="emdash" horiz-adv-x="1000" d="M22 245Q10 245 4 250T-3 264Q-3 274 5 280T24 287H984Q998 287 1004 282T1010 268Q1010 257 1002 251T984 245H22Z" />
<glyph unicode="&#x2018;" glyph-name="quoteleft" horiz-adv-x="219" d="M172 697Q182 707 191 707T206 702T212 687T202 668Q184 649 176 633T163 595L157 610Q179 610 192 597T206 563Q206 544 194 531T161 517Q140 517 129 531T117 570Q117 594 124 617T143
660T172 697Z" />
<glyph unicode="&#x2019;" glyph-name="quoteright" horiz-adv-x="219" d="M164 528Q155 519 146 519T131 524T125 539T135 558Q153 577 162 593T174 630L179 616Q157 616 144 629T131 662Q131 683 143 695T175 708Q196 708 207 694T219 655Q219 631 213 609T194
566T164 528Z" />
<glyph unicode="&#x201a;" glyph-name="quotesinglbase" horiz-adv-x="219" d="M67 -91Q57 -101 48 -101T33 -96T27 -81T37 -62Q55 -43 64 -26T76 11L82 -3Q60 -3 47 10T33 43Q33 63 45 76T78 89Q99 89 110 75T122 36Q122 12 116 -11T97 -54T67 -91Z" />
<glyph unicode="&#x201c;" glyph-name="quotedblleft" horiz-adv-x="372" d="M172 697Q182 707 191 707T206 702T212 687T202 668Q184 649 176 633T163 595L157 610Q179 610 192 597T206 563Q206 544 194 531T161 517Q140 517 129 531T117 570Q117 594 124 617T143
660T172 697ZM325 697Q335 707 344 707T359 702T365 687T355 668Q337 649 329 633T316 595L310 610Q332 610 345 597T359 563Q359 544 347 531T314 517Q293 517 282 531T270 570Q270 594 277 617T296 660T325 697Z" />
<glyph unicode="&#x201d;" glyph-name="quotedblright" horiz-adv-x="372" d="M164 528Q155 519 146 519T131 524T125 539T135 558Q153 577 162 593T174 630L179 616Q157 616 144 629T131 662Q131 683 143 695T175 708Q196 708 207 694T219 655Q219 631 213 609T194
566T164 528ZM317 528Q308 519 299 519T284 524T278 539T288 558Q306 577 315 593T327 630L332 616Q310 616 297 629T284 662Q284 683 296 695T328 708Q349 708 360 694T372 655Q372 631 366 609T347 566T317 528Z" />
<glyph unicode="&#x201e;" glyph-name="quotedblbase" horiz-adv-x="372" d="M67 -91Q57 -101 48 -101T33 -96T27 -81T37 -62Q55 -43 64 -26T76 11L82 -3Q60 -3 47 10T33 43Q33 63 45 76T78 89Q99 89 110 75T122 36Q122 12 116 -11T97 -54T67 -91ZM220 -91Q210
-101 201 -101T186 -96T180 -81T190 -62Q208 -43 217 -26T229 11L235 -3Q213 -3 200 10T186 43Q186 63 198 76T231 89Q252 89 263 75T275 36Q275 12 269 -11T250 -54T220 -91Z" />
<glyph unicode="&#x2022;" glyph-name="bullet" horiz-adv-x="524" d="M265 88Q216 88 175 111T109 175T84 265Q84 311 107 351T172 417T265 443Q313 443 354 420T421 357T446 265Q446 216 422 176T356 112T265 88Z" />
<glyph unicode="&#x2039;" glyph-name="guilsinglleft" horiz-adv-x="248" d="M155 93Q145 89 135 93T119 109L63 244Q60 252 60 263T69 286L176 429Q183 437 192 439T210 438Q221 433 222 421T213 394L121 263L168 129Q173 116 170 107T155 93Z" />
<glyph unicode="&#x203a;" glyph-name="guilsinglright" horiz-adv-x="248" d="M44 93Q33 98 32 110T41 136L133 268L87 402Q82 415 85 424T99 438Q110 441 120 437T135 422L191 287Q194 278 194 267T185 245L78 101Q72 93 63 91T44 93Z" />
</font>
</defs>
</svg>
