<?xml version="1.0" standalone="no"?>
<!DOCTYPE svg PUBLIC "-//W3C//DTD SVG 1.1//EN" "http://www.w3.org/Graphics/SVG/1.1/DTD/svg11.dtd">
<svg xmlns="http://www.w3.org/2000/svg">
<defs >
<font id="EBGaramond" horiz-adv-x="528" ><font-face
    font-family="EB Garamond SemiBold"
    units-per-em="1000"
    panose-1="0 0 0 0 0 0 0 0 0 0"
    ascent="1007"
    descent="-298"
    alphabetic="0" />
<glyph unicode=" " glyph-name="space" horiz-adv-x="225" />
<glyph unicode="!" glyph-name="exclam" horiz-adv-x="277" d="M136 187Q126 187 120 197T110 234Q103 285 97 333T86 426T78 507T75 573Q74 602 93 625T140 649Q169 649 186 627T203 574Q203 546 199 508T189 426T176 333T162 234Q159 214 153 201T136 187ZM136
-14Q108 -14 88 6T68 54Q68 83 88 102T136 122Q164 122 184 103T204 54Q204 26 184 6T136 -14Z" />
<glyph unicode="&quot;" glyph-name="quotedbl" horiz-adv-x="376" d="M77 420Q71 420 69 429T67 446Q68 464 68 479T67 509Q67 530 66 551T63 591T61 618Q61 632 69 642T86 658Q102 669 114 675T142 681Q152 681 157 671T163 646Q163 616 152 578T127 505T103
449Q98 439 90 430T77 420ZM228 420Q222 420 220 429T218 446Q219 464 219 479T218 509Q218 530 217 551T214 591T212 618Q212 632 220 642T237 658Q253 669 265 675T293 681Q303 681 308 671T314 646Q314 616 303 578T278 505T254 449Q249 439 241 430T228 420Z"
/>
<glyph unicode="#" glyph-name="numbersign" horiz-adv-x="479" d="M67 -88Q61 -88 57 -83T53 -72V-68L95 98L35 95Q27 95 22 100T16 112Q16 130 19 143T30 165T48 174L113 177L143 297L77 294Q69 294 64 299T59 311Q59 329 62 342T73 364T91 373L163 376L201
532Q204 546 214 550T239 554Q244 554 246 549T249 538Q249 536 249 535T248 532L211 378L324 383L363 543Q366 557 376 561T401 565Q406 565 408 560T411 549Q411 547 411 546T410 543L372 386L431 389Q440 389 445 385T451 372Q451 360 447 346T434 322T414 310L352
307L322 186L388 189Q398 190 403 185T409 172Q409 160 404 146T391 122T372 111L303 108L263 -55Q260 -68 252 -71T229 -75Q224 -75 220 -70T216 -59V-55L256 105L142 100L100 -68Q97 -82 89 -85T67 -88ZM161 179L275 184L304 305L191 300L161 179Z" />
<glyph unicode="$" glyph-name="dollar" horiz-adv-x="454" d="M175 -82Q165 -82 160 -75T155 -58L163 8Q164 12 162 13T157 16Q130 21 106 31T59 56Q54 60 50 65T42 76Q35 99 32 132T30 196Q30 208 48 208Q55 208 59 206T65 197Q80 148 104 116T160 68Q164 67
166 67T170 72L192 265Q193 270 191 274T182 282Q148 302 117 326T66 382T46 459Q46 506 68 543T131 604T227 633Q237 634 237 640L242 694Q244 703 253 707T276 712Q284 712 288 706T290 690Q290 684 289 675T287 655T285 639Q285 633 292 631Q314 627 334 621T366
609Q376 606 381 600T389 583Q394 564 398 538T403 482Q403 477 398 474T387 471Q379 471 371 474T361 485Q347 523 328 548T283 583Q277 583 277 577L256 408Q255 400 259 396T278 382Q322 356 352 330T399 271T416 196Q416 111 362 65T218 13Q211 13 210 6L202
-69Q201 -76 193 -79T175 -82ZM227 58Q265 63 285 87T305 147Q305 183 290 204T245 245Q238 249 238 240L218 69Q217 58 227 58ZM204 430Q211 425 211 432L229 577Q230 587 222 586Q192 580 174 561T155 503Q155 482 168 465T204 430Z" />
<glyph unicode="%" glyph-name="percent" horiz-adv-x="685" d="M158 263Q118 263 88 287T40 350T23 437Q23 487 41 527T92 592T170 616Q213 616 242 593T288 531T305 446Q305 392 287 351T235 287T158 263ZM168 292Q190 292 201 313T216 368T220 436Q220 471
215 505T198 562T161 585Q140 585 129 565T113 512T109 446Q109 419 111 392T120 343T138 306T168 292ZM522 644Q530 657 541 660T568 664Q575 664 580 659T585 649Q585 645 584 644L164 -18Q158 -30 147 -33T122 -36Q115 -36 108 -32T101 -22Q101 -20 102 -18L522
644ZM515 -17Q475 -17 445 7T397 70T380 157Q380 207 398 247T449 312T527 336Q570 336 599 313T645 251T662 166Q662 112 644 71T592 7T515 -17ZM525 12Q547 12 558 33T573 88T577 156Q577 191 572 225T555 282T518 305Q497 305 486 285T470 232T466 166Q466 139
468 112T477 63T495 26T525 12Z" />
<glyph unicode="&amp;" glyph-name="ampersand" horiz-adv-x="785" d="M209 -16Q165 -16 125 1T59 51T34 129Q34 195 77 249T194 338L215 348L204 359Q194 370 178 386T150 426T137 479Q137 514 159 541T220 584T305 600Q350 600 382 584T433 542T451 486Q451
443 423 417T345 373L326 365L343 347Q374 314 404 284T461 221L477 202L492 217Q514 238 531 262T560 308T572 338Q572 350 564 358T543 370Q537 373 532 376T526 386Q526 396 535 397T553 399Q562 399 577 398T609 395T640 393Q659 393 681 397T723 407T759 412Q764
412 768 408T773 400Q773 393 764 386T743 376Q714 372 693 359T657 331Q648 323 632 307T595 271T556 232T520 198T496 176L514 153Q546 112 575 85T638 58Q656 58 676 62T716 74Q721 76 726 78T737 80Q745 80 748 78T752 66Q752 55 731 35T676 0T600 -15Q562
-15 535 -4T485 29T436 84L420 105L415 99Q385 65 353 39T286 -1T209 -16ZM267 69Q300 69 331 80T390 122L398 130L384 149Q354 188 320 227T246 308L234 322L215 312Q187 300 173 280T153 237T147 190Q147 136 180 103T267 69ZM308 387L319 395Q338 407 347 433T356
485Q357 517 344 542T300 567Q278 567 260 551T242 510Q242 486 247 468T264 436T289 406L308 387Z" />
<glyph unicode="&apos;" glyph-name="quotesingle" horiz-adv-x="225" d="M77 420Q71 420 69 429T67 446Q68 464 68 479T67 509Q67 530 66 551T63 591T61 618Q61 632 69 642T86 658Q102 669 114 675T142 681Q152 681 157 671T163 646Q163 616 152 578T127 505T103
449Q98 439 90 430T77 420Z" />
<glyph unicode="(" glyph-name="parenleft" horiz-adv-x="308" d="M238 -215Q224 -215 213 -204Q192 -183 169 -145T122 -56T79 49T49 161T37 268Q37 331 53 394T96 515T152 618T208 690Q215 696 226 701T248 706Q256 706 268 699T280 682Q280 681 276 675T268
663T261 655Q234 621 207 565T162 435T143 275Q143 216 153 152T179 27T215 -81T256 -154Q257 -156 262 -162T272 -174T277 -182Q277 -197 265 -206T238 -215Z" />
<glyph unicode=")" glyph-name="parenright" horiz-adv-x="308" d="M70 -215Q55 -215 43 -206T31 -182Q31 -181 35 -175T46 -162T52 -154Q73 -129 93 -82T129 26T155 151T165 275Q165 361 147 434T101 564T47 655Q46 656 41 662T32 675T28 682Q28 692 40 699T60
706Q71 706 82 701T100 690Q126 663 155 618T211 516T254 395T271 268Q271 217 260 161T229 50T187 -56T139 -144T94 -204Q84 -215 70 -215Z" />
<glyph unicode="*" glyph-name="asterisk" horiz-adv-x="352" d="M192 359Q182 359 175 366T165 386L152 464Q141 458 122 446T83 422Q78 420 74 418T64 416Q55 416 47 422T39 439Q39 453 53 464L115 513Q104 520 84 529T44 550Q37 554 32 561T26 578Q26 592 38
597T66 598Q85 590 103 583T139 568Q138 588 137 607T136 648Q136 660 142 670T161 680Q172 680 179 672T188 653L199 575Q209 582 228 594T265 618Q270 621 274 623T285 625Q294 625 301 619T309 602Q309 588 297 577L236 527Q248 520 267 511T307 492Q315 488
320 481T326 466Q326 451 314 446T287 443Q267 451 249 458T213 471Q213 458 215 435T217 390Q217 378 212 369T192 359Z" />
<glyph unicode="+" glyph-name="plus" horiz-adv-x="598" d="M283 -10Q279 -10 275 -6T271 5V211Q271 220 262 220H55Q49 220 44 224T39 233Q39 240 42 250T50 268T66 277H260Q267 277 269 280T271 289V466Q271 476 279 483T299 494T317 498Q324 498 328 493T332
480V288Q332 277 340 277H545Q552 277 557 274T563 264Q563 251 554 236T531 220H341Q332 220 332 211V17Q332 7 323 1T302 -8T283 -10Z" />
<glyph unicode="," glyph-name="comma" horiz-adv-x="242" d="M44 -159Q21 -159 21 -144Q21 -138 26 -135T41 -129Q66 -123 86 -111T118 -80T130 -34Q130 -18 118 -6T89 10Q71 13 58 27T45 62Q45 86 65 102T110 119Q152 119 178 91T205 17Q205 -22 190 -54T151
-110T99 -146T44 -159Z" />
<glyph unicode="-" glyph-name="hyphen" horiz-adv-x="302" d="M36 166Q27 166 27 175Q27 201 32 217T47 234Q99 242 154 249T262 262Q270 262 272 259T275 250Q275 223 271 210T255 194Q204 187 147 179T36 166Z" />
<glyph unicode="." glyph-name="period" horiz-adv-x="242" d="M120 -25Q91 -25 70 -4T48 47Q48 78 69 99T120 121Q151 121 172 100T194 47Q194 18 173 -3T120 -25Z" />
<glyph unicode="/" glyph-name="slash" horiz-adv-x="403" d="M36 -62Q26 -62 21 -57T18 -44L323 646Q329 659 340 662T366 666Q379 666 383 660T384 646L78 -44Q73 -56 61 -59T36 -62Z" />
<glyph unicode="0" glyph-name="zero" horiz-adv-x="513" d="M511 -14Q454 -14 412 14T343 88T302 191T288 302Q288 359 301 417T343 523T416 601T522 631Q579 631 621 603T690 529T731 427T745 317Q745 260 732 202T691 95T618 16T511 -14ZM527 25Q562 25 583
63T613 164T623 299Q623 352 616 404T594 499T556 566T505 592Q471 592 451 554T421 453T411 319Q411 266 418 214T440 118T476 50T527 25Z" />
<glyph unicode="1" glyph-name="one" horiz-adv-x="513" d="M114 -3Q107 -3 102 1T97 11Q97 24 114 29Q146 37 167 44T200 65T211 102V471Q211 494 199 505T167 522T126 530Q117 531 109 535T100 551Q100 561 108 566T129 573Q183 579 226 592T312 634Q313 635
315 635T321 636Q327 636 332 634T338 626Q337 613 335 596T333 554V98Q333 76 344 64T378 45T433 28Q441 26 446 22T451 11Q451 -2 436 -2Q412 -2 383 -1T326 1T275 2Q251 2 223 1T167 -1T114 -3Z" />
<glyph unicode="2" glyph-name="two" horiz-adv-x="513" d="M440 -4Q433 -4 413 -3T365 -1T309 0T257 1Q234 1 205 1T146 0T96 -2T70 -3Q67 -3 59 3T50 14Q50 22 54 25T62 33L216 201Q267 256 295 316T324 445Q324 491 299 520T234 550Q197 550 165 529T111 480Q106
474 99 468T83 462Q77 462 73 469T69 487Q69 502 85 525T129 573T195 613T276 630Q327 630 363 608T418 548T437 463Q437 436 426 404T396 341T359 287Q344 270 321 247T271 198T222 150T185 113T170 96Q170 92 185 90Q203 88 227 87T274 86Q299 86 323 87T371
90Q396 92 412 97T440 114T463 146Q466 153 473 160T490 168Q497 168 499 163T500 151Q494 132 486 107T470 58T461 19Q460 7 452 2T440 -4Z" />
<glyph unicode="3" glyph-name="three" horiz-adv-x="513" d="M169 -38Q146 -38 122 -31T81 -13T64 9Q64 20 69 33T84 55T102 65Q111 65 118 60T133 48Q147 34 165 19T209 3Q243 3 271 21T317 71T335 148Q335 188 323 221T288 274T231 294Q210 294 194 288T166
275Q159 271 151 275T143 287Q148 304 158 315T181 333Q204 345 225 359T264 390T292 428T303 475Q303 510 280 536T219 562Q187 562 165 550T129 521T107 492T94 479Q88 479 81 486T74 502Q74 512 85 533T120 576T181 613T273 629Q310 629 342 615T394 574T414
511Q414 488 402 460T362 406T289 365Q286 364 286 362T290 359Q339 359 377 339T437 284T460 202Q460 147 436 103T370 28T276 -21T169 -38Z" />
<glyph unicode="4" glyph-name="four" horiz-adv-x="513" d="M214 -3Q208 -3 201 0T193 11Q193 19 200 23T214 29Q256 36 270 48T285 89V158Q285 163 279 165T269 168Q235 168 197 166T117 163T34 160Q29 160 25 163T21 169Q21 172 24 177Q33 189 38 195T47 206T57
220L310 609Q317 621 328 631T350 642H362Q370 642 370 635T366 624L120 245Q117 240 118 237T125 233H276Q279 233 282 235T285 240V372Q285 387 287 393T299 403Q322 414 348 417T385 421Q402 421 405 403T408 349V235Q408 229 413 229Q425 228 433 228T450 228Q465
228 478 228T508 230Q520 230 520 222Q520 214 516 201T506 178T498 167Q486 167 474 167T450 168Q440 168 435 168T422 166Q418 165 414 163T409 160V92Q409 63 422 52T474 29Q482 26 489 22T496 11Q496 5 491 2T477 -2Q453 -2 431 -1T387 1T345 2Q322 2 302 1T260
-1T214 -3Z" />
<glyph unicode="5" glyph-name="five" horiz-adv-x="513" d="M125 -38Q112 -38 96 -36T80 -24Q80 -14 93 -9T120 -3Q187 1 235 27T308 90T334 165Q334 203 314 231T248 283T128 328Q103 339 94 350T84 378Q84 392 89 415T103 465T118 515T129 549Q134 570 146
580T174 594Q195 599 224 604T286 614T348 623T394 629Q402 629 406 623T407 609Q405 597 398 582T386 555Q378 537 364 526T331 513Q314 511 290 510T240 507T194 504T164 501Q157 500 151 490T139 467T134 450Q134 444 136 440T145 434Q201 422 245 406T324 373Q386
343 413 299T441 198Q441 142 408 92T318 11Q296 -2 265 -13T198 -31T125 -38Z" />
<glyph unicode="6" glyph-name="six" horiz-adv-x="513" d="M269 -15Q206 -15 159 10T86 81T60 193Q60 248 72 293T104 374T142 434T175 474Q199 501 237 531T326 590T433 636Q447 640 458 640T470 633Q468 623 459 617T437 605Q378 578 338 544T262 457Q248 434
228 394T194 302T179 197Q180 142 196 104T238 47T290 27Q324 26 348 56T372 147Q372 178 361 203T333 245T294 261Q277 261 265 259T241 250Q225 243 222 251T228 270Q235 277 240 282T252 292Q267 303 297 317T354 332Q390 332 421 314T472 266T492 197Q492 155
475 117T428 49T357 2T269 -15Z" />
<glyph unicode="7" glyph-name="seven" horiz-adv-x="513" d="M155 -30Q143 -30 136 -22T128 -1Q128 5 137 20T153 47L408 503Q412 509 409 512T397 515H163Q138 515 122 507T90 475Q87 471 81 461T67 442T50 433Q44 433 41 438T37 448Q37 455 40 468T45 487Q51
517 58 552T67 612Q67 621 73 624T84 627Q93 626 119 622T177 616Q198 616 224 616T276 616T323 615Q364 615 400 615T464 617T505 619Q509 619 511 613T514 600Q514 595 508 584T494 560T476 533L176 0Q171 -9 165 -19T155 -30Z" />
<glyph unicode="8" glyph-name="eight" horiz-adv-x="513" d="M257 -13Q205 -13 160 6T89 61T62 143Q62 183 85 210T140 257T200 292Q208 297 206 300T196 308Q166 332 140 357T97 413T80 484Q80 527 110 560T186 611T283 629Q327 629 367 612T433 564T458 491Q458
453 440 429T400 392Q389 385 378 378T353 362Q339 353 339 349T348 338Q385 314 414 290T461 237T478 171Q478 115 447 74T366 10T257 -13ZM274 25Q313 25 338 53T363 121Q363 149 346 175T304 225T254 266Q249 271 245 273T237 276Q234 276 224 269Q199 247 188
221T177 153Q177 121 189 92T222 44T274 25ZM310 373Q332 394 340 426T348 496Q348 535 330 564T273 593Q252 593 234 582T203 553T191 510Q191 478 204 457T241 416T292 375Q297 371 301 370T310 373Z" />
<glyph unicode="9" glyph-name="nine" horiz-adv-x="513" d="M76 -44Q64 -44 59 -40T54 -31Q54 -21 61 -17T77 -11Q112 -9 150 12T224 65T289 134Q313 166 334 205T369 290T383 389Q383 423 374 457T348 520T310 566T267 583Q240 583 222 569T194 530T184 472Q184
442 196 414T227 367T268 348Q288 348 299 353T324 364Q339 370 342 361T337 343Q333 335 326 329T312 316Q305 310 290 301T256 286T218 279Q182 279 147 297T90 348T67 421Q67 454 84 490T133 558T205 609T293 629Q334 629 371 610T437 559T482 486T499 400Q499
337 479 283T425 181T353 95Q328 70 293 46T218 1T142 -32T76 -44Z" />
<glyph unicode=":" glyph-name="colon" horiz-adv-x="271" d="M130 251Q101 251 80 272T58 323Q58 354 79 375T130 397Q161 397 182 376T204 323Q204 294 183 273T130 251ZM130 -25Q101 -25 80 -4T58 47Q58 78 79 99T130 121Q161 121 182 100T204 47Q204 18 183
-3T130 -25Z" />
<glyph unicode=";" glyph-name="semicolon" horiz-adv-x="241" d="M110 252Q81 252 60 273T38 324Q38 355 59 376T110 398Q141 398 162 377T184 324Q184 295 163 274T110 252ZM44 -159Q21 -159 21 -144Q21 -138 26 -135T41 -129Q66 -123 86 -111T118 -80T130 -34Q130
-18 118 -6T89 10Q71 13 58 27T45 62Q45 86 65 102T110 119Q152 119 178 91T205 17Q205 -22 190 -54T151 -110T99 -146T44 -159Z" />
<glyph unicode="&lt;" glyph-name="less" horiz-adv-x="547" d="M482 -1L89 191Q74 198 59 207T43 221Q43 228 53 245T80 270L483 468Q487 470 490 470Q498 470 501 465T504 452Q504 440 495 425T470 402L135 237Q132 236 132 234T135 229L473 64Q489 57 496 42T504
15Q504 2 497 -1T482 -1Z" />
<glyph unicode="=" glyph-name="equal" horiz-adv-x="608" d="M62 315Q56 315 52 319T47 328Q47 333 49 343T58 361T73 369H542Q550 369 555 366T561 356Q561 345 552 330T529 315H62ZM62 138Q56 138 52 142T47 150Q47 156 49 166T58 184T73 192H542Q550 192 555
188T561 178Q561 166 552 152T529 138H62Z" />
<glyph unicode="&gt;" glyph-name="greater" horiz-adv-x="547" d="M65 466L458 274Q473 267 488 259T504 244Q504 237 494 220T467 195L64 -3Q60 -5 57 -5Q50 -5 47 0T44 13Q44 25 53 40T78 63L413 228Q416 230 416 232T412 236L74 401Q59 408 51 423T43 450Q43
463 51 466T65 466Z" />
<glyph unicode="?" glyph-name="question" horiz-adv-x="389" d="M143 176Q136 176 128 184T113 206Q107 222 100 242T93 294Q93 326 121 349T204 399Q232 412 250 430T268 473Q268 510 245 531T184 553Q167 553 158 550T143 545Q137 543 130 542T113 540Q100
540 88 552T68 582T60 616Q60 633 78 647T119 661Q154 661 188 644T253 595Q278 569 296 538T324 475T335 415Q335 376 320 354T288 323Q271 314 257 306T230 290T199 272Q178 260 172 243T162 199Q161 189 157 183T143 176ZM147 -14Q118 -14 98 6T78 54Q78 83
98 102T147 122Q175 122 195 103T215 54Q215 26 195 6T147 -14Z" />
<glyph unicode="@" glyph-name="at" horiz-adv-x="770" d="M393 -146Q322 -146 258 -122T145 -54T68 50T39 183Q39 268 70 332T154 439T277 505T422 527Q484 527 539 505T638 444T706 353T731 240Q731 179 701 132T623 59T522 33Q497 33 484 43T464 63T452 73Q447
73 430 63T385 42T323 31Q267 31 228 62T189 152Q189 220 220 270T304 347T418 374Q435 374 456 371T488 365Q497 362 503 360T514 357Q520 357 524 363T532 374T542 380Q544 380 551 379T564 376T569 371Q561 350 554 322T544 279L521 144Q520 138 519 132T518
118Q518 107 522 98T536 89Q571 89 601 105T650 152T669 223Q669 297 635 353T542 442T406 475Q345 475 290 456T193 399T126 310T101 194Q101 133 125 81T191 -11T288 -72T405 -94Q436 -94 474 -84T550 -58T614 -22Q621 -17 629 -12T642 -7Q663 -7 663 -24Q663
-35 638 -55T571 -96T483 -131T393 -146ZM361 78Q379 78 392 83T419 99Q428 105 434 116T444 149L465 260Q466 262 466 265T466 272Q466 300 445 317T394 334Q366 334 340 316T298 263T281 178Q281 142 293 120T324 88T361 78Z" />
<glyph unicode="A" glyph-name="A" horiz-adv-x="711" d="M24 -5Q12 -5 4 -2T-4 10Q-4 19 3 24T23 33Q52 41 73 57T108 103Q133 162 156 216T200 325T242 435T286 553Q297 584 301 601T308 626Q323 630 336 634T365 644Q379 651 389 662T404 679Q407 681 410 681T416
677Q419 671 421 665T425 652Q447 581 470 509T517 366T561 231T601 112Q610 85 623 69T653 45T690 31Q703 28 710 23T717 9Q717 3 711 0T694 -3Q676 -3 649 -2T592 0T540 2Q520 2 496 1T447 -1T405 -2Q395 -2 388 1T380 12Q380 20 388 25T407 33Q443 39 459 51T471
88Q468 105 462 128T450 177T436 224Q434 232 430 235T415 239H235Q228 239 224 235T218 221Q214 208 209 192T198 158T188 125T181 99Q176 72 190 57T241 32Q268 25 268 11Q268 5 262 2T243 -2Q220 -2 195 -1T140 1Q110 1 82 -2T24 -5ZM262 285H401Q415 285 415
291Q415 294 415 296T413 302L343 533Q339 547 336 547Q334 547 329 534L245 302Q243 297 243 294Q243 289 248 287T262 285Z" />
<glyph unicode="B" glyph-name="B" horiz-adv-x="613" d="M41 -5Q30 -5 24 -1T17 9Q17 22 43 28Q78 37 94 50T111 97V550Q111 584 98 599T48 620Q34 622 28 628T22 640Q22 647 28 650T46 654Q76 654 95 653T131 651T171 649Q193 649 210 651T249 655T303 657Q421
657 481 624T542 508Q542 476 529 449T497 407Q481 392 465 383T426 367Q422 366 422 362T426 357Q451 351 477 341T527 313T565 267T580 194Q580 138 563 106T521 56T475 28Q443 12 402 4T302 -4Q275 -4 244 -2T179 0Q156 0 134 -1T88 -3T41 -5ZM307 46Q342 46
372 65T420 116T438 187Q438 224 428 247T405 285T380 307Q370 314 348 322T290 330Q268 330 254 320T240 297V112Q240 77 257 62T307 46ZM282 369Q307 369 331 375T379 397Q388 404 401 426T415 490Q415 527 405 556T369 601T298 618Q265 618 253 607T240 574V405Q240
384 255 377T282 369Z" />
<glyph unicode="C" glyph-name="C" horiz-adv-x="709" d="M405 -14Q330 -14 263 9T145 77T64 182T34 319Q34 389 63 451T145 561T271 636T433 664Q467 664 497 660T557 649T614 632Q625 628 631 621T639 602Q643 572 645 543T647 484Q648 474 640 470T623 468T610
483Q602 511 592 535T560 577Q537 596 502 607T420 619Q366 619 322 597T247 536T198 448T181 345Q181 281 196 224T243 124T320 56T423 31Q497 31 543 63T621 158Q629 174 643 174T657 157Q657 145 654 127T646 89T633 48Q629 36 623 30T605 19Q567 3 516 -5T405
-14Z" />
<glyph unicode="D" glyph-name="D" horiz-adv-x="762" d="M379 -7Q352 -7 314 -5T238 -2T174 0Q154 0 134 0T91 -2T44 -4Q35 -4 28 -1T21 10Q21 19 27 23T47 29Q85 37 99 51T113 98V550Q113 584 100 598T47 620Q34 622 28 626T21 640Q21 647 28 650T44 654Q68
654 90 654T133 652T177 650Q192 650 217 651T272 654T328 657T370 659Q454 659 521 635T635 568T708 466T733 338Q733 269 708 207T637 97T525 21T379 -7ZM364 39Q436 39 486 73T563 170T589 315Q589 383 572 438T523 532T448 592T353 613Q317 613 293 611T256
600T243 568V128Q243 93 258 74T301 47T364 39Z" />
<glyph unicode="E" glyph-name="E" horiz-adv-x="571" d="M49 -5Q38 -5 32 -1T25 9Q25 22 51 28Q87 37 102 50T118 97V550Q118 584 105 598T54 620Q40 623 34 628T28 640Q28 647 34 650T52 654Q81 654 107 653T159 651T211 650Q257 650 308 651T401 652Q434 653
455 655T481 657Q488 657 495 654T504 642Q508 609 514 577T520 521Q520 512 516 508T506 503Q501 503 497 506T490 517Q482 540 475 557T459 583Q446 597 429 605T388 613H295Q277 613 262 603T247 573V377Q247 366 253 360T269 354H361Q388 354 399 369T419 410Q426
430 438 430Q443 430 447 425T451 410Q450 400 449 386T448 358T447 333Q447 321 447 306T448 277T450 252Q451 241 449 235T440 229Q424 229 417 257Q409 285 398 299T368 313H274Q261 313 254 308T247 289V99Q247 66 261 53T304 40H386Q411 40 431 45T467 61Q484
73 497 93T524 139Q528 147 532 149T542 152Q547 151 549 146T552 135Q552 121 547 99T535 54T521 10Q518 3 513 0T501 -4Q477 -4 440 -4T358 -2T268 -1T180 0Q159 0 138 -1T94 -3T49 -5Z" />
<glyph unicode="F" glyph-name="F" horiz-adv-x="535" d="M45 -4Q36 -4 29 -1T22 9Q22 24 47 29Q85 37 99 51T114 98V538Q114 576 102 594T53 620Q39 623 33 628T27 640Q27 647 33 650T51 654Q79 654 105 653T156 651T207 650Q243 650 285 650T366 650Q404 650
434 655T486 661Q492 661 499 658T508 645Q510 626 511 602T512 556T513 521Q513 501 502 501Q497 501 492 505T484 516Q478 538 471 555T452 583Q439 598 422 604T381 610H290Q266 610 255 597T243 562Q243 544 243 519T243 472Q243 449 243 423T243 376Q243 366
247 360T262 353Q289 353 316 354T365 355Q389 355 402 369T424 403Q428 410 433 415T444 420Q449 420 453 415T457 400Q455 381 454 365T452 334Q452 316 453 302T456 265Q457 254 455 248T446 242Q438 242 432 250T423 266Q415 293 403 303T374 313Q362 313 350
313T326 314Q311 314 296 314T265 313Q254 312 248 307T242 289Q242 243 242 195T244 99Q245 68 261 53T317 29Q330 27 336 23T342 10Q342 3 337 0T320 -3Q297 -3 273 -2T226 1T184 2Q162 2 139 1T93 -2T45 -4Z" />
<glyph unicode="G" glyph-name="G" horiz-adv-x="722" d="M383 -14Q312 -14 249 10T138 77T62 181T34 313Q34 384 61 447T139 558T257 635T409 664Q428 664 456 661T514 652T569 641T609 629Q616 626 620 622T625 609Q630 576 633 546T636 494Q636 486 632 480T620
474Q609 474 604 481T595 498Q587 516 577 533T552 567Q542 577 525 588T480 608T414 616Q359 616 315 594T241 531T195 441T179 335Q179 266 195 211T240 116T309 55T399 34Q435 34 455 44T485 63Q496 72 503 90T511 132Q511 141 511 155T512 183T513 206Q513
217 510 225T496 239Q487 246 473 251T445 259T421 263Q414 264 406 269T398 283Q398 291 405 295T419 299Q442 299 466 298T515 296T563 295Q591 295 618 297T675 299Q681 299 687 296T694 283Q694 275 687 270T674 264Q647 257 638 246T625 215Q621 193 620 176T618
140V109Q618 104 621 100T629 91Q633 86 636 81T640 71Q640 65 637 59T622 50Q615 49 595 39T545 17T474 -5T383 -14Z" />
<glyph unicode="H" glyph-name="H" horiz-adv-x="804" d="M48 -4Q39 -4 32 0T25 10Q25 24 50 29Q86 37 98 51T110 98V551Q110 584 100 598T53 620Q28 625 28 640Q28 647 34 650T51 654Q75 654 96 653T137 651T177 650Q197 650 218 651T263 653T309 654Q331 654
331 639Q331 631 325 627T306 620Q267 610 254 595T240 550V364Q240 357 244 355T255 352H554Q565 352 565 366V551Q565 580 552 595T500 620Q487 623 481 627T474 639Q474 654 496 654Q520 654 544 653T590 651T634 650Q653 650 671 651T709 653T754 654Q763 654
770 651T777 640Q777 625 751 620Q716 612 706 597T695 551V98Q695 65 706 51T753 29Q778 24 778 10Q778 4 771 0T755 -4Q732 -4 711 -3T670 0T629 1Q609 1 587 0T542 -2T495 -3Q486 -3 480 0T474 11Q474 19 480 22T498 29Q534 38 549 53T565 98V288Q565 294 564
299T555 304H251Q240 304 240 289V102Q240 72 257 55T311 29Q324 26 330 23T336 11Q336 4 331 1T314 -3Q291 -3 267 -2T221 0T177 1Q156 1 135 0T92 -2T48 -4Z" />
<glyph unicode="I" glyph-name="I" horiz-adv-x="356" d="M40 -4Q31 -4 24 -1T17 9Q17 24 42 29Q80 37 97 51T114 97V551Q114 584 100 598T47 620Q22 625 22 641Q22 647 29 650T45 654Q69 654 92 653T136 651T180 650Q201 650 222 651T267 653T314 654Q324 654
330 651T336 640Q336 632 330 628T311 620Q271 610 257 596T243 550V98Q243 67 259 53T314 29Q327 26 333 22T340 10Q340 3 334 0T318 -3Q294 -3 270 -2T224 0T180 1Q158 1 135 0T88 -2T40 -4Z" />
<glyph unicode="J" glyph-name="J" horiz-adv-x="360" d="M49 -200Q-78 -200 -78 -145Q-78 -126 -62 -109T-31 -91Q-19 -91 -8 -96T13 -115Q30 -135 40 -146T62 -158Q94 -158 110 -118T126 4V551Q126 584 112 598T60 620Q34 625 34 641Q34 647 41 650T57 654Q82
654 104 653T149 651T192 650Q212 650 232 651T274 653T320 654Q330 654 336 651T342 640Q342 632 336 628T316 620Q277 610 266 597T255 550V73Q255 41 244 7T214 -60T175 -119Q148 -154 116 -177T49 -200Z" />
<glyph unicode="K" glyph-name="K" horiz-adv-x="736" d="M51 -6Q40 -6 31 -2T22 9Q22 24 51 29Q89 37 101 51T114 99V551Q114 584 101 598T48 620Q22 625 22 641Q22 647 29 650T45 654Q69 654 92 654T136 652T178 650Q198 650 218 651T261 653T307 654Q317 654
323 651T329 640Q329 632 323 628T303 620Q264 610 254 595T243 550V352Q243 346 245 341T252 336Q257 336 263 340T277 352L472 558Q480 567 484 574T489 589Q489 609 455 617Q443 620 437 625T431 638Q431 644 438 647T454 651H518Q550 651 583 651T647 653T704
654Q714 654 721 651T729 641Q729 633 720 628T698 621Q652 614 614 598T544 557Q512 532 484 505T426 449T365 387Q354 377 367 361L608 97Q624 79 637 67T668 46T713 29Q725 26 735 22T745 10Q745 3 736 -1T709 -5Q679 -5 653 -3T600 0T544 1Q515 1 492 0T433
-2Q424 -2 417 1T410 11Q410 25 433 31Q468 38 469 56Q469 63 465 70T453 86L274 290Q268 297 262 302T251 307Q247 307 245 301T243 288Q243 242 244 199T247 103Q248 84 252 70T269 46T307 29Q320 26 328 22T336 10Q336 3 327 0T307 -4Q277 -4 257 -2T221 1T184
3Q163 3 144 1T104 -3T51 -6Z" />
<glyph unicode="L" glyph-name="L" horiz-adv-x="585" d="M46 -5Q35 -5 29 -1T23 9Q23 17 30 21T44 28Q80 37 97 50T114 95V555Q114 578 109 590T90 608T50 620Q24 625 24 641Q24 647 31 650T47 654Q72 654 94 653T138 651T180 650Q203 650 226 651T274 653T322
654Q332 654 338 651T344 640Q344 632 338 628T319 620Q280 610 262 599T243 558V101Q243 72 256 59T305 45H414Q437 45 456 53T487 73Q505 89 517 107T540 149Q547 164 553 172T565 180Q572 180 575 174T578 160Q578 159 577 154T576 146Q568 117 563 96T554 56T547
13Q546 6 543 1T531 -5Q501 -5 459 -4T370 -3T276 -1T186 0Q164 0 136 -1T82 -3T46 -5Z" />
<glyph unicode="M" glyph-name="M" horiz-adv-x="912" d="M45 -4Q33 -4 27 -1T20 9Q20 17 28 20T49 27Q73 34 90 54T111 106Q119 167 126 239T140 384T151 521Q151 528 151 537T151 555Q150 570 146 579T130 597Q116 607 101 612T67 622Q56 624 50 629T43 643Q43
651 51 654T72 657Q85 657 107 656T154 654T205 651T249 650Q257 650 263 645T271 633Q277 614 283 596T296 558L446 191Q449 186 454 186T461 190L622 548Q629 577 633 599T642 634Q645 647 655 647H696Q734 649 776 653T841 657Q849 657 856 655T864 644Q864
636 858 632T840 623Q832 621 821 617T802 608Q781 599 771 585T761 545Q762 474 765 418T770 312T777 211T784 97Q786 69 805 53T858 29Q870 26 877 22T885 10Q885 3 879 0T861 -3Q838 -3 813 -2T765 0T720 1Q700 1 679 0T636 -2T590 -4Q580 -4 573 -1T565 9Q565
17 572 22T592 29Q626 36 639 50T651 97Q650 162 648 222T644 341T639 460Q638 468 635 468T627 459L423 -1Q419 -12 410 -11T398 -1Q352 115 302 228T202 459Q199 467 194 465T187 454Q182 398 178 339T173 220T172 103Q172 76 189 57T243 29Q255 27 263 23T272
10Q272 3 264 0T246 -3Q219 -3 205 -2T179 0T147 1Q126 1 108 0T73 -2T45 -4Z" />
<glyph unicode="N" glyph-name="N" horiz-adv-x="804" d="M676 -18Q664 -18 636 -3T579 49Q562 68 538 95T484 156T422 225T359 297T297 366T242 426T200 474Q196 479 192 482T184 486Q180 486 178 479T176 466Q176 420 176 357T177 229T177 109Q177 78 195 58T252
29Q264 27 272 23T281 10Q281 3 273 0T255 -3Q228 -3 212 -2T183 0T150 1Q129 1 113 0T83 -2T58 -4Q48 -4 40 -1T32 9Q32 17 39 21T60 30Q86 38 98 59T114 111Q118 149 122 210T129 349T133 508Q133 560 107 583T40 620Q33 622 22 628T11 643Q11 652 19 655T36
658Q57 658 78 657T120 656T165 654T216 653Q225 653 229 650T238 640Q254 621 279 593T333 530T395 457T460 381T523 309T577 246T618 199Q622 195 627 189T637 183Q645 183 646 200Q646 226 646 266T646 356T647 458T645 558Q644 583 625 597T576 618Q564 621
554 625T543 639Q543 646 553 649T573 652Q593 652 606 652T632 652T657 651Q679 651 693 651T723 653T767 654Q779 654 786 651T794 641Q794 626 765 620Q730 613 716 601T700 561Q700 536 700 497T698 412T696 318T694 224T693 141Q693 117 695 92T699 48T702
20Q702 -2 695 -10T676 -18Z" />
<glyph unicode="O" glyph-name="O" horiz-adv-x="761" d="M376 -14Q308 -14 246 9T137 76T62 180T34 315Q34 383 56 445T123 557T233 635T385 664Q453 664 514 641T624 574T699 470T727 335Q727 268 705 205T638 93T528 15T376 -14ZM393 30Q456 30 498 62T562
151T584 284Q584 348 571 408T531 515T464 591T367 619Q304 619 262 587T198 498T177 366Q177 302 190 242T229 134T296 58T393 30Z" />
<glyph unicode="P" glyph-name="P" horiz-adv-x="589" d="M42 -4Q33 -4 26 -1T19 9Q19 24 44 29Q82 37 98 51T114 98V538Q114 576 102 594T53 620Q39 623 33 628T27 640Q27 647 33 650T51 654Q75 654 95 654T135 652T174 651Q196 651 215 653T255 657T303 659Q422
659 493 609T564 471Q564 409 539 357T461 272T328 240Q303 240 290 247T277 264Q277 270 283 274T295 279Q304 279 312 278T338 276Q385 276 409 324T434 452Q434 540 399 580T303 621Q275 621 260 610T244 573L243 104Q243 71 259 55T316 29Q329 27 335 23T341
10Q341 3 336 0T319 -3Q296 -3 272 -2T226 1T183 2Q161 2 138 1T90 -2T42 -4Z" />
<glyph unicode="Q" glyph-name="Q" horiz-adv-x="761" d="M734 -248Q670 -248 611 -228T502 -171Q464 -144 432 -121T360 -63Q335 -41 307 -22T246 11Q211 25 174 49T105 110T54 197T34 315Q34 383 56 445T123 557T233 635T385 664Q453 664 514 641T624 574T699
470T727 335Q727 264 702 199T628 83T506 8Q496 5 496 -1Q496 -6 501 -11Q526 -36 552 -59T615 -111Q664 -150 707 -166T797 -182Q810 -182 821 -181T839 -177Q845 -176 850 -175T860 -174Q882 -174 882 -191Q882 -200 878 -205T863 -218Q840 -233 807 -240T734
-248ZM393 31Q488 31 536 99T584 284Q584 350 571 409T531 516T464 590T367 617Q272 617 225 549T177 366Q177 300 190 241T229 134T296 59T393 31Z" />
<glyph unicode="R" glyph-name="R" horiz-adv-x="744" d="M642 -21Q599 -21 567 -12T512 16T470 58Q448 88 427 116T385 179T337 262Q324 285 304 296Q291 303 278 306T255 309Q249 310 246 304T243 289V103Q243 72 259 55T316 29Q329 27 335 23T341 10Q341 3
336 0T319 -3Q296 -3 272 -2T226 1T183 2Q161 2 138 1T90 -2T42 -4Q33 -4 26 -1T19 9Q19 24 44 29Q82 37 98 51T114 98V540Q114 569 110 584T92 608T53 620Q39 622 33 628T27 640Q27 647 33 650T51 654Q81 654 99 653T133 651T173 649Q195 649 212 651T250 655T304
657Q419 657 480 617T541 495Q541 450 522 419T475 367T416 336Q412 335 412 331T416 324Q446 278 474 237T534 158T603 87Q634 58 666 53T734 47Q749 47 749 32Q749 12 734 1T695 -16T642 -21ZM286 338Q327 338 354 356T396 406T411 475Q411 520 400 551T363 600T290
618Q264 618 255 600T244 525Q243 502 243 465T243 375Q243 353 254 346T286 338Z" />
<glyph unicode="S" glyph-name="S" horiz-adv-x="484" d="M214 -15Q171 -15 133 -4T62 29Q56 34 51 39T43 52Q35 77 32 113T30 184Q30 191 35 194T49 197Q57 197 61 195T68 185Q90 110 132 68T227 26Q260 26 283 41T318 80T330 132Q330 167 318 190T280 231T217
271Q176 295 137 321T73 384T48 475Q48 531 76 573T156 640T274 664Q311 664 343 656T394 640Q405 636 410 630T419 611Q425 590 429 561T434 500Q434 488 416 488Q408 488 400 492T390 503Q372 561 341 591T263 621Q232 621 210 611T175 579T162 523Q162 497 179
475T228 432T299 386Q347 358 379 330T429 267T446 185Q446 119 417 75T336 8T214 -15Z" />
<glyph unicode="T" glyph-name="T" horiz-adv-x="687" d="M209 -4Q199 -4 192 -1T184 9Q184 17 191 22T211 29Q249 37 267 51T285 99V504Q285 545 283 566T278 594T267 603Q257 607 242 608T213 609H182Q153 609 126 596T84 559Q80 553 72 542T54 522T34 513Q27
513 25 518T22 529Q22 541 28 553Q45 587 53 612T65 673Q67 688 73 692T87 697Q93 697 101 685T117 664Q126 655 149 651T188 646L557 647Q585 647 604 651T634 661Q649 670 658 679T679 689Q684 689 686 684T689 670Q689 665 688 659T686 647Q682 628 678 614T672
587T669 558V541Q669 527 665 517T652 507Q644 507 639 516T627 546Q618 578 597 593T531 609H463Q444 609 434 602T419 572T414 499V100Q414 68 432 54T489 29Q501 26 508 22T515 10Q515 3 509 0T492 -3Q468 -3 444 -2T397 0T351 1Q329 1 306 0T258 -2T209 -4Z"
/>
<glyph unicode="U" glyph-name="U" horiz-adv-x="742" d="M373 -14Q280 -14 218 19T125 111T94 249V541Q94 571 81 592T45 619Q15 627 15 641Q15 647 23 650T43 654Q71 654 101 652T161 650Q187 650 220 651T278 653Q290 653 297 650T305 640Q305 630 293 626T263
614Q249 608 237 590T224 539V270Q224 198 248 152T312 83T402 61Q497 61 543 121T589 293Q589 318 589 352T589 422T587 492Q587 531 582 555T566 594T538 617Q528 621 515 626T501 639Q501 647 509 650T530 653Q562 653 579 652T620 651Q637 651 650 651T677
653T707 654Q719 654 726 652T733 641Q733 627 704 620Q673 612 661 591T647 536Q643 457 642 391T639 258Q638 178 603 117T507 21T373 -14Z" />
<glyph unicode="V" glyph-name="V" horiz-adv-x="695" d="M338 -15Q326 -15 321 -2Q315 11 306 34T290 76L99 549Q89 574 72 592T27 619Q15 623 8 627T0 640Q0 647 7 650T24 654Q42 654 66 653T116 651T162 650Q182 650 208 651T258 653T300 654Q310 654 319 651T328
640Q328 632 319 627T297 619Q268 614 253 606T237 580Q237 570 240 561T244 545L379 177Q381 172 383 171T389 178L512 502Q532 554 519 583T465 619Q452 621 443 626T433 640Q433 647 442 650T462 653Q480 653 495 653T525 652T559 651Q588 651 616 653T670 655Q682
655 691 652T700 641Q700 632 692 628T671 621Q638 613 617 589T579 527L415 133Q404 106 394 82T375 37T357 -2Q354 -9 350 -12T338 -15Z" />
<glyph unicode="W" glyph-name="W" horiz-adv-x="986" d="M359 -17Q352 -17 348 -9T340 10L100 554Q89 578 74 594T30 619Q18 623 9 627T0 640Q0 647 8 650T27 654Q55 654 86 652T145 650Q175 650 204 652T258 654Q271 654 279 651T288 640Q288 632 280 628T255
619Q241 616 238 608T234 588Q234 579 237 568T240 554Q261 503 280 457T319 366T358 275T399 178Q404 167 407 167T415 177L478 310Q481 317 482 322T484 331Q484 336 483 341T478 353L390 547Q379 574 357 592T306 619Q294 623 287 627T279 640Q279 647 286 650T302
654Q321 654 343 653T387 651T428 650Q455 650 482 651T534 653Q548 653 556 650T565 640Q565 634 559 630T544 621T528 609Q516 606 515 599T516 583Q519 575 525 559T538 525T552 489T563 463Q569 450 572 451T581 463Q588 478 596 501T612 545T624 577Q627 584
627 592Q627 606 616 612T594 624T582 639Q582 646 587 649T607 653Q632 653 640 652T663 650Q679 651 693 652T732 654Q744 654 752 651T761 640Q761 631 753 627T732 620Q701 612 688 598T663 562Q654 546 643 523T621 475T600 428Q595 418 595 406T599 382L684
176Q687 168 690 170T696 179Q729 258 764 354T831 540Q838 559 839 568T841 585Q840 597 834 606T812 619Q802 621 791 626T780 640Q780 647 789 650T809 653Q836 653 850 652T880 651Q899 651 918 653T962 655Q976 655 985 652T994 641Q994 632 985 628T962 621Q941
616 926 604T902 576T886 545L672 7Q669 -1 664 -7T653 -14Q646 -14 641 -9T631 5Q615 42 598 79T562 164T515 271Q512 278 509 277T502 268Q481 223 461 182T422 98T381 10Q377 0 372 -8T359 -17Z" />
<glyph unicode="X" glyph-name="X" horiz-adv-x="736" d="M25 -6Q13 -6 4 -3T-5 8Q-5 17 3 21T24 29Q43 35 64 46T109 76T154 124L277 281Q289 296 290 312T278 347L139 543Q123 566 109 581T79 606T45 620Q33 624 26 628T18 641Q18 648 25 651T42 654Q80 654
126 651T215 649Q247 649 277 651T334 654Q344 654 352 651T361 640Q361 632 353 628T331 619Q303 612 289 605T275 583Q275 569 297 539L390 409Q400 396 407 396T423 407L514 530Q527 547 533 560T539 584Q539 596 529 604T494 619Q484 621 474 626T463 640Q463
647 471 650T493 653Q511 653 524 653T550 651T581 650Q610 650 635 653T687 657Q699 657 708 654T718 642Q718 634 709 630T687 622Q663 615 635 592T584 540L454 381Q442 367 441 358T448 333L611 101Q629 75 651 57T695 31Q708 29 719 23T730 8Q730 2 723 -1T703
-5Q674 -5 644 -4T584 0T524 1Q494 1 466 0T411 -1Q401 -1 392 2T383 12Q383 20 393 25T413 33Q431 38 448 47T466 75Q466 82 464 88T456 102L349 254Q339 270 331 272T312 258L204 111Q194 96 192 85T190 68Q191 55 203 45T236 31Q249 29 258 24T267 10Q267 3
259 0T238 -3Q214 -3 188 -2T140 0Q109 0 81 -3T25 -6Z" />
<glyph unicode="Y" glyph-name="Y" horiz-adv-x="629" d="M189 -6Q176 -6 169 -2T161 9Q161 17 169 21T191 29Q229 36 246 56T263 109V251Q263 280 253 303T234 343L109 540Q101 553 89 569T61 600T27 619Q15 623 8 627T0 640Q0 647 7 650T24 654Q60 654 95 652T171
649Q200 649 226 651T281 654Q291 654 300 651T309 640Q309 632 300 627T279 619Q256 614 245 607T233 586Q233 571 245 551L344 376Q357 351 366 351Q371 351 376 357T389 376Q413 415 433 453T476 536Q482 548 485 559T489 580Q489 600 473 608T440 619Q430 620
419 626T408 640Q408 647 417 650T437 653Q464 653 484 651T530 649Q558 649 583 652T633 655Q645 655 653 652T662 641Q662 632 650 628T624 619Q596 611 576 592T537 543Q520 515 505 492T477 447T449 403T419 353Q409 336 404 322T395 293T392 258V110Q392 73
409 56T464 29Q478 26 486 22T495 9Q495 3 488 -1T468 -5Q444 -5 420 -3T374 0T329 2Q307 2 284 1T237 -3T189 -6Z" />
<glyph unicode="Z" glyph-name="Z" horiz-adv-x="599" d="M525 -4Q503 -4 472 -4T404 -3T327 -2T249 -1Q215 -1 181 -1T113 -3L36 -4Q28 -4 26 7T24 20Q30 31 39 47T60 81T82 114Q123 176 161 234T236 348T312 462T389 583Q391 586 393 589T395 596Q395 600 392
602T378 606Q357 606 331 606T277 607Q255 607 235 607T196 606Q161 605 129 584T78 525Q72 514 64 503T41 491Q34 491 31 495T28 506Q28 512 30 519T35 533Q44 553 49 572T58 612T64 659Q66 673 70 678T83 683Q91 683 103 674T128 660Q144 654 165 651T214 648Q241
648 272 648T335 648Q357 648 387 648T449 649T511 651T563 652Q569 652 574 643T578 630L512 531Q472 473 436 417T365 306T295 196T223 83Q215 70 215 61Q215 55 220 52T234 47Q250 46 275 45T322 44Q361 44 394 46T456 56Q517 72 551 157Q554 164 559 168T571
173Q584 173 584 159Q584 150 580 132T571 91T559 49T549 14Q546 6 540 1T525 -4Z" />
<glyph unicode="[" glyph-name="bracketleft" horiz-adv-x="348" d="M147 -201Q133 -201 125 -199T113 -188T110 -159V655Q110 678 113 687T125 699T150 701L312 700Q320 700 327 698T334 685Q334 676 323 672T302 666L222 657Q213 656 208 649T202 633L201 -123Q201
-133 206 -140T221 -150L298 -162Q310 -164 320 -168T331 -182Q331 -192 324 -196T309 -200L147 -201Z" />
<glyph unicode="\" glyph-name="backslash" horiz-adv-x="403" d="M367 -62Q354 -62 342 -59T325 -44L19 646Q16 653 20 659T37 666Q52 666 63 663T80 646L386 -44Q389 -51 383 -56T367 -62Z" />
<glyph unicode="]" glyph-name="bracketright" horiz-adv-x="348" d="M201 -201L39 -200Q32 -200 25 -196T17 -182Q17 -173 27 -169T50 -162L127 -150Q136 -148 141 -141T147 -123L146 633Q146 641 141 648T126 657L46 666Q37 668 26 672T15 685Q15 695 22 697T36
700L198 701Q215 701 223 699T235 688T238 655V-159Q238 -179 235 -187T224 -198T201 -201Z" />
<glyph unicode="^" glyph-name="asciicircum" horiz-adv-x="509" d="M55 261Q49 261 44 264T38 275Q38 280 41 284L251 606H256L469 284Q473 276 470 269T454 261Q441 261 429 269T408 289L258 506Q254 511 253 511T248 506L101 290Q93 278 81 270T55 261Z" />
<glyph unicode="_" glyph-name="underscore" horiz-adv-x="560" d="M541 -129Q549 -129 554 -133T560 -143Q560 -155 550 -170T527 -185H16Q10 -185 5 -181T0 -172Q0 -167 3 -157T11 -138T27 -129H541Z" />
<glyph unicode="`" glyph-name="grave" horiz-adv-x="225" d="M187 454Q176 454 159 472Q141 490 119 514T76 563T38 609Q33 616 31 621T28 632Q28 644 44 649T84 655Q98 655 107 650T123 632Q131 618 144 591T171 534T192 486Q195 479 196 474T197 465Q197 454 187 454Z" />
<glyph unicode="a" glyph-name="a" horiz-adv-x="425" d="M125 -14Q101 -14 80 -1T45 33T32 76Q32 110 52 131T112 170L205 210Q225 218 229 225T234 251L236 310Q237 338 225 355T187 372Q174 372 160 367T138 354Q134 350 133 344T131 331Q131 326 131 319T132
305Q132 299 117 290T83 274T51 267Q44 267 40 272T36 284Q36 300 46 316T80 352Q105 373 135 389T193 416T243 426Q291 426 320 395T348 312L343 98Q342 76 351 61T375 46Q396 46 409 58Q413 62 416 62Q421 62 424 59T428 50Q428 39 412 23Q394 5 374 -4T333 -14Q280
-14 247 41H244Q211 12 184 -1T125 -14ZM180 46Q194 46 204 50T221 63Q225 68 227 75T231 95L233 159Q234 169 231 172T224 176Q222 176 218 176T209 172Q172 157 156 140T140 96Q140 69 153 58T180 46Z" />
<glyph unicode="b" glyph-name="b" horiz-adv-x="533" d="M270 -14Q243 -14 220 -10T176 1Q158 6 145 9T123 13Q115 13 107 9T93 0Q85 -6 80 -6Q73 -6 68 -3T63 6Q63 15 68 40T72 97L70 555Q70 582 61 601T28 627Q24 629 20 632T16 643Q16 649 19 652T27 656Q46
660 73 669T125 687T163 701Q171 705 175 705Q180 705 182 702T184 695Q184 689 182 667T180 618V407Q180 392 182 385T189 377Q220 400 256 413T323 426Q375 426 416 399T481 327T506 222Q506 153 476 100T393 16T270 -14ZM289 25Q320 25 341 48T375 111T387 198Q387
237 376 278T339 347T274 375Q249 375 223 367T180 344V137Q180 104 195 79T236 39T289 25Z" />
<glyph unicode="c" glyph-name="c" horiz-adv-x="410" d="M212 -14Q160 -14 118 13T52 87T27 194Q27 259 57 311T136 395T247 426Q323 426 375 378Q385 369 385 360Q385 353 377 342T358 323T339 315Q331 315 324 320T310 331Q285 351 258 365T212 379Q171 379
148 343T125 235Q125 186 142 150T190 94T262 74Q292 74 313 83T359 114Q363 117 366 119T374 122Q385 122 385 106Q385 102 383 95T375 78Q364 58 340 36T283 0T212 -14Z" />
<glyph unicode="d" glyph-name="d" horiz-adv-x="537" d="M358 -19Q355 -19 350 -14T344 -5Q346 9 347 24T350 51V57Q331 29 297 8T218 -14Q162 -14 119 14T52 90T27 193Q27 258 56 310T139 393T262 424Q279 424 296 422T327 415Q339 412 340 412Q345 412 345
429V555Q345 593 335 608T303 627Q292 630 292 642Q292 653 302 656Q341 665 375 676T432 698Q442 702 446 703T452 705Q462 705 462 695Q462 695 461 683T459 651T456 604L453 117Q453 83 458 68T475 53Q480 53 488 53T516 56Q531 57 531 46Q531 38 526 31T515
23Q481 19 446 10T375 -13Q368 -16 365 -17T358 -19ZM264 49Q283 49 306 58T345 85V293Q345 314 331 334T294 368T245 382Q221 382 198 365T160 311T144 219Q144 173 155 141T185 88T224 59T264 49Z" />
<glyph unicode="e" glyph-name="e" horiz-adv-x="408" d="M212 -14Q157 -14 115 14T49 91T25 204Q25 265 53 315T130 396T235 426Q277 426 310 409T362 361T382 292Q382 256 351 256H148Q134 256 128 249T121 221Q121 179 139 145T189 91T260 71Q289 71 313 82T360
114Q364 117 367 119T373 122Q383 122 383 110Q383 96 371 76Q359 53 337 32T282 -1T212 -14ZM148 295H219Q245 295 258 296T283 300Q288 301 290 308T292 326Q292 353 272 371T221 390Q200 390 180 378T147 346T135 307Q135 295 148 295Z" />
<glyph unicode="f" glyph-name="f" horiz-adv-x="346" d="M42 -3Q34 -3 28 0T22 10Q22 18 27 22T42 28Q68 36 76 44T85 70V353Q75 353 62 353T33 355Q28 356 24 365T19 381Q19 384 22 386T27 389Q42 396 55 402T85 415Q87 498 111 554T173 643T251 691T329 706Q393
706 422 688T452 634Q452 612 442 600T415 587Q406 587 398 594T379 614Q363 630 342 646T287 662Q245 662 221 625T196 510V425Q196 418 200 416T210 413H327Q334 413 338 409T342 398Q342 390 340 381T334 365Q330 357 326 357H226Q208 357 202 353T196 337V81Q196
57 208 47T261 29Q282 25 282 11Q282 5 277 1T264 -3Q234 -3 201 -1T142 2Q125 2 110 1T79 -1T42 -3Z" />
<glyph unicode="g" glyph-name="g" horiz-adv-x="478" d="M209 -289Q115 -289 62 -258T9 -173Q9 -145 16 -127T47 -92Q64 -79 84 -64T121 -35L168 -47Q131 -69 113 -92T95 -148Q95 -188 129 -215T217 -242Q282 -242 313 -215Q334 -197 346 -172T358 -121Q358 -102
346 -91T303 -72T221 -60Q120 -51 79 -26T37 45Q37 54 42 63T63 83Q81 97 93 106T114 123T126 139L170 121Q149 114 136 102T122 79Q122 68 136 60T180 46T261 37Q364 30 411 6T459 -66Q459 -107 437 -146T379 -218T299 -270T209 -289ZM222 140Q255 140 276 176T297
271Q297 305 287 332T258 374T217 390Q196 390 179 374T151 332T141 272Q141 235 151 205T181 158T222 140ZM213 99Q169 99 129 120T62 178T36 261Q36 310 63 347T134 406T228 428Q258 428 284 421T339 408Q360 403 377 401T414 399Q428 399 444 400T469 402Q484
402 484 382Q484 367 472 352Q467 346 461 346H434Q408 346 401 338Q399 335 398 331T397 318T396 291Q396 239 371 196T304 126T213 99Z" />
<glyph unicode="h" glyph-name="h" horiz-adv-x="545" d="M37 -3Q17 -3 17 10Q17 21 40 29Q55 34 67 40T80 68V555Q80 582 73 602T39 627Q29 629 29 642Q29 653 38 656Q58 661 84 669T136 687T178 702Q185 705 188 705Q194 705 196 702T198 695Q198 689 196 679T193
652T191 604V391Q191 379 192 372T197 360Q212 372 234 387T284 414T345 426Q397 426 431 388T466 286V71Q466 50 478 42T504 29Q515 25 520 21T526 10Q526 -3 505 -3Q482 -3 469 -2T443 1T410 2Q390 2 379 1T355 -1T320 -3Q298 -3 298 11Q298 18 304 22T319 29Q333
33 344 42T355 72V271Q355 294 344 312T317 342T281 353Q265 353 245 348T209 331Q198 323 195 314T191 283V69Q192 49 202 42T226 29Q236 26 241 22T247 11Q247 -3 229 -3Q209 -3 194 -2T166 1T134 2Q117 2 103 1T73 -1T37 -3Z" />
<glyph unicode="i" glyph-name="i" horiz-adv-x="279" d="M40 -3Q32 -3 27 0T22 10Q22 18 28 22T42 28Q66 34 76 41T87 65V282Q87 314 77 330T43 350Q38 351 35 355T32 366Q32 380 43 381Q91 391 126 408T181 436Q195 443 199 443Q210 443 210 433Q209 419 206
395T201 343T198 291V66Q198 51 209 43T244 28Q252 25 258 22T264 10Q264 -2 247 -2Q228 -2 211 -1T177 1T142 2Q125 2 109 1T77 -1T40 -3ZM140 501Q111 501 91 521T71 569Q71 600 91 620T140 640Q170 640 190 620T210 569Q210 541 190 521T140 501Z" />
<glyph unicode="j" glyph-name="j" horiz-adv-x="253" d="M3 -287Q-11 -287 -21 -284T-31 -273Q-31 -266 -26 -262T-14 -253Q2 -247 17 -235T45 -195Q56 -173 62 -141T71 -72T76 -1T77 57V282Q77 314 67 330T33 350Q27 351 25 355T22 366Q22 379 32 381Q79 391
115 408T170 436Q176 439 181 441T188 443Q198 443 198 433Q196 404 192 361T188 282L189 91Q189 60 187 19T178 -67T153 -152Q140 -186 114 -217T58 -267T3 -287ZM127 501Q98 501 78 521T58 569Q58 600 78 620T127 640Q157 640 177 620T197 569Q197 541 177 521T127
501Z" />
<glyph unicode="k" glyph-name="k" horiz-adv-x="521" d="M38 -3Q17 -3 17 10Q17 18 23 21T40 29Q55 34 67 40T80 68V555Q80 586 72 604T38 627Q28 629 28 642Q28 654 37 656Q63 661 89 670T138 688T176 702Q184 705 188 705Q193 705 195 702T197 694Q197 685
194 663T190 604L191 245Q191 234 198 234Q202 234 208 237T221 246Q259 279 287 310T326 355Q331 361 333 365T335 372Q335 377 327 381T305 388Q293 391 293 400Q293 407 300 410T315 413H364Q381 413 406 415T455 419T491 423Q503 423 503 412Q503 405 497 400T479
392Q461 388 441 379T399 357Q386 350 366 335T325 303T285 268Q280 263 280 258Q280 255 281 253T285 248Q310 217 334 186T382 128T423 80Q440 63 463 49T502 29Q512 25 521 22T531 10Q531 -3 510 -3Q456 -3 402 -2T297 0Q278 0 278 12Q278 19 283 23T298 31Q307
34 312 38T318 49Q318 53 315 57T307 69L203 203Q199 208 196 208Q191 207 191 200Q190 186 190 170T190 138Q190 121 190 103T191 68Q191 50 199 42T222 29Q230 26 237 23T244 11Q244 4 237 1T224 -3Q205 -3 191 -2T164 1T133 2Q116 2 102 1T73 -1T38 -3Z" />
<glyph unicode="l" glyph-name="l" horiz-adv-x="270" d="M37 -3Q29 -3 23 0T17 9Q17 17 23 21T40 29Q55 34 67 40T80 67V555Q80 583 72 602T38 627Q28 629 28 642Q28 654 37 656Q62 661 88 670T138 688T178 702Q185 705 188 705Q193 705 195 702T197 695Q197
687 194 665T191 604V68Q191 47 203 41T230 30Q240 26 246 22T253 10Q253 4 247 1T233 -2Q214 -2 198 -1T167 1T133 2Q116 2 102 1T72 -1T37 -3Z" />
<glyph unicode="m" glyph-name="m" horiz-adv-x="797" d="M42 -3Q35 -3 29 0T22 10Q22 18 29 22T45 29Q59 34 72 40T85 67V291Q85 314 79 331T51 352Q47 353 44 356T41 369Q41 381 50 384Q76 390 99 398T144 416T184 436Q187 438 190 440T196 442Q204 442 204
432Q204 424 202 405T199 371Q199 361 201 359H203Q231 386 267 406T354 426Q386 426 411 407T451 352H455Q485 386 524 406T610 426Q642 426 666 408T704 357T718 284V66Q718 46 730 40T757 29Q766 26 772 22T779 10Q779 4 774 1T760 -3Q740 -3 725 -2T695 1T663
2Q646 2 633 1T605 -1T571 -3Q563 -3 558 0T553 10Q553 18 559 22T574 29Q588 33 597 39T606 63V269Q606 294 598 313T576 343T543 355Q526 355 509 350T475 331Q456 315 456 279V66Q456 46 466 40T492 29Q500 26 506 22T513 10Q513 4 508 1T495 -3Q475 -3 461
-2T433 1T402 2Q385 2 372 1T344 -1T309 -3Q302 -3 297 0T291 10Q291 18 297 22T312 29Q326 33 335 39T345 63V269Q345 294 337 313T315 343T282 355Q265 355 248 350T213 331Q196 318 196 281V66Q196 48 204 41T228 29Q236 26 242 22T249 10Q249 4 244 1T231 -3Q211
-3 197 -2T170 1T139 2Q122 2 108 1T78 -1T42 -3Z" />
<glyph unicode="n" glyph-name="n" horiz-adv-x="553" d="M42 -3Q34 -3 28 0T22 10Q22 18 28 22T45 29Q60 33 72 40T85 67V291Q85 314 79 330T51 352Q47 354 44 357T41 369Q41 382 50 384Q85 392 119 405T180 434Q184 436 188 439T196 442Q201 442 202 439T204
431Q204 424 202 405T199 372Q199 368 199 364T201 358Q235 390 271 408T354 426Q405 426 439 387T474 284V66Q474 46 486 40T513 29Q521 26 528 22T535 9Q535 3 529 0T516 -3Q496 -3 481 -2T452 1T419 2Q402 2 387 1T357 -1T321 -3Q316 -3 310 0T304 9Q304 17
310 21T324 29Q339 34 350 40T362 66V269Q362 309 343 332T290 355Q263 355 243 347T204 324Q200 321 198 316T196 304V66Q196 46 207 40T234 29Q255 22 255 10Q255 4 250 1T237 -3Q217 -3 202 -2T173 1T141 2Q124 2 109 1T78 -1T42 -3Z" />
<glyph unicode="o" glyph-name="o" horiz-adv-x="500" d="M236 -14Q177 -14 130 12T55 86T27 192Q27 238 45 280T94 355T167 407T257 427Q318 427 366 399T444 323T473 220Q473 158 447 105T368 19T236 -14ZM256 25Q281 25 300 35T332 66Q344 87 348 121T353 196Q353
249 339 292T300 361T241 387Q222 387 207 381T178 359Q160 338 154 302T147 217Q147 169 161 125T200 53T256 25Z" />
<glyph unicode="p" glyph-name="p" horiz-adv-x="540" d="M37 -270Q31 -270 24 -267T17 -257Q17 -249 24 -245T40 -238Q59 -232 69 -225T80 -200V289Q80 299 75 312T61 337T36 351Q31 353 29 356T26 368Q26 375 28 378T35 383Q71 391 107 403T170 428Q173 429
176 431T182 434Q187 434 188 431T190 422Q190 414 188 396T185 364Q185 354 187 353Q197 363 222 379T281 409T346 422Q399 422 436 394T494 321T514 228Q514 182 497 139T447 60T374 4T284 -17Q272 -17 256 -14T223 -5T194 8Q193 8 192 3T191 -10T190 -21V-194Q190
-207 198 -215T218 -229T245 -238Q255 -241 261 -245T267 -257Q267 -263 261 -266T249 -270Q219 -270 191 -268T136 -265Q119 -265 104 -266T73 -268T37 -270ZM287 25Q299 25 317 33T352 61T381 113T393 194Q393 249 381 282T351 333T315 355T282 361Q262 361 241
353T206 333T192 313Q192 299 192 277T192 229T191 182T190 152Q190 123 203 94T238 45T287 25Z" />
<glyph unicode="q" glyph-name="q" horiz-adv-x="531" d="M303 -286Q297 -286 291 -283T285 -274Q285 -266 292 -262T308 -255Q330 -248 343 -240T356 -210V14Q356 28 354 34T350 40Q348 39 346 39T341 36Q329 28 309 16T266 -5T220 -14Q167 -14 123 11T53 82T27
188Q27 253 55 307T139 394T274 427Q309 427 337 421T384 409T413 403Q423 403 431 408T445 421Q449 423 451 425T457 427Q465 427 470 424T475 415Q475 406 469 377T463 305L465 -216Q465 -234 477 -241T508 -254Q518 -257 524 -261T531 -274Q531 -280 525 -283T511
-286Q481 -286 458 -284T409 -281Q392 -281 375 -282T341 -284T303 -286ZM269 48Q294 48 319 57T357 81Q357 96 357 123T357 181T357 238T356 278Q356 325 326 356T254 387Q225 387 201 365T163 305T148 215Q148 176 158 145T185 93T224 60T269 48Z" />
<glyph unicode="r" glyph-name="r" horiz-adv-x="388" d="M44 -3Q36 -3 30 0T24 10Q24 18 30 22T47 29Q68 35 76 43T85 67V292Q85 315 79 330T51 351Q47 353 43 356T39 367Q39 380 50 383Q80 391 115 404T174 431Q179 434 185 437T194 440Q202 440 202 430Q202
426 202 412T201 382T199 352Q199 346 202 346Q218 367 238 385T280 415T326 427Q355 427 369 415T384 385Q384 371 377 355T358 328T332 316Q324 316 315 319T297 328Q288 332 279 336T261 340Q236 340 216 322T196 249V73Q196 55 209 46T249 28Q260 25 265 22T271
10Q271 -3 253 -3Q223 -3 197 -1T144 2Q127 2 112 1T80 -1T44 -3Z" />
<glyph unicode="s" glyph-name="s" horiz-adv-x="348" d="M158 -14Q126 -14 97 -6T43 20Q36 34 33 64T29 123Q29 135 46 135Q53 135 58 131T65 122Q82 78 108 52T167 25Q195 25 211 42T227 83Q227 110 208 128T154 165Q123 182 99 201T60 244T46 302Q46 339 65
367T118 411T198 427Q230 427 255 420T291 406Q299 396 304 370T309 314Q309 305 294 305Q287 305 280 309T271 317Q258 354 238 373T192 392Q169 392 151 378T132 337Q132 316 149 299T200 264Q263 230 291 200T319 118Q319 57 277 22T158 -14Z" />
<glyph unicode="t" glyph-name="t" horiz-adv-x="355" d="M209 -14Q149 -14 118 18T87 111V342Q87 350 81 354T55 359H44Q38 359 34 368T30 387Q30 389 31 392T36 397Q59 407 83 424T128 460T163 492Q170 497 174 501T185 505Q193 505 197 502T200 488L194 433Q193
421 199 417T218 413H336Q339 413 342 406T345 392Q345 379 342 368T333 357H238Q215 357 207 352T198 331V139Q198 95 215 73T263 50Q291 50 305 55T332 67Q335 69 337 69Q342 69 344 63T347 50Q347 45 328 29T277 0T209 -14Z" />
<glyph unicode="u" glyph-name="u" horiz-adv-x="543" d="M353 -20Q345 -20 345 -11Q345 0 347 20T350 52Q350 55 350 57T349 61Q318 27 277 6T189 -15Q157 -15 132 2T92 49T77 119V311Q77 334 68 347T36 368Q30 369 26 373T21 385Q21 393 25 397T36 402Q76 404
105 409T167 423Q171 425 175 426T183 427Q196 427 195 413Q192 390 190 375T188 336V143Q188 119 197 100T222 70T257 58Q276 58 292 62T325 80Q333 86 343 102T353 146V314Q353 333 345 344T323 362T295 368Q284 369 278 373T272 389Q272 399 279 403T295 407Q339
410 366 412T411 417T448 425Q451 426 454 426T460 427Q474 427 474 416Q474 413 474 410T471 402Q470 399 469 385T466 356T464 333V101Q464 77 469 68T482 59Q488 59 499 59T516 60Q524 60 529 56T534 43Q534 34 531 30T518 24Q473 20 438 9T377 -14Q371 -16
365 -18T353 -20Z" />
<glyph unicode="v" glyph-name="v" horiz-adv-x="468" d="M232 -21Q226 -21 220 -7T208 21Q200 38 192 59T176 99Q152 158 126 215T74 332Q65 352 53 367T23 388Q14 392 10 395T5 408Q5 415 13 416T28 418Q50 418 62 417T86 415T118 413Q138 413 152 414T181 417T218
418Q224 418 232 416T240 406Q240 398 233 395T218 388Q207 384 202 373T196 346Q196 338 196 331T200 315L270 136Q271 135 271 135T273 136L338 306Q342 315 343 324T345 341Q345 359 338 370T315 387Q305 391 299 394T292 406Q292 413 300 415T315 418Q336 417
351 416T385 414Q403 414 415 415T450 418Q458 418 465 416T473 407Q473 394 453 387Q436 381 420 364T393 323L315 130Q313 123 308 112T298 87T288 64T281 48Q279 43 273 30T261 2T249 -21H232Z" />
<glyph unicode="w" glyph-name="w" horiz-adv-x="730" d="M233 -28Q229 -28 225 -26T220 -19L77 332Q69 353 56 367T25 387Q16 391 11 395T5 408Q5 415 13 416T28 418Q47 418 60 417T86 415T117 413Q136 413 150 414T178 417T213 418Q219 418 227 416T235 406Q235
398 228 395T213 388Q202 384 197 375T192 348Q192 332 198 316L263 145Q263 143 266 143Q269 143 269 145L336 304Q339 312 340 321T342 339Q342 354 330 367T300 387Q291 390 285 394T279 407Q279 414 287 416T304 418Q325 418 346 416T388 413Q415 413 436 415T482
418Q488 418 496 416T504 406Q504 398 497 395T482 387Q471 383 463 376T454 354Q454 344 456 334T462 316L527 148Q529 142 531 142Q534 142 536 147L598 302Q602 311 604 322T605 342Q605 359 596 370T574 386Q566 389 559 393T552 405Q552 412 560 414T574 417Q600
416 613 415T645 413Q658 413 665 414T682 415T707 417Q714 417 722 415T730 406Q730 398 725 394T710 386Q693 380 679 363T654 322L514 -19Q511 -27 500 -27Q492 -27 487 -19L369 258Q368 263 365 263Q363 263 361 258L247 -19Q243 -28 233 -28Z" />
<glyph unicode="x" glyph-name="x" horiz-adv-x="480" d="M30 -4Q23 -4 15 -2T7 7Q7 15 12 19T28 27Q40 31 53 41T86 79L173 199Q180 207 180 212T175 224L97 339Q84 359 75 370T49 387Q40 390 35 394T29 407Q29 415 38 416T53 418Q75 418 86 417T110 414T145
413Q171 413 186 415T230 417Q236 417 244 415T253 405Q253 397 247 394T232 388Q224 385 216 381T207 366Q207 361 210 353T220 335L266 268Q270 259 275 268L312 329Q317 337 320 347T323 365Q323 380 307 386Q299 389 293 392T286 404Q286 412 295 414T309 416Q329
416 343 415T369 414Q388 414 399 416T433 418Q439 418 447 417T455 408Q455 399 450 395T435 387Q423 383 408 373T375 339L306 244Q301 237 301 233T306 221L394 81Q407 61 422 48T454 28Q463 25 468 21T474 8Q474 1 466 0T452 -2Q430 -2 415 -1T385 1T347 3Q321
3 298 1T247 -1Q224 -1 224 11Q224 20 230 23T247 30Q259 34 267 41T276 64Q276 71 274 77T266 94L212 175Q209 178 206 175L153 87Q150 83 146 74T142 55Q142 45 146 38T159 28Q167 24 174 21T181 9Q181 2 172 0T158 -3Q138 -2 125 -2T99 -1Q80 -1 66 -2T30 -4Z"
/>
<glyph unicode="y" glyph-name="y" horiz-adv-x="467" d="M78 -284Q54 -284 33 -269T12 -228Q12 -209 21 -192T50 -175Q64 -175 78 -180T106 -184Q118 -183 123 -179T136 -162Q144 -148 153 -132T173 -92T197 -37Q206 -16 206 3Q206 15 203 26T196 46L75 331Q67
351 56 366T27 386Q18 390 13 394T7 406Q7 414 15 415T29 417Q52 417 66 416T92 414T118 413Q139 413 152 414T179 416T216 417Q223 417 231 415T239 404Q239 396 230 392T213 384Q203 381 197 373T191 348Q191 341 194 331T201 308L270 141Q271 137 274 137Q275
137 277 141L334 304Q337 311 339 322T342 342Q342 360 334 369T315 383Q307 387 298 391T289 404Q289 412 297 414T312 417Q334 417 349 415T384 413Q397 413 405 414T424 416T449 417Q455 417 463 416T472 406Q472 398 467 394T452 386Q435 381 419 364T393 323L249
-25Q243 -39 233 -62T212 -114T187 -172T162 -231Q151 -257 129 -270T78 -284Z" />
<glyph unicode="z" glyph-name="z" horiz-adv-x="417" d="M42 -5Q38 -5 30 3T22 19Q22 24 29 35T46 60T62 83Q86 121 107 151T147 212T189 278T240 360Q242 363 242 367T230 371L160 372Q146 373 136 368T116 354Q111 349 103 338T86 315T70 292T59 276Q53 269
41 273T31 286Q34 296 39 318T48 365T53 407Q53 416 60 423T73 430Q81 430 91 420Q96 416 109 415T137 414Q149 414 160 414T178 415Q227 415 279 416T380 418Q386 418 390 413T395 400T394 389Q383 375 374 363T354 335L178 59Q174 52 176 48T190 44H271Q284 44
296 49T320 67Q334 82 345 99T374 145Q381 156 393 153T405 140Q405 134 402 119T393 83T383 44T373 10Q369 -5 355 -5Q331 -5 273 -2T128 1Q105 1 81 -2T42 -5Z" />
<glyph unicode="{" glyph-name="braceleft" horiz-adv-x="374" d="M335 -152Q282 -151 235 -138T160 -96T134 -20Q135 25 144 69T153 157Q153 184 145 204T119 237T73 261Q64 264 56 268T47 281Q47 290 55 295T74 304Q97 312 114 323T141 353T151 405Q151 449
143 487T133 569Q130 616 159 648T236 697T335 714Q348 714 353 711T359 698Q359 689 348 686T326 679Q293 672 275 661T251 632T244 582Q244 558 249 530T258 473T263 419Q263 385 242 357T189 310T127 283Q124 282 125 281T129 279Q156 271 180 257T224 225T254
185T265 138Q265 113 260 85T250 28T244 -25Q244 -59 252 -78T278 -106T327 -120Q337 -121 347 -124T357 -137Q357 -146 351 -149T335 -152Z" />
<glyph unicode="|" glyph-name="bar" horiz-adv-x="270" d="M108 -289Q100 -289 95 -282T89 -267V658Q89 671 98 680T121 694T145 703T160 706Q168 706 174 700T181 686V-252Q181 -264 172 -271T150 -282T125 -287T108 -289Z" />
<glyph unicode="}" glyph-name="braceright" horiz-adv-x="374" d="M39 -152Q30 -152 23 -149T16 -137Q16 -127 26 -124T47 -120Q78 -115 96 -106T121 -78T129 -25Q129 0 124 28T114 84T109 138Q109 163 120 184T150 224T193 257T244 279Q246 280 248 281T246
283Q217 291 186 310T133 357T111 419Q111 445 116 473T125 529T130 582Q130 613 123 631T99 661T48 679Q37 682 26 685T15 698Q15 707 21 710T39 714Q90 714 137 698T214 649T241 569Q240 526 232 488T223 405Q223 373 233 354T260 323T300 304Q309 300 318 295T327
281Q327 272 319 268T300 261Q273 251 256 238T230 204T221 157Q221 114 229 70T240 -20Q242 -67 214 -95T139 -137T39 -152Z" />
<glyph unicode="~" glyph-name="asciitilde" horiz-adv-x="530" d="M356 253Q332 253 309 262T263 283Q240 295 216 305T165 316Q140 316 118 302T81 274T63 259Q56 259 49 268T42 283Q42 296 52 315T81 354T124 386T174 399Q199 399 222 390T267 368Q291 356
315 346T363 335Q382 335 399 344T431 365T455 386T467 395Q475 395 481 387T488 368Q488 354 477 334T446 296T403 265T356 253Z" />
<glyph unicode="&#xa0;" glyph-name="uni00A0" horiz-adv-x="225" />
<glyph unicode="&#xa1;" glyph-name="exclamdown" horiz-adv-x="277" d="M136 293Q147 293 153 280T162 246Q169 196 176 147T189 54T199 -27T203 -94Q203 -124 186 -146T140 -169Q112 -169 93 -146T75 -93Q75 -64 78 -27T85 54T96 146T110 246Q114 272 120 282T136
293ZM136 494Q164 494 184 474T204 426Q204 397 184 378T136 358Q108 358 88 377T68 426Q68 454 88 474T136 494Z" />
<glyph unicode="&#xa2;" glyph-name="cent" horiz-adv-x="430" d="M204 -64Q196 -64 190 -59T185 -46L192 29Q149 37 111 65T50 137T27 238Q27 295 54 345T128 427T237 466L243 527Q244 536 251 541T268 547Q275 547 280 541T284 527L278 466Q309 464 341 452T397
413Q404 405 404 397Q404 380 388 366T354 352Q334 352 324 366Q312 385 300 396T273 414L243 126Q249 125 254 125T265 125Q301 125 333 136T380 172Q385 180 393 180Q406 180 406 166Q406 162 405 158T402 149Q379 96 339 63T233 27L226 -46Q225 -54 219 -59T204
-64ZM203 137L233 422H231Q196 422 172 403T136 351T124 280Q124 225 146 189T203 137Z" />
<glyph unicode="&#xa3;" glyph-name="sterling" horiz-adv-x="542" d="M50 295Q44 294 39 299T33 310Q33 318 41 326T62 336L403 359Q409 359 413 354T418 344Q418 338 407 329T381 318L50 295ZM338 -37Q292 -37 258 -17T191 27Q180 36 165 44T138 58T120 64Q116
64 107 55T87 32T69 5Q49 -26 21 -25Q9 -25 1 -15T-8 16Q-8 39 5 59T42 95T96 114Q103 115 106 119T112 128Q121 151 126 189T135 273T141 357Q145 404 159 452T202 540T276 604T387 629Q444 629 472 602T500 539Q500 520 490 504T466 479T436 470Q428 470 424
475T419 487Q419 494 420 501T421 519Q421 549 409 571T372 593Q343 593 324 568T291 487T269 346Q264 299 251 256T220 180T178 132Q175 131 176 126T181 120Q227 120 263 109T328 83Q357 70 382 59T430 48Q452 48 463 58T474 87Q474 101 470 116T461 147T456
171Q456 180 462 187T481 194Q504 194 516 176T528 132Q528 102 513 72T471 18T410 -22T338 -37Z" />
<glyph unicode="&#xa4;" glyph-name="currency" horiz-adv-x="508" d="M67 49Q55 49 44 61T32 83Q32 88 35 92L92 149Q74 174 64 204T54 267Q54 301 64 331T93 388L35 445Q32 449 32 453Q32 464 44 476T67 488Q73 488 76 484L132 428Q159 448 190 460T257 472Q292
472 322 462T378 431L432 485Q436 488 441 488Q452 488 464 477T476 454Q476 449 473 444L419 391Q438 365 449 334T460 267Q460 233 450 202T420 145L473 92Q476 89 476 84Q476 73 464 61T441 49Q436 49 432 52L380 104Q327 63 257 63Q222 63 190 75T131 107L75
52Q72 49 67 49ZM257 120Q299 120 332 140T384 193T404 267Q404 308 385 342T332 396T257 416Q217 416 184 396T130 343T110 267Q110 227 130 194T183 140T257 120Z" />
<glyph unicode="&#xa5;" glyph-name="yen" horiz-adv-x="626" d="M189 -6Q176 -6 169 -2T161 9Q161 17 169 21T191 29Q229 36 246 56T263 109V188H146Q140 188 135 193T129 204Q130 212 139 222T159 233L263 232V251Q263 258 263 264T261 276H146Q140 276 135
281T129 291Q130 300 139 310T159 320H250L109 540Q99 554 87 570T60 600T27 619Q15 623 8 627T0 640Q0 647 7 650T24 654Q60 654 95 652T171 649Q200 649 226 651T281 654Q291 654 300 651T309 640Q309 632 300 628T279 619Q259 614 247 607T235 583Q235 576 237
568T245 551L337 379Q351 354 359 354Q364 354 369 360T381 379Q388 391 398 409T421 448T446 492T470 537Q479 553 479 573Q479 592 466 604T435 619Q425 621 414 626T403 640Q403 647 412 650T432 653Q459 653 480 651T526 649Q556 649 580 652T629 655Q641 655
650 652T659 641Q659 632 651 628T629 621Q611 617 593 604T561 575T537 543Q520 515 503 487T469 433T440 386T419 350Q414 342 410 335T403 320L510 319Q517 319 521 315T525 305Q525 298 513 287T486 276H393V232L509 231Q516 231 520 227T525 217Q524 210 512
199T486 188H393V110Q393 73 409 56T464 29Q478 26 486 22T495 9Q495 3 488 -1T468 -5Q444 -5 420 -3T374 0T329 2Q307 2 284 1T237 -3T189 -6Z" />
<glyph unicode="&#xa6;" glyph-name="brokenbar" horiz-adv-x="272" d="M109 -290Q101 -290 96 -283T90 -268V138Q90 149 99 157T122 171T146 179T161 182Q169 182 176 175T183 158V-253Q183 -265 174 -272T151 -283T126 -288T109 -290ZM108 262Q100 262 95 270T89
288V658Q89 670 98 679T121 693T145 702T160 705Q168 705 174 699T181 685V298Q181 288 172 281T150 270T125 264T108 262Z" />
<glyph unicode="&#xa7;" glyph-name="section" horiz-adv-x="429" d="M137 -148Q105 -148 84 -137T62 -111Q62 -103 68 -84T95 -50Q102 -46 109 -49T122 -57Q137 -70 160 -77T204 -85Q230 -85 243 -66T256 -12Q256 14 237 40T188 94T130 149Q79 196 53 240T27
329Q27 374 37 405T65 461T103 506Q113 540 135 571T188 621T257 640Q280 640 307 633T344 616Q350 612 354 607T358 594Q358 592 352 578T335 550T313 536Q305 536 297 543Q281 560 260 572T224 584Q193 584 179 566T165 524Q165 506 180 482T223 432T281 378Q317
347 341 314T376 243T388 155Q388 92 365 36T301 -64T201 -135Q187 -142 170 -145T137 -148ZM313 59Q314 55 317 55T322 59Q327 76 329 92T331 126Q331 172 306 214T237 296Q218 316 194 342T148 395T119 442Q118 446 115 446T109 442Q102 427 99 410T96 375Q96
331 120 290T187 208Q207 188 233 161T282 107T313 59Z" />
<glyph unicode="&#xa8;" glyph-name="dieresis" horiz-adv-x="337" d="M261 499Q236 499 217 518T197 563Q197 590 216 609T261 628Q289 628 308 609T328 563Q328 538 309 519T261 499ZM73 499Q47 499 28 518T9 563Q9 590 28 609T73 628Q100 628 119 609T139 563Q139
538 120 519T73 499Z" />
<glyph unicode="&#xa9;" glyph-name="copyright" horiz-adv-x="675" d="M343 19Q279 19 224 43T126 109T60 207T36 327Q36 391 60 446T126 544T224 611T344 635Q408 635 463 611T561 545T628 447T652 327Q652 263 628 208T562 110T463 43T343 19ZM357 143Q304
143 261 167T193 233T168 324Q168 374 194 414T266 479T375 504Q398 504 424 499T468 485Q475 483 478 481T483 470Q486 452 486 435T486 401Q486 394 481 389T470 385Q465 385 461 389T454 400Q450 411 446 420T431 438Q421 447 406 453T368 460Q318 460 292 422T265
331Q265 291 276 258T310 206T371 186Q403 186 425 198T460 241Q464 249 469 252T480 255Q490 253 490 238Q490 223 486 209T477 179Q473 171 471 171T461 165Q443 157 416 150T357 143ZM343 63Q397 63 444 84T526 141T581 225T601 327Q601 380 581 427T526 510T444
566T344 587Q291 587 244 567T162 510T106 427T86 327Q86 273 106 226T161 142T242 84T343 63Z" />
<glyph unicode="&#xaa;" glyph-name="ordfeminine" horiz-adv-x="337" d="M283 201Q289 201 294 198T299 188Q299 187 299 187T298 184Q292 173 284 167T262 160H47Q41 160 36 165T31 174Q31 182 39 191T58 201H283ZM110 278Q92 278 76 287T51 310T41 340Q41 361
52 375T93 401L158 426Q172 431 175 435T178 452V478Q178 495 171 504T149 514Q140 514 130 511T115 502Q111 497 112 489T113 475Q113 470 102 465T76 455T51 448Q46 447 44 452T44 464Q49 476 54 486T74 508Q86 517 104 527T144 544T184 552Q219 552 244 530T268
472L264 359Q264 347 268 335T284 322Q291 322 295 325T302 330Q304 331 305 332T308 333Q312 333 315 330T318 321Q318 317 313 311T304 301Q295 292 282 285T252 278Q225 278 211 290T189 313H187Q176 302 158 290T110 278ZM147 324Q155 324 160 328T171 335Q174
338 174 340T175 349L177 393Q177 400 174 402T164 402Q139 393 131 383T122 355Q122 337 130 331T147 324Z" />
<glyph unicode="&#xab;" glyph-name="guillemotleft" horiz-adv-x="587" d="M318 17Q307 17 298 24T285 36Q256 64 231 84T182 120T133 151T76 180Q64 187 58 196T52 215Q52 225 60 228Q102 254 132 273T187 309T235 346T287 393Q292 397 301 405T320 413Q327
413 327 403Q327 399 325 395T321 386Q289 339 265 310T220 262T176 222Q170 217 170 215T176 207Q199 188 220 168T265 119T321 42Q323 39 324 36T326 29Q326 17 318 17ZM529 17Q518 17 509 24T496 36Q467 64 442 84T393 120T344 151T287 180Q275 187 269 196T263
215Q263 225 271 228Q313 254 343 273T398 309T446 346T498 393Q503 397 512 405T531 413Q538 413 538 403Q538 399 536 395T532 386Q500 339 476 310T431 262T387 222Q381 217 381 215T387 207Q410 188 431 168T476 119T532 42Q534 39 535 36T537 29Q537 17 529
17Z" />
<glyph unicode="&#xac;" glyph-name="logicalnot" horiz-adv-x="614" d="M499 42Q495 42 491 47T486 60V301Q486 318 471 318H56Q50 318 45 322T39 332Q39 339 41 352T51 375T69 386H538Q546 386 549 381T553 368V72Q553 61 543 55T519 45T499 42Z" />
<glyph unicode="&#xad;" glyph-name="uni00AD" horiz-adv-x="302" d="M36 166Q27 166 27 175Q27 201 32 217T47 234Q99 242 154 249T262 262Q270 262 272 259T275 250Q275 223 271 210T255 194Q204 187 147 179T36 166Z" />
<glyph unicode="&#xae;" glyph-name="registered" horiz-adv-x="679" d="M344 19Q281 19 226 43T128 109T62 207T38 327Q38 391 62 446T128 544T226 611T345 635Q410 635 465 611T563 545T629 447T653 327Q653 263 629 208T563 110T465 43T344 19ZM344 63Q398
63 445 84T528 141T583 225T603 327Q603 380 583 427T528 509T446 564T345 585Q293 585 246 565T164 509T108 427T88 327Q88 273 107 226T162 142T244 84T344 63ZM475 171Q459 171 440 183T403 216T369 260T344 306Q342 312 336 315T319 319Q315 319 312 317T309
309V229Q309 213 319 207T347 197Q353 195 357 192T362 182Q362 178 358 174T349 170Q330 170 310 172T272 174Q260 174 249 173T227 171T201 170Q198 170 193 174T188 182Q188 188 192 191T203 197Q219 201 226 207T233 229V434Q233 450 231 456T223 466T206 472Q191
475 191 485Q191 495 206 494Q226 494 239 492T270 490Q291 490 308 492T352 494Q405 495 438 475T471 415Q471 382 452 364T409 335Q405 334 406 331T409 324Q423 289 444 263T486 222T521 208Q524 208 528 208T532 201Q532 188 517 180T475 171ZM330 351Q360
351 378 367T396 407Q396 434 381 447T339 461Q321 461 314 455T307 438V369Q307 358 313 355T330 351Z" />
<glyph unicode="&#xaf;" glyph-name="overscore" horiz-adv-x="337" d="M41 506Q33 506 28 511T23 522Q23 535 27 547T39 569T56 578H296Q304 578 308 574T313 562Q313 541 303 524T275 506H41Z" />
<glyph unicode="&#xb0;" glyph-name="degree" horiz-adv-x="328" d="M165 388Q126 388 94 408T44 460T25 529Q25 565 43 595T94 643T165 661Q204 661 235 644T284 596T303 530Q303 494 285 462T235 409T165 388ZM164 440Q197 440 221 464T245 524Q245 560 221
584T164 608Q131 608 107 584T83 524Q83 489 107 465T164 440Z" />
<glyph unicode="&#xb1;" glyph-name="plusminus" horiz-adv-x="597" d="M283 124Q279 124 275 128T271 139V345Q271 354 262 354H55Q49 354 44 358T39 367Q39 376 45 392T66 409H260Q267 409 269 412T271 421V591Q271 601 278 608T295 619T310 624Q317 624 321
618T325 605V420Q325 414 327 412T334 409H538Q545 409 551 406T557 395Q557 384 547 369T524 354H334Q325 354 325 345V150Q325 136 309 130T283 124ZM56 33Q50 33 45 38T39 47Q39 53 42 63T51 82T68 91H537Q545 91 551 87T558 76Q558 64 548 49T523 33H56Z" />
<glyph unicode="&#xb2;" glyph-name="uni00B2" horiz-adv-x="327" d="M263 438Q250 438 230 439T188 440T142 441Q123 441 100 441T59 439T35 438Q31 438 28 441T24 447Q24 451 30 457L68 496Q93 525 118 553T160 609T177 667Q177 691 163 706T126 721Q103 721
88 710T59 682Q52 671 44 671Q39 671 37 675T34 688Q34 701 49 722T92 759T159 776Q208 776 235 750T262 686Q262 666 252 644T222 599Q212 588 197 574T165 545T136 521T121 507Q119 505 122 504T130 503H217Q237 503 252 516T279 547Q281 552 284 555T295 559Q301
559 302 555T302 547Q294 526 286 497T274 451Q273 445 270 442T263 438Z" />
<glyph unicode="&#xb3;" glyph-name="uni00B3" horiz-adv-x="292" d="M96 435Q72 435 52 443T32 468Q32 480 37 490T50 500Q54 500 58 498T64 493Q76 482 89 473T118 463Q142 463 157 483T172 539Q172 559 157 579T115 600Q98 600 89 595T75 589Q70 589 65 591T60
598Q61 607 70 614T91 626T108 633Q140 649 151 663T163 698Q163 713 150 723T119 734Q99 734 83 725T56 703Q54 700 51 697T45 694Q42 694 38 699T34 709Q34 716 47 732T84 762T144 776Q177 776 205 758T234 708Q234 686 220 669T174 640Q171 639 171 638T174
636Q205 632 229 613T253 558Q253 521 231 493T172 450T96 435Z" />
<glyph unicode="&#xb4;" glyph-name="acute" horiz-adv-x="225" d="M39 454Q29 454 29 465Q29 469 30 474T34 486Q41 505 54 534T81 590T103 632Q109 645 118 650T142 655Q164 655 180 650T197 632Q197 626 195 621T187 609Q171 588 150 563T107 514T67 472Q49
454 39 454Z" />
<glyph unicode="&#xb5;" glyph-name="uni03BC.1" horiz-adv-x="552" d="M145 -285Q127 -285 116 -275T97 -250T86 -220Q84 -211 83 -187T81 -130T80 -63T78 0Q78 53 78 100T77 188T76 266T75 333T74 388Q74 408 81 417T119 426Q151 426 173 416T195 388Q195 366
189 330T173 255T158 185T152 141Q152 126 158 112T176 88T204 78Q238 78 264 109T316 215Q320 247 322 281T327 348T330 404Q331 417 337 422T356 427Q385 427 405 419T437 400T448 378Q448 339 431 285T392 168Q392 149 401 133T426 105T463 94Q482 94 496 102T521
117T535 125Q539 125 543 122T547 115Q547 73 531 44T491 0T444 -15Q416 -14 396 15T369 90Q368 98 368 107T368 125L365 126Q362 120 350 98T319 50T281 5T246 -14Q229 -14 213 -5T184 17T159 41Q150 52 141 63T128 74Q117 74 117 45Q117 35 118 15T119 -29T121
-75T122 -111Q122 -134 136 -151T169 -182T202 -205T217 -224Q217 -238 205 -252T177 -275T145 -285Z" />
<glyph unicode="&#xb6;" glyph-name="paragraph" horiz-adv-x="617" d="M300 -304Q262 -304 231 -289T181 -247T162 -183Q162 -146 181 -120T228 -78T283 -63Q316 -64 336 -78T356 -120Q356 -145 342 -160T309 -176Q297 -176 289 -170T272 -157Q265 -150 259 -145T246
-139Q234 -139 222 -152T210 -191Q210 -220 235 -243T304 -266Q327 -266 349 -254T385 -215T400 -144V57Q400 65 398 74T386 83Q314 83 250 101T135 156T55 244T26 364Q26 469 75 531T215 620T428 648Q459 648 490 647T545 644T578 640Q586 639 590 632T594 615Q594
606 590 593T579 580Q574 580 541 588T466 596Q458 596 452 589T446 573V-143Q446 -188 429 -224T378 -282T300 -304Z" />
<glyph unicode="&#xb7;" glyph-name="middot" horiz-adv-x="237" d="M118 137Q89 137 68 158T46 209Q46 240 67 261T118 283Q149 283 170 262T192 209Q192 180 171 159T118 137Z" />
<glyph unicode="&#xb8;" glyph-name="cedilla" horiz-adv-x="249" d="M80 -274Q60 -274 50 -265T40 -229Q40 -216 44 -211T56 -206Q66 -206 80 -213T118 -220Q135 -220 143 -209T151 -178Q151 -155 133 -143T94 -131Q82 -131 76 -135T63 -139Q57 -139 50 -134T42
-118Q42 -112 53 -99L143 8H182L146 -37Q140 -44 140 -48Q140 -53 153 -59Q177 -69 193 -89T209 -140Q209 -167 196 -191T162 -234T120 -263T80 -274Z" />
<glyph unicode="&#xb9;" glyph-name="uni00B9" horiz-adv-x="252" d="M47 440Q43 440 40 443T36 452Q36 457 39 461T47 467Q62 469 71 471T84 479T89 500V671Q89 691 75 702T46 715Q41 716 38 719T34 727Q34 742 47 743Q85 746 110 755T155 778Q156 779 159 780T165
782Q175 782 174 772Q173 764 172 752T170 720V500Q170 483 176 478T209 467Q214 465 217 462T220 452Q220 448 218 445T210 441Q192 441 178 441T152 442T127 443Q115 443 104 443T79 441T47 440Z" />
<glyph unicode="&#xba;" glyph-name="ordmasculine" horiz-adv-x="321" d="M287 201Q293 201 298 198T304 188Q304 187 304 187T303 184Q297 173 288 167T267 160H35Q29 160 24 165T19 174Q19 182 27 191T47 201H287ZM169 278Q129 278 97 294T45 340T26 406Q26
448 47 481T103 533T184 552Q224 552 257 535T310 488T331 424Q331 385 313 352T259 299T169 278ZM182 313Q202 313 212 327T227 363T232 409Q232 435 225 459T205 500T174 516Q154 516 143 502T128 466T124 421Q124 394 131 369T151 329T182 313Z" />
<glyph unicode="&#xbb;" glyph-name="guillemotright" horiz-adv-x="587" d="M269 17Q261 17 261 29Q261 32 262 35T266 42Q297 90 321 119T367 168T410 207Q418 213 418 215T410 222Q388 242 367 261T322 310T266 386Q264 391 262 395T260 403Q260 413 267 413Q277
413 286 405T299 393Q328 366 352 347T400 310T454 273T527 228Q535 225 535 215Q535 206 529 197T510 180Q480 166 455 152T405 121T356 84T302 36Q298 32 289 25T269 17ZM58 17Q50 17 50 29Q50 32 51 35T55 42Q86 90 110 119T156 168T199 207Q207 213 207 215T199
222Q177 242 156 261T111 310T55 386Q53 391 51 395T49 403Q49 413 56 413Q66 413 75 405T88 393Q117 366 141 347T189 310T243 273T316 228Q324 225 324 215Q324 206 318 197T299 180Q269 166 244 152T194 121T145 84T91 36Q87 32 78 25T58 17Z" />
<glyph unicode="&#xbc;" glyph-name="onequarter" horiz-adv-x="649" d="M47 278Q43 278 40 281T36 290Q36 295 39 299T47 305Q62 307 71 309T84 317T89 338V509Q89 529 75 540T46 553Q41 554 38 557T34 565Q34 580 47 581Q85 584 110 593T155 616Q156 617 159
618T165 620Q175 620 174 610Q173 602 172 590T170 558V338Q170 321 176 316T209 305Q214 303 217 300T220 290Q220 286 218 283T210 279Q192 279 178 279T152 280T127 281Q115 281 104 281T79 279T47 278ZM531 644Q539 657 550 660T577 664Q584 664 589 659T594
649Q594 645 593 644L173 -18Q167 -30 156 -33T131 -36Q124 -36 117 -32T110 -22Q110 -20 111 -18L531 644ZM510 -9Q500 -9 500 -1V87Q500 90 495 91T489 93Q452 93 420 92T346 90Q344 90 341 91T337 95Q337 97 337 97T339 99Q373 142 411 185T485 269Q494 281
511 299T547 336Q553 342 558 346T568 350Q571 350 572 347T573 341L572 138Q572 132 578 132H597Q605 132 613 132T629 133Q636 133 636 126Q636 118 631 107T620 95H583Q577 95 575 94T572 88V26Q572 18 558 10T529 -3T510 -9ZM412 133H493Q495 133 497 134T500
137V232Q500 233 499 233T495 232Q481 217 466 201T436 168T411 137Q409 133 412 133Z" />
<glyph unicode="&#xbd;" glyph-name="onehalf" horiz-adv-x="718" d="M47 278Q43 278 40 281T36 290Q36 295 39 299T47 305Q62 307 71 309T84 317T89 338V509Q89 529 75 540T46 553Q41 554 38 557T34 565Q34 580 47 581Q85 584 110 593T155 616Q156 617 159 618T165
620Q175 620 174 610Q173 602 172 590T170 558V338Q170 321 176 316T209 305Q214 303 217 300T220 290Q220 286 218 283T210 279Q192 279 178 279T152 280T127 281Q115 281 104 281T79 279T47 278ZM531 644Q539 657 550 660T577 664Q584 664 589 659T594 649Q594
645 593 644L173 -18Q167 -30 156 -33T131 -36Q124 -36 117 -32T110 -22Q110 -20 111 -18L531 644ZM654 -16Q641 -16 621 -15T579 -14T533 -13Q514 -13 491 -13T450 -15T426 -16Q422 -16 419 -13T415 -7Q415 -3 421 3L459 42Q484 71 509 99T551 155T568 213Q568
237 554 252T517 267Q494 267 479 256T450 228Q443 217 435 217Q430 217 428 221T425 234Q425 247 440 268T483 305T550 322Q599 322 626 296T653 232Q653 212 643 190T613 145Q603 134 588 120T556 91T527 67T512 53Q510 51 513 50T521 49H608Q628 49 643 62T670
93Q672 98 675 101T686 105Q692 105 693 101T693 93Q685 72 677 43T665 -3Q664 -9 661 -12T654 -16Z" />
<glyph unicode="&#xbe;" glyph-name="threequarters" horiz-adv-x="652" d="M96 275Q72 275 52 283T32 308Q32 320 37 330T50 340Q54 340 58 338T64 333Q76 322 89 313T118 303Q142 303 157 323T172 379Q172 399 157 419T115 440Q98 440 89 435T75 429Q70 429
65 431T60 438Q61 447 70 454T91 466T108 473Q140 489 151 503T163 538Q163 553 150 563T119 574Q99 574 83 565T56 543Q54 540 51 537T45 534Q42 534 38 539T34 549Q34 556 47 572T84 602T144 616Q177 616 205 598T234 548Q234 526 220 509T174 480Q171 479 171
478T174 476Q205 472 229 453T253 398Q253 361 231 333T172 290T96 275ZM532 644Q540 657 551 660T578 664Q585 664 590 659T595 649Q595 645 594 644L174 -18Q168 -30 157 -33T132 -36Q125 -36 118 -32T111 -22Q111 -20 112 -18L532 644ZM513 -9Q503 -9 503 -1V87Q503
90 498 91T492 93Q455 93 423 92T349 90Q347 90 344 91T340 95Q340 97 340 97T342 99Q376 142 414 185T488 269Q497 281 514 299T550 336Q556 342 561 346T571 350Q574 350 575 347T576 341L575 138Q575 132 581 132H600Q608 132 616 132T632 133Q639 133 639 126Q639
118 634 107T623 95H586Q580 95 578 94T575 88V26Q575 18 561 10T532 -3T513 -9ZM415 133H496Q498 133 500 134T503 137V232Q503 233 502 233T498 232Q484 217 469 201T439 168T414 137Q412 133 415 133Z" />
<glyph unicode="&#xbf;" glyph-name="questiondown" horiz-adv-x="389" d="M246 304Q253 304 261 296T275 274Q282 258 289 238T296 186Q296 155 268 131T184 81Q158 69 140 51T121 7Q121 -29 144 -50T205 -73Q221 -73 230 -70T245 -65Q252 -63 259 -62T276 -60Q289
-60 301 -72T321 -102T329 -136Q329 -153 311 -167T270 -181Q235 -181 201 -164T136 -115Q111 -89 93 -58T64 5T54 65Q54 104 68 126T100 157Q118 166 132 174T159 190T189 208Q211 220 217 237T227 281Q228 291 232 297T246 304ZM242 494Q270 494 290 474T310
426Q310 397 290 378T242 358Q214 358 194 377T174 426Q174 454 194 474T242 494Z" />
<glyph unicode="&#xc0;" glyph-name="Agrave" horiz-adv-x="711" d="M402 683Q399 682 393 684T379 691Q344 715 303 740T225 792Q210 803 208 812Q207 820 220 827T250 840T275 845Q295 847 306 833Q333 803 356 773T403 710Q411 698 411 691Q411 684 402 683ZM24
-5Q12 -5 4 -2T-4 10Q-4 19 3 24T23 33Q52 41 73 57T108 103Q133 162 156 216T200 325T242 435T286 553Q297 584 301 601T308 626Q323 630 336 634T365 644Q379 651 389 662T404 679Q407 681 410 681T416 677Q419 671 421 665T425 652Q447 581 470 509T517 366T561
231T601 112Q610 85 623 69T653 45T690 31Q703 28 710 23T717 9Q717 3 711 0T694 -3Q676 -3 649 -2T592 0T540 2Q520 2 496 1T447 -1T405 -2Q395 -2 388 1T380 12Q380 20 388 25T407 33Q443 39 459 51T471 88Q468 105 462 128T450 177T436 224Q434 232 430 235T415
239H235Q228 239 224 235T218 221Q214 208 209 192T198 158T188 125T181 99Q176 72 190 57T241 32Q268 25 268 11Q268 5 262 2T243 -2Q220 -2 195 -1T140 1Q110 1 82 -2T24 -5ZM262 285H401Q415 285 415 291Q415 294 415 296T413 302L343 533Q339 547 336 547Q334
547 329 534L245 302Q243 297 243 294Q243 289 248 287T262 285Z" />
<glyph unicode="&#xc1;" glyph-name="Aacute" horiz-adv-x="711" d="M24 -5Q12 -5 4 -2T-4 10Q-4 19 3 24T23 33Q52 41 73 57T108 103Q133 162 156 216T200 325T242 435T286 553Q297 584 301 601T308 626Q323 630 336 634T365 644Q379 651 389 662T404 679Q407
681 410 681T416 677Q419 671 421 665T425 652Q447 581 470 509T517 366T561 231T601 112Q610 85 623 69T653 45T690 31Q703 28 710 23T717 9Q717 3 711 0T694 -3Q676 -3 649 -2T592 0T540 2Q520 2 496 1T447 -1T405 -2Q395 -2 388 1T380 12Q380 20 388 25T407
33Q443 39 459 51T471 88Q468 105 462 128T450 177T436 224Q434 232 430 235T415 239H235Q228 239 224 235T218 221Q214 208 209 192T198 158T188 125T181 99Q176 72 190 57T241 32Q268 25 268 11Q268 5 262 2T243 -2Q220 -2 195 -1T140 1Q110 1 82 -2T24 -5ZM262
285H401Q415 285 415 291Q415 294 415 296T413 302L343 533Q339 547 336 547Q334 547 329 534L245 302Q243 297 243 294Q243 289 248 287T262 285ZM330 683Q320 684 320 691Q320 698 329 710Q352 742 375 772T425 833Q437 847 456 845Q464 845 480 840T510 828T523
812Q521 803 506 792Q471 766 430 741T353 691Q345 686 339 684T330 683Z" />
<glyph unicode="&#xc2;" glyph-name="Acircumflex" horiz-adv-x="711" d="M24 -5Q12 -5 4 -2T-4 10Q-4 19 3 24T23 33Q52 41 73 57T108 103Q133 162 156 216T200 325T242 435T286 553Q297 584 301 601T308 626Q323 630 336 634T365 644Q379 651 389 662T404 679Q407
681 410 681T416 677Q419 671 421 665T425 652Q447 581 470 509T517 366T561 231T601 112Q610 85 623 69T653 45T690 31Q703 28 710 23T717 9Q717 3 711 0T694 -3Q676 -3 649 -2T592 0T540 2Q520 2 496 1T447 -1T405 -2Q395 -2 388 1T380 12Q380 20 388 25T407
33Q443 39 459 51T471 88Q468 105 462 128T450 177T436 224Q434 232 430 235T415 239H235Q228 239 224 235T218 221Q214 208 209 192T198 158T188 125T181 99Q176 72 190 57T241 32Q268 25 268 11Q268 5 262 2T243 -2Q220 -2 195 -1T140 1Q110 1 82 -2T24 -5ZM262
285H401Q415 285 415 291Q415 294 415 296T413 302L343 533Q339 547 336 547Q334 547 329 534L245 302Q243 297 243 294Q243 289 248 287T262 285ZM232 694Q214 694 214 705Q214 713 223 720L325 810Q341 825 350 830T372 836Q385 836 394 831T420 810L521 720Q529
714 529 705Q529 693 513 693Q507 693 491 698T454 712T414 729T384 745Q377 749 372 749T360 745Q349 738 330 730T291 714T254 700T232 694Z" />
<glyph unicode="&#xc3;" glyph-name="Atilde" horiz-adv-x="711" d="M24 -5Q12 -5 4 -2T-4 10Q-4 19 3 24T23 33Q52 41 73 57T108 103Q133 162 156 216T200 325T242 435T286 553Q297 584 301 601T308 626Q323 630 336 634T365 644Q379 651 389 662T404 679Q407
681 410 681T416 677Q419 671 421 665T425 652Q447 581 470 509T517 366T561 231T601 112Q610 85 623 69T653 45T690 31Q703 28 710 23T717 9Q717 3 711 0T694 -3Q676 -3 649 -2T592 0T540 2Q520 2 496 1T447 -1T405 -2Q395 -2 388 1T380 12Q380 20 388 25T407
33Q443 39 459 51T471 88Q468 105 462 128T450 177T436 224Q434 232 430 235T415 239H235Q228 239 224 235T218 221Q214 208 209 192T198 158T188 125T181 99Q176 72 190 57T241 32Q268 25 268 11Q268 5 262 2T243 -2Q220 -2 195 -1T140 1Q110 1 82 -2T24 -5ZM262
285H401Q415 285 415 291Q415 294 415 296T413 302L343 533Q339 547 336 547Q334 547 329 534L245 302Q243 297 243 294Q243 289 248 287T262 285ZM243 691Q238 691 232 697T225 707Q225 713 234 727T256 759T283 789T304 802Q322 802 343 801T382 799Q400 798
420 797T459 795Q470 795 479 801T496 815Q504 823 508 829T516 836Q523 836 530 830T537 818Q537 814 533 808T521 793Q510 779 499 763T479 734Q473 726 464 723T449 720Q441 720 421 721T374 725T326 728T293 730Q286 730 278 725T263 713Q255 706 250 699T243
691Z" />
<glyph unicode="&#xc4;" glyph-name="Adieresis" horiz-adv-x="711" d="M24 -5Q12 -5 4 -2T-4 10Q-4 19 3 24T23 33Q52 41 73 57T108 103Q133 162 156 216T200 325T242 435T286 553Q297 584 301 601T308 626Q323 630 336 634T365 644Q379 651 389 662T404 679Q407
681 410 681T416 677Q419 671 421 665T425 652Q447 581 470 509T517 366T561 231T601 112Q610 85 623 69T653 45T690 31Q703 28 710 23T717 9Q717 3 711 0T694 -3Q676 -3 649 -2T592 0T540 2Q520 2 496 1T447 -1T405 -2Q395 -2 388 1T380 12Q380 20 388 25T407
33Q443 39 459 51T471 88Q468 105 462 128T450 177T436 224Q434 232 430 235T415 239H235Q228 239 224 235T218 221Q214 208 209 192T198 158T188 125T181 99Q176 72 190 57T241 32Q268 25 268 11Q268 5 262 2T243 -2Q220 -2 195 -1T140 1Q110 1 82 -2T24 -5ZM262
285H401Q415 285 415 291Q415 294 415 296T413 302L343 533Q339 547 336 547Q334 547 329 534L245 302Q243 297 243 294Q243 289 248 287T262 285ZM470 690Q444 690 425 709T406 754Q406 782 425 800T470 819Q499 819 518 801T537 754Q537 728 518 709T470 690ZM274
690Q247 690 229 709T210 754Q210 782 228 800T274 819Q302 819 321 801T340 754Q340 728 321 709T274 690Z" />
<glyph unicode="&#xc5;" glyph-name="Aring" horiz-adv-x="711" d="M24 -5Q12 -5 4 -2T-4 10Q-4 19 3 24T23 33Q52 41 73 57T108 103Q133 162 156 216T200 325T242 435T286 553Q297 584 301 601T308 626Q323 630 336 634T365 644Q379 651 389 662T404 679Q407
681 410 681T416 677Q419 671 421 665T425 652Q447 581 470 509T517 366T561 231T601 112Q610 85 623 69T653 45T690 31Q703 28 710 23T717 9Q717 3 711 0T694 -3Q676 -3 649 -2T592 0T540 2Q520 2 496 1T447 -1T405 -2Q395 -2 388 1T380 12Q380 20 388 25T407
33Q443 39 459 51T471 88Q468 105 462 128T450 177T436 224Q434 232 430 235T415 239H235Q228 239 224 235T218 221Q214 208 209 192T198 158T188 125T181 99Q176 72 190 57T241 32Q268 25 268 11Q268 5 262 2T243 -2Q220 -2 195 -1T140 1Q110 1 82 -2T24 -5ZM262
285H401Q415 285 415 291Q415 294 415 296T413 302L343 533Q339 547 336 547Q334 547 329 534L245 302Q243 297 243 294Q243 289 248 287T262 285ZM323 771Q323 750 338 735T375 720Q395 720 406 736T417 771Q417 793 403 807T367 822Q346 822 335 807T323 771ZM375
852Q413 852 443 833T473 778Q473 752 458 733T418 703T365 692Q327 692 297 712T267 769Q267 794 282 812T323 841T375 852Z" />
<glyph unicode="&#xc6;" glyph-name="AE" horiz-adv-x="897" d="M22 -5Q10 -5 3 -2T-5 9Q-5 18 2 22T22 31Q50 40 75 61T117 111L403 597Q406 602 404 606T393 612L342 622Q333 624 330 629T326 639Q326 653 341 653Q374 653 417 651T499 649Q542 649 591 650T686
651T764 653T809 654Q815 654 822 651T831 638Q837 605 841 575T846 517Q846 510 842 506T832 502Q827 502 823 505T816 516Q807 541 799 559T780 589Q768 602 752 607T714 613H620Q603 613 588 604T573 576V365Q573 354 579 348T595 342Q621 342 643 342T685 343Q706
343 717 356T737 385Q745 396 750 405T764 414Q769 414 773 409T776 394Q775 374 774 357T772 322Q772 303 773 285T776 243Q777 232 775 226T766 220Q758 220 752 228T743 244Q735 272 722 285T694 300Q667 301 644 301T596 301Q585 301 579 295T573 278V103Q573
75 586 58T629 40H725Q734 40 748 42T775 50T797 60Q814 74 826 96T849 139Q852 146 855 149T864 153Q878 152 878 140Q878 112 870 77T853 10Q851 3 846 0T833 -4Q811 -4 775 -4T693 -2T599 -1T507 0Q486 0 465 -1T421 -3T376 -5Q365 -5 359 -1T352 9Q352 22 378
28Q413 37 428 50T444 95V249Q444 256 441 261T425 267H284Q275 267 269 263T257 248Q239 215 223 180T191 110Q184 93 184 80Q184 60 201 49T248 32Q275 25 275 11Q275 5 269 2T250 -2Q226 -2 198 -1T142 1Q111 1 81 -2T22 -5ZM321 319H429Q436 319 440 322T444
333V559Q444 571 442 574T431 562L307 335Q303 328 305 324Q306 321 310 320T321 319Z" />
<glyph unicode="&#xc7;" glyph-name="Ccedilla" horiz-adv-x="709" d="M405 -14Q330 -14 263 9T145 77T64 182T34 319Q34 389 63 451T145 561T271 636T433 664Q467 664 497 660T557 649T614 632Q625 628 631 621T639 602Q643 572 645 543T647 484Q648 474 640
470T623 468T610 483Q602 511 592 535T560 577Q537 596 502 607T420 619Q366 619 322 597T247 536T198 448T181 345Q181 281 196 224T243 124T320 56T423 31Q497 31 543 63T621 158Q629 174 643 174T657 157Q657 145 654 127T646 89T633 48Q629 36 623 30T605 19Q567
3 516 -5T405 -14ZM329 -275Q305 -275 292 -267T279 -235Q279 -219 285 -212T298 -204Q304 -204 315 -210T359 -217Q377 -217 390 -208T403 -178Q403 -156 391 -145T355 -133Q346 -133 342 -135T330 -138Q316 -138 309 -131T302 -118Q302 -112 303 -108T308 -100L397
8H437L402 -42Q391 -57 406 -63Q431 -73 451 -94T471 -149Q471 -183 448 -212T391 -258T329 -275Z" />
<glyph unicode="&#xc8;" glyph-name="Egrave" horiz-adv-x="571" d="M328 683Q325 682 319 684T305 691Q270 715 229 740T151 792Q136 803 134 812Q133 820 147 827T177 840T201 845Q221 847 233 833Q259 803 282 773T329 710Q338 698 338 691Q338 684 328 683ZM49
-5Q38 -5 32 -1T25 9Q25 22 51 28Q87 37 102 50T118 97V550Q118 584 105 598T54 620Q40 623 34 628T28 640Q28 647 34 650T52 654Q81 654 107 653T159 651T211 650Q257 650 308 651T401 652Q434 653 455 655T481 657Q488 657 495 654T504 642Q508 609 514 577T520
521Q520 512 516 508T506 503Q501 503 497 506T490 517Q482 540 475 557T459 583Q446 597 429 605T388 613H295Q277 613 262 603T247 573V377Q247 366 253 360T269 354H361Q388 354 399 369T419 410Q426 430 438 430Q443 430 447 425T451 410Q450 400 449 386T448
358T447 333Q447 321 447 306T448 277T450 252Q451 241 449 235T440 229Q424 229 417 257Q409 285 398 299T368 313H274Q261 313 254 308T247 289V99Q247 66 261 53T304 40H386Q411 40 431 45T467 61Q484 73 497 93T524 139Q528 147 532 149T542 152Q547 151 549
146T552 135Q552 121 547 99T535 54T521 10Q518 3 513 0T501 -4Q477 -4 440 -4T358 -2T268 -1T180 0Q159 0 138 -1T94 -3T49 -5Z" />
<glyph unicode="&#xc9;" glyph-name="Eacute" horiz-adv-x="571" d="M49 -5Q38 -5 32 -1T25 9Q25 22 51 28Q87 37 102 50T118 97V550Q118 584 105 598T54 620Q40 623 34 628T28 640Q28 647 34 650T52 654Q81 654 107 653T159 651T211 650Q257 650 308 651T401
652Q434 653 455 655T481 657Q488 657 495 654T504 642Q508 609 514 577T520 521Q520 512 516 508T506 503Q501 503 497 506T490 517Q482 540 475 557T459 583Q446 597 429 605T388 613H295Q277 613 262 603T247 573V377Q247 366 253 360T269 354H361Q388 354 399
369T419 410Q426 430 438 430Q443 430 447 425T451 410Q450 400 449 386T448 358T447 333Q447 321 447 306T448 277T450 252Q451 241 449 235T440 229Q424 229 417 257Q409 285 398 299T368 313H274Q261 313 254 308T247 289V99Q247 66 261 53T304 40H386Q411 40
431 45T467 61Q484 73 497 93T524 139Q528 147 532 149T542 152Q547 151 549 146T552 135Q552 121 547 99T535 54T521 10Q518 3 513 0T501 -4Q477 -4 440 -4T358 -2T268 -1T180 0Q159 0 138 -1T94 -3T49 -5ZM256 683Q246 684 246 691Q246 698 255 710Q278 742 301
772T351 833Q363 847 382 845Q390 845 406 840T436 828T449 812Q447 803 432 792Q397 766 356 741T279 691Q271 686 265 684T256 683Z" />
<glyph unicode="&#xca;" glyph-name="Ecircumflex" horiz-adv-x="571" d="M49 -5Q38 -5 32 -1T25 9Q25 22 51 28Q87 37 102 50T118 97V550Q118 584 105 598T54 620Q40 623 34 628T28 640Q28 647 34 650T52 654Q81 654 107 653T159 651T211 650Q257 650 308 651T401
652Q434 653 455 655T481 657Q488 657 495 654T504 642Q508 609 514 577T520 521Q520 512 516 508T506 503Q501 503 497 506T490 517Q482 540 475 557T459 583Q446 597 429 605T388 613H295Q277 613 262 603T247 573V377Q247 366 253 360T269 354H361Q388 354 399
369T419 410Q426 430 438 430Q443 430 447 425T451 410Q450 400 449 386T448 358T447 333Q447 321 447 306T448 277T450 252Q451 241 449 235T440 229Q424 229 417 257Q409 285 398 299T368 313H274Q261 313 254 308T247 289V99Q247 66 261 53T304 40H386Q411 40
431 45T467 61Q484 73 497 93T524 139Q528 147 532 149T542 152Q547 151 549 146T552 135Q552 121 547 99T535 54T521 10Q518 3 513 0T501 -4Q477 -4 440 -4T358 -2T268 -1T180 0Q159 0 138 -1T94 -3T49 -5ZM159 694Q141 694 141 705Q141 713 150 720L252 810Q268
825 277 830T299 836Q312 836 321 831T347 810L448 720Q456 714 456 705Q456 693 440 693Q434 693 418 698T381 712T341 729T311 745Q304 749 299 749T287 745Q276 738 257 730T218 714T181 700T159 694Z" />
<glyph unicode="&#xcb;" glyph-name="Edieresis" horiz-adv-x="571" d="M49 -5Q38 -5 32 -1T25 9Q25 22 51 28Q87 37 102 50T118 97V550Q118 584 105 598T54 620Q40 623 34 628T28 640Q28 647 34 650T52 654Q81 654 107 653T159 651T211 650Q257 650 308 651T401
652Q434 653 455 655T481 657Q488 657 495 654T504 642Q508 609 514 577T520 521Q520 512 516 508T506 503Q501 503 497 506T490 517Q482 540 475 557T459 583Q446 597 429 605T388 613H295Q277 613 262 603T247 573V377Q247 366 253 360T269 354H361Q388 354 399
369T419 410Q426 430 438 430Q443 430 447 425T451 410Q450 400 449 386T448 358T447 333Q447 321 447 306T448 277T450 252Q451 241 449 235T440 229Q424 229 417 257Q409 285 398 299T368 313H274Q261 313 254 308T247 289V99Q247 66 261 53T304 40H386Q411 40
431 45T467 61Q484 73 497 93T524 139Q528 147 532 149T542 152Q547 151 549 146T552 135Q552 121 547 99T535 54T521 10Q518 3 513 0T501 -4Q477 -4 440 -4T358 -2T268 -1T180 0Q159 0 138 -1T94 -3T49 -5ZM396 690Q370 690 351 709T332 754Q332 782 351 800T396
819Q425 819 444 801T463 754Q463 728 444 709T396 690ZM200 690Q173 690 155 709T136 754Q136 782 154 800T200 819Q228 819 247 801T266 754Q266 728 247 709T200 690Z" />
<glyph unicode="&#xcc;" glyph-name="Igrave" horiz-adv-x="356" d="M209 683Q207 682 201 684T186 691Q151 715 110 740T33 792Q17 803 16 812Q15 820 28 827T58 840T83 845Q102 847 114 833Q141 803 164 773T210 710Q219 698 219 691Q219 684 209 683ZM40 -4Q31
-4 24 -1T17 9Q17 24 42 29Q80 37 97 51T114 97V551Q114 584 100 598T47 620Q22 625 22 641Q22 647 29 650T45 654Q69 654 92 653T136 651T180 650Q201 650 222 651T267 653T314 654Q324 654 330 651T336 640Q336 632 330 628T311 620Q271 610 257 596T243 550V98Q243
67 259 53T314 29Q327 26 333 22T340 10Q340 3 334 0T318 -3Q294 -3 270 -2T224 0T180 1Q158 1 135 0T88 -2T40 -4Z" />
<glyph unicode="&#xcd;" glyph-name="Iacute" horiz-adv-x="356" d="M40 -4Q31 -4 24 -1T17 9Q17 24 42 29Q80 37 97 51T114 97V551Q114 584 100 598T47 620Q22 625 22 641Q22 647 29 650T45 654Q69 654 92 653T136 651T180 650Q201 650 222 651T267 653T314 654Q324
654 330 651T336 640Q336 632 330 628T311 620Q271 610 257 596T243 550V98Q243 67 259 53T314 29Q327 26 333 22T340 10Q340 3 334 0T318 -3Q294 -3 270 -2T224 0T180 1Q158 1 135 0T88 -2T40 -4ZM137 683Q127 684 127 691Q127 698 136 710Q159 742 182 772T232
833Q244 847 263 845Q271 845 287 840T317 828T330 812Q328 803 313 792Q278 766 237 741T160 691Q152 686 146 684T137 683Z" />
<glyph unicode="&#xce;" glyph-name="Icircumflex" horiz-adv-x="356" d="M40 -4Q31 -4 24 -1T17 9Q17 24 42 29Q80 37 97 51T114 97V551Q114 584 100 598T47 620Q22 625 22 641Q22 647 29 650T45 654Q69 654 92 653T136 651T180 650Q201 650 222 651T267 653T314
654Q324 654 330 651T336 640Q336 632 330 628T311 620Q271 610 257 596T243 550V98Q243 67 259 53T314 29Q327 26 333 22T340 10Q340 3 334 0T318 -3Q294 -3 270 -2T224 0T180 1Q158 1 135 0T88 -2T40 -4ZM40 694Q22 694 22 705Q22 713 31 720L133 810Q149 825
158 830T180 836Q193 836 202 831T228 810L329 720Q337 714 337 705Q337 693 321 693Q315 693 299 698T262 712T222 729T192 745Q185 749 180 749T168 745Q157 738 138 730T99 714T62 700T40 694Z" />
<glyph unicode="&#xcf;" glyph-name="Idieresis" horiz-adv-x="356" d="M40 -4Q31 -4 24 -1T17 9Q17 24 42 29Q80 37 97 51T114 97V551Q114 584 100 598T47 620Q22 625 22 641Q22 647 29 650T45 654Q69 654 92 653T136 651T180 650Q201 650 222 651T267 653T314
654Q324 654 330 651T336 640Q336 632 330 628T311 620Q271 610 257 596T243 550V98Q243 67 259 53T314 29Q327 26 333 22T340 10Q340 3 334 0T318 -3Q294 -3 270 -2T224 0T180 1Q158 1 135 0T88 -2T40 -4ZM277 690Q251 690 232 709T213 754Q213 782 232 800T277
819Q306 819 325 801T344 754Q344 728 325 709T277 690ZM81 690Q54 690 36 709T17 754Q17 782 35 800T81 819Q109 819 128 801T147 754Q147 728 128 709T81 690Z" />
<glyph unicode="&#xd0;" glyph-name="Eth" horiz-adv-x="762" d="M58 310Q48 310 44 319T39 335Q39 346 46 353T66 360H369Q377 360 382 356T388 345Q388 344 388 343T387 341Q383 329 374 320T350 310H58ZM379 -7Q352 -7 314 -5T238 -2T174 0Q154 0 134 0T91
-2T44 -4Q35 -4 28 -1T21 10Q21 19 27 23T47 29Q85 37 99 51T113 98V550Q113 584 100 598T47 620Q34 622 28 626T21 640Q21 647 28 650T44 654Q68 654 90 654T133 652T177 650Q192 650 217 651T272 654T328 657T370 659Q454 659 521 635T635 568T708 466T733 338Q733
269 708 207T637 97T525 21T379 -7ZM364 39Q436 39 486 73T563 170T589 315Q589 383 572 438T523 532T448 592T353 613Q317 613 293 611T256 600T243 568V128Q243 93 258 74T301 47T364 39Z" />
<glyph unicode="&#xd1;" glyph-name="Ntilde" horiz-adv-x="804" d="M676 -18Q664 -18 636 -3T579 49Q562 68 538 95T484 156T422 225T359 297T297 366T242 426T200 474Q196 479 192 482T184 486Q180 486 178 479T176 466Q176 420 176 357T177 229T177 109Q177
78 195 58T252 29Q264 27 272 23T281 10Q281 3 273 0T255 -3Q228 -3 212 -2T183 0T150 1Q129 1 113 0T83 -2T58 -4Q48 -4 40 -1T32 9Q32 17 39 21T60 30Q86 38 98 59T114 111Q118 149 122 210T129 349T133 508Q133 560 107 583T40 620Q33 622 22 628T11 643Q11
652 19 655T36 658Q57 658 78 657T120 656T165 654T216 653Q225 653 229 650T238 640Q254 621 279 593T333 530T395 457T460 381T523 309T577 246T618 199Q622 195 627 189T637 183Q645 183 646 200Q646 226 646 266T646 356T647 458T645 558Q644 583 625 597T576
618Q564 621 554 625T543 639Q543 646 553 649T573 652Q593 652 606 652T632 652T657 651Q679 651 693 651T723 653T767 654Q779 654 786 651T794 641Q794 626 765 620Q730 613 716 601T700 561Q700 536 700 497T698 412T696 318T694 224T693 141Q693 117 695 92T699
48T702 20Q702 -2 695 -10T676 -18ZM289 691Q284 691 278 697T271 707Q271 713 280 727T302 759T329 789T350 802Q368 802 389 801T428 799Q446 798 466 797T505 795Q516 795 525 801T542 815Q550 823 554 829T562 836Q569 836 576 830T583 818Q583 814 579 808T567
793Q556 779 545 763T525 734Q519 726 510 723T495 720Q487 720 467 721T420 725T372 728T339 730Q332 730 324 725T309 713Q301 706 296 699T289 691Z" />
<glyph unicode="&#xd2;" glyph-name="Ograve" horiz-adv-x="761" d="M421 683Q418 682 412 684T398 691Q363 715 322 740T244 792Q229 803 227 812Q226 820 240 827T270 840T294 845Q314 847 326 833Q352 803 375 773T422 710Q431 698 431 691Q431 684 421 683ZM376
-14Q308 -14 246 9T137 76T62 180T34 315Q34 383 56 445T123 557T233 635T385 664Q453 664 514 641T624 574T699 470T727 335Q727 268 705 205T638 93T528 15T376 -14ZM393 30Q456 30 498 62T562 151T584 284Q584 348 571 408T531 515T464 591T367 619Q304 619
262 587T198 498T177 366Q177 302 190 242T229 134T296 58T393 30Z" />
<glyph unicode="&#xd3;" glyph-name="Oacute" horiz-adv-x="761" d="M376 -14Q308 -14 246 9T137 76T62 180T34 315Q34 383 56 445T123 557T233 635T385 664Q453 664 514 641T624 574T699 470T727 335Q727 268 705 205T638 93T528 15T376 -14ZM393 30Q456 30 498
62T562 151T584 284Q584 348 571 408T531 515T464 591T367 619Q304 619 262 587T198 498T177 366Q177 302 190 242T229 134T296 58T393 30ZM349 683Q339 684 339 691Q339 698 348 710Q371 742 394 772T444 833Q456 847 475 845Q483 845 499 840T529 828T542 812Q540
803 525 792Q490 766 449 741T372 691Q364 686 358 684T349 683Z" />
<glyph unicode="&#xd4;" glyph-name="Ocircumflex" horiz-adv-x="761" d="M376 -14Q308 -14 246 9T137 76T62 180T34 315Q34 383 56 445T123 557T233 635T385 664Q453 664 514 641T624 574T699 470T727 335Q727 268 705 205T638 93T528 15T376 -14ZM393 30Q456
30 498 62T562 151T584 284Q584 348 571 408T531 515T464 591T367 619Q304 619 262 587T198 498T177 366Q177 302 190 242T229 134T296 58T393 30ZM252 694Q234 694 234 705Q234 713 243 720L345 810Q361 825 370 830T392 836Q405 836 414 831T440 810L541 720Q549
714 549 705Q549 693 533 693Q527 693 511 698T474 712T434 729T404 745Q397 749 392 749T380 745Q369 738 350 730T311 714T274 700T252 694Z" />
<glyph unicode="&#xd5;" glyph-name="Otilde" horiz-adv-x="761" d="M376 -14Q308 -14 246 9T137 76T62 180T34 315Q34 383 56 445T123 557T233 635T385 664Q453 664 514 641T624 574T699 470T727 335Q727 268 705 205T638 93T528 15T376 -14ZM393 30Q456 30 498
62T562 151T584 284Q584 348 571 408T531 515T464 591T367 619Q304 619 262 587T198 498T177 366Q177 302 190 242T229 134T296 58T393 30ZM262 691Q257 691 251 697T244 707Q244 713 253 727T275 759T302 789T323 802Q341 802 362 801T401 799Q419 798 439 797T478
795Q489 795 498 801T515 815Q523 823 527 829T535 836Q542 836 549 830T556 818Q556 814 552 808T540 793Q529 779 518 763T498 734Q492 726 483 723T468 720Q460 720 440 721T393 725T345 728T312 730Q305 730 297 725T282 713Q274 706 269 699T262 691Z" />
<glyph unicode="&#xd6;" glyph-name="Odieresis" horiz-adv-x="761" d="M376 -14Q308 -14 246 9T137 76T62 180T34 315Q34 383 56 445T123 557T233 635T385 664Q453 664 514 641T624 574T699 470T727 335Q727 268 705 205T638 93T528 15T376 -14ZM393 30Q456 30
498 62T562 151T584 284Q584 348 571 408T531 515T464 591T367 619Q304 619 262 587T198 498T177 366Q177 302 190 242T229 134T296 58T393 30ZM489 690Q463 690 444 709T425 754Q425 782 444 800T489 819Q518 819 537 801T556 754Q556 728 537 709T489 690ZM293
690Q266 690 248 709T229 754Q229 782 247 800T293 819Q321 819 340 801T359 754Q359 728 340 709T293 690Z" />
<glyph unicode="&#xd7;" glyph-name="multiply" horiz-adv-x="559" d="M442 54Q434 54 427 61L285 203Q279 209 272 202L134 63Q130 59 125 58T115 58Q109 60 101 73T92 100Q92 110 98 115L228 245Q232 249 232 252T227 260L97 391Q92 396 92 405Q92 417 99 429T110
446Q114 450 120 450T130 445L272 303Q276 299 279 299T285 302L428 445Q433 450 439 450Q445 450 448 446Q453 439 460 428T467 405Q467 397 461 391L329 258Q323 252 329 246L463 112Q470 106 470 97Q470 85 461 70T442 54Z" />
<glyph unicode="&#xd8;" glyph-name="Oslash" horiz-adv-x="765" d="M74 -14Q59 -14 47 -5T34 15Q34 31 48 45L689 657Q696 665 708 664T724 651Q725 647 726 641T728 629Q728 622 726 615T718 602L88 -9Q86 -11 83 -12T74 -14ZM376 -14Q308 -14 246 9T137 76T62
180T34 315Q34 383 56 445T123 557T233 635T385 664Q453 664 514 641T624 574T699 470T727 335Q727 268 705 205T638 93T528 15T376 -14ZM393 30Q456 30 498 62T562 151T584 284Q584 348 571 408T531 515T464 591T367 619Q304 619 262 587T198 498T177 366Q177
302 190 242T229 134T296 58T393 30Z" />
<glyph unicode="&#xd9;" glyph-name="Ugrave" horiz-adv-x="742" d="M430 683Q428 682 422 684T407 691Q372 715 331 740T254 792Q238 803 237 812Q236 820 249 827T279 840T304 845Q323 847 335 833Q362 803 385 773T431 710Q440 698 440 691Q440 684 430 683ZM373
-14Q280 -14 218 19T125 111T94 249V541Q94 571 81 592T45 619Q15 627 15 641Q15 647 23 650T43 654Q71 654 101 652T161 650Q187 650 220 651T278 653Q290 653 297 650T305 640Q305 630 293 626T263 614Q249 608 237 590T224 539V270Q224 198 248 152T312 83T402
61Q497 61 543 121T589 293Q589 318 589 352T589 422T587 492Q587 531 582 555T566 594T538 617Q528 621 515 626T501 639Q501 647 509 650T530 653Q562 653 579 652T620 651Q637 651 650 651T677 653T707 654Q719 654 726 652T733 641Q733 627 704 620Q673 612
661 591T647 536Q643 457 642 391T639 258Q638 178 603 117T507 21T373 -14Z" />
<glyph unicode="&#xda;" glyph-name="Uacute" horiz-adv-x="742" d="M373 -14Q280 -14 218 19T125 111T94 249V541Q94 571 81 592T45 619Q15 627 15 641Q15 647 23 650T43 654Q71 654 101 652T161 650Q187 650 220 651T278 653Q290 653 297 650T305 640Q305 630
293 626T263 614Q249 608 237 590T224 539V270Q224 198 248 152T312 83T402 61Q497 61 543 121T589 293Q589 318 589 352T589 422T587 492Q587 531 582 555T566 594T538 617Q528 621 515 626T501 639Q501 647 509 650T530 653Q562 653 579 652T620 651Q637 651
650 651T677 653T707 654Q719 654 726 652T733 641Q733 627 704 620Q673 612 661 591T647 536Q643 457 642 391T639 258Q638 178 603 117T507 21T373 -14ZM358 683Q348 684 348 691Q348 698 357 710Q380 742 403 772T453 833Q465 847 484 845Q492 845 508 840T538
828T551 812Q549 803 534 792Q499 766 458 741T381 691Q373 686 367 684T358 683Z" />
<glyph unicode="&#xdb;" glyph-name="Ucircumflex" horiz-adv-x="742" d="M373 -14Q280 -14 218 19T125 111T94 249V541Q94 571 81 592T45 619Q15 627 15 641Q15 647 23 650T43 654Q71 654 101 652T161 650Q187 650 220 651T278 653Q290 653 297 650T305 640Q305
630 293 626T263 614Q249 608 237 590T224 539V270Q224 198 248 152T312 83T402 61Q497 61 543 121T589 293Q589 318 589 352T589 422T587 492Q587 531 582 555T566 594T538 617Q528 621 515 626T501 639Q501 647 509 650T530 653Q562 653 579 652T620 651Q637
651 650 651T677 653T707 654Q719 654 726 652T733 641Q733 627 704 620Q673 612 661 591T647 536Q643 457 642 391T639 258Q638 178 603 117T507 21T373 -14ZM261 694Q243 694 243 705Q243 713 252 720L354 810Q370 825 379 830T401 836Q414 836 423 831T449 810L550
720Q558 714 558 705Q558 693 542 693Q536 693 520 698T483 712T443 729T413 745Q406 749 401 749T389 745Q378 738 359 730T320 714T283 700T261 694Z" />
<glyph unicode="&#xdc;" glyph-name="Udieresis" horiz-adv-x="742" d="M373 -14Q280 -14 218 19T125 111T94 249V541Q94 571 81 592T45 619Q15 627 15 641Q15 647 23 650T43 654Q71 654 101 652T161 650Q187 650 220 651T278 653Q290 653 297 650T305 640Q305
630 293 626T263 614Q249 608 237 590T224 539V270Q224 198 248 152T312 83T402 61Q497 61 543 121T589 293Q589 318 589 352T589 422T587 492Q587 531 582 555T566 594T538 617Q528 621 515 626T501 639Q501 647 509 650T530 653Q562 653 579 652T620 651Q637
651 650 651T677 653T707 654Q719 654 726 652T733 641Q733 627 704 620Q673 612 661 591T647 536Q643 457 642 391T639 258Q638 178 603 117T507 21T373 -14ZM499 690Q473 690 454 709T435 754Q435 782 454 800T499 819Q528 819 547 801T566 754Q566 728 547 709T499
690ZM303 690Q276 690 258 709T239 754Q239 782 257 800T303 819Q331 819 350 801T369 754Q369 728 350 709T303 690Z" />
<glyph unicode="&#xdd;" glyph-name="Yacute" horiz-adv-x="629" d="M189 -6Q176 -6 169 -2T161 9Q161 17 169 21T191 29Q229 36 246 56T263 109V251Q263 280 253 303T234 343L109 540Q101 553 89 569T61 600T27 619Q15 623 8 627T0 640Q0 647 7 650T24 654Q60
654 95 652T171 649Q200 649 226 651T281 654Q291 654 300 651T309 640Q309 632 300 627T279 619Q256 614 245 607T233 586Q233 571 245 551L344 376Q357 351 366 351Q371 351 376 357T389 376Q413 415 433 453T476 536Q482 548 485 559T489 580Q489 600 473 608T440
619Q430 620 419 626T408 640Q408 647 417 650T437 653Q464 653 484 651T530 649Q558 649 583 652T633 655Q645 655 653 652T662 641Q662 632 650 628T624 619Q596 611 576 592T537 543Q520 515 505 492T477 447T449 403T419 353Q409 336 404 322T395 293T392 258V110Q392
73 409 56T464 29Q478 26 486 22T495 9Q495 3 488 -1T468 -5Q444 -5 420 -3T374 0T329 2Q307 2 284 1T237 -3T189 -6ZM313 683Q303 684 303 691Q303 698 312 710Q335 742 358 772T408 833Q420 847 439 845Q447 845 463 840T493 828T506 812Q504 803 489 792Q454
766 413 741T336 691Q328 686 322 684T313 683Z" />
<glyph unicode="&#xde;" glyph-name="Thorn" horiz-adv-x="580" d="M41 -4Q32 -4 25 -1T18 9Q18 24 43 29Q81 37 98 51T115 98V550Q115 581 104 596T53 620Q28 625 28 641Q28 647 35 650T51 654Q75 654 97 653T139 651T180 650Q202 650 224 651T271 653T319 654Q329
654 335 651T341 640Q341 632 335 628T316 620Q278 611 262 598T245 556V543Q245 538 246 534T251 530Q253 530 258 531T269 534T274 536Q291 540 310 541T349 543Q404 543 450 521T523 455T551 345Q551 273 515 225T420 153T290 128Q280 128 270 129T253 131Q245
131 245 122V97Q245 68 261 54T316 29Q329 26 335 22T341 10Q341 3 336 0T320 -3Q296 -3 272 -2T226 0T182 1Q159 1 136 0T89 -2T41 -4ZM288 165Q355 165 387 210T420 335Q420 385 408 423T373 483T314 505Q289 505 274 499T252 476T245 429V228Q245 189 259 177T288
165Z" />
<glyph unicode="&#xdf;" glyph-name="germandbls" horiz-adv-x="555" d="M367 -14Q326 -14 302 1T278 42Q278 61 286 79T309 97Q317 97 325 92T343 76Q359 61 373 53T409 44Q425 44 441 55T458 90Q458 109 447 126T416 163T368 207Q337 235 316 255T284 294T273
334Q273 358 287 376T321 410T360 446Q381 466 394 492T407 549Q407 599 383 632T305 665Q253 665 224 622T195 473V72Q195 52 209 43T244 29Q252 26 258 22T265 9Q265 3 258 0T246 -3Q226 -3 209 -2T175 1T141 2Q124 2 110 1T79 -1T43 -3Q38 -3 30 -1T22 9Q22
17 29 21T45 29Q60 34 72 42T84 70V353Q74 353 61 353T32 355Q27 356 23 365T19 381Q19 387 27 389Q44 395 57 400T84 414Q87 496 111 552T172 642T253 691T337 706Q378 706 410 690T460 646T479 587Q479 547 464 520T418 464Q399 445 388 426T376 372Q376 357
384 344T409 316T449 278Q475 255 493 235T521 194T531 150Q531 117 515 87T474 34T421 -1T367 -14Z" />
<glyph unicode="&#xe0;" glyph-name="agrave" horiz-adv-x="425" d="M248 454Q237 454 219 472Q201 490 180 514T137 563T99 609Q94 616 92 621T89 632Q89 644 105 649T144 655Q159 655 168 650T183 632Q191 618 205 591T232 534T253 486Q255 479 256 474T257
465Q257 454 248 454ZM125 -14Q101 -14 80 -1T45 33T32 76Q32 110 52 131T112 170L205 210Q225 218 229 225T234 251L236 310Q237 338 225 355T187 372Q174 372 160 367T138 354Q134 350 133 344T131 331Q131 326 131 319T132 305Q132 299 117 290T83 274T51 267Q44
267 40 272T36 284Q36 300 46 316T80 352Q105 373 135 389T193 416T243 426Q291 426 320 395T348 312L343 98Q342 76 351 61T375 46Q396 46 409 58Q413 62 416 62Q421 62 424 59T428 50Q428 39 412 23Q394 5 374 -4T333 -14Q280 -14 247 41H244Q211 12 184 -1T125
-14ZM180 46Q194 46 204 50T221 63Q225 68 227 75T231 95L233 159Q234 169 231 172T224 176Q222 176 218 176T209 172Q172 157 156 140T140 96Q140 69 153 58T180 46Z" />
<glyph unicode="&#xe1;" glyph-name="aacute" horiz-adv-x="425" d="M125 -14Q101 -14 80 -1T45 33T32 76Q32 110 52 131T112 170L205 210Q225 218 229 225T234 251L236 310Q237 338 225 355T187 372Q174 372 160 367T138 354Q134 350 133 344T131 331Q131 326
131 319T132 305Q132 299 117 290T83 274T51 267Q44 267 40 272T36 284Q36 300 46 316T80 352Q105 373 135 389T193 416T243 426Q291 426 320 395T348 312L343 98Q342 76 351 61T375 46Q396 46 409 58Q413 62 416 62Q421 62 424 59T428 50Q428 39 412 23Q394 5
374 -4T333 -14Q280 -14 247 41H244Q211 12 184 -1T125 -14ZM180 46Q194 46 204 50T221 63Q225 68 227 75T231 95L233 159Q234 169 231 172T224 176Q222 176 218 176T209 172Q172 157 156 140T140 96Q140 69 153 58T180 46ZM190 454Q180 454 180 465Q180 469 181
474T185 486Q192 505 205 534T232 590T254 632Q260 645 269 650T293 655Q315 655 331 650T348 632Q348 626 346 621T338 609Q322 588 301 563T258 514T218 472Q200 454 190 454Z" />
<glyph unicode="&#xe2;" glyph-name="acircumflex" horiz-adv-x="425" d="M216 663Q225 663 231 655T246 633Q255 618 266 598T290 557T313 516T329 486Q334 472 331 464T319 455Q313 455 303 463T283 484Q273 495 256 516T221 557Q218 561 217 561T211 557Q194
537 177 516T150 484Q139 472 130 464T112 455Q100 455 99 464T103 486Q108 497 118 515T140 555T165 597T185 632Q194 646 201 654T216 663ZM125 -14Q101 -14 80 -1T45 33T32 76Q32 110 52 131T112 170L205 210Q225 218 229 225T234 251L236 310Q237 338 225 355T187
372Q174 372 160 367T138 354Q134 350 133 344T131 331Q131 326 131 319T132 305Q132 299 117 290T83 274T51 267Q44 267 40 272T36 284Q36 300 46 316T80 352Q105 373 135 389T193 416T243 426Q291 426 320 395T348 312L343 98Q342 76 351 61T375 46Q396 46 409
58Q413 62 416 62Q421 62 424 59T428 50Q428 39 412 23Q394 5 374 -4T333 -14Q280 -14 247 41H244Q211 12 184 -1T125 -14ZM180 46Q194 46 204 50T221 63Q225 68 227 75T231 95L233 159Q234 169 231 172T224 176Q222 176 218 176T209 172Q172 157 156 140T140 96Q140
69 153 58T180 46Z" />
<glyph unicode="&#xe3;" glyph-name="atilde" horiz-adv-x="425" d="M125 -14Q101 -14 80 -1T45 33T32 76Q32 110 52 131T112 170L205 210Q225 218 229 225T234 251L236 310Q237 338 225 355T187 372Q174 372 160 367T138 354Q134 350 133 344T131 331Q131 326
131 319T132 305Q132 299 117 290T83 274T51 267Q44 267 40 272T36 284Q36 300 46 316T80 352Q105 373 135 389T193 416T243 426Q291 426 320 395T348 312L343 98Q342 76 351 61T375 46Q396 46 409 58Q413 62 416 62Q421 62 424 59T428 50Q428 39 412 23Q394 5
374 -4T333 -14Q280 -14 247 41H244Q211 12 184 -1T125 -14ZM180 46Q194 46 204 50T221 63Q225 68 227 75T231 95L233 159Q234 169 231 172T224 176Q222 176 218 176T209 172Q172 157 156 140T140 96Q140 69 153 58T180 46ZM92 463Q87 463 80 469T72 481Q72 486
84 502T112 538T144 572T167 587Q180 587 192 585T229 580Q250 579 266 578T293 576Q303 576 312 581T330 596Q340 607 346 614T355 622Q362 622 369 616T376 603Q376 600 371 593T355 574Q344 560 332 543T310 511Q304 503 295 500T280 497Q272 497 255 498T217
501T177 504T146 506Q138 506 131 501T118 490Q108 477 102 470T92 463Z" />
<glyph unicode="&#xe4;" glyph-name="adieresis" horiz-adv-x="425" d="M125 -14Q101 -14 80 -1T45 33T32 76Q32 110 52 131T112 170L205 210Q225 218 229 225T234 251L236 310Q237 338 225 355T187 372Q174 372 160 367T138 354Q134 350 133 344T131 331Q131
326 131 319T132 305Q132 299 117 290T83 274T51 267Q44 267 40 272T36 284Q36 300 46 316T80 352Q105 373 135 389T193 416T243 426Q291 426 320 395T348 312L343 98Q342 76 351 61T375 46Q396 46 409 58Q413 62 416 62Q421 62 424 59T428 50Q428 39 412 23Q394
5 374 -4T333 -14Q280 -14 247 41H244Q211 12 184 -1T125 -14ZM180 46Q194 46 204 50T221 63Q225 68 227 75T231 95L233 159Q234 169 231 172T224 176Q222 176 218 176T209 172Q172 157 156 140T140 96Q140 69 153 58T180 46ZM307 499Q282 499 263 518T243 563Q243
590 262 609T307 628Q335 628 354 609T374 563Q374 538 355 519T307 499ZM119 499Q93 499 74 518T55 563Q55 590 74 609T119 628Q146 628 165 609T185 563Q185 538 166 519T119 499Z" />
<glyph unicode="&#xe5;" glyph-name="aring" horiz-adv-x="425" d="M125 -14Q101 -14 80 -1T45 33T32 76Q32 110 52 131T112 170L205 210Q225 218 229 225T234 251L236 310Q237 338 225 355T187 372Q174 372 160 367T138 354Q134 350 133 344T131 331Q131 326
131 319T132 305Q132 299 117 290T83 274T51 267Q44 267 40 272T36 284Q36 300 46 316T80 352Q105 373 135 389T193 416T243 426Q291 426 320 395T348 312L343 98Q342 76 351 61T375 46Q396 46 409 58Q413 62 416 62Q421 62 424 59T428 50Q428 39 412 23Q394 5
374 -4T333 -14Q280 -14 247 41H244Q211 12 184 -1T125 -14ZM180 46Q194 46 204 50T221 63Q225 68 227 75T231 95L233 159Q234 169 231 172T224 176Q222 176 218 176T209 172Q172 157 156 140T140 96Q140 69 153 58T180 46ZM211 480Q173 480 145 505T116 570Q116
597 131 618T169 652T220 665Q257 665 285 641T314 578Q314 549 299 527T261 493T211 480ZM220 513Q241 513 250 530T260 571Q260 595 246 612T210 630Q190 630 180 613T170 573Q170 549 184 531T220 513Z" />
<glyph unicode="&#xe6;" glyph-name="ae" horiz-adv-x="602" d="M130 -14Q105 -14 83 -2T46 30T32 73Q32 107 51 130T113 170L207 208Q227 217 231 223T236 246L237 308Q238 336 225 353T188 371Q173 371 158 363T136 346Q132 339 132 327Q132 322 132 316T133
305Q133 297 117 289T81 274T51 267Q44 267 41 272T37 283Q37 316 80 353Q98 368 125 385T183 414T241 427Q262 427 282 419T316 396Q320 392 323 392Q325 392 330 395Q351 408 378 417T436 426Q473 426 505 413T557 375T577 316Q577 300 571 293T553 282Q547 280
522 271T463 251T401 229T357 213Q353 211 350 206T346 195V158Q346 132 359 112T393 80T440 69Q469 69 498 80T550 120Q555 125 562 125Q574 125 574 113Q574 110 573 105T570 97Q540 46 500 16T391 -14Q354 -14 323 -2T264 35Q262 37 259 40T253 43Q250 43 245
38Q233 27 218 15T182 -6T130 -14ZM181 45Q195 45 205 50T224 64Q228 68 231 74T235 94V152Q235 162 234 167T228 172Q224 172 216 169Q199 163 182 153T153 129T141 96Q141 68 155 57T181 45ZM359 259Q389 269 419 278T474 296Q482 299 484 304T486 317Q486 345
470 366T420 387Q406 387 390 380T361 359T348 326V268Q348 262 351 260T359 259Z" />
<glyph unicode="&#xe7;" glyph-name="ccedilla" horiz-adv-x="410" d="M212 -14Q160 -14 118 13T52 87T27 194Q27 259 57 311T136 395T247 426Q323 426 375 378Q385 369 385 360Q385 353 377 342T358 323T339 315Q331 315 324 320T310 331Q285 351 258 365T212
379Q171 379 148 343T125 235Q125 186 142 150T190 94T262 74Q292 74 313 83T359 114Q363 117 366 119T374 122Q385 122 385 106Q385 102 383 95T375 78Q364 58 340 36T283 0T212 -14ZM160 -274Q140 -274 130 -265T120 -229Q120 -216 124 -211T136 -206Q146 -206
160 -213T198 -220Q215 -220 223 -209T231 -178Q231 -155 213 -143T174 -131Q162 -131 156 -135T143 -139Q137 -139 130 -134T122 -118Q122 -112 133 -99L223 8H262L226 -37Q220 -44 220 -48Q220 -53 233 -59Q257 -69 273 -89T289 -140Q289 -167 276 -191T242 -234T200
-263T160 -274Z" />
<glyph unicode="&#xe8;" glyph-name="egrave" horiz-adv-x="408" d="M263 454Q253 454 235 472Q217 490 195 514T152 563T114 609Q109 616 107 621T104 632Q104 644 121 649T160 655Q174 655 183 650T199 632Q207 618 220 591T247 534T268 486Q271 479 272 474T273
465Q273 454 263 454ZM212 -14Q157 -14 115 14T49 91T25 204Q25 265 53 315T130 396T235 426Q277 426 310 409T362 361T382 292Q382 256 351 256H148Q134 256 128 249T121 221Q121 179 139 145T189 91T260 71Q289 71 313 82T360 114Q364 117 367 119T373 122Q383
122 383 110Q383 96 371 76Q359 53 337 32T282 -1T212 -14ZM148 295H219Q245 295 258 296T283 300Q288 301 290 308T292 326Q292 353 272 371T221 390Q200 390 180 378T147 346T135 307Q135 295 148 295Z" />
<glyph unicode="&#xe9;" glyph-name="eacute" horiz-adv-x="408" d="M212 -14Q157 -14 115 14T49 91T25 204Q25 265 53 315T130 396T235 426Q277 426 310 409T362 361T382 292Q382 256 351 256H148Q134 256 128 249T121 221Q121 179 139 145T189 91T260 71Q289
71 313 82T360 114Q364 117 367 119T373 122Q383 122 383 110Q383 96 371 76Q359 53 337 32T282 -1T212 -14ZM148 295H219Q245 295 258 296T283 300Q288 301 290 308T292 326Q292 353 272 371T221 390Q200 390 180 378T147 346T135 307Q135 295 148 295ZM206 454Q196
454 196 465Q196 469 197 474T201 486Q208 505 221 534T248 590T270 632Q276 645 285 650T309 655Q331 655 347 650T364 632Q364 626 362 621T354 609Q338 588 317 563T274 514T234 472Q216 454 206 454Z" />
<glyph unicode="&#xea;" glyph-name="ecircumflex" horiz-adv-x="408" d="M231 663Q240 663 246 655T261 633Q270 618 282 598T306 557T329 516T344 486Q350 472 347 464T335 455Q328 455 319 463T298 484Q288 495 272 516T236 557Q233 561 232 561T227 557Q209
537 193 516T165 484Q154 472 145 464T128 455Q116 455 115 464T118 486Q123 497 133 515T155 555T180 597T201 632Q210 646 216 654T231 663ZM212 -14Q157 -14 115 14T49 91T25 204Q25 265 53 315T130 396T235 426Q277 426 310 409T362 361T382 292Q382 256 351
256H148Q134 256 128 249T121 221Q121 179 139 145T189 91T260 71Q289 71 313 82T360 114Q364 117 367 119T373 122Q383 122 383 110Q383 96 371 76Q359 53 337 32T282 -1T212 -14ZM148 295H219Q245 295 258 296T283 300Q288 301 290 308T292 326Q292 353 272 371T221
390Q200 390 180 378T147 346T135 307Q135 295 148 295Z" />
<glyph unicode="&#xeb;" glyph-name="edieresis" horiz-adv-x="408" d="M212 -14Q157 -14 115 14T49 91T25 204Q25 265 53 315T130 396T235 426Q277 426 310 409T362 361T382 292Q382 256 351 256H148Q134 256 128 249T121 221Q121 179 139 145T189 91T260 71Q289
71 313 82T360 114Q364 117 367 119T373 122Q383 122 383 110Q383 96 371 76Q359 53 337 32T282 -1T212 -14ZM148 295H219Q245 295 258 296T283 300Q288 301 290 308T292 326Q292 353 272 371T221 390Q200 390 180 378T147 346T135 307Q135 295 148 295ZM323 499Q298
499 279 518T259 563Q259 590 278 609T323 628Q351 628 370 609T390 563Q390 538 371 519T323 499ZM135 499Q109 499 90 518T71 563Q71 590 90 609T135 628Q162 628 181 609T201 563Q201 538 182 519T135 499Z" />
<glyph unicode="&#xec;" glyph-name="igrave" horiz-adv-x="279" d="M172 454Q161 454 143 472Q126 490 104 514T61 563T23 609Q18 616 16 621T13 632Q13 644 29 649T68 655Q83 655 92 650T108 632Q116 618 129 591T156 534T177 486Q179 479 180 474T181 465Q181
454 172 454ZM40 -3Q32 -3 27 0T22 10Q22 18 28 22T42 28Q66 34 76 41T87 65V282Q87 314 77 330T43 350Q38 351 35 355T32 366Q32 380 43 381Q91 391 126 408T181 436Q195 443 199 443Q210 443 210 433Q209 419 206 395T201 343T198 291V66Q198 51 209 43T244 28Q252
25 258 22T264 10Q264 -2 247 -2Q228 -2 211 -1T177 1T142 2Q125 2 109 1T77 -1T40 -3Z" />
<glyph unicode="&#xed;" glyph-name="iacute" horiz-adv-x="279" d="M40 -3Q32 -3 27 0T22 10Q22 18 28 22T42 28Q66 34 76 41T87 65V282Q87 314 77 330T43 350Q38 351 35 355T32 366Q32 380 43 381Q91 391 126 408T181 436Q195 443 199 443Q210 443 210 433Q209
419 206 395T201 343T198 291V66Q198 51 209 43T244 28Q252 25 258 22T264 10Q264 -2 247 -2Q228 -2 211 -1T177 1T142 2Q125 2 109 1T77 -1T40 -3ZM114 454Q104 454 104 465Q104 469 105 474T109 486Q116 505 129 534T156 590T178 632Q184 645 193 650T217 655Q239
655 255 650T272 632Q272 626 270 621T262 609Q246 588 225 563T182 514T142 472Q124 454 114 454Z" />
<glyph unicode="&#xee;" glyph-name="icircumflex" horiz-adv-x="279" d="M140 663Q149 663 155 655T170 633Q179 618 191 598T215 557T237 516T253 486Q258 472 255 464T243 455Q237 455 228 463T207 484Q197 495 180 516T145 557Q142 561 141 561T135 557Q118
537 101 516T74 484Q63 472 54 464T37 455Q25 455 23 464T27 486Q32 497 42 515T64 555T89 597T109 632Q118 646 125 654T140 663ZM40 -3Q32 -3 27 0T22 10Q22 18 28 22T42 28Q66 34 76 41T87 65V282Q87 314 77 330T43 350Q38 351 35 355T32 366Q32 380 43 381Q91
391 126 408T181 436Q195 443 199 443Q210 443 210 433Q209 419 206 395T201 343T198 291V66Q198 51 209 43T244 28Q252 25 258 22T264 10Q264 -2 247 -2Q228 -2 211 -1T177 1T142 2Q125 2 109 1T77 -1T40 -3Z" />
<glyph unicode="&#xef;" glyph-name="idieresis" horiz-adv-x="279" d="M40 -3Q32 -3 27 0T22 10Q22 18 28 22T42 28Q66 34 76 41T87 65V282Q87 314 77 330T43 350Q38 351 35 355T32 366Q32 380 43 381Q91 391 126 408T181 436Q195 443 199 443Q210 443 210 433Q209
419 206 395T201 343T198 291V66Q198 51 209 43T244 28Q252 25 258 22T264 10Q264 -2 247 -2Q228 -2 211 -1T177 1T142 2Q125 2 109 1T77 -1T40 -3ZM231 499Q206 499 187 518T167 563Q167 590 186 609T231 628Q259 628 278 609T298 563Q298 538 279 519T231 499ZM43
499Q17 499 -2 518T-21 563Q-21 590 -2 609T43 628Q70 628 89 609T109 563Q109 538 90 519T43 499Z" />
<glyph unicode="&#xf0;" glyph-name="eth" horiz-adv-x="505" d="M241 -14Q182 -14 133 12T53 84T22 192Q22 256 54 309T141 395T264 427Q278 427 290 424T313 415Q317 413 318 414T319 421Q310 453 298 487T270 544L135 474Q126 469 120 474T113 485Q113 497
116 507T130 522L243 581Q212 616 174 639T94 671Q86 673 76 677T66 690Q66 698 77 701T103 704Q156 704 212 683T319 620L424 675Q431 680 442 679T453 668Q453 655 449 646T430 628L356 588Q389 554 416 505T459 392T475 250Q475 206 460 160T416 75T343 11T241
-14ZM259 27Q288 27 309 49T343 115T355 224Q355 256 348 288T329 341Q311 362 291 372T245 383Q214 383 191 361T156 302T144 217Q144 169 159 126T201 55T259 27Z" />
<glyph unicode="&#xf1;" glyph-name="ntilde" horiz-adv-x="553" d="M42 -3Q34 -3 28 0T22 10Q22 18 28 22T45 29Q60 33 72 40T85 67V291Q85 314 79 330T51 352Q47 354 44 357T41 369Q41 382 50 384Q85 392 119 405T180 434Q184 436 188 439T196 442Q201 442 202
439T204 431Q204 424 202 405T199 372Q199 368 199 364T201 358Q235 390 271 408T354 426Q405 426 439 387T474 284V66Q474 46 486 40T513 29Q521 26 528 22T535 9Q535 3 529 0T516 -3Q496 -3 481 -2T452 1T419 2Q402 2 387 1T357 -1T321 -3Q316 -3 310 0T304 9Q304
17 310 21T324 29Q339 34 350 40T362 66V269Q362 309 343 332T290 355Q263 355 243 347T204 324Q200 321 198 316T196 304V66Q196 46 207 40T234 29Q255 22 255 10Q255 4 250 1T237 -3Q217 -3 202 -2T173 1T141 2Q124 2 109 1T78 -1T42 -3ZM154 463Q149 463 142
469T134 481Q134 486 146 502T174 538T206 572T229 587Q242 587 254 585T291 580Q312 579 328 578T355 576Q365 576 374 581T392 596Q402 607 408 614T417 622Q424 622 431 616T438 603Q438 600 433 593T417 574Q406 560 394 543T372 511Q366 503 357 500T342 497Q334
497 317 498T279 501T239 504T208 506Q200 506 193 501T180 490Q170 477 164 470T154 463Z" />
<glyph unicode="&#xf2;" glyph-name="ograve" horiz-adv-x="500" d="M289 454Q279 454 261 472Q243 490 221 514T178 563T140 609Q135 616 133 621T130 632Q130 644 146 649T186 655Q200 655 209 650T225 632Q233 618 246 591T273 534T294 486Q297 479 298 474T299
465Q299 454 289 454ZM236 -14Q177 -14 130 12T55 86T27 192Q27 238 45 280T94 355T167 407T257 427Q318 427 366 399T444 323T473 220Q473 158 447 105T368 19T236 -14ZM256 25Q281 25 300 35T332 66Q344 87 348 121T353 196Q353 249 339 292T300 361T241 387Q222
387 207 381T178 359Q160 338 154 302T147 217Q147 169 161 125T200 53T256 25Z" />
<glyph unicode="&#xf3;" glyph-name="oacute" horiz-adv-x="500" d="M236 -14Q177 -14 130 12T55 86T27 192Q27 238 45 280T94 355T167 407T257 427Q318 427 366 399T444 323T473 220Q473 158 447 105T368 19T236 -14ZM256 25Q281 25 300 35T332 66Q344 87 348
121T353 196Q353 249 339 292T300 361T241 387Q222 387 207 381T178 359Q160 338 154 302T147 217Q147 169 161 125T200 53T256 25ZM231 454Q221 454 221 465Q221 469 222 474T226 486Q233 505 246 534T273 590T295 632Q301 645 310 650T334 655Q356 655 372 650T389
632Q389 626 387 621T379 609Q363 588 342 563T299 514T259 472Q241 454 231 454Z" />
<glyph unicode="&#xf4;" glyph-name="ocircumflex" horiz-adv-x="500" d="M257 663Q266 663 272 655T287 633Q296 618 308 598T332 557T355 516T370 486Q376 472 373 464T361 455Q354 455 345 463T324 484Q314 495 297 516T262 557Q259 561 258 561T253 557Q235
537 219 516T191 484Q180 472 171 464T154 455Q142 455 141 464T144 486Q149 497 159 515T181 555T206 597T227 632Q236 646 242 654T257 663ZM236 -14Q177 -14 130 12T55 86T27 192Q27 238 45 280T94 355T167 407T257 427Q318 427 366 399T444 323T473 220Q473
158 447 105T368 19T236 -14ZM256 25Q281 25 300 35T332 66Q344 87 348 121T353 196Q353 249 339 292T300 361T241 387Q222 387 207 381T178 359Q160 338 154 302T147 217Q147 169 161 125T200 53T256 25Z" />
<glyph unicode="&#xf5;" glyph-name="otilde" horiz-adv-x="500" d="M236 -14Q177 -14 130 12T55 86T27 192Q27 238 45 280T94 355T167 407T257 427Q318 427 366 399T444 323T473 220Q473 158 447 105T368 19T236 -14ZM256 25Q281 25 300 35T332 66Q344 87 348
121T353 196Q353 249 339 292T300 361T241 387Q222 387 207 381T178 359Q160 338 154 302T147 217Q147 169 161 125T200 53T256 25ZM125 463Q120 463 113 469T105 481Q105 486 117 502T145 538T177 572T200 587Q213 587 225 585T262 580Q283 579 299 578T326 576Q336
576 345 581T363 596Q373 607 379 614T388 622Q395 622 402 616T409 603Q409 600 404 593T388 574Q377 560 365 543T343 511Q337 503 328 500T313 497Q305 497 288 498T250 501T210 504T179 506Q171 506 164 501T151 490Q141 477 135 470T125 463Z" />
<glyph unicode="&#xf6;" glyph-name="odieresis" horiz-adv-x="500" d="M236 -14Q177 -14 130 12T55 86T27 192Q27 238 45 280T94 355T167 407T257 427Q318 427 366 399T444 323T473 220Q473 158 447 105T368 19T236 -14ZM256 25Q281 25 300 35T332 66Q344 87
348 121T353 196Q353 249 339 292T300 361T241 387Q222 387 207 381T178 359Q160 338 154 302T147 217Q147 169 161 125T200 53T256 25ZM349 499Q324 499 305 518T285 563Q285 590 304 609T349 628Q377 628 396 609T416 563Q416 538 397 519T349 499ZM161 499Q135
499 116 518T97 563Q97 590 116 609T161 628Q188 628 207 609T227 563Q227 538 208 519T161 499Z" />
<glyph unicode="&#xf7;" glyph-name="divide" horiz-adv-x="597" d="M65 246Q59 246 54 250T48 258Q48 263 50 273T59 292T76 301H530Q538 301 544 298T550 288Q550 275 541 261T516 246H65ZM301 65Q276 65 258 83T239 127Q239 153 257 171T301 190Q327 190 345
172T364 127Q364 102 346 84T301 65ZM300 350Q275 350 257 368T238 412Q238 438 256 456T300 475Q326 475 344 457T363 412Q363 387 345 369T300 350Z" />
<glyph unicode="&#xf8;" glyph-name="oslash" horiz-adv-x="495" d="M52 -15Q41 -15 32 -9T23 7Q23 25 35 34L441 420Q448 427 458 427Q475 427 475 407Q475 400 472 391T461 375L70 -7Q66 -10 62 -12T52 -15ZM236 -14Q177 -14 130 12T55 86T27 192Q27 238 45
280T94 355T167 407T257 427Q318 427 366 399T444 323T473 220Q473 158 447 105T368 19T236 -14ZM256 25Q281 25 300 35T332 66Q344 87 348 121T353 196Q353 249 339 292T300 361T241 387Q222 387 207 381T178 359Q160 338 154 302T147 217Q147 169 161 125T200
53T256 25Z" />
<glyph unicode="&#xf9;" glyph-name="ugrave" horiz-adv-x="543" d="M305 454Q294 454 276 472Q258 490 237 514T194 563T156 609Q151 616 149 621T146 632Q146 644 162 649T201 655Q216 655 225 650T240 632Q248 618 262 591T289 534T310 486Q312 479 313 474T314
465Q314 454 305 454ZM353 -20Q345 -20 345 -11Q345 0 347 20T350 52Q350 55 350 57T349 61Q318 27 277 6T189 -15Q157 -15 132 2T92 49T77 119V311Q77 334 68 347T36 368Q30 369 26 373T21 385Q21 393 25 397T36 402Q76 404 105 409T167 423Q171 425 175 426T183
427Q196 427 195 413Q192 390 190 375T188 336V143Q188 119 197 100T222 70T257 58Q276 58 292 62T325 80Q333 86 343 102T353 146V314Q353 333 345 344T323 362T295 368Q284 369 278 373T272 389Q272 399 279 403T295 407Q339 410 366 412T411 417T448 425Q451
426 454 426T460 427Q474 427 474 416Q474 413 474 410T471 402Q470 399 469 385T466 356T464 333V101Q464 77 469 68T482 59Q488 59 499 59T516 60Q524 60 529 56T534 43Q534 34 531 30T518 24Q473 20 438 9T377 -14Q371 -16 365 -18T353 -20Z" />
<glyph unicode="&#xfa;" glyph-name="uacute" horiz-adv-x="543" d="M353 -20Q345 -20 345 -11Q345 0 347 20T350 52Q350 55 350 57T349 61Q318 27 277 6T189 -15Q157 -15 132 2T92 49T77 119V311Q77 334 68 347T36 368Q30 369 26 373T21 385Q21 393 25 397T36
402Q76 404 105 409T167 423Q171 425 175 426T183 427Q196 427 195 413Q192 390 190 375T188 336V143Q188 119 197 100T222 70T257 58Q276 58 292 62T325 80Q333 86 343 102T353 146V314Q353 333 345 344T323 362T295 368Q284 369 278 373T272 389Q272 399 279
403T295 407Q339 410 366 412T411 417T448 425Q451 426 454 426T460 427Q474 427 474 416Q474 413 474 410T471 402Q470 399 469 385T466 356T464 333V101Q464 77 469 68T482 59Q488 59 499 59T516 60Q524 60 529 56T534 43Q534 34 531 30T518 24Q473 20 438 9T377
-14Q371 -16 365 -18T353 -20ZM247 454Q237 454 237 465Q237 469 238 474T242 486Q249 505 262 534T289 590T311 632Q317 645 326 650T350 655Q372 655 388 650T405 632Q405 626 403 621T395 609Q379 588 358 563T315 514T275 472Q257 454 247 454Z" />
<glyph unicode="&#xfb;" glyph-name="ucircumflex" horiz-adv-x="543" d="M273 663Q282 663 288 655T303 633Q312 618 323 598T347 557T370 516T386 486Q391 472 388 464T376 455Q370 455 361 463T340 484Q330 495 313 516T278 557Q275 561 274 561T268 557Q251
537 234 516T207 484Q196 472 187 464T169 455Q158 455 156 464T160 486Q165 497 175 515T197 555T222 597T242 632Q251 646 258 654T273 663ZM353 -20Q345 -20 345 -11Q345 0 347 20T350 52Q350 55 350 57T349 61Q318 27 277 6T189 -15Q157 -15 132 2T92 49T77
119V311Q77 334 68 347T36 368Q30 369 26 373T21 385Q21 393 25 397T36 402Q76 404 105 409T167 423Q171 425 175 426T183 427Q196 427 195 413Q192 390 190 375T188 336V143Q188 119 197 100T222 70T257 58Q276 58 292 62T325 80Q333 86 343 102T353 146V314Q353
333 345 344T323 362T295 368Q284 369 278 373T272 389Q272 399 279 403T295 407Q339 410 366 412T411 417T448 425Q451 426 454 426T460 427Q474 427 474 416Q474 413 474 410T471 402Q470 399 469 385T466 356T464 333V101Q464 77 469 68T482 59Q488 59 499 59T516
60Q524 60 529 56T534 43Q534 34 531 30T518 24Q473 20 438 9T377 -14Q371 -16 365 -18T353 -20Z" />
<glyph unicode="&#xfc;" glyph-name="udieresis" horiz-adv-x="543" d="M353 -20Q345 -20 345 -11Q345 0 347 20T350 52Q350 55 350 57T349 61Q318 27 277 6T189 -15Q157 -15 132 2T92 49T77 119V311Q77 334 68 347T36 368Q30 369 26 373T21 385Q21 393 25 397T36
402Q76 404 105 409T167 423Q171 425 175 426T183 427Q196 427 195 413Q192 390 190 375T188 336V143Q188 119 197 100T222 70T257 58Q276 58 292 62T325 80Q333 86 343 102T353 146V314Q353 333 345 344T323 362T295 368Q284 369 278 373T272 389Q272 399 279
403T295 407Q339 410 366 412T411 417T448 425Q451 426 454 426T460 427Q474 427 474 416Q474 413 474 410T471 402Q470 399 469 385T466 356T464 333V101Q464 77 469 68T482 59Q488 59 499 59T516 60Q524 60 529 56T534 43Q534 34 531 30T518 24Q473 20 438 9T377
-14Q371 -16 365 -18T353 -20ZM364 499Q339 499 320 518T300 563Q300 590 319 609T364 628Q392 628 411 609T431 563Q431 538 412 519T364 499ZM176 499Q150 499 131 518T112 563Q112 590 131 609T176 628Q203 628 222 609T242 563Q242 538 223 519T176 499Z" />
<glyph unicode="&#xfd;" glyph-name="yacute" horiz-adv-x="467" d="M78 -284Q54 -284 33 -269T12 -228Q12 -209 21 -192T50 -175Q64 -175 78 -180T106 -184Q118 -183 123 -179T136 -162Q144 -148 153 -132T173 -92T197 -37Q206 -16 206 3Q206 15 203 26T196 46L75
331Q67 351 56 366T27 386Q18 390 13 394T7 406Q7 414 15 415T29 417Q52 417 66 416T92 414T118 413Q139 413 152 414T179 416T216 417Q223 417 231 415T239 404Q239 396 230 392T213 384Q203 381 197 373T191 348Q191 341 194 331T201 308L270 141Q271 137 274
137Q275 137 277 141L334 304Q337 311 339 322T342 342Q342 360 334 369T315 383Q307 387 298 391T289 404Q289 412 297 414T312 417Q334 417 349 415T384 413Q397 413 405 414T424 416T449 417Q455 417 463 416T472 406Q472 398 467 394T452 386Q435 381 419 364T393
323L249 -25Q243 -39 233 -62T212 -114T187 -172T162 -231Q151 -257 129 -270T78 -284ZM241 454Q231 454 231 465Q231 469 232 474T236 486Q243 505 256 534T283 590T305 632Q311 645 320 650T344 655Q366 655 382 650T399 632Q399 626 397 621T389 609Q373 588
352 563T309 514T269 472Q251 454 241 454Z" />
<glyph unicode="&#xfe;" glyph-name="thorn" horiz-adv-x="534" d="M37 -270Q30 -270 23 -267T15 -257Q15 -249 22 -245T38 -238Q58 -232 69 -225T80 -199V555Q80 581 72 601T38 627Q28 629 28 642Q28 654 37 656Q62 661 89 670T139 688T179 703Q182 704 183 704T187
705Q192 705 194 702T196 695Q196 687 194 665T190 604L191 401Q191 387 191 376T192 358Q204 369 229 384T285 410T345 422Q398 422 435 394T492 321T512 228Q512 182 495 139T446 60T373 4T283 -17Q265 -17 238 -10T194 8Q193 8 192 3T191 -10T190 -21V-193Q190
-215 202 -223T237 -238Q246 -241 252 -245T259 -257Q259 -264 253 -267T240 -270Q221 -270 203 -269T169 -266T135 -265Q118 -265 103 -266T73 -268T37 -270ZM286 25Q298 25 315 33T350 61T380 113T392 194Q392 249 380 282T349 333T313 355T281 361Q260 361 243
354T211 333Q202 325 197 310T191 265V119Q191 105 195 84T210 49Q219 39 239 32T286 25Z" />
<glyph unicode="&#xff;" glyph-name="ydieresis" horiz-adv-x="467" d="M78 -284Q54 -284 33 -269T12 -228Q12 -209 21 -192T50 -175Q64 -175 78 -180T106 -184Q118 -183 123 -179T136 -162Q144 -148 153 -132T173 -92T197 -37Q206 -16 206 3Q206 15 203 26T196
46L75 331Q67 351 56 366T27 386Q18 390 13 394T7 406Q7 414 15 415T29 417Q52 417 66 416T92 414T118 413Q139 413 152 414T179 416T216 417Q223 417 231 415T239 404Q239 396 230 392T213 384Q203 381 197 373T191 348Q191 341 194 331T201 308L270 141Q271 137
274 137Q275 137 277 141L334 304Q337 311 339 322T342 342Q342 360 334 369T315 383Q307 387 298 391T289 404Q289 412 297 414T312 417Q334 417 349 415T384 413Q397 413 405 414T424 416T449 417Q455 417 463 416T472 406Q472 398 467 394T452 386Q435 381 419
364T393 323L249 -25Q243 -39 233 -62T212 -114T187 -172T162 -231Q151 -257 129 -270T78 -284ZM358 499Q333 499 314 518T294 563Q294 590 313 609T358 628Q386 628 405 609T425 563Q425 538 406 519T358 499ZM170 499Q144 499 125 518T106 563Q106 590 125 609T170
628Q197 628 216 609T236 563Q236 538 217 519T170 499Z" />
<glyph unicode="&#x2013;" glyph-name="endash" horiz-adv-x="605" d="M57 183Q51 183 47 187T42 196Q42 201 44 212T53 232T69 241H544Q552 241 557 237T563 226Q563 213 554 198T531 183H57Z" />
<glyph unicode="&#x2014;" glyph-name="emdash" horiz-adv-x="957" d="M49 183Q43 183 39 187T34 196Q34 201 36 212T45 232T60 241H904Q912 241 917 237T923 226Q923 213 914 198T890 183H49Z" />
<glyph unicode="&#x2018;" glyph-name="quoteleft" horiz-adv-x="240" d="M186 696Q209 696 209 682Q209 675 204 672T190 667Q165 661 145 649T112 617T100 572Q100 556 112 544T141 528Q160 524 172 511T185 475Q185 451 166 435T120 419Q78 419 52 447T25 520Q25
560 40 592T79 647T131 683T186 696Z" />
<glyph unicode="&#x2019;" glyph-name="quoteright" horiz-adv-x="240" d="M53 414Q30 414 30 429Q30 435 35 438T50 444Q75 450 95 462T127 493T139 539Q139 555 127 567T98 583Q80 586 67 600T54 635Q54 659 74 675T119 692Q161 692 187 664T214 590Q214 551
199 519T160 463T108 427T53 414Z" />
<glyph unicode="&#x201a;" glyph-name="quotesinglbase" horiz-adv-x="240" d="M53 -159Q30 -159 30 -144Q30 -138 35 -135T50 -129Q75 -123 95 -111T127 -80T139 -34Q139 -18 127 -6T98 10Q80 13 67 27T54 62Q54 86 74 102T119 119Q161 119 187 91T214 17Q214
-22 199 -54T160 -110T108 -146T53 -159Z" />
<glyph unicode="&#x201c;" glyph-name="quotedblleft" horiz-adv-x="432" d="M384 696Q407 696 407 682Q407 676 402 673T388 667Q363 661 343 649T310 617T298 572Q298 556 310 544T339 528Q358 524 370 511T383 475Q383 451 363 435T318 419Q276 419 250 447T223
520Q223 560 238 592T277 647T329 683T384 696ZM192 696Q215 696 215 682Q215 676 210 673T195 667Q171 661 151 649T118 617T106 572Q106 556 118 544T146 528Q166 524 178 511T191 475Q191 451 171 435T126 419Q84 419 58 447T31 520Q31 560 46 592T85 647T137
683T192 696Z" />
<glyph unicode="&#x201d;" glyph-name="quotedblright" horiz-adv-x="432" d="M53 414Q30 414 30 429Q30 435 35 438T50 444Q75 450 95 462T127 493T139 539Q139 555 127 567T98 583Q80 586 67 600T54 635Q54 659 74 675T119 692Q161 692 187 664T214 590Q214
551 199 519T160 463T108 427T53 414ZM246 414Q223 414 223 429Q223 435 228 438T243 444Q268 450 288 462T320 493T332 539Q332 555 320 567T291 583Q273 586 260 600T247 635Q247 659 267 675T312 692Q354 692 380 664T407 590Q407 551 392 519T353 463T301 427T246
414Z" />
<glyph unicode="&#x201e;" glyph-name="quotedblbase" horiz-adv-x="432" d="M53 -159Q30 -159 30 -144Q30 -138 35 -135T50 -129Q75 -123 95 -111T127 -80T139 -34Q139 -18 127 -6T98 10Q80 13 67 27T54 62Q54 86 74 102T119 119Q161 119 187 91T214 17Q214 -22
199 -54T160 -110T108 -146T53 -159ZM246 -159Q223 -159 223 -144Q223 -138 228 -135T243 -129Q268 -123 288 -111T320 -80T332 -34Q332 -18 320 -6T291 10Q273 13 260 27T247 62Q247 86 267 102T312 119Q354 119 380 91T407 17Q407 -22 392 -54T353 -110T301 -146T246
-159Z" />
<glyph unicode="&#x2022;" glyph-name="bullet" horiz-adv-x="365" d="M183 213Q143 213 111 232T59 284T40 356Q40 397 59 429T110 480T183 499Q223 499 255 481T306 430T326 356Q326 317 307 285T255 233T183 213Z" />
<glyph unicode="&#x2039;" glyph-name="guilsinglleft" horiz-adv-x="376" d="M318 17Q307 17 298 24T285 36Q256 64 231 84T182 120T133 151T76 180Q64 187 58 196T52 215Q52 225 60 228Q102 254 132 273T187 309T235 346T287 393Q292 397 301 405T320 413Q327
413 327 403Q327 399 325 395T321 386Q289 339 265 310T220 262T176 222Q170 217 170 215T176 207Q199 188 220 168T265 119T321 42Q323 39 324 36T326 29Q326 17 318 17Z" />
<glyph unicode="&#x203a;" glyph-name="guilsinglright" horiz-adv-x="376" d="M58 17Q50 17 50 29Q50 32 51 35T55 42Q86 90 110 119T156 168T199 207Q207 213 207 215T199 222Q177 242 156 261T111 310T55 386Q53 391 51 395T49 403Q49 413 56 413Q66 413 75
405T88 393Q117 366 141 347T189 310T243 273T316 228Q324 225 324 215Q324 206 318 197T299 180Q269 166 244 152T194 121T145 84T91 36Q87 32 78 25T58 17Z" />
</font>
</defs>
</svg>
