<?xml version="1.0" standalone="no"?>
<!DOCTYPE svg PUBLIC "-//W3C//DTD SVG 1.1//EN" "http://www.w3.org/Graphics/SVG/1.1/DTD/svg11.dtd">
<svg xmlns="http://www.w3.org/2000/svg">
<defs >
<font id="Archivo" horiz-adv-x="577" ><font-face
    font-family="Archivo ExtraLight"
    units-per-em="1000"
    panose-1="0 0 0 0 0 0 0 0 0 0"
    ascent="878"
    descent="-210"
    alphabetic="0" />
<glyph unicode=" " glyph-name="space" horiz-adv-x="217" />
<glyph unicode="!" glyph-name="exclam" horiz-adv-x="256" d="M92 173L167 686H238L132 173H92ZM46 0L61 84H133L118 0H46Z" />
<glyph unicode="&quot;" glyph-name="quotedbl" horiz-adv-x="312" d="M95 413L105 539L130 686H192L167 539L132 413H95ZM230 413L239 539L265 686H327L302 539L267 413H230Z" />
<glyph unicode="#" glyph-name="numbersign" horiz-adv-x="580" d="M83 -12L128 190H37V244H141L181 421H81V475H193L245 698H305L253 475H424L476 698H536L485 475H568V421H473L432 244H523V190H420L374 -12H314L360 190H189L143 -12H83ZM201 244H372L412 421H241L201
244Z" />
<glyph unicode="$" glyph-name="dollar" horiz-adv-x="482" d="M162 -49L299 723H346L209 -49H162ZM211 68Q168 68 133 76T74 100T38 140T25 194Q25 205 26 217T32 241H89Q86 230 85 220T84 201Q84 171 99 153T145 126T219 118Q252 118 279 125T327 147T358 184T370
236Q370 259 357 274T323 299T275 318T221 336Q196 345 173 354T130 376T101 410T90 462Q90 503 106 532T150 581T214 609T292 618Q327 618 358 611T412 589T449 551T463 496Q463 486 462 476T458 457H401Q403 466 403 473T404 487Q404 519 388 537T346 561T289
568Q263 568 238 563T193 547T162 517T150 470Q150 443 165 429T204 405T258 385Q288 375 318 365T375 340T416 303T432 243Q432 203 418 171T375 115T306 80T211 68Z" />
<glyph unicode="%" glyph-name="percent" horiz-adv-x="937" d="M147 0L757 686H822L213 0H147ZM262 337Q202 337 167 362T132 453Q132 467 134 483T139 518Q152 587 172 626T224 681T301 698Q363 698 396 673T430 583Q430 569 429 553T423 517Q411 449 391 410T339
354T262 337ZM664 -12Q605 -12 570 13T535 104Q535 118 537 134T542 169Q555 238 575 277T627 332T704 349Q765 349 798 324T832 234Q832 220 831 203T825 167Q814 99 794 60T741 4T664 -12ZM258 382Q308 382 330 416T364 513Q367 528 368 539T371 561T372 580Q372
616 357 634T305 653Q258 653 235 619T200 521Q198 507 196 496T194 475T193 457Q193 421 208 402T258 382ZM661 33Q710 33 733 67T766 164Q769 179 770 191T773 212T774 231Q774 267 759 285T708 304Q660 304 637 270T603 172Q601 158 599 147T597 126T596 108Q596
72 611 53T661 33Z" />
<glyph unicode="&amp;" glyph-name="ampersand" horiz-adv-x="660" d="M258 -12Q190 -12 139 9T60 68T31 160Q31 217 54 256T112 319T184 352L185 356Q150 375 127 405T104 476Q104 531 125 572T182 642T268 684T376 698Q442 698 491 679T567 624T594 540Q594
535 594 523T590 500H532Q534 509 534 516T535 530Q535 571 514 596T457 634T377 646Q342 646 305 638T236 612T184 563T164 486Q164 448 183 423T235 386T308 374H365L356 325H301Q265 325 228 317T160 291T111 243T92 170Q92 125 113 96T173 54T264 40Q326 40
370 55T442 103T477 185L510 374H647L637 322H558L535 188Q524 121 489 77T396 10T258 -12Z" />
<glyph unicode="&apos;" glyph-name="quotesingle" horiz-adv-x="177" d="M95 413L105 539L130 686H192L167 539L132 413H95Z" />
<glyph unicode="(" glyph-name="parenleft" horiz-adv-x="354" d="M182 -157Q127 -85 98 1T69 182Q69 285 101 384T193 571T339 735H376Q327 678 283 616T205 484T152 338T133 179Q133 116 144 57T174 -56T219 -157H182Z" />
<glyph unicode=")" glyph-name="parenright" horiz-adv-x="354" d="M182 735Q237 663 266 577T295 396Q295 293 263 194T170 7T25 -157H-13Q37 -100 81 -38T159 94T212 240T231 399Q231 462 220 521T189 634T144 735H182Z" />
<glyph unicode="*" glyph-name="asterisk" horiz-adv-x="407" d="M187 336L222 478L101 397L80 450L209 511L102 572L141 625L234 544L249 686H309L272 544L395 625L415 572L285 511L394 450L354 397L261 478L247 336H187Z" />
<glyph unicode="+" glyph-name="plus" horiz-adv-x="615" d="M232 0L273 227H65L75 283H283L323 511H380L340 283H547L537 227H329L289 0H232Z" />
<glyph unicode="," glyph-name="comma" horiz-adv-x="257" d="M11 -133L18 -101Q34 -96 46 -82T66 -47T79 0H47L62 84H135L122 11Q115 -31 101 -58T71 -101T39 -124T11 -133Z" />
<glyph unicode="-" glyph-name="hyphen" horiz-adv-x="333" d="M35 236L48 305H300L288 236H35Z" />
<glyph unicode="." glyph-name="period" horiz-adv-x="257" d="M46 0L60 84H133L119 0H46Z" />
<glyph unicode="/" glyph-name="slash" horiz-adv-x="290" d="M-55 -49L316 735H373L2 -49H-55Z" />
<glyph unicode="0" glyph-name="zero" horiz-adv-x="571" d="M240 -12Q181 -12 136 8T66 75T41 203Q41 226 42 249T46 295T53 342Q65 420 88 485T148 598T237 672T358 698Q418 698 462 678T532 611T557 483Q557 461 556 438T552 391T546 344Q534 267 511 202T450
88T362 14T240 -12ZM245 41Q298 41 337 62T405 122T453 211T482 321Q485 343 488 364T493 406T496 447T497 486Q497 569 464 607T353 645Q301 645 261 624T193 564T147 475T117 364Q113 343 110 322T106 281T103 240T102 200Q102 117 135 79T245 41Z" />
<glyph unicode="1" glyph-name="one" horiz-adv-x="473" d="M-14 0L-5 53H175L266 567H86L92 605Q132 608 163 612T221 626T273 650T325 689H347L235 53H407L398 0H-14Z" />
<glyph unicode="2" glyph-name="two" horiz-adv-x="560" d="M-3 0L2 25Q12 74 43 113T119 187T214 252T314 313T403 376T467 447T491 533Q491 586 454 615T349 644Q282 644 241 622T180 564T152 491L145 450H88Q90 502 107 547T158 626T242 679T360 698Q416 698
459 680T527 627T552 541Q552 483 528 437T462 352T370 282T269 220T176 160T105 96Q97 88 90 76T79 55H473L463 0H-3Z" />
<glyph unicode="3" glyph-name="three" horiz-adv-x="571" d="M241 -12Q172 -12 123 6T49 59T23 147Q23 158 24 170T28 196H85Q83 185 82 173T81 152Q81 92 123 66T237 39Q300 39 348 57T425 114T454 210Q454 253 430 277T367 312T284 323H199L209 374H296Q338
374 374 385T437 417T479 469T494 541Q494 578 476 601T426 634T351 645Q303 645 261 630T190 584T156 507L154 492H95L97 503Q104 567 141 610T235 676T358 698Q416 698 460 681T530 629T556 542Q556 493 536 457T482 395T406 355V351Q453 336 483 301T514 211Q514
142 479 92T382 15T241 -12Z" />
<glyph unicode="4" glyph-name="four" horiz-adv-x="536" d="M313 0L346 182H12L21 233Q78 310 126 385T214 538T286 698H350Q328 642 299 583T238 469T177 366T122 284T82 232H354L400 489Q406 502 412 516T425 545T436 573T445 596H477L413 232H508L500 182H405L372
0H313Z" />
<glyph unicode="5" glyph-name="five" horiz-adv-x="568" d="M241 -12Q178 -12 131 9T57 69T30 166Q30 177 31 188T34 213H92Q91 203 90 193T88 173Q88 127 108 98T163 54T243 39Q292 39 331 54T398 98T441 167T456 256Q456 324 422 358T322 392Q286 392 250 381T182
349T128 295L77 306L173 686H558L548 629H216L153 377Q173 395 200 410T261 435T333 444Q389 444 430 424T495 363T518 265Q518 183 484 121T387 23T241 -12Z" />
<glyph unicode="6" glyph-name="six" horiz-adv-x="571" d="M253 -12Q189 -12 142 9T69 76T43 199Q43 226 45 257T55 324Q79 463 122 544T227 662T367 698Q428 698 467 679T524 624T542 542Q542 529 541 515T537 487H478Q480 500 481 511T482 534Q482 592 451
618T359 645Q288 645 241 610T165 506T118 341Q146 380 181 402T256 434T332 443Q397 443 439 418T502 351T522 259Q522 198 502 149T444 63T359 8T253 -12ZM250 41Q299 41 339 58T407 105Q433 133 446 169T460 250Q460 287 445 319T399 370T315 390Q265 390 224
373T154 323Q130 296 117 259T103 178Q103 139 119 108T167 59T250 41Z" />
<glyph unicode="7" glyph-name="seven" horiz-adv-x="532" d="M93 0Q110 100 151 190T246 359T360 507T474 629H91L102 686H579L573 653Q525 607 474 553T374 437T283 310T211 177T169 44Q167 30 166 24T163 0H93Z" />
<glyph unicode="8" glyph-name="eight" horiz-adv-x="572" d="M241 -12Q169 -12 122 10T53 69T30 151Q30 199 48 238T101 307T185 352Q147 372 128 407T108 483Q108 530 126 570T178 638T256 682T353 698Q418 698 461 678T526 622T548 544Q548 499 531 462T485
396T415 352Q464 331 486 295T509 214Q509 145 477 94T384 15T241 -12ZM245 41Q275 41 301 46T350 60T391 83Q418 105 433 136T448 208Q448 261 410 293T295 325Q270 325 248 322T205 312T168 295Q132 273 111 239T90 156Q90 100 129 71T245 41ZM303 376Q330 376
354 381T398 395T435 418Q460 439 473 469T487 536Q487 591 450 618T349 645Q323 645 300 641T258 628T223 606Q196 585 183 554T169 484Q169 432 204 404T303 376Z" />
<glyph unicode="9" glyph-name="nine" horiz-adv-x="571" d="M225 -12Q165 -12 126 7T68 62T50 144Q50 157 51 171T55 199H114Q112 186 111 175T110 152Q110 94 142 68T234 41Q304 41 351 76T427 180T474 345Q446 306 411 284T337 252T260 243Q195 243 153 269T91
339T70 436Q70 494 90 542T146 625T231 679T339 698Q404 698 451 677T523 610T549 487Q549 460 547 429T538 362Q514 223 470 142T365 24T225 -12ZM277 296Q328 296 369 313T438 363Q462 391 475 428T489 508Q489 548 474 578T426 627T342 645Q293 645 253 628T185
581Q159 554 146 517T133 436Q133 400 147 368T194 316T277 296Z" />
<glyph unicode=":" glyph-name="colon" horiz-adv-x="260" d="M128 442L142 526H215L200 442H128ZM50 0L64 84H137L123 0H50Z" />
<glyph unicode=";" glyph-name="semicolon" horiz-adv-x="260" d="M13 -133L19 -101Q36 -96 48 -82T68 -47T81 0H49L64 84H137L123 11Q115 -31 102 -58T73 -101T41 -124T13 -133ZM126 442L140 526H213L198 442H126Z" />
<glyph unicode="&lt;" glyph-name="less" horiz-adv-x="615" d="M488 6L49 214L62 285L574 493L561 428L109 246L499 67L488 6Z" />
<glyph unicode="=" glyph-name="equal" horiz-adv-x="615" d="M82 331L92 387H568L558 331H82ZM46 122L56 179H532L522 122H46Z" />
<glyph unicode="&gt;" glyph-name="greater" horiz-adv-x="615" d="M36 6L49 71L501 253L111 432L122 493L560 285L548 214L36 6Z" />
<glyph unicode="?" glyph-name="question" horiz-adv-x="547" d="M229 164L240 229Q247 267 266 293T311 340T364 378T415 418T453 469T468 543Q468 566 459 589T425 628T351 644Q303 644 269 629T213 590T178 540T161 490Q160 483 160 477T159 465H102Q102 485
109 514T133 575T179 635T250 680T350 698Q406 698 441 684T496 646T523 598T530 550Q530 498 515 461T475 398T422 351T367 312T322 272T298 222L287 164H229ZM194 0L209 84H281L266 0H194Z" />
<glyph unicode="@" glyph-name="at" horiz-adv-x="1011" d="M456 -153Q344 -153 269 -128T149 -55T83 55T62 194Q62 281 78 352T125 480T200 577T301 645T424 685T569 698Q665 698 738 677T862 615T937 515T963 379Q963 332 954 282T924 186T872 102T799 44T702
22Q667 22 646 31T616 60T606 105L601 106Q570 64 529 44T446 24Q398 24 365 43T316 102T299 198Q299 222 301 245T307 291Q316 339 333 380T378 454T443 504T529 522Q556 522 580 515T624 491T655 447H661L683 511H728L708 402Q702 372 696 336T684 263T672 194T664
138T660 105Q660 91 669 81T706 70Q742 70 773 85T829 128T872 195T900 280T910 379Q910 464 873 525T760 619T569 652Q489 652 419 635T293 584T197 496T136 369T115 201Q115 134 131 78T187 -20T292 -84T456 -107Q485 -107 512 -106T563 -101T606 -95T638 -89L627
-139Q611 -141 586 -144T529 -150T456 -153ZM458 75Q490 75 515 87T561 119T595 165Q608 187 616 211T631 259T639 307T642 350Q642 400 625 426T581 462T531 471Q504 471 481 462T440 438T408 400Q395 381 386 357T370 307T360 254T357 199Q357 135 382 105T458
75Z" />
<glyph unicode="A" glyph-name="A" horiz-adv-x="658" d="M-23 0L363 686H444L590 0H524L484 195H155L46 0H-23ZM186 252H473L424 493Q421 505 418 521T411 556T404 593T397 626H391Q381 606 368 580T342 531T320 493L186 252Z" />
<glyph unicode="B" glyph-name="B" horiz-adv-x="691" d="M49 0L170 686H498Q553 686 592 669T652 622T673 548Q673 505 657 467T609 400T533 360L532 356Q574 343 603 311T632 219Q632 147 604 98T522 25T396 0H49ZM124 57H407Q462 57 497 75T550 129T568 217Q568
269 537 296T447 324H171L124 57ZM181 380H448Q482 380 511 391T561 422T594 470T606 531Q606 580 578 604T501 629H224L181 380Z" />
<glyph unicode="C" glyph-name="C" horiz-adv-x="735" d="M341 -12Q206 -12 135 56T63 256Q63 285 65 312T72 364Q90 467 141 541T272 657T454 698Q537 698 596 677T687 612T719 500Q719 487 719 473T714 443H648Q651 458 652 471T654 496Q654 547 630 578T559
625T447 641Q383 641 331 620T239 560T173 467T137 346Q135 335 134 324T131 302T130 279T129 256Q129 181 155 134T230 66T342 45Q420 45 476 65T568 129T617 242H678Q664 155 618 99T500 15T341 -12Z" />
<glyph unicode="D" glyph-name="D" horiz-adv-x="739" d="M49 0L170 686H406Q549 686 627 625T705 431Q705 401 703 373T696 319Q677 215 625 144T490 37T300 0H49ZM124 57H294Q370 57 429 75T530 130T597 218T633 339Q635 353 636 367T637 395T638 424Q638 502
610 547T528 610T398 629H225L124 57Z" />
<glyph unicode="E" glyph-name="E" horiz-adv-x="681" d="M50 0L170 686H692L683 629H225L181 380H595L585 324H170L124 57H588L578 0H50Z" />
<glyph unicode="F" glyph-name="F" horiz-adv-x="615" d="M50 0L170 686H650L641 629H225L181 378H561L552 322H171L114 0H50Z" />
<glyph unicode="G" glyph-name="G" horiz-adv-x="797" d="M356 -12Q208 -12 135 56T61 256Q61 280 63 306T71 359Q91 468 143 543T279 658T470 698Q537 698 588 686T674 650T728 591T746 506Q746 494 745 481T741 452H676Q678 462 679 474T681 496Q681 537 666
564T623 609T556 634T471 642Q410 642 355 626T256 576T181 487T138 355Q135 336 133 321T130 293T129 270T129 249Q129 176 156 131T234 65T354 44Q447 44 506 71T599 148T645 269L650 298H388L398 354H725L662 0H617V96Q587 58 544 34T453 -1T356 -12Z" />
<glyph unicode="H" glyph-name="H" horiz-adv-x="739" d="M50 0L170 686H234L180 378H601L655 686H719L599 0H535L591 322H170L114 0H50Z" />
<glyph unicode="I" glyph-name="I" horiz-adv-x="254" d="M49 0L170 686H234L113 0H49Z" />
<glyph unicode="J" glyph-name="J" horiz-adv-x="537" d="M202 -12Q114 -12 67 26T20 140Q20 150 21 164T28 205H93Q86 174 85 163T84 143Q84 95 113 70T197 44Q266 44 312 86T375 217L457 686H521L441 225Q427 145 394 92T313 14T202 -12Z" />
<glyph unicode="K" glyph-name="K" horiz-adv-x="633" d="M50 0L170 686H234L165 290L619 686H705L399 418L598 0H528L349 375L149 203L114 0H50Z" />
<glyph unicode="L" glyph-name="L" horiz-adv-x="506" d="M48 0L168 686H233L122 57H461L451 0H48Z" />
<glyph unicode="M" glyph-name="M" horiz-adv-x="850" d="M50 0L170 686H263L374 185Q378 169 381 153T386 121T390 89H396Q403 105 411 121T428 154T446 185L732 686H830L710 0H646L727 463Q732 488 736 515T745 564T752 601H745Q737 583 730 567T715 537T699
510L404 0H355L239 509Q234 530 231 552T226 601H219Q216 584 212 560T203 510T195 463L113 0H50Z" />
<glyph unicode="N" glyph-name="N" horiz-adv-x="739" d="M50 0L170 686H234L511 192Q517 182 524 167T540 137T553 110L557 111Q560 129 562 148T569 191L655 686H719L599 0H546L263 500Q256 513 242 540T219 585L214 584Q212 566 208 543T201 502L113 0H50Z" />
<glyph unicode="O" glyph-name="O" horiz-adv-x="793" d="M350 -12Q259 -12 195 19T96 110T62 256Q62 283 64 309T71 359Q90 460 142 536T277 655T471 698Q563 698 627 667T725 576T759 430Q759 404 757 379T751 327Q733 227 680 151T544 31T350 -12ZM356 45Q428
45 484 66T582 128T649 222T686 342Q688 354 689 364T691 386T692 407T693 429Q693 505 665 551T586 620T465 642Q394 642 338 620T240 558T172 464T135 344Q133 333 132 322T130 300T129 279T128 257Q128 182 156 135T235 67T356 45Z" />
<glyph unicode="P" glyph-name="P" horiz-adv-x="660" d="M50 0L170 686H496Q557 686 596 666T655 609T674 527Q674 471 657 425T609 347T536 297T443 279H163L114 0H50ZM173 336H438Q489 336 527 358T587 422T608 519Q608 571 579 600T489 629H225L173 336Z" />
<glyph unicode="Q" glyph-name="Q" horiz-adv-x="793" d="M527 -130L426 -6Q409 -9 390 -10T350 -12Q259 -12 195 19T96 110T62 256Q62 283 64 309T71 359Q90 460 142 536T277 655T471 698Q563 698 627 667T725 576T759 430Q759 404 757 379T751 327Q729 212 663
129T493 10L611 -130H527ZM356 45Q428 45 484 66T582 128T649 222T686 342Q688 354 689 364T691 386T692 407T693 429Q693 505 665 551T586 620T465 642Q394 642 338 620T240 558T172 464T135 344Q133 333 132 322T130 300T129 279T128 257Q128 182 156 135T235
67T356 45Z" />
<glyph unicode="R" glyph-name="R" horiz-adv-x="736" d="M49 0L170 686H519Q580 686 618 667T676 615T696 537Q696 468 672 420T610 344T530 301L628 0H559L465 289H164L113 0H49ZM175 346H453Q500 346 540 368T605 431T630 529Q630 577 601 603T512 629H225L175 346Z" />
<glyph unicode="S" glyph-name="S" horiz-adv-x="677" d="M302 -11Q245 -11 197 -3T112 24T56 73T36 149Q36 164 38 180T44 215H105Q100 198 98 184T96 156Q96 111 123 88T197 55T301 45Q352 45 394 55T468 83T516 128T533 190Q533 221 517 243T473 280T412 307T340
330Q301 342 262 356T191 391T141 441T122 515Q122 563 144 597T205 654T293 686T398 696Q454 696 499 686T577 657T627 609T645 541Q645 530 644 518T639 492H576Q579 505 580 515T581 534Q581 590 533 616T392 642Q337 642 290 629T215 588T187 521Q187 495 199
475T234 440T284 414T343 393Q387 380 432 366T514 331T575 279T599 199Q599 145 576 105T512 40T418 2T302 -11Z" />
<glyph unicode="T" glyph-name="T" horiz-adv-x="594" d="M218 0L328 629H79L89 686H654L645 629H393L282 0H218Z" />
<glyph unicode="U" glyph-name="U" horiz-adv-x="738" d="M324 -12Q214 -12 151 34T88 187Q88 204 90 227T96 272L170 686H234L157 252Q154 238 153 219T151 188Q151 111 197 78T328 44Q428 44 493 94T576 242L655 686H719L644 264Q626 165 584 104T477 16T324 -12Z" />
<glyph unicode="V" glyph-name="V" horiz-adv-x="627" d="M229 0L94 686H158L253 199Q257 182 261 158T269 109T276 65H281Q291 85 304 111T330 161T350 200L613 686H683L310 0H229Z" />
<glyph unicode="W" glyph-name="W" horiz-adv-x="897" d="M181 0L89 686H155L216 204Q218 191 220 169T226 121T232 77H240Q248 96 257 121T274 168T288 204L480 686H564L616 204Q618 191 620 169T624 121T628 77H637Q644 96 653 120T672 168T687 204L891 686H958L661
0H577L524 479Q522 495 521 518T518 565T516 609H508Q502 590 493 566T475 518T460 479L267 0H181Z" />
<glyph unicode="X" glyph-name="X" horiz-adv-x="675" d="M-34 0L316 360L112 686H186L359 410H363L625 686H706L394 359L617 0H543L352 308H347L50 0H-34Z" />
<glyph unicode="Y" glyph-name="Y" horiz-adv-x="636" d="M240 0L291 289L85 686H152L328 346H333L627 686H701L355 289L305 0H240Z" />
<glyph unicode="Z" glyph-name="Z" horiz-adv-x="637" d="M-18 0L-11 38L547 629H119L128 686H658L652 650L91 57H556L547 0H-18Z" />
<glyph unicode="[" glyph-name="bracketleft" horiz-adv-x="258" d="M4 -161L161 735H332L323 689H209L68 -115H183L175 -161H4Z" />
<glyph unicode="\" glyph-name="backslash" horiz-adv-x="290" d="M183 -49L83 735H136L235 -49H183Z" />
<glyph unicode="]" glyph-name="bracketright" horiz-adv-x="258" d="M262 735L104 -161H-67L-58 -115H56L197 689H82L90 735H262Z" />
<glyph unicode="^" glyph-name="asciicircum" horiz-adv-x="615" d="M111 294L348 686H416L514 294H455L373 631L172 294H111Z" />
<glyph unicode="_" glyph-name="underscore" horiz-adv-x="465" d="M-67 -118L-58 -65H407L398 -118H-67Z" />
<glyph unicode="`" glyph-name="grave" horiz-adv-x="158" d="M164 591L81 720L82 723H149L216 591H164Z" />
<glyph unicode="a" glyph-name="a" horiz-adv-x="539" d="M203 -12Q150 -12 112 8T54 69T34 176Q34 196 36 218T42 266Q58 361 91 421T173 510T285 538Q322 538 350 529T400 500T434 449H441L465 526H510L489 408Q485 380 478 340T462 255T448 171T437 103T432
66Q432 53 439 47T459 40H504L497 6Q487 1 473 -4T441 -10Q411 -10 397 4T380 46Q380 53 380 61T382 79L375 82Q343 33 297 11T203 -12ZM217 39Q241 39 268 48T322 80T370 145T404 253Q407 277 409 294T413 325T414 350Q414 395 401 425T361 471T290 487Q247 487
211 468T147 403T106 277Q101 248 99 230T95 198T94 172Q94 102 125 71T217 39Z" />
<glyph unicode="b" glyph-name="b" horiz-adv-x="544" d="M255 -12Q197 -12 158 10T98 79H91L70 0H26L153 723H211L164 455H171Q194 487 222 505T280 530T336 538Q391 538 430 518T489 457T510 350Q510 331 508 309T501 261Q484 165 451 105T368 16T255 -12ZM250
39Q292 39 330 58T396 124T437 249Q442 278 445 297T449 329T450 354Q450 401 436 430T393 473T323 487Q298 487 270 479T214 449T165 384T132 273Q128 250 126 232T122 201T121 176Q121 131 134 101T177 55T250 39Z" />
<glyph unicode="c" glyph-name="c" horiz-adv-x="493" d="M225 -12Q164 -12 122 8T58 71T36 182Q36 203 38 226T45 276Q57 340 78 389T132 471T207 521T304 538Q367 538 405 520T460 470T477 393Q477 379 476 365T472 333H414Q417 348 418 361T420 387Q420 422
408 444T370 476T303 487Q259 487 219 467T150 402T107 278Q102 251 100 233T97 202T96 178Q96 129 111 99T155 54T223 39Q277 39 310 57T363 111T390 193H447Q439 137 414 91T342 16T225 -12Z" />
<glyph unicode="d" glyph-name="d" horiz-adv-x="544" d="M211 -12Q155 -12 117 7T58 69T38 176Q38 199 39 224T46 277Q58 344 80 393T133 475T204 522T290 538Q322 538 351 530T404 505T441 455H448L496 723H554L426 0H382L388 79H381Q347 32 304 10T211 -12ZM216
39Q269 39 308 63T374 134T413 247Q417 271 419 288T422 319T423 343Q423 404 404 434T357 476T301 487Q251 487 212 466T147 400T108 281Q104 252 102 233T98 200T97 175Q97 101 129 70T216 39Z" />
<glyph unicode="e" glyph-name="e" horiz-adv-x="536" d="M230 -12Q165 -12 122 10T58 75T36 181Q36 207 39 234T47 286Q63 361 95 417T181 506T314 538Q378 538 419 515T481 449T502 350Q502 327 499 301T488 248H104Q101 230 100 214T98 184Q98 133 113 101T160
53T236 38Q263 38 289 45T340 69T382 111T413 175H469Q457 128 434 93T381 34T312 0T230 -12ZM113 297H438Q441 313 442 328T443 357Q443 400 429 429T386 473T309 488Q260 488 220 466T154 401T113 297Z" />
<glyph unicode="f" glyph-name="f" horiz-adv-x="257" d="M-24 -182Q-36 -182 -47 -181T-67 -178T-83 -174L-76 -133H-23Q3 -133 18 -120T38 -81L137 475H60L67 526H145L162 621Q167 647 177 672T213 714T286 731Q297 731 307 731T327 728T344 723L336 682H282Q255
682 241 669T222 630L203 526H308L301 475H195L98 -76Q93 -102 83 -126T49 -166T-24 -182Z" />
<glyph unicode="g" glyph-name="g" horiz-adv-x="525" d="M168 -182Q122 -182 85 -169T25 -130T3 -62Q3 -56 4 -46T8 -25H65Q64 -32 63 -37T62 -49Q62 -79 77 -97T117 -123T174 -131Q228 -131 267 -114T331 -59T366 35Q368 48 370 60T375 85H367Q345 54 317 36T260
10T202 2Q148 2 110 22T52 83T31 187Q31 207 33 227T40 272Q65 413 127 475T283 538Q340 538 378 516T438 447H445L466 526H510L426 46Q413 -34 381 -84T297 -158T168 -182ZM217 53Q242 53 270 62T325 93T373 155T405 260Q409 284 411 300T414 330T415 353Q415
397 402 426T361 471T288 487Q246 487 209 469T145 406T104 284Q99 256 97 238T93 208T92 184Q92 139 106 110T148 67T217 53Z" />
<glyph unicode="h" glyph-name="h" horiz-adv-x="544" d="M26 0L153 723H211L164 455H171Q200 486 229 504T290 530T357 538Q399 538 431 526T482 487T501 414Q501 403 500 391T496 365L432 0H374L438 364Q440 375 441 385T442 404Q442 438 429 455T391 479T335
486Q304 486 272 475T213 440T165 382T137 300L84 0H26Z" />
<glyph unicode="i" glyph-name="i" horiz-adv-x="203" d="M137 642L151 723H209L195 642H137ZM26 0L119 526H177L84 0H26Z" />
<glyph unicode="j" glyph-name="j" horiz-adv-x="199" d="M135 642L149 723H207L193 642H135ZM-39 -182Q-49 -182 -59 -181T-79 -178T-95 -174L-88 -133H-48Q-23 -133 -9 -121T9 -83L117 526H175L68 -80Q64 -107 53 -130T19 -168T-39 -182Z" />
<glyph unicode="k" glyph-name="k" horiz-adv-x="489" d="M26 0L153 723H211L127 247L426 526H500L283 322L417 0H355L239 283L115 173L84 0H26Z" />
<glyph unicode="l" glyph-name="l" horiz-adv-x="202" d="M26 0L153 723H211L84 0H26Z" />
<glyph unicode="m" glyph-name="m" horiz-adv-x="858" d="M26 0L118 526H161L151 439H157Q189 479 220 500T283 529T349 538Q402 538 438 515T482 439H489Q519 479 550 500T614 529T680 538Q739 538 777 510T815 415Q815 404 814 392T810 366L746 0H688L752 365Q754
376 755 386T756 404Q756 438 743 455T707 479T657 486Q617 486 578 465T508 403T468 301L415 0H357L421 365Q423 376 424 386T425 404Q425 438 412 455T376 479T325 486Q286 486 247 466T178 405T137 301L84 0H26Z" />
<glyph unicode="n" glyph-name="n" horiz-adv-x="544" d="M26 0L118 526H161L151 439H157Q189 479 222 500T289 529T357 538Q399 538 431 526T482 487T501 414Q501 403 500 391T496 365L432 0H374L438 364Q440 376 441 386T442 404Q442 438 429 455T391 479T335
486Q304 486 273 475T213 440T165 382T137 300L84 0H26Z" />
<glyph unicode="o" glyph-name="o" horiz-adv-x="544" d="M231 -12Q168 -12 125 9T58 73T35 183Q35 203 37 224T44 271Q60 365 95 423T185 510T312 538Q376 538 419 517T485 453T508 341Q508 322 507 301T500 255Q484 163 448 104T358 17T231 -12ZM233 39Q285
39 326 60T396 128T436 249Q441 276 443 293T447 323T448 347Q448 396 432 427T385 472T311 487Q259 487 218 466T149 398T107 277Q102 250 100 232T97 202T96 179Q96 129 111 99T158 54T233 39Z" />
<glyph unicode="p" glyph-name="p" horiz-adv-x="544" d="M-5 -173L118 526H162L155 447H163Q198 494 241 516T334 538Q390 538 428 519T486 458T506 350Q506 328 505 303T498 249Q482 160 448 102T365 16T254 -12Q222 -12 193 -4T140 22T103 71H96L53 -173H-5ZM243
39Q293 39 331 60T397 126T436 245Q441 274 443 293T446 326T447 351Q447 401 432 430T391 473T328 487Q277 487 237 463T170 392T131 279Q127 255 125 238T121 208T120 183Q120 122 139 92T187 50T243 39Z" />
<glyph unicode="q" glyph-name="q" horiz-adv-x="544" d="M338 -173L380 71H373Q352 40 324 22T265 -4T209 -12Q154 -12 115 8T55 69T34 176Q34 196 36 218T43 266Q61 362 94 422T177 510T290 538Q348 538 387 516T446 447H453L475 526H519L396 -173H338ZM222
39Q247 39 275 47T330 77T379 142T413 253Q417 277 419 294T422 325T423 350Q423 395 410 425T368 471T295 487Q253 487 216 468T150 403T107 277Q102 248 100 230T96 198T95 172Q95 102 127 71T222 39Z" />
<glyph unicode="r" glyph-name="r" horiz-adv-x="305" d="M26 0L118 526H161L151 439H156Q167 459 185 482T231 521T297 538Q311 538 322 536T338 532L330 480H299Q265 480 238 466T191 427T157 371T137 304L84 0H26Z" />
<glyph unicode="s" glyph-name="s" horiz-adv-x="482" d="M197 -12Q154 -12 119 -4T60 20T24 60T11 114Q11 125 12 137T18 162H75Q72 150 71 140T70 121Q70 91 85 73T131 46T205 38Q238 38 265 45T313 67T344 104T356 157Q356 179 343 194T309 219T261 238T207
256Q182 265 159 274T116 297T87 331T76 383Q76 423 92 452T136 501T200 529T278 538Q313 538 344 531T398 509T435 471T449 416Q449 406 448 396T444 377H387Q389 386 389 393T390 407Q390 440 374 457T332 481T275 488Q249 488 224 483T179 467T148 437T136 390Q136
363 151 349T190 325T244 305Q274 295 304 285T361 260T402 223T418 163Q418 123 404 91T361 35T292 0T197 -12Z" />
<glyph unicode="t" glyph-name="t" horiz-adv-x="282" d="M135 -11Q107 -11 90 -3T66 19T59 53Q59 59 60 66T62 81L132 475H59L68 526H141L178 672H224L198 526H304L295 475H190L123 96Q122 88 121 80T119 67Q119 52 126 46T154 39H218L212 3Q201 -2 188 -5T160
-9T135 -11Z" />
<glyph unicode="u" glyph-name="u" horiz-adv-x="544" d="M187 -12Q145 -12 113 0T62 39T43 112Q43 124 44 136T48 161L112 526H170L106 162Q105 151 104 141T102 122Q102 88 116 71T154 47T209 40Q241 40 272 50T330 82T378 138T406 217L460 526H518L426 0H383L393
87H386Q355 48 322 27T256 -3T187 -12Z" />
<glyph unicode="v" glyph-name="v" horiz-adv-x="482" d="M169 0L70 526H129L181 241Q185 220 189 191T198 131T206 75H211Q222 99 237 129T266 190T292 241L443 526H504L222 0H169Z" />
<glyph unicode="w" glyph-name="w" horiz-adv-x="692" d="M135 0L68 526H128L159 240Q162 220 164 192T169 135T174 85H179Q188 107 199 135T221 192T241 240L361 526H423L444 240Q446 220 447 192T449 136T452 85H457Q466 106 479 134T504 190T526 240L657 526H716L465
0H411L389 293Q388 311 386 337T383 392T380 443H375Q366 421 355 393T333 338T314 293L189 0H135Z" />
<glyph unicode="x" glyph-name="x" horiz-adv-x="485" d="M-30 0L207 270L67 526H132L246 312H252L435 526H504L278 267L421 0H356L240 223H234L39 0H-30Z" />
<glyph unicode="y" glyph-name="y" horiz-adv-x="482" d="M29 -182Q15 -182 -2 -181T-30 -178L-23 -133H20Q47 -133 71 -123T121 -84T175 6L69 526H128L182 240Q186 219 191 189T202 127T212 72H217Q226 89 236 111T257 157T278 201T296 238L442 526H504L233 4Q210
-40 190 -74T147 -133T96 -169T29 -182Z" />
<glyph unicode="z" glyph-name="z" horiz-adv-x="487" d="M-10 0L-4 39L384 475H97L106 526H478L472 489L81 51H415L406 0H-10Z" />
<glyph unicode="{" glyph-name="braceleft" horiz-adv-x="316" d="M203 -159Q173 -159 144 -151T97 -122T79 -66Q79 -56 83 -29T95 35T108 107T119 167T123 198Q123 230 104 238T53 246L68 327Q100 327 125 337T157 384L198 618Q207 664 232 689T292 724T360 735L353
693Q338 693 319 688T283 670T261 633L208 395Q201 363 190 339T159 303T103 291L101 282Q142 282 157 265T173 215Q173 203 170 173T161 105T151 29T142 -34T139 -65Q139 -86 149 -97T175 -112T210 -117L203 -159Z" />
<glyph unicode="|" glyph-name="bar" horiz-adv-x="246" d="M97 -176V723H153V-176H97Z" />
<glyph unicode="}" glyph-name="braceright" horiz-adv-x="316" d="M122 735Q153 735 181 727T228 698T246 642Q246 632 242 605T231 541T218 469T207 409T202 378Q202 347 221 339T272 330L258 249Q226 249 201 239T168 192L127 -42Q119 -87 93 -112T33 -148T-35
-159L-28 -117Q-13 -117 7 -112T43 -94T64 -57L117 181Q124 214 135 237T166 273T222 285L224 294Q183 294 168 311T152 361Q152 373 155 403T164 471T175 547T183 610T187 641Q187 662 177 673T151 688T115 693L122 735Z" />
<glyph unicode="~" glyph-name="asciitilde" horiz-adv-x="615" d="M36 225L47 290Q47 290 58 301T90 326T140 352T205 363Q234 363 258 354T305 333T353 311T406 302Q438 302 466 313T517 338T551 364T564 375L553 310Q553 310 542 299T511 274T461 249T395 237Q367
237 343 246T295 267T248 289T194 298Q162 298 134 287T83 262T49 236T36 225Z" />
<glyph unicode="&#xa0;" glyph-name="uni00A0" horiz-adv-x="217" />
<glyph unicode="&#xa1;" glyph-name="exclamdown" horiz-adv-x="256" d="M19 -160L126 353H165L90 -160H19ZM124 442L140 526H212L197 442H124Z" />
<glyph unicode="&#xa2;" glyph-name="cent" horiz-adv-x="582" d="M206 -49L343 723H390L253 -49H206ZM270 66Q210 66 168 86T103 150T81 260Q81 282 84 305T91 354Q103 418 124 467T178 549T252 599T350 616Q413 616 451 598T506 548T523 471Q523 458 522 443T517
411H460Q463 426 464 439T465 465Q465 500 454 522T416 555T348 566Q305 566 265 546T196 480T152 356Q148 329 146 311T143 280T142 256Q142 207 157 177T201 132T269 117Q322 117 356 135T409 189T436 271H493Q484 215 459 169T388 94T270 66Z" />
<glyph unicode="&#xa3;" glyph-name="sterling" horiz-adv-x="558" d="M3 0L12 55H95L141 313H43L53 368H150L177 519Q188 581 219 620T295 679T393 698Q442 698 479 683T537 636T558 560Q558 550 557 538T552 501H494Q497 517 498 526T499 541T499 551Q499 586
485 607T447 638T391 648Q355 648 322 635T267 593T235 521L208 368H378L369 313H199L147 55H478L468 0H3Z" />
<glyph unicode="&#xa4;" glyph-name="currency" horiz-adv-x="559" d="M87 99L45 141L100 196Q72 228 60 267T47 349Q47 391 59 431T100 503L45 557L88 600L144 544Q175 570 214 583T295 597Q336 597 375 584T446 544L502 600L545 557L490 503Q517 472 529 432T542
349Q542 307 530 268T490 196L545 141L502 99L446 155Q415 128 376 115T295 101Q253 101 214 114T143 155L87 99ZM295 153Q348 153 392 179T462 251T489 349Q489 403 463 447T392 517T295 544Q242 544 198 518T127 447T100 349Q100 296 126 251T197 180T295 153Z"
/>
<glyph unicode="&#xa5;" glyph-name="yen" horiz-adv-x="553" d="M198 0L227 166H25L33 218H236L249 289H46L55 341H237Q227 362 215 387T199 422L85 686H150L248 450Q252 441 258 424T273 387T289 349H293Q305 365 319 384T347 422T368 449L547 686H618L411 421Q403
410 382 385T345 341H523L514 289H312L299 218H501L492 166H290L261 0H198Z" />
<glyph unicode="&#xa6;" glyph-name="brokenbar" horiz-adv-x="246" d="M97 355V723H153V355H97ZM97 -176V192H153V-176H97Z" />
<glyph unicode="&#xa7;" glyph-name="section" horiz-adv-x="559" d="M202 -182Q146 -182 108 -172T48 -145T16 -106T5 -59Q5 -49 7 -38T12 -18H75Q74 -24 72 -33T70 -50Q70 -69 81 -88T123 -119T212 -131Q262 -131 301 -117T364 -76T387 -9Q387 20 369 38T320
69T253 92T180 113T113 140T64 181T45 244Q45 272 54 297T81 344T121 383T172 412Q142 429 124 453T106 515Q106 552 117 580T150 631T201 668T270 690T355 698Q411 698 449 688T509 661T542 622T552 575Q552 565 550 554T545 534H482Q484 540 485 549T487 566Q487
586 476 604T434 635T345 647Q296 647 257 633T194 592T170 525Q170 496 188 478T238 447T305 424T378 403T444 375T493 334T512 271Q512 243 503 218T476 172T436 133T385 103Q415 87 433 63T451 2Q451 -35 440 -64T407 -115T356 -152T287 -174T202 -182ZM336
127Q355 134 381 151T427 195T447 253Q447 286 426 307T371 341T298 365T221 389Q202 382 176 364T131 321T111 262Q111 229 132 209T186 175T259 151T336 127Z" />
<glyph unicode="&#xa8;" glyph-name="dieresis" horiz-adv-x="251" d="M67 645L81 720H152L138 645H67ZM247 645L261 720H332L318 645H247Z" />
<glyph unicode="&#xa9;" glyph-name="copyright" horiz-adv-x="741" d="M385 -12Q308 -12 243 14T131 88T57 201T30 343Q30 420 56 485T130 597T243 671T385 698Q462 698 527 672T639 598T713 485T740 343Q740 266 714 201T640 89T527 15T385 -12ZM381 130Q333
130 296 150T238 216T216 342Q216 421 237 467T295 533T381 554Q423 554 458 539T514 488T535 390H489Q489 438 474 464T435 501T381 512Q328 512 295 475T262 355V330Q262 275 277 240T318 189T381 173Q410 173 435 184T475 221T490 293H535Q535 234 514 198T458
146T381 130ZM385 25Q477 25 548 66T660 179T701 343Q701 435 660 506T548 619T385 661Q293 661 222 620T110 507T69 343Q69 251 109 179T222 66T385 25Z" />
<glyph unicode="&#xaa;" glyph-name="ordfeminine" horiz-adv-x="374" d="M179 329Q126 329 99 362T71 460Q71 477 73 495T78 529Q86 576 106 614T159 675T240 698Q269 698 292 686T328 642H333L348 690H386L372 609Q369 590 364 564T354 509T345 454T338 409T335
384Q335 374 340 372T355 370H381L377 339Q365 335 355 332T335 329Q311 329 300 338T288 365Q288 370 289 377T292 391H288Q266 359 237 344T179 329ZM188 372Q225 372 249 391T287 441T307 504Q311 520 313 537T316 571Q316 606 305 624T276 649T241 655Q192
655 164 618T126 524Q123 508 122 492T120 459Q120 413 136 393T188 372Z" />
<glyph unicode="&#xab;" glyph-name="guillemotleft" horiz-adv-x="531" d="M202 126L67 326L265 526H326L150 326L255 126H202ZM380 126L245 326L442 526H504L328 326L433 126H380Z" />
<glyph unicode="&#xac;" glyph-name="logicalnot" horiz-adv-x="615" d="M450 201L482 378H84L94 433H551L510 201H450Z" />
<glyph unicode="&#xad;" glyph-name="uni00AD" horiz-adv-x="333" d="M35 236L48 305H300L288 236H35Z" />
<glyph unicode="&#xae;" glyph-name="registered" horiz-adv-x="741" d="M385 -12Q308 -12 243 14T131 88T57 201T30 343Q30 420 56 485T130 597T243 671T385 698Q462 698 527 672T639 598T713 485T740 343Q740 266 714 201T640 89T527 15T385 -12ZM385 25Q477
25 548 66T660 179T701 343Q701 435 660 506T548 619T385 661Q293 661 222 620T110 507T69 343Q69 251 109 179T222 66T385 25ZM253 135V547H424Q485 547 516 516T547 425Q547 383 528 352T473 307L560 135H509L428 298H298V135H253ZM298 340H429Q461 340 480 362T499
426Q499 464 481 485T429 506H298V340Z" />
<glyph unicode="&#xaf;" glyph-name="overscore" horiz-adv-x="296" d="M69 652L77 700H372L364 652H69Z" />
<glyph unicode="&#xb0;" glyph-name="degree" horiz-adv-x="400" d="M257 454Q224 454 196 470T150 514T133 576Q133 610 150 638T195 682T257 698Q291 698 318 682T362 638T378 576Q378 542 362 515T319 471T257 454ZM257 488Q293 488 317 514T342 576Q342 611
318 637T257 663Q221 663 195 637T169 576Q169 541 195 515T257 488Z" />
<glyph unicode="&#xb1;" glyph-name="plusminus" horiz-adv-x="615" d="M220 113L260 340H52L62 397H269L310 624H366L326 397H534L524 340H317L276 113H220ZM-7 0L3 56H474L464 0H-7Z" />
<glyph unicode="&#xb2;" glyph-name="uni00B2" horiz-adv-x="336" d="M71 440L75 461Q80 489 99 511T147 552T206 587T262 622T305 660T322 706Q322 729 305 741T258 754Q227 754 208 744T178 718T165 685L160 658H116Q116 666 117 673T119 687Q126 726 147 750T199
785T263 797Q295 797 319 788T357 760T371 711Q371 680 358 657T324 615T276 579T223 549T173 519T134 485H333L325 440H71Z" />
<glyph unicode="&#xb3;" glyph-name="uni00B3" horiz-adv-x="336" d="M207 428Q145 428 114 450T82 512Q82 517 82 524T86 547H132Q130 535 130 530T129 522Q129 497 148 484T200 470Q228 470 251 478T288 502T302 546Q302 566 291 576T261 590T223 594H172L178
636H230Q252 636 272 643T307 666T322 707Q322 731 304 742T258 754Q237 754 217 747T184 726T167 691L165 678H116L118 692Q123 723 143 746T193 783T256 797Q312 797 341 775T371 712Q371 690 362 672T339 642T309 621V616Q328 606 339 589T350 547Q350 509 331
482T279 442T207 428Z" />
<glyph unicode="&#xb4;" glyph-name="acute" horiz-adv-x="167" d="M58 591L171 723H248V720L115 591H58Z" />
<glyph unicode="&#xb5;" glyph-name="uni00B5" horiz-adv-x="550" d="M-5 -175L118 526H176L112 162Q111 151 110 141T108 122Q108 88 122 71T160 47T215 40Q247 40 278 50T336 82T383 138T411 217L466 526H524L432 0H389L398 87H392Q361 48 328 27T262 -3T193
-12Q158 -12 131 -4T85 21Q84 7 82 -7T77 -35L53 -175H-5Z" />
<glyph unicode="&#xb6;" glyph-name="paragraph" horiz-adv-x="543" d="M170 -172L244 250Q199 256 164 280T108 342T88 428Q88 495 110 544T170 624T254 670T350 686H567L558 635H493L351 -172H298L440 635H366L223 -172H170Z" />
<glyph unicode="&#xb7;" glyph-name="middot" horiz-adv-x="333" d="M137 312L152 401H229L214 312H137Z" />
<glyph unicode="&#xb8;" glyph-name="cedilla" horiz-adv-x="189" d="M7 -170Q-14 -170 -37 -169T-75 -163L-70 -132H22Q49 -132 61 -122T74 -96Q74 -87 66 -82T39 -76H-18L17 11H59L42 -43Q77 -43 101 -52T125 -90Q125 -112 117 -127T94 -152T56 -166T7 -170Z" />
<glyph unicode="&#xb9;" glyph-name="uni00B9" horiz-adv-x="336" d="M86 440L94 484H186L228 718H135L141 751Q165 752 186 756T226 769T265 793H289L234 484H320L312 440H86Z" />
<glyph unicode="&#xba;" glyph-name="ordmasculine" horiz-adv-x="369" d="M197 329Q138 329 106 361T73 459Q73 476 74 492T79 526Q88 577 110 615T170 676T258 698Q318 698 350 666T383 569Q383 551 382 536T378 506Q369 456 346 416T286 352T197 329ZM203 372Q259
372 290 410T330 508Q332 518 333 528T335 548T336 570Q336 618 313 636T252 655Q197 655 167 616T125 520Q124 510 123 500T121 479T120 458Q120 410 142 391T203 372Z" />
<glyph unicode="&#xbb;" glyph-name="guillemotright" horiz-adv-x="531" d="M351 526L486 326L289 126H227L403 326L298 526H351ZM174 526L308 326L111 126H49L226 326L120 526H174Z" />
<glyph unicode="&#xbc;" glyph-name="onequarter" horiz-adv-x="837" d="M72 -12L743 698H804L133 -12H72ZM68 340L76 384H168L210 618H117L123 651Q147 652 168 656T208 669T247 693H271L216 384H302L294 340H68ZM629 0L644 83H473L479 119Q522 176 556 233T615
355H665Q651 320 633 286T597 220T562 164T534 125H652L672 243Q677 253 681 262T690 282T698 301H729L697 125H747L739 83H690L675 0H629Z" />
<glyph unicode="&#xbd;" glyph-name="onehalf" horiz-adv-x="837" d="M72 -12L743 698H804L133 -12H72ZM68 340L76 384H168L210 618H117L123 651Q147 652 168 656T208 669T247 693H271L216 384H302L294 340H68ZM464 0L468 21Q473 49 492 71T540 112T599 147T655
182T698 220T715 266Q715 289 699 301T651 314Q620 314 601 304T571 278T558 245L553 218H509Q509 226 510 233T512 247Q519 286 540 310T592 345T656 357Q688 357 712 348T750 320T764 271Q764 240 751 217T717 175T669 139T616 109T566 79T527 45H726L719 0H464Z"
/>
<glyph unicode="&#xbe;" glyph-name="threequarters" horiz-adv-x="837" d="M72 -12L743 698H804L133 -12H72ZM189 328Q127 328 96 350T64 412Q64 417 64 424T68 447H114Q112 435 112 430T111 422Q111 397 130 384T182 370Q210 370 233 378T270 402T284 446Q284
466 273 476T243 490T205 494H154L160 536H212Q234 536 254 543T289 566T304 607Q304 631 286 642T240 654Q219 654 199 647T166 626T149 591L147 578H98L100 592Q105 623 125 646T175 683T238 697Q294 697 323 675T353 612Q353 590 344 572T321 542T291 521V516Q310
506 321 489T332 447Q332 409 313 382T261 342T189 328ZM629 0L644 83H473L479 119Q522 176 556 233T615 355H665Q651 320 633 286T597 220T562 164T534 125H652L672 243Q677 253 681 262T690 282T698 301H729L697 125H747L739 83H690L675 0H629Z" />
<glyph unicode="&#xbf;" glyph-name="questiondown" horiz-adv-x="637" d="M255 -172Q199 -172 164 -158T109 -120T82 -72T75 -24Q75 29 90 66T130 129T183 175T238 214T284 254T308 304L318 362H377L365 297Q358 260 339 233T294 186T241 148T191 108T152 57T137
-17Q137 -39 146 -62T181 -102T254 -118Q302 -118 336 -103T392 -64T427 -14T444 36Q445 43 445 49T446 61H504Q504 41 497 12T472 -49T427 -109T356 -154T255 -172ZM324 442L339 526H412L397 442H324Z" />
<glyph unicode="&#xc0;" glyph-name="Agrave" horiz-adv-x="658" d="M-23 0L363 686H444L590 0H524L484 195H155L46 0H-23ZM186 252H473L424 493Q421 505 418 521T411 556T404 593T397 626H391Q381 606 368 580T342 531T320 493L186 252ZM396 736L305 865L306
868H382L451 736H396Z" />
<glyph unicode="&#xc1;" glyph-name="Aacute" horiz-adv-x="658" d="M-23 0L363 686H444L590 0H524L484 195H155L46 0H-23ZM186 252H473L424 493Q421 505 418 521T411 556T404 593T397 626H391Q381 606 368 580T342 531T320 493L186 252ZM380 736L496 868H574V865L439
736H380Z" />
<glyph unicode="&#xc2;" glyph-name="Acircumflex" horiz-adv-x="658" d="M-23 0L363 686H444L590 0H524L484 195H155L46 0H-23ZM186 252H473L424 493Q421 505 418 521T411 556T404 593T397 626H391Q381 606 368 580T342 531T320 493L186 252ZM271 736L400 868H461L543
736H483L412 849H446L335 736H271Z" />
<glyph unicode="&#xc3;" glyph-name="Atilde" horiz-adv-x="658" d="M-23 0L363 686H444L590 0H524L484 195H155L46 0H-23ZM186 252H473L424 493Q421 505 418 521T411 556T404 593T397 626H391Q381 606 368 580T342 531T320 493L186 252ZM268 780Q274 803 286
821T317 851T362 862Q388 862 411 854T457 838T501 829Q518 829 527 839T540 862H587Q582 839 569 820T536 791T491 780Q466 780 443 788T397 805T354 813Q335 813 326 803T313 780H268Z" />
<glyph unicode="&#xc4;" glyph-name="Adieresis" horiz-adv-x="658" d="M-23 0L363 686H444L590 0H524L484 195H155L46 0H-23ZM186 252H473L424 493Q421 505 418 521T411 556T404 593T397 626H391Q381 606 368 580T342 531T320 493L186 252ZM301 788L315 868H384L369
788H301ZM474 788L489 868H556L541 788H474Z" />
<glyph unicode="&#xc5;" glyph-name="Aring" horiz-adv-x="658" d="M-23 0L363 686H444L590 0H524L484 195H155L46 0H-23ZM186 252H473L424 493Q421 505 418 521T411 556T404 593T397 626H391Q381 606 368 580T342 531T320 493L186 252ZM414 731Q379 731 356 752T332
804Q332 834 346 857T385 893T442 906Q478 906 501 886T524 833Q524 803 510 780T471 744T414 731ZM421 772Q438 772 451 779T471 798T479 828Q479 845 467 855T435 865Q419 865 406 858T386 839T378 809Q378 793 390 783T421 772Z" />
<glyph unicode="&#xc6;" glyph-name="AE" horiz-adv-x="1001" d="M-39 0L428 686H1012L1003 629H516L537 380H915L904 323H542L564 57H908L898 0H505L490 195H164L31 0H-39ZM201 252H485L464 505Q463 516 462 531T460 564T458 597T455 626H450Q439 608 424 585T396
540T372 505L201 252Z" />
<glyph unicode="&#xc7;" glyph-name="Ccedilla" horiz-adv-x="735" d="M341 -12Q206 -12 135 56T63 256Q63 285 65 312T72 364Q90 467 141 541T272 657T454 698Q537 698 596 677T687 612T719 500Q719 487 719 473T714 443H648Q651 458 652 471T654 496Q654 547
630 578T559 625T447 641Q383 641 331 620T239 560T173 467T137 346Q135 335 134 324T131 302T130 279T129 256Q129 181 155 134T230 66T342 45Q420 45 476 65T568 129T617 242H678Q664 155 618 99T500 15T341 -12ZM311 -170Q290 -170 267 -169T229 -163L235 -132H327Q354
-132 366 -122T378 -96Q378 -87 370 -82T344 -76H287L321 11H364L346 -43Q382 -43 405 -52T429 -90Q429 -112 421 -127T398 -152T361 -166T311 -170Z" />
<glyph unicode="&#xc8;" glyph-name="Egrave" horiz-adv-x="681" d="M50 0L170 686H692L683 629H225L181 380H595L585 324H170L124 57H588L578 0H50ZM416 736L326 865L327 868H402L471 736H416Z" />
<glyph unicode="&#xc9;" glyph-name="Eacute" horiz-adv-x="681" d="M50 0L170 686H692L683 629H225L181 380H595L585 324H170L124 57H588L578 0H50ZM401 736L516 868H594V865L459 736H401Z" />
<glyph unicode="&#xca;" glyph-name="Ecircumflex" horiz-adv-x="681" d="M50 0L170 686H692L683 629H225L181 380H595L585 324H170L124 57H588L578 0H50ZM291 736L420 868H482L564 736H503L432 849H466L356 736H291Z" />
<glyph unicode="&#xcb;" glyph-name="Edieresis" horiz-adv-x="681" d="M50 0L170 686H692L683 629H225L181 380H595L585 324H170L124 57H588L578 0H50ZM321 788L336 868H404L389 788H321ZM495 788L509 868H576L561 788H495Z" />
<glyph unicode="&#xcc;" glyph-name="Igrave" horiz-adv-x="254" d="M49 0L170 686H234L113 0H49ZM195 736L105 865L106 868H181L250 736H195Z" />
<glyph unicode="&#xcd;" glyph-name="Iacute" horiz-adv-x="254" d="M49 0L170 686H234L113 0H49ZM179 736L295 868H373V865L238 736H179Z" />
<glyph unicode="&#xce;" glyph-name="Icircumflex" horiz-adv-x="254" d="M49 0L170 686H234L113 0H49ZM70 736L199 868H260L342 736H282L211 849H245L134 736H70Z" />
<glyph unicode="&#xcf;" glyph-name="Idieresis" horiz-adv-x="254" d="M49 0L170 686H234L113 0H49ZM100 788L114 868H183L168 788H100ZM273 788L288 868H355L340 788H273Z" />
<glyph unicode="&#xd0;" glyph-name="Eth" horiz-adv-x="739" d="M10 320L20 376H398L388 320H10ZM49 0L170 686H406Q549 686 627 625T705 431Q705 401 703 373T696 319Q677 215 625 144T490 37T300 0H49ZM124 57H294Q370 57 429 75T530 130T597 218T633 339Q635
353 636 367T637 395T638 424Q638 502 610 547T528 610T398 629H225L124 57Z" />
<glyph unicode="&#xd1;" glyph-name="Ntilde" horiz-adv-x="739" d="M50 0L170 686H234L511 192Q517 182 524 167T540 137T553 110L557 111Q560 129 562 148T569 191L655 686H719L599 0H546L263 500Q256 513 242 540T219 585L214 584Q212 566 208 543T201 502L113
0H50ZM314 780Q320 803 332 821T363 851T408 862Q434 862 458 854T504 838T547 829Q564 829 573 839T586 862H633Q628 839 615 820T582 791T537 780Q513 780 489 788T443 805T400 813Q381 813 372 803T359 780H314Z" />
<glyph unicode="&#xd2;" glyph-name="Ograve" horiz-adv-x="793" d="M350 -12Q259 -12 195 19T96 110T62 256Q62 283 64 309T71 359Q90 460 142 536T277 655T471 698Q563 698 627 667T725 576T759 430Q759 404 757 379T751 327Q733 227 680 151T544 31T350 -12ZM356
45Q428 45 484 66T582 128T649 222T686 342Q688 354 689 364T691 386T692 407T693 429Q693 505 665 551T586 620T465 642Q394 642 338 620T240 558T172 464T135 344Q133 333 132 322T130 300T129 279T128 257Q128 182 156 135T235 67T356 45ZM462 736L372 865L373
868H448L517 736H462Z" />
<glyph unicode="&#xd3;" glyph-name="Oacute" horiz-adv-x="793" d="M350 -12Q259 -12 195 19T96 110T62 256Q62 283 64 309T71 359Q90 460 142 536T277 655T471 698Q563 698 627 667T725 576T759 430Q759 404 757 379T751 327Q733 227 680 151T544 31T350 -12ZM356
45Q428 45 484 66T582 128T649 222T686 342Q688 354 689 364T691 386T692 407T693 429Q693 505 665 551T586 620T465 642Q394 642 338 620T240 558T172 464T135 344Q133 333 132 322T130 300T129 279T128 257Q128 182 156 135T235 67T356 45ZM447 736L562 868H640V865L505
736H447Z" />
<glyph unicode="&#xd4;" glyph-name="Ocircumflex" horiz-adv-x="793" d="M350 -12Q259 -12 195 19T96 110T62 256Q62 283 64 309T71 359Q90 460 142 536T277 655T471 698Q563 698 627 667T725 576T759 430Q759 404 757 379T751 327Q733 227 680 151T544 31T350
-12ZM356 45Q428 45 484 66T582 128T649 222T686 342Q688 354 689 364T691 386T692 407T693 429Q693 505 665 551T586 620T465 642Q394 642 338 620T240 558T172 464T135 344Q133 333 132 322T130 300T129 279T128 257Q128 182 156 135T235 67T356 45ZM337 736L466
868H528L610 736H549L478 849H512L402 736H337Z" />
<glyph unicode="&#xd5;" glyph-name="Otilde" horiz-adv-x="793" d="M350 -12Q259 -12 195 19T96 110T62 256Q62 283 64 309T71 359Q90 460 142 536T277 655T471 698Q563 698 627 667T725 576T759 430Q759 404 757 379T751 327Q733 227 680 151T544 31T350 -12ZM356
45Q428 45 484 66T582 128T649 222T686 342Q688 354 689 364T691 386T692 407T693 429Q693 505 665 551T586 620T465 642Q394 642 338 620T240 558T172 464T135 344Q133 333 132 322T130 300T129 279T128 257Q128 182 156 135T235 67T356 45ZM334 780Q340 803 352
821T383 851T429 862Q455 862 478 854T524 838T568 829Q584 829 593 839T607 862H653Q648 839 635 820T602 791T557 780Q533 780 510 788T464 805T420 813Q402 813 393 803T379 780H334Z" />
<glyph unicode="&#xd6;" glyph-name="Odieresis" horiz-adv-x="793" d="M350 -12Q259 -12 195 19T96 110T62 256Q62 283 64 309T71 359Q90 460 142 536T277 655T471 698Q563 698 627 667T725 576T759 430Q759 404 757 379T751 327Q733 227 680 151T544 31T350
-12ZM356 45Q428 45 484 66T582 128T649 222T686 342Q688 354 689 364T691 386T692 407T693 429Q693 505 665 551T586 620T465 642Q394 642 338 620T240 558T172 464T135 344Q133 333 132 322T130 300T129 279T128 257Q128 182 156 135T235 67T356 45ZM367 788L382
868H450L435 788H367ZM541 788L555 868H622L607 788H541Z" />
<glyph unicode="&#xd7;" glyph-name="multiply" horiz-adv-x="615" d="M111 53L76 96L266 257L145 405L189 443L311 296L502 457L537 415L346 253L467 105L423 67L301 214L111 53Z" />
<glyph unicode="&#xd8;" glyph-name="Oslash" horiz-adv-x="793" d="M350 -12Q259 -12 195 19T96 110T62 256Q62 283 64 309T71 359Q90 460 142 536T277 655T471 698Q563 698 627 667T725 576T759 430Q759 404 757 379T751 327Q733 227 680 151T544 31T350 -12ZM356
45Q428 45 484 66T582 128T649 222T686 342Q688 354 689 364T691 386T692 407T693 429Q693 505 665 551T586 620T465 642Q394 642 338 620T240 558T172 464T135 344Q133 333 132 322T130 300T129 279T128 257Q128 182 156 135T235 67T356 45ZM11 -49L744 735H808L76
-49H11Z" />
<glyph unicode="&#xd9;" glyph-name="Ugrave" horiz-adv-x="738" d="M324 -12Q214 -12 151 34T88 187Q88 204 90 227T96 272L170 686H234L157 252Q154 238 153 219T151 188Q151 111 197 78T328 44Q428 44 493 94T576 242L655 686H719L644 264Q626 165 584 104T477
16T324 -12ZM439 736L348 865L349 868H424L494 736H439Z" />
<glyph unicode="&#xda;" glyph-name="Uacute" horiz-adv-x="738" d="M324 -12Q214 -12 151 34T88 187Q88 204 90 227T96 272L170 686H234L157 252Q154 238 153 219T151 188Q151 111 197 78T328 44Q428 44 493 94T576 242L655 686H719L644 264Q626 165 584 104T477
16T324 -12ZM423 736L538 868H617V865L481 736H423Z" />
<glyph unicode="&#xdb;" glyph-name="Ucircumflex" horiz-adv-x="738" d="M324 -12Q214 -12 151 34T88 187Q88 204 90 227T96 272L170 686H234L157 252Q154 238 153 219T151 188Q151 111 197 78T328 44Q428 44 493 94T576 242L655 686H719L644 264Q626 165 584
104T477 16T324 -12ZM314 736L443 868H504L586 736H526L455 849H488L378 736H314Z" />
<glyph unicode="&#xdc;" glyph-name="Udieresis" horiz-adv-x="738" d="M324 -12Q214 -12 151 34T88 187Q88 204 90 227T96 272L170 686H234L157 252Q154 238 153 219T151 188Q151 111 197 78T328 44Q428 44 493 94T576 242L655 686H719L644 264Q626 165 584 104T477
16T324 -12ZM344 788L358 868H427L412 788H344ZM517 788L532 868H599L584 788H517Z" />
<glyph unicode="&#xdd;" glyph-name="Yacute" horiz-adv-x="636" d="M240 0L291 289L85 686H152L328 346H333L627 686H701L355 289L305 0H240ZM373 736L489 868H567V865L432 736H373Z" />
<glyph unicode="&#xde;" glyph-name="Thorn" horiz-adv-x="670" d="M49 0L170 686H234L214 566H483Q543 566 582 546T641 490T661 407Q661 351 644 306T597 228T525 178T433 160H142L113 0H49ZM151 216H425Q476 216 514 238T574 302T595 400Q595 452 566 481T476
510H203L151 216Z" />
<glyph unicode="&#xdf;" glyph-name="germandbls" horiz-adv-x="613" d="M26 0L118 520Q127 572 149 612T204 680T281 721T376 735Q427 735 465 724T530 693T568 646T580 584Q580 537 561 499T507 434T424 395V391Q481 377 513 338T546 236Q546 175 525 130T469
57T390 14T301 0H191L199 52H302Q356 52 397 74T462 138T486 236Q486 279 469 306T423 347T358 361H254L263 412H354Q393 412 430 433T492 491T517 572Q517 623 483 653T380 684Q326 684 284 666T214 611T176 518L85 0H26Z" />
<glyph unicode="&#xe0;" glyph-name="agrave" horiz-adv-x="539" d="M203 -12Q150 -12 112 8T54 69T34 176Q34 196 36 218T42 266Q58 361 91 421T173 510T285 538Q322 538 350 529T400 500T434 449H441L465 526H510L489 408Q485 380 478 340T462 255T448 171T437
103T432 66Q432 53 439 47T459 40H504L497 6Q487 1 473 -4T441 -10Q411 -10 397 4T380 46Q380 53 380 61T382 79L375 82Q343 33 297 11T203 -12ZM217 39Q241 39 268 48T322 80T370 145T404 253Q407 277 409 294T413 325T414 350Q414 395 401 425T361 471T290 487Q247
487 211 468T147 403T106 277Q101 248 99 230T95 198T94 172Q94 102 125 71T217 39ZM284 591L202 720L203 723H270L336 591H284Z" />
<glyph unicode="&#xe1;" glyph-name="aacute" horiz-adv-x="539" d="M203 -12Q150 -12 112 8T54 69T34 176Q34 196 36 218T42 266Q58 361 91 421T173 510T285 538Q322 538 350 529T400 500T434 449H441L465 526H510L489 408Q485 380 478 340T462 255T448 171T437
103T432 66Q432 53 439 47T459 40H504L497 6Q487 1 473 -4T441 -10Q411 -10 397 4T380 46Q380 53 380 61T382 79L375 82Q343 33 297 11T203 -12ZM217 39Q241 39 268 48T322 80T370 145T404 253Q407 277 409 294T413 325T414 350Q414 395 401 425T361 471T290 487Q247
487 211 468T147 403T106 277Q101 248 99 230T95 198T94 172Q94 102 125 71T217 39ZM275 591L389 723H466V720L333 591H275Z" />
<glyph unicode="&#xe2;" glyph-name="acircumflex" horiz-adv-x="539" d="M203 -12Q150 -12 112 8T54 69T34 176Q34 196 36 218T42 266Q58 361 91 421T173 510T285 538Q322 538 350 529T400 500T434 449H441L465 526H510L489 408Q485 380 478 340T462 255T448
171T437 103T432 66Q432 53 439 47T459 40H504L497 6Q487 1 473 -4T441 -10Q411 -10 397 4T380 46Q380 53 380 61T382 79L375 82Q343 33 297 11T203 -12ZM217 39Q241 39 268 48T322 80T370 145T404 253Q407 277 409 294T413 325T414 350Q414 395 401 425T361 471T290
487Q247 487 211 468T147 403T106 277Q101 248 99 230T95 198T94 172Q94 102 125 71T217 39ZM175 591L304 723H361L443 591H385L313 704H347L237 591H175Z" />
<glyph unicode="&#xe3;" glyph-name="atilde" horiz-adv-x="539" d="M203 -12Q150 -12 112 8T54 69T34 176Q34 196 36 218T42 266Q58 361 91 421T173 510T285 538Q322 538 350 529T400 500T434 449H441L465 526H510L489 408Q485 380 478 340T462 255T448 171T437
103T432 66Q432 53 439 47T459 40H504L497 6Q487 1 473 -4T441 -10Q411 -10 397 4T380 46Q380 53 380 61T382 79L375 82Q343 33 297 11T203 -12ZM217 39Q241 39 268 48T322 80T370 145T404 253Q407 277 409 294T413 325T414 350Q414 395 401 425T361 471T290 487Q247
487 211 468T147 403T106 277Q101 248 99 230T95 198T94 172Q94 102 125 71T217 39ZM161 635Q167 659 179 677T210 707T256 718Q282 718 305 710T351 694T394 685Q411 685 420 695T433 718H480Q475 695 462 676T429 646T384 635Q360 635 337 644T291 661T247 669Q229
669 220 659T206 635H161Z" />
<glyph unicode="&#xe4;" glyph-name="adieresis" horiz-adv-x="539" d="M203 -12Q150 -12 112 8T54 69T34 176Q34 196 36 218T42 266Q58 361 91 421T173 510T285 538Q322 538 350 529T400 500T434 449H441L465 526H510L489 408Q485 380 478 340T462 255T448 171T437
103T432 66Q432 53 439 47T459 40H504L497 6Q487 1 473 -4T441 -10Q411 -10 397 4T380 46Q380 53 380 61T382 79L375 82Q343 33 297 11T203 -12ZM217 39Q241 39 268 48T322 80T370 145T404 253Q407 277 409 294T413 325T414 350Q414 395 401 425T361 471T290 487Q247
487 211 468T147 403T106 277Q101 248 99 230T95 198T94 172Q94 102 125 71T217 39ZM195 645L209 720H279L266 645H195ZM374 645L388 720H459L445 645H374Z" />
<glyph unicode="&#xe5;" glyph-name="aring" horiz-adv-x="539" d="M203 -12Q150 -12 112 8T54 69T34 176Q34 196 36 218T42 266Q58 361 91 421T173 510T285 538Q322 538 350 529T400 500T434 449H441L465 526H510L489 408Q485 380 478 340T462 255T448 171T437
103T432 66Q432 53 439 47T459 40H504L497 6Q487 1 473 -4T441 -10Q411 -10 397 4T380 46Q380 53 380 61T382 79L375 82Q343 33 297 11T203 -12ZM217 39Q241 39 268 48T322 80T370 145T404 253Q407 277 409 294T413 325T414 350Q414 395 401 425T361 471T290 487Q247
487 211 468T147 403T106 277Q101 248 99 230T95 198T94 172Q94 102 125 71T217 39ZM311 581Q277 581 256 601T234 653Q234 699 262 727T338 756Q370 756 391 736T412 684Q412 654 400 631T364 594T311 581ZM317 616Q334 616 347 624T366 647T373 679Q373 698 362
709T332 721Q314 721 301 713T280 691T273 658Q273 639 285 628T317 616Z" />
<glyph unicode="&#xe6;" glyph-name="ae" horiz-adv-x="892" d="M156 -12Q124 -12 97 -5T48 17T15 55T3 110Q3 160 24 194T84 249T174 281T284 295T406 299L418 370Q420 377 421 389T423 406Q423 444 394 465T290 486Q237 486 204 473T153 437T131 386L128 370H72Q72
372 73 378T75 391Q86 441 117 473T195 522T306 538Q376 538 420 515T474 448Q510 494 560 516T673 538Q733 538 774 518T837 458T859 362Q859 341 856 311T844 249H458Q454 228 453 210T451 175Q451 126 467 96T513 52T587 38Q628 38 660 49T714 79T751 123T770
175H826Q819 139 801 106T754 46T681 4T581 -12Q509 -12 464 17T402 108Q364 57 320 32T233 -3T156 -12ZM165 38Q201 38 237 49T305 81T359 130T387 194L397 249Q303 249 229 240T111 201T67 114Q67 88 80 72T115 47T165 38ZM466 297H794Q796 314 797 329T799 357Q799
405 783 434T737 475T666 488Q614 488 575 468T509 406T466 297Z" />
<glyph unicode="&#xe7;" glyph-name="ccedilla" horiz-adv-x="493" d="M225 -12Q164 -12 122 8T58 71T36 182Q36 203 38 226T45 276Q57 340 78 389T132 471T207 521T304 538Q367 538 405 520T460 470T477 393Q477 379 476 365T472 333H414Q417 348 418 361T420
387Q420 422 408 444T370 476T303 487Q259 487 219 467T150 402T107 278Q102 251 100 233T97 202T96 178Q96 129 111 99T155 54T223 39Q277 39 310 57T363 111T390 193H447Q439 137 414 91T342 16T225 -12ZM181 -170Q160 -170 137 -169T99 -163L104 -132H196Q223
-132 235 -122T248 -96Q248 -87 240 -82T213 -76H156L191 11H233L216 -43Q251 -43 275 -52T299 -90Q299 -112 291 -127T268 -152T230 -166T181 -170Z" />
<glyph unicode="&#xe8;" glyph-name="egrave" horiz-adv-x="536" d="M230 -12Q165 -12 122 10T58 75T36 181Q36 207 39 234T47 286Q63 361 95 417T181 506T314 538Q378 538 419 515T481 449T502 350Q502 327 499 301T488 248H104Q101 230 100 214T98 184Q98 133
113 101T160 53T236 38Q263 38 289 45T340 69T382 111T413 175H469Q457 128 434 93T381 34T312 0T230 -12ZM113 297H438Q441 313 442 328T443 357Q443 400 429 429T386 473T309 488Q260 488 220 466T154 401T113 297ZM305 591L222 720L223 723H290L357 591H305Z"
/>
<glyph unicode="&#xe9;" glyph-name="eacute" horiz-adv-x="536" d="M230 -12Q165 -12 122 10T58 75T36 181Q36 207 39 234T47 286Q63 361 95 417T181 506T314 538Q378 538 419 515T481 449T502 350Q502 327 499 301T488 248H104Q101 230 100 214T98 184Q98 133
113 101T160 53T236 38Q263 38 289 45T340 69T382 111T413 175H469Q457 128 434 93T381 34T312 0T230 -12ZM113 297H438Q441 313 442 328T443 357Q443 400 429 429T386 473T309 488Q260 488 220 466T154 401T113 297ZM296 591L409 723H486V720L353 591H296Z" />
<glyph unicode="&#xea;" glyph-name="ecircumflex" horiz-adv-x="536" d="M230 -12Q165 -12 122 10T58 75T36 181Q36 207 39 234T47 286Q63 361 95 417T181 506T314 538Q378 538 419 515T481 449T502 350Q502 327 499 301T488 248H104Q101 230 100 214T98 184Q98
133 113 101T160 53T236 38Q263 38 289 45T340 69T382 111T413 175H469Q457 128 434 93T381 34T312 0T230 -12ZM113 297H438Q441 313 442 328T443 357Q443 400 429 429T386 473T309 488Q260 488 220 466T154 401T113 297ZM195 591L324 723H381L463 591H405L334
704H367L257 591H195Z" />
<glyph unicode="&#xeb;" glyph-name="edieresis" horiz-adv-x="536" d="M230 -12Q165 -12 122 10T58 75T36 181Q36 207 39 234T47 286Q63 361 95 417T181 506T314 538Q378 538 419 515T481 449T502 350Q502 327 499 301T488 248H104Q101 230 100 214T98 184Q98
133 113 101T160 53T236 38Q263 38 289 45T340 69T382 111T413 175H469Q457 128 434 93T381 34T312 0T230 -12ZM113 297H438Q441 313 442 328T443 357Q443 400 429 429T386 473T309 488Q260 488 220 466T154 401T113 297ZM215 645L229 720H300L286 645H215ZM395
645L409 720H480L466 645H395Z" />
<glyph unicode="&#xec;" glyph-name="igrave" horiz-adv-x="203" d="M26 0L119 526H177L84 0H26ZM132 591L49 720L50 723H118L184 591H132Z" />
<glyph unicode="&#xed;" glyph-name="iacute" horiz-adv-x="203" d="M26 0L119 526H177L84 0H26ZM123 591L236 723H313V720L180 591H123Z" />
<glyph unicode="&#xee;" glyph-name="icircumflex" horiz-adv-x="203" d="M26 0L119 526H177L84 0H26ZM22 591L151 723H208L290 591H232L161 704H195L84 591H22Z" />
<glyph unicode="&#xef;" glyph-name="idieresis" horiz-adv-x="203" d="M26 0L119 526H177L84 0H26ZM42 645L56 720H127L113 645H42ZM222 645L236 720H307L293 645H222Z" />
<glyph unicode="&#xf0;" glyph-name="eth" horiz-adv-x="526" d="M217 -12Q161 -12 121 9T59 74T38 181Q38 235 48 283T76 372Q91 410 112 440T162 491T225 525T301 537Q326 537 348 532T388 517L392 519Q377 549 359 576T321 628L183 617L191 664L282 670Q266
687 251 698T223 719L224 723H298Q309 715 323 703T352 676L487 686L478 639L390 632Q428 580 458 507T488 346Q488 309 484 274T470 207Q453 143 422 94T341 17T217 -12ZM227 39Q268 39 300 54T355 98T395 163Q403 183 410 204T421 249T428 296T430 345Q430 399
414 429T369 473T300 486Q261 486 230 472T176 431T136 369Q123 342 115 311T102 247T97 180Q97 127 113 96T158 52T227 39Z" />
<glyph unicode="&#xf1;" glyph-name="ntilde" horiz-adv-x="544" d="M26 0L118 526H161L151 439H157Q189 479 222 500T289 529T357 538Q399 538 431 526T482 487T501 414Q501 403 500 391T496 365L432 0H374L438 364Q440 376 441 386T442 404Q442 438 429 455T391
479T335 486Q304 486 273 475T213 440T165 382T137 300L84 0H26ZM193 635Q199 659 211 677T242 707T287 718Q313 718 337 710T383 694T426 685Q443 685 452 695T465 718H512Q507 695 494 676T461 646T416 635Q392 635 368 644T322 661T279 669Q261 669 252 659T238
635H193Z" />
<glyph unicode="&#xf2;" glyph-name="ograve" horiz-adv-x="544" d="M231 -12Q168 -12 125 9T58 73T35 183Q35 203 37 224T44 271Q60 365 95 423T185 510T312 538Q376 538 419 517T485 453T508 341Q508 322 507 301T500 255Q484 163 448 104T358 17T231 -12ZM233
39Q285 39 326 60T396 128T436 249Q441 276 443 293T447 323T448 347Q448 396 432 427T385 472T311 487Q259 487 218 466T149 398T107 277Q102 250 100 232T97 202T96 179Q96 129 111 99T158 54T233 39ZM304 591L221 720L222 723H290L356 591H304Z" />
<glyph unicode="&#xf3;" glyph-name="oacute" horiz-adv-x="544" d="M231 -12Q168 -12 125 9T58 73T35 183Q35 203 37 224T44 271Q60 365 95 423T185 510T312 538Q376 538 419 517T485 453T508 341Q508 322 507 301T500 255Q484 163 448 104T358 17T231 -12ZM233
39Q285 39 326 60T396 128T436 249Q441 276 443 293T447 323T448 347Q448 396 432 427T385 472T311 487Q259 487 218 466T149 398T107 277Q102 250 100 232T97 202T96 179Q96 129 111 99T158 54T233 39ZM295 591L409 723H486V720L352 591H295Z" />
<glyph unicode="&#xf4;" glyph-name="ocircumflex" horiz-adv-x="544" d="M231 -12Q168 -12 125 9T58 73T35 183Q35 203 37 224T44 271Q60 365 95 423T185 510T312 538Q376 538 419 517T485 453T508 341Q508 322 507 301T500 255Q484 163 448 104T358 17T231 -12ZM233
39Q285 39 326 60T396 128T436 249Q441 276 443 293T447 323T448 347Q448 396 432 427T385 472T311 487Q259 487 218 466T149 398T107 277Q102 250 100 232T97 202T96 179Q96 129 111 99T158 54T233 39ZM194 591L323 723H380L462 591H404L333 704H367L257 591H194Z"
/>
<glyph unicode="&#xf5;" glyph-name="otilde" horiz-adv-x="544" d="M231 -12Q168 -12 125 9T58 73T35 183Q35 203 37 224T44 271Q60 365 95 423T185 510T312 538Q376 538 419 517T485 453T508 341Q508 322 507 301T500 255Q484 163 448 104T358 17T231 -12ZM233
39Q285 39 326 60T396 128T436 249Q441 276 443 293T447 323T448 347Q448 396 432 427T385 472T311 487Q259 487 218 466T149 398T107 277Q102 250 100 232T97 202T96 179Q96 129 111 99T158 54T233 39ZM181 635Q187 659 199 677T230 707T275 718Q301 718 325 710T371
694T414 685Q431 685 440 695T453 718H500Q494 695 481 676T449 646T404 635Q379 635 356 644T310 661T267 669Q248 669 239 659T226 635H181Z" />
<glyph unicode="&#xf6;" glyph-name="odieresis" horiz-adv-x="544" d="M231 -12Q168 -12 125 9T58 73T35 183Q35 203 37 224T44 271Q60 365 95 423T185 510T312 538Q376 538 419 517T485 453T508 341Q508 322 507 301T500 255Q484 163 448 104T358 17T231 -12ZM233
39Q285 39 326 60T396 128T436 249Q441 276 443 293T447 323T448 347Q448 396 432 427T385 472T311 487Q259 487 218 466T149 398T107 277Q102 250 100 232T97 202T96 179Q96 129 111 99T158 54T233 39ZM215 645L228 720H299L285 645H215ZM394 645L408 720H479L465
645H394Z" />
<glyph unicode="&#xf7;" glyph-name="divide" horiz-adv-x="615" d="M65 227L75 283H547L537 227H65ZM233 44L246 118H318L305 44H233ZM294 392L307 466H378L365 392H294Z" />
<glyph unicode="&#xf8;" glyph-name="oslash" horiz-adv-x="544" d="M231 -12Q168 -12 125 9T58 73T35 183Q35 203 37 224T44 271Q60 365 95 423T185 510T312 538Q376 538 419 517T485 453T508 341Q508 322 507 301T500 255Q484 163 448 104T358 17T231 -12ZM233
39Q285 39 326 60T396 128T436 249Q441 276 443 293T447 323T448 347Q448 396 432 427T385 472T311 487Q259 487 218 466T149 398T107 277Q102 250 100 232T97 202T96 179Q96 129 111 99T158 54T233 39ZM-37 -49L528 575H581L19 -49H-37Z" />
<glyph unicode="&#xf9;" glyph-name="ugrave" horiz-adv-x="544" d="M187 -12Q145 -12 113 0T62 39T43 112Q43 124 44 136T48 161L112 526H170L106 162Q105 151 104 141T102 122Q102 88 116 71T154 47T209 40Q241 40 272 50T330 82T378 138T406 217L460 526H518L426
0H383L393 87H386Q355 48 322 27T256 -3T187 -12ZM301 591L218 720L219 723H287L353 591H301Z" />
<glyph unicode="&#xfa;" glyph-name="uacute" horiz-adv-x="544" d="M187 -12Q145 -12 113 0T62 39T43 112Q43 124 44 136T48 161L112 526H170L106 162Q105 151 104 141T102 122Q102 88 116 71T154 47T209 40Q241 40 272 50T330 82T378 138T406 217L460 526H518L426
0H383L393 87H386Q355 48 322 27T256 -3T187 -12ZM292 591L405 723H482V720L349 591H292Z" />
<glyph unicode="&#xfb;" glyph-name="ucircumflex" horiz-adv-x="544" d="M187 -12Q145 -12 113 0T62 39T43 112Q43 124 44 136T48 161L112 526H170L106 162Q105 151 104 141T102 122Q102 88 116 71T154 47T209 40Q241 40 272 50T330 82T378 138T406 217L460 526H518L426
0H383L393 87H386Q355 48 322 27T256 -3T187 -12ZM191 591L320 723H377L459 591H401L330 704H363L253 591H191Z" />
<glyph unicode="&#xfc;" glyph-name="udieresis" horiz-adv-x="544" d="M187 -12Q145 -12 113 0T62 39T43 112Q43 124 44 136T48 161L112 526H170L106 162Q105 151 104 141T102 122Q102 88 116 71T154 47T209 40Q241 40 272 50T330 82T378 138T406 217L460 526H518L426
0H383L393 87H386Q355 48 322 27T256 -3T187 -12ZM211 645L225 720H296L282 645H211ZM391 645L405 720H476L462 645H391Z" />
<glyph unicode="&#xfd;" glyph-name="yacute" horiz-adv-x="482" d="M29 -182Q15 -182 -2 -181T-30 -178L-23 -133H20Q47 -133 71 -123T121 -84T175 6L69 526H128L182 240Q186 219 191 189T202 127T212 72H217Q226 89 236 111T257 157T278 201T296 238L442 526H504L233
4Q210 -40 190 -74T147 -133T96 -169T29 -182ZM260 591L373 723H450V720L317 591H260Z" />
<glyph unicode="&#xfe;" glyph-name="thorn" horiz-adv-x="536" d="M-5 -173L153 723H212L164 455H171Q192 480 218 499T275 528T338 538Q391 538 426 517T480 452T498 346Q498 321 496 296T489 244Q476 171 445 113T364 22T244 -12Q214 -12 187 -4T139 22T103
70H97L53 -173H-5ZM243 39Q299 39 336 66T397 141T430 247Q433 264 434 280T437 312T438 344Q438 395 426 426T388 472T323 487Q263 487 223 456T160 375T126 268Q124 252 122 237T119 207T118 177Q118 119 137 90T185 50T243 39Z" />
<glyph unicode="&#xff;" glyph-name="ydieresis" horiz-adv-x="482" d="M29 -182Q15 -182 -2 -181T-30 -178L-23 -133H20Q47 -133 71 -123T121 -84T175 6L69 526H128L182 240Q186 219 191 189T202 127T212 72H217Q226 89 236 111T257 157T278 201T296 238L442
526H504L233 4Q210 -40 190 -74T147 -133T96 -169T29 -182ZM179 645L193 720H264L250 645H179ZM359 645L373 720H444L430 645H359Z" />
<glyph unicode="&#x2013;" glyph-name="endash" horiz-adv-x="500" d="M-2 241L7 302H506L496 241H-2Z" />
<glyph unicode="&#x2014;" glyph-name="emdash" horiz-adv-x="1000" d="M-2 241L7 302H1006L996 241H-2Z" />
<glyph unicode="&#x2018;" glyph-name="quoteleft" horiz-adv-x="201" d="M225 686L218 654Q203 649 191 635T170 601T157 553H189L174 469H101L114 542Q124 600 144 630T187 672T225 686Z" />
<glyph unicode="&#x2019;" glyph-name="quoteright" horiz-adv-x="201" d="M87 469L94 501Q110 506 122 520T142 555T155 602H123L139 686H211L198 613Q188 557 168 527T126 485T87 469Z" />
<glyph unicode="&#x201a;" glyph-name="quotesinglbase" horiz-adv-x="202" d="M-19 -133L-12 -101Q4 -96 16 -82T36 -47T49 0H18L33 84H105L92 11Q82 -46 62 -75T20 -117T-19 -133Z" />
<glyph unicode="&#x201c;" glyph-name="quotedblleft" horiz-adv-x="315" d="M339 686L332 654Q317 649 305 635T284 601T271 553H303L287 469H215L228 542Q238 600 258 630T300 672T339 686ZM225 686L218 654Q203 649 191 635T170 601T157 553H189L174 469H101L114
542Q124 600 144 630T187 672T225 686Z" />
<glyph unicode="&#x201d;" glyph-name="quotedblright" horiz-adv-x="315" d="M87 469L94 501Q110 506 122 520T142 555T155 602H123L139 686H211L198 613Q188 557 168 527T126 485T87 469ZM201 469L208 501Q224 506 236 520T256 555T269 602H237L252 686H325L312
613Q302 557 282 527T240 485T201 469Z" />
<glyph unicode="&#x201e;" glyph-name="quotedblbase" horiz-adv-x="316" d="M-19 -133L-12 -101Q4 -96 16 -82T36 -47T49 0H18L33 84H105L92 11Q82 -46 62 -75T20 -117T-19 -133ZM95 -133L102 -101Q118 -96 130 -82T150 -47T163 0H131L147 84H219L206 11Q196
-46 176 -75T134 -117T95 -133Z" />
<glyph unicode="&#x2022;" glyph-name="bullet" horiz-adv-x="360" d="M175 228Q146 228 124 239T89 272T77 319Q77 360 94 391T143 441T214 459Q244 459 266 448T300 416T313 370Q313 328 295 296T246 246T175 228Z" />
<glyph unicode="&#x2039;" glyph-name="guilsinglleft" horiz-adv-x="353" d="M202 126L67 326L265 526H326L150 326L255 126H202Z" />
<glyph unicode="&#x203a;" glyph-name="guilsinglright" horiz-adv-x="353" d="M174 526L308 326L111 126H49L226 326L120 526H174Z" />
</font>
</defs>
</svg>
