<?xml version="1.0" standalone="no"?>
<!DOCTYPE svg PUBLIC "-//W3C//DTD SVG 1.1//EN" "http://www.w3.org/Graphics/SVG/1.1/DTD/svg11.dtd">
<svg xmlns="http://www.w3.org/2000/svg">
<defs >
<font id="Archivo" horiz-adv-x="577" ><font-face
    font-family="Archivo Light"
    units-per-em="1000"
    panose-1="0 0 0 0 0 0 0 0 0 0"
    ascent="878"
    descent="-210"
    alphabetic="0" />
<glyph unicode=" " glyph-name="space" horiz-adv-x="214" />
<glyph unicode="!" glyph-name="exclam" horiz-adv-x="264" d="M93 177L164 686H250L141 177H93ZM44 0L61 94H145L128 0H44Z" />
<glyph unicode="&quot;" glyph-name="quotedbl" horiz-adv-x="341" d="M98 412L105 539L131 686H208L182 539L145 412H98ZM247 412L254 539L279 686H356L331 539L294 412H247Z" />
<glyph unicode="#" glyph-name="numbersign" horiz-adv-x="581" d="M79 -12L123 185H37V249H137L175 416H82V480H189L239 698H308L258 480H418L467 698H537L487 480H569V416H473L436 249H524V185H422L378 -12H309L353 185H192L149 -12H79ZM206 249H367L404 416H244L206
249Z" />
<glyph unicode="$" glyph-name="dollar" horiz-adv-x="495" d="M166 -49L303 723H351L214 -49H166ZM220 68Q174 68 138 76T77 101T38 142T25 196Q25 207 27 219T32 242H103Q101 232 100 223T98 206Q98 178 113 161T158 136T227 128Q257 128 283 134T328 153T359
186T370 234Q370 255 358 269T324 294T278 312T224 329Q199 337 175 346T131 370T100 405T88 458Q88 499 104 529T150 579T217 608T297 618Q334 618 367 611T424 588T463 550T477 496Q477 484 475 474T471 456H401Q402 463 402 470T403 483Q403 512 389 528T349
550T294 557Q268 557 245 553T203 538T174 510T163 469Q163 443 179 429T220 407T276 387Q305 377 335 367T390 343T431 305T446 245Q446 203 430 170T385 114T314 80T220 68Z" />
<glyph unicode="%" glyph-name="percent" horiz-adv-x="943" d="M145 0L758 686H831L218 0H145ZM266 337Q203 337 168 363T132 455Q132 469 133 485T138 519Q150 587 171 625T226 681T304 698Q368 698 402 672T437 580Q437 566 436 551T431 516Q420 449 399 410T345
354T266 337ZM668 -12Q606 -12 570 14T534 106Q534 120 536 136T541 171Q553 238 574 276T628 332T706 349Q770 349 805 323T840 231Q840 217 839 201T833 165Q821 99 800 60T747 5T668 -12ZM263 389Q311 389 332 421T363 512Q366 526 367 537T370 558T371 576Q371
611 357 628T307 646Q261 646 240 614T207 523Q205 509 203 498T201 478T200 460Q200 425 214 407T263 389ZM665 40Q713 40 734 72T766 163Q769 177 770 188T772 209T773 227Q773 262 759 279T710 297Q664 297 642 265T609 173Q607 160 605 149T603 129T602 111Q602
76 616 58T665 40Z" />
<glyph unicode="&amp;" glyph-name="ampersand" horiz-adv-x="675" d="M267 -12Q196 -12 144 8T62 67T33 159Q33 216 56 255T115 319T188 352L189 356Q153 375 130 405T106 478Q106 532 127 573T185 642T273 684T381 698Q449 698 499 679T577 624T605 540Q605
534 605 522T601 496H529Q531 507 531 514T532 528Q532 566 512 589T458 624T381 635Q347 635 312 627T246 602T198 555T180 484Q180 449 198 426T247 391T315 379H374L363 319H306Q272 319 237 312T173 287T126 242T108 171Q108 129 128 103T184 64T270 51Q330
51 372 66T440 111T474 188L507 379H661L650 317H569L547 191Q535 124 500 79T406 11T267 -12Z" />
<glyph unicode="&apos;" glyph-name="quotesingle" horiz-adv-x="192" d="M98 412L105 539L131 686H208L182 539L145 412H98Z" />
<glyph unicode="(" glyph-name="parenleft" horiz-adv-x="354" d="M176 -157Q122 -85 94 1T65 181Q65 285 97 383T189 571T332 735H380Q330 678 287 614T211 480T159 333T140 175Q140 114 150 56T180 -57T223 -157H176Z" />
<glyph unicode=")" glyph-name="parenright" horiz-adv-x="354" d="M188 735Q242 663 270 577T299 397Q299 293 267 195T176 7T32 -157H-16Q34 -100 77 -36T154 98T205 245T224 403Q224 464 214 522T185 635T141 735H188Z" />
<glyph unicode="*" glyph-name="asterisk" horiz-adv-x="407" d="M185 334L220 474L100 395L77 451L206 510L99 570L141 626L233 546L247 686H311L274 546L396 626L418 570L288 510L396 451L355 395L262 474L248 334H185Z" />
<glyph unicode="+" glyph-name="plus" horiz-adv-x="620" d="M229 0L269 222H67L79 288H281L320 511H387L348 288H551L539 222H336L296 0H229Z" />
<glyph unicode="," glyph-name="comma" horiz-adv-x="266" d="M8 -139L16 -103Q34 -99 47 -85T70 -49T83 0H45L62 94H146L131 11Q124 -32 110 -60T79 -105T43 -129T8 -139Z" />
<glyph unicode="-" glyph-name="hyphen" horiz-adv-x="333" d="M35 232L48 310H301L287 232H35Z" />
<glyph unicode="." glyph-name="period" horiz-adv-x="266" d="M45 0L61 94H145L129 0H45Z" />
<glyph unicode="/" glyph-name="slash" horiz-adv-x="292" d="M-55 -49L310 735H375L10 -49H-55Z" />
<glyph unicode="0" glyph-name="zero" horiz-adv-x="572" d="M244 -12Q183 -12 138 8T68 74T43 201Q43 223 44 246T49 294T55 342Q68 426 92 491T152 603T239 674T355 698Q416 698 461 678T532 612T557 484Q557 463 555 440T551 392T544 344Q531 260 507 195T447
83T360 12T244 -12ZM247 52Q296 52 332 71T394 127T437 212T465 321Q470 346 473 368T478 411T481 451T482 487Q482 564 452 599T352 634Q304 634 268 614T205 558T162 473T134 365Q130 340 127 318T121 275T118 236T117 198Q117 122 147 87T247 52Z" />
<glyph unicode="1" glyph-name="one" horiz-adv-x="496" d="M-5 0L6 64H182L270 559H93L101 606Q136 608 167 613T226 628T282 652T335 689H366L256 64H424L412 0H-5Z" />
<glyph unicode="2" glyph-name="two" horiz-adv-x="563" d="M-3 0L3 27Q12 76 43 116T117 190T209 255T306 316T393 378T455 448T479 531Q479 579 446 606T348 634Q288 634 250 614T193 561T166 491L159 450H87Q90 505 109 550T162 629T246 680T358 698Q420 698
463 679T530 623T554 538Q554 481 531 436T469 353T383 284T287 223T198 166T129 106Q121 98 114 87T101 67H477L465 0H-3Z" />
<glyph unicode="3" glyph-name="three" horiz-adv-x="572" d="M245 -12Q174 -12 125 6T50 60T24 148Q24 159 25 171T29 199H101Q99 187 98 176T97 156Q97 100 135 75T241 49Q298 49 343 67T414 121T440 212Q440 252 418 275T360 308T284 318H205L216 379H298Q336
379 369 389T427 420T466 469T481 537Q481 572 464 593T418 624T350 634Q305 634 267 620T203 577T170 506L168 490H96L98 503Q106 566 143 609T235 675T356 698Q416 698 461 680T531 628T557 541Q557 492 538 456T484 395T410 355L409 351Q456 336 485 301T515
211Q515 142 480 92T383 15T245 -12Z" />
<glyph unicode="4" glyph-name="four" horiz-adv-x="545" d="M309 0L340 175H13L24 237Q80 312 127 386T214 537T286 698H366Q344 642 315 584T255 471T193 369T137 288T97 237H350L392 474Q400 488 407 504T422 537T437 568T449 596H486L423 237H516L506 175H413L381
0H309Z" />
<glyph unicode="5" glyph-name="five" horiz-adv-x="570" d="M245 -12Q180 -12 132 9T58 69T31 166Q31 177 32 188T35 213H108Q107 203 106 194T104 175Q104 133 122 105T172 63T246 49Q289 49 325 63T388 105T428 170T443 256Q443 319 411 350T318 382Q285 382
252 372T191 343T142 294L77 306L172 686H560L547 618H226L167 383Q186 400 211 414T268 436T337 445Q391 445 432 425T496 364T519 266Q519 182 484 120T388 23T245 -12Z" />
<glyph unicode="6" glyph-name="six" horiz-adv-x="572" d="M257 -12Q192 -12 144 8T70 75T44 200Q44 227 46 257T55 325Q80 464 122 545T226 662T364 698Q427 698 467 678T526 623T545 541Q545 528 544 515T540 487H466Q468 499 469 510T470 531Q470 585 441
609T357 634Q291 634 248 601T179 504T135 350Q159 383 191 403T260 433T334 443Q400 443 441 419T503 353T523 259Q523 199 503 149T446 63T361 8T257 -12ZM253 52Q300 52 337 69T400 115Q423 141 434 175T446 249Q446 284 433 313T390 361T314 380Q267 380 229
363T165 315Q142 290 130 255T118 179Q118 142 132 113T177 68T253 52Z" />
<glyph unicode="7" glyph-name="seven" horiz-adv-x="542" d="M94 0Q110 96 149 184T242 350T353 496T465 618H93L105 686H585L578 642Q531 598 482 545T385 432T298 308T228 178T187 45Q184 32 183 25T180 0H94Z" />
<glyph unicode="8" glyph-name="eight" horiz-adv-x="573" d="M244 -12Q170 -12 122 10T52 68T30 151Q30 199 47 238T99 306T181 352Q144 372 125 407T106 481Q106 528 124 567T175 636T254 682T352 698Q419 698 462 677T528 621T550 541Q550 499 534 462T489
397T419 352Q468 331 489 295T511 215Q511 147 479 96T388 17T244 -12ZM247 51Q274 51 298 55T344 69T381 91Q408 111 422 141T437 211Q437 261 402 290T294 320Q271 320 250 317T210 307T176 290Q142 270 123 237T104 159Q104 106 140 79T247 51ZM305 381Q330
381 352 386T394 400T428 423Q450 443 462 470T475 533Q475 584 441 609T348 635Q324 635 303 631T264 618T231 598Q207 578 194 549T181 481Q181 433 213 407T305 381Z" />
<glyph unicode="9" glyph-name="nine" horiz-adv-x="572" d="M230 -12Q168 -12 128 8T68 63T49 145Q49 158 50 172T54 199H128Q126 187 125 176T124 155Q124 102 153 77T237 52Q303 52 346 85T416 182T459 336Q435 303 403 283T334 253T260 243Q194 243 153 268T91
337T71 433Q71 492 91 540T147 624T231 679T337 698Q403 698 450 678T524 611T550 486Q550 459 548 429T539 361Q515 222 472 141T369 24T230 -12ZM280 306Q327 306 365 323T429 371Q452 397 464 432T476 507Q476 545 462 573T418 618T341 634Q295 634 257 617T194
571Q171 545 160 511T148 437Q148 402 161 373T204 325T280 306Z" />
<glyph unicode=":" glyph-name="colon" horiz-adv-x="277" d="M127 433L144 526H228L212 433H127ZM52 0L68 94H152L136 0H52Z" />
<glyph unicode=";" glyph-name="semicolon" horiz-adv-x="277" d="M14 -139L21 -103Q39 -99 52 -85T75 -49T89 0H50L67 94H151L137 11Q129 -32 115 -60T84 -105T48 -129T14 -139ZM126 433L142 526H226L210 433H126Z" />
<glyph unicode="&lt;" glyph-name="less" horiz-adv-x="620" d="M490 6L52 210L66 293L577 498L563 423L121 249L503 76L490 6Z" />
<glyph unicode="=" glyph-name="equal" horiz-adv-x="620" d="M84 327L96 392H571L559 327H84ZM48 117L59 182H534L522 117H48Z" />
<glyph unicode="&gt;" glyph-name="greater" horiz-adv-x="620" d="M39 6L52 81L494 255L113 427L126 498L564 293L549 210L39 6Z" />
<glyph unicode="?" glyph-name="question" horiz-adv-x="562" d="M230 170L240 231Q247 271 266 298T310 345T363 384T413 423T450 471T465 539Q465 560 457 581T424 618T354 633Q309 633 278 619T225 582T193 535T176 488Q175 481 175 475T174 464H102Q102 488
111 519T138 582T186 639T257 682T355 698Q410 698 446 685T504 649T534 600T543 547Q543 496 528 460T487 398T434 351T379 313T333 273T309 223L300 170H230ZM194 0L211 94H295L278 0H194Z" />
<glyph unicode="@" glyph-name="at" horiz-adv-x="1008" d="M455 -153Q343 -153 268 -127T146 -54T80 57T60 197Q60 284 76 354T122 480T197 577T298 645T423 685T568 698Q664 698 738 677T862 614T937 514T963 379Q963 332 953 282T923 186T871 102T796 44T695
22Q662 22 641 31T609 58T599 102L594 104Q564 63 524 43T441 23Q394 23 361 43T310 102T292 200Q292 222 294 245T300 290Q309 337 326 379T371 453T435 504T520 522Q549 522 573 515T616 491T647 449H653L677 511H732L712 399Q706 366 700 329T687 257T676 192T667
140T664 112Q664 98 673 89T708 79Q743 79 773 94T827 137T868 202T894 285T903 379Q903 462 866 522T755 614T568 646Q488 646 419 630T295 579T200 492T140 368T119 204Q119 138 135 82T190 -15T294 -78T455 -101Q484 -101 511 -100T562 -95T605 -89T637 -83L626
-139Q610 -141 585 -144T528 -150T455 -153ZM459 84Q489 84 513 95T555 126T588 169Q600 191 608 213T622 259T630 305T632 345Q632 392 617 417T577 451T528 461Q501 461 480 453T441 429T410 392Q399 373 390 351T375 303T366 253T363 202Q363 141 387 113T459
84Z" />
<glyph unicode="A" glyph-name="A" horiz-adv-x="669" d="M-26 0L360 686H459L604 0H524L487 185H159L57 0H-26ZM198 253H472L426 481Q424 495 421 511T413 546T406 582T400 614H395Q385 594 371 569T345 519T324 480L198 253Z" />
<glyph unicode="B" glyph-name="B" horiz-adv-x="695" d="M45 0L166 686H493Q550 686 591 669T654 621T676 544Q676 501 659 463T611 399T536 360V356Q578 343 607 310T636 217Q636 145 607 97T523 24T398 0H45ZM136 68H406Q455 68 489 85T540 135T558 216Q558
265 529 291T443 318H180L136 68ZM192 386H447Q479 386 506 396T553 425T583 469T594 524Q594 571 567 594T495 618H232L192 386Z" />
<glyph unicode="C" glyph-name="C" horiz-adv-x="732" d="M341 -12Q205 -12 133 55T60 255Q60 284 62 311T69 363Q88 467 139 541T269 657T452 698Q534 698 594 677T686 611T719 497Q719 484 718 470T714 441H633Q636 454 637 466T638 490Q638 538 615 569T549
615T446 630Q385 630 335 610T247 553T185 465T150 350Q148 337 146 325T143 302T142 280T141 257Q141 186 165 142T235 77T342 56Q415 56 468 76T556 138T603 245H679Q665 157 618 100T500 16T341 -12Z" />
<glyph unicode="D" glyph-name="D" horiz-adv-x="737" d="M45 0L166 686H407Q549 686 627 624T705 427Q705 399 703 372T696 319Q678 216 626 145T493 37T304 0H45ZM136 68H299Q369 68 424 86T519 138T583 222T617 336Q619 351 620 365T622 394T623 421Q623 494
597 537T521 599T399 618H233L136 68Z" />
<glyph unicode="E" glyph-name="E" horiz-adv-x="679" d="M46 0L166 686H691L679 618H233L192 386H595L582 317H180L136 68H589L577 0H46Z" />
<glyph unicode="F" glyph-name="F" horiz-adv-x="614" d="M46 0L166 686H649L637 618H233L191 381H560L548 313H180L124 0H46Z" />
<glyph unicode="G" glyph-name="G" horiz-adv-x="797" d="M353 -12Q207 -12 133 55T59 256Q59 280 61 306T69 360Q88 468 141 543T277 658T468 698Q533 698 585 686T673 650T729 590T748 504Q748 492 747 479T744 452H663Q665 461 666 472T667 491Q667 529 653
555T612 598T549 622T469 630Q410 630 357 615T262 566T192 481T151 357Q148 338 146 323T143 296T142 273T141 251Q141 182 166 139T239 76T353 56Q439 56 496 81T587 154T632 265L636 290H384L395 357H727L664 0H609V92Q578 56 537 33T448 -1T353 -12Z" />
<glyph unicode="H" glyph-name="H" horiz-adv-x="737" d="M46 0L166 686H245L191 385H590L643 686H722L602 0H523L578 316H180L124 0H46Z" />
<glyph unicode="I" glyph-name="I" horiz-adv-x="260" d="M45 0L166 686H245L124 0H45Z" />
<glyph unicode="J" glyph-name="J" horiz-adv-x="547" d="M211 -12Q119 -12 70 27T20 143Q20 153 21 167T29 210H108Q101 180 100 168T99 148Q99 104 127 80T207 56Q273 56 317 97T375 221L457 686H536L456 228Q441 146 408 93T325 14T211 -12Z" />
<glyph unicode="K" glyph-name="K" horiz-adv-x="646" d="M46 0L166 686H245L178 308L608 686H713L405 416L604 0H517L345 363L160 206L124 0H46Z" />
<glyph unicode="L" glyph-name="L" horiz-adv-x="520" d="M45 0L165 686H243L135 69H475L463 0H45Z" />
<glyph unicode="M" glyph-name="M" horiz-adv-x="849" d="M46 0L166 686H282L378 211Q382 194 384 176T389 139T392 104H398Q406 121 414 139T432 176T449 211L711 686H833L713 0H634L715 458Q719 482 724 508T733 556T740 591H732Q726 575 719 560T704 530T690
503L410 0H345L243 500Q239 521 237 544T232 591H225Q222 574 219 550T211 501T203 458L123 0H46Z" />
<glyph unicode="N" glyph-name="N" horiz-adv-x="737" d="M46 0L166 686H243L505 213Q511 203 518 189T533 159T546 132L551 133Q553 151 556 171T562 211L645 686H722L602 0H533L269 474Q261 489 247 516T224 561H218Q216 542 213 519T206 478L123 0H46Z" />
<glyph unicode="O" glyph-name="O" horiz-adv-x="791" d="M352 -12Q260 -12 195 18T95 109T60 256Q60 283 62 308T68 357Q87 460 139 536T274 655T467 698Q560 698 625 668T725 577T760 430Q760 405 758 380T751 331Q734 228 682 151T546 31T352 -12ZM356 56Q425
56 478 77T571 135T635 225T671 340Q673 353 674 364T677 386T678 407T679 428Q679 499 653 543T578 609T462 630Q395 630 341 610T248 551T184 461T148 346Q146 334 145 323T142 300T141 279T140 259Q140 188 166 144T241 78T356 56Z" />
<glyph unicode="P" glyph-name="P" horiz-adv-x="663" d="M46 0L166 686H486Q552 686 594 665T656 607T677 520Q677 464 660 418T610 339T534 289T437 272H172L124 0H46ZM184 340H433Q482 340 519 361T576 420T597 512Q597 562 569 590T481 618H233L184 340Z" />
<glyph unicode="Q" glyph-name="Q" horiz-adv-x="791" d="M518 -130L417 -7Q402 -10 386 -11T352 -12Q260 -12 195 18T95 109T60 256Q60 283 62 308T68 357Q87 460 139 536T274 655T467 698Q560 698 625 668T725 577T760 430Q760 405 758 380T751 331Q730 214
666 131T498 11L618 -130H518ZM356 56Q425 56 478 77T571 135T635 225T671 340Q673 353 674 364T677 386T678 407T679 428Q679 499 653 543T578 609T462 630Q395 630 341 610T248 551T184 461T148 346Q146 334 145 323T142 300T141 279T140 259Q140 188 166 144T241
78T356 56Z" />
<glyph unicode="R" glyph-name="R" horiz-adv-x="732" d="M45 0L166 686H513Q576 686 617 667T678 613T698 533Q698 465 675 418T616 341T534 296L631 0H547L456 282H173L124 0H45ZM186 350H451Q496 350 533 371T594 430T617 522Q617 567 590 592T506 618H233L186 350Z" />
<glyph unicode="S" glyph-name="S" horiz-adv-x="675" d="M305 -11Q247 -11 198 -3T111 25T54 76T33 152Q33 167 35 183T42 216H118Q114 202 112 189T110 162Q110 122 135 99T203 67T301 57Q351 57 391 66T460 92T504 134T520 191Q520 221 505 241T463 276T403
302T334 324Q295 336 257 350T186 384T136 435T117 508Q117 558 139 593T200 652T289 686T395 697Q451 697 496 687T575 658T627 609T645 540Q645 529 644 517T639 491H561Q564 503 565 512T566 529Q566 581 522 605T392 630Q338 630 294 617T223 580T197 518Q197
493 209 475T242 443T291 418T350 398Q392 385 436 371T518 335T578 283T601 204Q601 147 578 107T513 40T418 2T305 -11Z" />
<glyph unicode="T" glyph-name="T" horiz-adv-x="599" d="M214 0L322 617H79L91 686H657L646 617H401L292 0H214Z" />
<glyph unicode="U" glyph-name="U" horiz-adv-x="735" d="M326 -12Q212 -12 148 36T83 190Q83 206 85 227T91 270L165 686H244L167 254Q164 242 163 224T161 194Q161 122 204 89T329 56Q424 56 486 103T564 246L642 686H721L646 262Q628 165 586 104T479 16T326 -12Z" />
<glyph unicode="V" glyph-name="V" horiz-adv-x="637" d="M225 0L92 686H171L261 220Q265 200 269 175T277 125T283 82H289Q299 103 313 129T340 181T361 222L609 686H695L322 0H225Z" />
<glyph unicode="W" glyph-name="W" horiz-adv-x="909" d="M174 0L89 686H167L222 213Q224 201 226 179T231 134T236 92H244Q251 111 259 134T276 179T288 213L477 686H579L626 213Q627 201 629 179T632 134T636 92H643Q650 110 659 133T676 178T691 213L891 686H971L672
0H573L526 473Q524 488 523 510T521 555T519 596H512Q505 579 497 556T480 510T466 473L274 0H174Z" />
<glyph unicode="X" glyph-name="X" horiz-adv-x="677" d="M-34 0L309 361L111 686H201L362 421H366L612 686H710L404 358L620 0H529L351 296H347L67 0H-34Z" />
<glyph unicode="Y" glyph-name="Y" horiz-adv-x="645" d="M238 0L288 287L85 686H167L335 356H340L621 686H711L367 287L316 0H238Z" />
<glyph unicode="Z" glyph-name="Z" horiz-adv-x="636" d="M-18 0L-10 43L524 618H116L128 686H659L652 644L115 68H559L547 0H-18Z" />
<glyph unicode="[" glyph-name="bracketleft" horiz-adv-x="275" d="M10 -161L168 735H347L337 680H225L87 -106H199L190 -161H10Z" />
<glyph unicode="\" glyph-name="backslash" horiz-adv-x="292" d="M178 -49L83 735H142L237 -49H178Z" />
<glyph unicode="]" glyph-name="bracketright" horiz-adv-x="275" d="M273 735L116 -161H-63L-53 -106H59L197 680H84L94 735H273Z" />
<glyph unicode="^" glyph-name="asciicircum" horiz-adv-x="620" d="M112 294L345 686H422L518 294H450L374 619L183 294H112Z" />
<glyph unicode="_" glyph-name="underscore" horiz-adv-x="475" d="M-68 -125L-58 -65H417L406 -125H-68Z" />
<glyph unicode="`" glyph-name="grave" horiz-adv-x="167" d="M163 591L81 720L82 723H161L225 591H163Z" />
<glyph unicode="a" glyph-name="a" horiz-adv-x="549" d="M201 -12Q148 -12 110 8T52 71T31 177Q31 197 33 219T39 267Q55 362 88 422T171 510T283 538Q319 538 347 529T397 501T432 452H438L464 526H521L500 405Q495 375 488 335T473 252T459 173T449 110T445
76Q445 64 452 58T472 51H514L507 5Q497 0 481 -5T446 -11Q417 -11 402 3T382 42Q381 50 381 59T381 78L375 80Q342 33 297 11T201 -12ZM223 51Q248 51 274 60T326 92T371 154T401 254Q405 276 407 292T410 322T411 345Q411 388 399 416T360 460T293 475Q251 475
216 456T156 394T117 275Q112 249 110 232T107 201T106 176Q106 111 135 81T223 51Z" />
<glyph unicode="b" glyph-name="b" horiz-adv-x="555" d="M266 -12Q209 -12 170 9T109 77H102L81 0H24L151 723H223L177 458H184Q206 487 233 505T290 530T348 538Q402 538 441 518T500 456T521 349Q521 330 519 308T512 260Q496 164 462 104T379 16T266 -12ZM256
51Q299 51 334 70T396 133T435 251Q439 277 441 295T445 326T446 350Q446 394 433 421T393 461T326 475Q301 475 273 467T220 436T175 374T144 272Q140 250 138 234T135 205T134 181Q134 139 147 110T187 66T256 51Z" />
<glyph unicode="c" glyph-name="c" horiz-adv-x="505" d="M232 -12Q168 -12 124 8T58 72T35 184Q35 207 38 232T46 283Q57 344 78 391T132 471T207 521T306 538Q370 538 410 520T469 468T488 389Q488 376 487 362T482 332H411Q413 345 414 357T415 380Q415 413
404 434T369 466T305 477Q262 477 225 457T160 393T120 277Q116 253 114 236T111 206T110 182Q110 136 124 107T165 63T231 49Q280 49 312 67T362 117T388 194H458Q449 136 423 89T350 15T232 -12Z" />
<glyph unicode="d" glyph-name="d" horiz-adv-x="555" d="M211 -12Q155 -12 116 8T57 71T37 177Q37 199 38 223T45 276Q57 344 79 393T132 474T203 522T288 538Q322 538 351 530T403 505T440 458H446L493 723H565L438 0H382L387 77H380Q346 32 303 10T211 -12ZM225
51Q275 51 312 74T375 141T411 250Q414 272 416 288T420 316T421 339Q421 394 404 423T360 464T305 475Q256 475 219 455T158 392T121 280Q117 253 115 235T112 203T111 178Q111 110 141 81T225 51Z" />
<glyph unicode="e" glyph-name="e" horiz-adv-x="541" d="M238 -12Q170 -12 125 10T58 75T36 183Q36 210 39 237T47 289Q62 362 94 418T180 506T314 538Q381 538 423 515T487 450T508 349Q508 326 505 299T494 244H116Q113 228 112 214T111 185Q111 137 125 107T169
63T242 49Q269 49 294 56T341 78T380 117T408 177H478Q466 129 444 94T391 35T321 0T238 -12ZM127 301H431Q433 317 434 330T436 357Q436 396 423 423T382 463T311 477Q264 477 227 457T165 398T127 301Z" />
<glyph unicode="f" glyph-name="f" horiz-adv-x="268" d="M-18 -182Q-31 -182 -43 -181T-64 -177T-82 -172L-73 -122H-21Q5 -122 20 -109T39 -71L133 465H56L66 526H144L160 615Q165 643 176 669T214 713T290 731Q303 731 314 730T336 727T354 721L344 671H292Q266
671 252 658T232 620L216 526H319L309 465H205L111 -69Q107 -97 95 -123T58 -165T-18 -182Z" />
<glyph unicode="g" glyph-name="g" horiz-adv-x="540" d="M176 -182Q128 -182 89 -169T28 -129T5 -62Q5 -56 5 -47T9 -25H79Q78 -31 78 -36T77 -46Q77 -73 91 -89T129 -113T183 -121Q235 -121 272 -104T333 -50T367 40Q369 52 371 63T374 85H367Q345 57 319 39T263
13T203 5Q149 5 111 25T53 86T32 191Q32 210 34 230T40 275Q64 414 127 476T284 538Q340 538 379 516T439 449H446L467 526H523L440 50Q426 -32 394 -83T308 -158T176 -182ZM227 68Q252 68 279 77T332 107T376 167T405 262Q409 284 411 299T414 327T415 349Q415
391 402 418T363 460T294 475Q253 475 218 458T156 398T118 284Q113 259 111 242T108 213T107 191Q107 148 120 121T160 81T227 68Z" />
<glyph unicode="h" glyph-name="h" horiz-adv-x="553" d="M24 0L151 723H223L177 457H184Q210 486 238 504T299 530T365 538Q407 538 439 526T491 485T510 412Q510 399 509 385T504 356L442 0H370L432 354Q434 365 435 375T436 395Q436 427 424 444T389 467T337
474Q308 474 277 463T220 430T175 374T148 296L96 0H24Z" />
<glyph unicode="i" glyph-name="i" horiz-adv-x="213" d="M134 634L150 723H222L206 634H134ZM24 0L117 526H189L96 0H24Z" />
<glyph unicode="j" glyph-name="j" horiz-adv-x="210" d="M132 634L148 723H220L205 634H132ZM-33 -182Q-44 -182 -56 -181T-79 -177T-97 -172L-88 -122H-46Q-22 -122 -8 -110T10 -73L116 526H188L82 -73Q78 -101 66 -126T30 -166T-33 -182Z" />
<glyph unicode="k" glyph-name="k" horiz-adv-x="500" d="M24 0L151 723H223L142 259L425 526H515L299 321L432 0H354L244 273L127 169L96 0H24Z" />
<glyph unicode="l" glyph-name="l" horiz-adv-x="213" d="M24 0L151 723H223L96 0H24Z" />
<glyph unicode="m" glyph-name="m" horiz-adv-x="859" d="M24 0L116 526H172L164 443H171Q199 479 229 499T290 529T356 538Q407 538 442 516T487 443H494Q523 479 553 499T614 529T680 538Q740 538 778 509T816 412Q816 400 815 387T811 359L747 0H676L738 355Q740
367 741 377T742 396Q742 427 730 444T697 468T650 474Q613 474 576 454T512 395T474 298L422 0H350L412 355Q414 367 415 377T417 396Q417 427 405 444T372 468T325 474Q287 474 251 455T187 396T149 298L96 0H24Z" />
<glyph unicode="n" glyph-name="n" horiz-adv-x="553" d="M24 0L116 526H172L164 443H171Q200 479 232 499T297 529T365 538Q407 538 439 526T491 485T510 412Q510 399 509 385T504 356L442 0H370L432 354Q434 365 435 376T436 395Q436 427 424 444T389 467T337
474Q308 474 278 463T221 430T176 374T148 296L96 0H24Z" />
<glyph unicode="o" glyph-name="o" horiz-adv-x="556" d="M238 -12Q172 -12 127 9T58 73T34 184Q34 204 36 225T43 271Q59 364 95 423T187 510T317 538Q384 538 429 517T498 452T521 340Q521 321 520 300T513 255Q497 163 461 104T369 17T238 -12ZM240 49Q292
49 331 70T397 135T435 251Q440 275 442 292T445 321T446 343Q446 389 431 418T386 462T315 477Q263 477 224 456T159 390T120 275Q116 251 114 234T110 205T109 182Q109 136 124 107T168 64T240 49Z" />
<glyph unicode="p" glyph-name="p" horiz-adv-x="555" d="M-7 -173L116 526H172L167 449H174Q209 494 252 516T344 538Q400 538 439 518T498 456T518 349Q518 327 517 303T510 250Q494 160 460 102T376 16T267 -12Q233 -12 204 -4T151 22T114 68H108L65 -173H-7ZM250
51Q299 51 335 71T396 134T433 246Q438 273 440 291T443 323T444 348Q444 394 430 421T391 462T330 475Q281 475 243 452T180 385T143 276Q140 254 138 238T134 210T133 187Q133 132 150 103T194 62T250 51Z" />
<glyph unicode="q" glyph-name="q" horiz-adv-x="555" d="M335 -173L378 68H371Q350 39 323 21T265 -4T207 -12Q154 -12 115 8T54 71T33 177Q33 197 35 219T42 267Q60 362 93 422T176 510T289 538Q346 538 386 517T446 449H453L474 526H530L407 -173H335ZM230
51Q255 51 282 59T335 90T380 152T411 254Q414 276 416 292T419 322T420 345Q420 388 408 416T369 460T300 475Q257 475 221 456T159 394T120 275Q116 249 113 232T109 201T108 176Q108 111 139 81T230 51Z" />
<glyph unicode="r" glyph-name="r" horiz-adv-x="317" d="M24 0L117 526H171L164 440H169Q181 461 199 483T243 522T307 538Q323 538 335 536T352 531L341 465H308Q275 465 248 452T201 416T168 363T148 296L96 0H24Z" />
<glyph unicode="s" glyph-name="s" horiz-adv-x="495" d="M206 -12Q160 -12 124 -4T63 21T24 62T11 116Q11 128 13 140T18 162H89Q87 152 86 143T84 127Q84 98 99 81T144 56T213 48Q243 48 269 54T314 74T345 107T356 154Q356 176 344 190T310 214T264 232T210
249Q185 258 161 267T117 290T86 325T74 378Q74 419 90 449T136 499T203 528T283 538Q320 538 353 531T410 509T449 470T463 416Q463 405 461 394T457 376H387Q388 384 388 390T389 403Q389 432 375 448T335 471T280 478Q254 478 231 473T189 458T160 430T149 389Q149
363 165 350T206 328T262 308Q291 297 321 287T376 263T417 225T432 166Q432 123 416 90T371 34T300 0T206 -12Z" />
<glyph unicode="t" glyph-name="t" horiz-adv-x="289" d="M142 -11Q110 -11 92 -2T67 24T59 62Q59 68 60 75T62 90L127 465H57L68 526H138L178 672H235L209 526H312L301 465H199L136 108Q135 101 134 92T132 79Q132 64 140 57T168 49H229L220 3Q210 -1 196 -4T168
-9T142 -11Z" />
<glyph unicode="u" glyph-name="u" horiz-adv-x="553" d="M188 -12Q146 -12 113 0T61 41T42 114Q42 127 43 141T48 170L110 526H183L121 172Q119 161 118 151T116 131Q116 99 128 82T164 58T215 52Q246 52 275 62T331 94T376 147T402 223L456 526H528L436 0H380L388
83H382Q353 48 321 27T256 -3T188 -12Z" />
<glyph unicode="v" glyph-name="v" horiz-adv-x="493" d="M165 0L67 526H140L189 251Q193 231 197 202T206 142T213 87H218Q229 111 243 141T272 201T297 251L443 526H519L235 0H165Z" />
<glyph unicode="w" glyph-name="w" horiz-adv-x="707" d="M130 0L64 526H137L166 250Q169 232 171 204T175 148T179 97H184Q193 120 204 148T226 203T245 250L361 526H438L458 250Q460 230 461 203T463 147T466 97H471Q480 118 492 146T516 202T537 250L662 526H735L484
0H414L392 288Q391 306 390 331T387 382T385 430H380Q372 410 362 383T342 331T324 288L201 0H130Z" />
<glyph unicode="x" glyph-name="x" horiz-adv-x="498" d="M-32 0L206 270L67 526H148L255 323H261L434 526H518L292 268L435 0H355L245 213H239L53 0H-32Z" />
<glyph unicode="y" glyph-name="y" horiz-adv-x="493" d="M36 -182Q16 -182 -2 -180T-29 -176L-20 -122H25Q52 -122 75 -113T123 -76T173 5L66 526H138L191 250Q196 229 201 199T211 139T220 84H225Q233 101 243 123T263 167T283 210T301 246L442 526H518L250
9Q228 -35 207 -70T161 -130T106 -168T36 -182Z" />
<glyph unicode="z" glyph-name="z" horiz-adv-x="492" d="M-12 0L-5 43L368 465H92L103 526H487L479 485L104 61H424L412 0H-12Z" />
<glyph unicode="{" glyph-name="braceleft" horiz-adv-x="333" d="M217 -159Q182 -159 151 -151T100 -121T81 -62Q81 -51 85 -24T96 39T109 107T119 166T124 197Q124 228 103 237T51 246L65 328Q98 328 124 339T158 386L198 611Q207 661 233 687T295 724T374 735L366
686Q350 686 330 681T293 663T270 626L220 396Q213 363 202 340T168 304T108 292L106 282Q150 282 167 264T184 211Q184 200 181 171T173 105T163 32T154 -29T150 -59Q150 -79 161 -90T189 -106T225 -110L217 -159Z" />
<glyph unicode="|" glyph-name="bar" horiz-adv-x="246" d="M93 -179V723H156V-179H93Z" />
<glyph unicode="}" glyph-name="braceright" horiz-adv-x="334" d="M125 735Q161 735 192 727T242 697T262 638Q262 627 258 600T247 537T234 469T223 410T218 379Q218 349 239 340T291 330L277 248Q245 248 218 237T185 190L144 -35Q136 -84 110 -111T47 -148T-32
-159L-24 -110Q-8 -110 13 -105T50 -87T72 -50L122 180Q129 214 140 237T174 272T234 284L236 294Q192 294 175 312T158 365Q158 376 161 405T169 471T180 544T188 605T192 635Q192 656 181 667T153 682T117 686L125 735Z" />
<glyph unicode="~" glyph-name="asciitilde" horiz-adv-x="620" d="M33 221L46 295Q46 295 57 306T89 331T139 357T204 368Q233 368 257 359T304 338T352 316T405 307Q437 307 465 318T516 343T550 369T563 380L550 305Q550 305 539 294T508 269T458 244T393 233Q365
233 340 242T292 263T245 284T191 293Q159 293 131 282T80 257T46 232T33 221Z" />
<glyph unicode="&#xa0;" glyph-name="uni00A0" horiz-adv-x="214" />
<glyph unicode="&#xa1;" glyph-name="exclamdown" horiz-adv-x="264" d="M16 -160L125 349H173L102 -160H16ZM121 432L137 526H222L205 432H121Z" />
<glyph unicode="&#xa2;" glyph-name="cent" horiz-adv-x="576" d="M202 -49L339 723H388L251 -49H202ZM272 66Q208 66 164 86T98 151T75 262Q75 285 77 310T85 361Q97 422 118 469T172 549T247 599T345 616Q409 616 449 598T508 547T527 467Q527 454 526 440T522
411H450Q452 424 453 436T455 459Q455 491 444 512T408 544T345 555Q301 555 264 535T199 471T160 355Q155 331 153 314T150 284T149 260Q149 214 163 185T205 142T270 128Q320 128 351 145T401 195T428 272H497Q489 214 463 168T390 94T272 66Z" />
<glyph unicode="&#xa3;" glyph-name="sterling" horiz-adv-x="563" d="M3 0L14 66H93L136 308H43L53 373H147L172 515Q184 578 214 618T291 678T392 698Q444 698 482 683T542 636T564 558Q564 546 563 534T558 499H486Q489 513 490 522T491 536T492 546Q492 578
479 597T443 627T391 637Q356 637 325 624T274 586T245 519L219 373H387L376 308H208L157 66H484L473 0H3Z" />
<glyph unicode="&#xa4;" glyph-name="currency" horiz-adv-x="564" d="M91 99L48 142L102 197Q75 229 63 268T50 350Q50 391 62 431T102 502L47 556L91 600L147 544Q179 571 217 584T297 597Q339 597 378 584T447 544L503 600L547 556L492 502Q520 472 532 432T544
350Q544 308 532 269T492 197L547 142L504 99L448 156Q418 128 379 115T297 101Q256 101 217 114T146 156L91 99ZM297 159Q349 159 391 185T459 254T485 350Q485 401 460 444T391 513T297 539Q246 539 204 513T135 444T109 350Q109 298 135 255T203 185T297 159Z"
/>
<glyph unicode="&#xa5;" glyph-name="yen" horiz-adv-x="557" d="M194 0L223 163H23L33 220H233L246 291H46L55 348H233Q223 369 211 394T195 430L85 686H165L256 460Q260 452 266 435T280 399T294 364H298Q310 380 323 398T349 434T369 460L538 686H622L422 427Q413
415 393 391T357 348H531L521 291H322L309 220H508L498 163H299L270 0H194Z" />
<glyph unicode="&#xa6;" glyph-name="brokenbar" horiz-adv-x="246" d="M93 353V723H156V353H93ZM93 -179V191H156V-179H93Z" />
<glyph unicode="&#xa7;" glyph-name="section" horiz-adv-x="563" d="M206 -182Q152 -182 114 -173T53 -146T18 -107T7 -59Q7 -48 9 -37T14 -18H91Q90 -23 89 -31T87 -46Q87 -65 97 -82T136 -110T216 -121Q263 -121 299 -108T355 -69T376 -10Q376 17 358 35T311
65T247 89T177 112T112 141T65 183T47 246Q47 274 56 298T81 344T121 383T171 413Q143 430 126 455T109 516Q109 553 120 581T152 632T204 668T272 690T356 698Q409 698 447 689T508 662T543 623T555 575Q555 565 553 554T548 534H471Q473 539 474 547T475 562Q475
581 465 598T426 626T346 637Q300 637 264 624T207 585T186 526Q186 499 204 481T251 450T316 426T385 403T449 374T497 331T515 268Q515 240 506 216T480 170T441 132T391 103Q419 86 436 62T453 1Q453 -36 442 -64T410 -115T358 -152T290 -174T206 -182ZM337
130Q356 139 379 156T419 197T436 250Q436 282 417 302T366 335T297 360T225 385Q206 377 183 360T143 320T125 266Q125 234 144 214T196 180T265 155T337 130Z" />
<glyph unicode="&#xa8;" glyph-name="dieresis" horiz-adv-x="265" d="M66 638L81 720H160L145 638H66ZM251 638L266 720H345L330 638H251Z" />
<glyph unicode="&#xa9;" glyph-name="copyright" horiz-adv-x="746" d="M388 -12Q311 -12 246 14T134 88T60 201T33 343Q33 420 59 485T133 597T246 671T388 698Q465 698 530 672T642 598T716 485T743 343Q743 266 717 201T643 89T530 15T388 -12ZM384 131Q334
131 296 151T238 218T217 342Q217 419 237 465T295 532T384 553Q429 553 464 538T519 486T540 389H487Q487 434 474 460T438 496T384 507Q332 507 301 471T269 352V332Q269 278 283 244T323 193T384 177Q414 177 438 188T475 225T489 294H540Q540 238 520 202T465
149T384 131ZM388 29Q478 29 548 69T659 181T699 343Q699 434 659 504T549 615T388 656Q297 656 227 616T116 505T76 343Q76 252 116 181T226 70T388 29Z" />
<glyph unicode="&#xaa;" glyph-name="ordfeminine" horiz-adv-x="379" d="M179 329Q128 329 100 362T72 461Q72 478 73 495T78 529Q87 576 106 614T158 675T236 698Q266 698 289 686T326 643H330L346 690H390L376 604Q372 583 367 557T358 503T349 452T342 412T340
391Q340 381 344 378T359 375H384L379 340Q368 335 358 332T336 329Q312 329 301 339T287 365Q287 371 288 377T290 390H286Q265 359 237 344T179 329ZM192 378Q224 378 245 394T280 437T300 493Q305 510 309 530T313 569Q313 602 303 619T276 643T243 650Q196
650 170 614T133 524Q130 507 129 492T128 461Q128 418 143 398T192 378Z" />
<glyph unicode="&#xab;" glyph-name="guillemotleft" horiz-adv-x="540" d="M196 126L68 326L258 526H329L158 326L258 126H196ZM382 126L254 326L444 526H515L344 326L444 126H382Z" />
<glyph unicode="&#xac;" glyph-name="logicalnot" horiz-adv-x="620" d="M444 199L475 374H77L89 438H554L511 199H444Z" />
<glyph unicode="&#xad;" glyph-name="uni00AD" horiz-adv-x="333" d="M35 232L48 310H301L287 232H35Z" />
<glyph unicode="&#xae;" glyph-name="registered" horiz-adv-x="746" d="M388 -12Q311 -12 246 14T134 88T60 201T33 343Q33 420 59 485T133 597T246 671T388 698Q465 698 530 672T642 598T716 485T743 343Q743 266 717 201T643 89T530 15T388 -12ZM388 29Q478
29 548 69T659 181T699 343Q699 434 659 504T549 615T388 656Q297 656 227 616T116 505T76 343Q76 252 116 181T226 70T388 29ZM252 136V548H428Q490 548 521 516T552 425Q552 384 534 353T479 307L566 136H509L428 298H304V136H252ZM304 344H429Q460 344 479 365T498
426Q498 462 480 482T429 502H304V344Z" />
<glyph unicode="&#xaf;" glyph-name="overscore" horiz-adv-x="298" d="M68 644L77 700H374L365 644H68Z" />
<glyph unicode="&#xb0;" glyph-name="degree" horiz-adv-x="400" d="M255 442Q220 442 191 459T144 505T126 570Q126 606 143 635T190 681T255 698Q291 698 320 681T366 635T383 570Q383 535 366 506T320 459T255 442ZM255 485Q290 485 314 510T338 570Q338 604
314 629T255 654Q221 654 196 629T170 570Q170 536 195 511T255 485Z" />
<glyph unicode="&#xb1;" glyph-name="plusminus" horiz-adv-x="620" d="M213 120L253 342H50L61 407H264L303 631H370L330 407H533L522 342H319L280 120H213ZM-10 0L2 65H473L462 0H-10Z" />
<glyph unicode="&#xb2;" glyph-name="uni00B2" horiz-adv-x="341" d="M73 440L77 461Q83 490 102 512T148 553T205 589T259 623T301 661T318 705Q318 726 303 738T259 750Q231 750 214 741T187 717T174 685L169 660H118Q118 668 119 675T121 689Q128 728 149 751T201
786T264 797Q298 797 322 787T360 758T373 711Q373 681 361 658T329 616T284 581T233 551T185 522T147 490H336L328 440H73Z" />
<glyph unicode="&#xb3;" glyph-name="uni00B3" horiz-adv-x="341" d="M210 428Q149 428 118 450T86 512Q86 517 86 525T90 547H142Q140 535 140 531T139 523Q139 500 156 488T205 475Q231 475 251 482T284 506T297 547Q297 565 287 574T261 588T225 592H178L186
639H232Q252 639 271 645T304 667T318 706Q318 729 301 739T259 750Q240 750 222 744T192 724T176 691L175 679H120L122 693Q127 724 146 747T195 784T258 797Q313 797 343 776T373 712Q373 689 364 672T341 642T310 621V616Q330 606 341 589T352 546Q352 508 333
482T282 442T210 428Z" />
<glyph unicode="&#xb4;" glyph-name="acute" horiz-adv-x="177" d="M58 591L169 723H258V720L125 591H58Z" />
<glyph unicode="&#xb5;" glyph-name="uni00B5" horiz-adv-x="558" d="M-7 -177L117 526H189L127 172Q126 161 124 151T122 131Q122 99 134 82T170 58T221 52Q251 52 281 62T337 94T381 147T408 223L461 526H534L441 0H386L393 83H387Q359 48 327 27T262 -3T194
-12Q163 -12 139 -5T97 16Q96 2 94 -12T89 -40L65 -177H-7Z" />
<glyph unicode="&#xb6;" glyph-name="paragraph" horiz-adv-x="554" d="M173 -171L247 250Q201 255 165 278T107 339T86 428Q86 493 107 541T166 622T250 670T349 686H581L572 633H507L365 -171H306L448 633H375L233 -171H173Z" />
<glyph unicode="&#xb7;" glyph-name="middot" horiz-adv-x="333" d="M130 308L147 405H236L219 308H130Z" />
<glyph unicode="&#xb8;" glyph-name="cedilla" horiz-adv-x="199" d="M10 -173Q-11 -173 -35 -171T-76 -165L-69 -130H22Q49 -130 61 -121T73 -96Q73 -87 65 -82T38 -76H-16L17 11H68L51 -41Q87 -41 111 -51T135 -90Q135 -114 125 -130T98 -155T59 -169T10 -173Z" />
<glyph unicode="&#xb9;" glyph-name="uni00B9" horiz-adv-x="341" d="M87 440L96 489H187L227 714H136L142 752Q165 753 186 757T228 770T267 793H295L241 489H324L316 440H87Z" />
<glyph unicode="&#xba;" glyph-name="ordmasculine" horiz-adv-x="373" d="M203 329Q140 329 107 362T73 460Q73 476 74 493T79 527Q88 578 110 616T170 676T258 698Q321 698 354 666T388 568Q388 550 387 535T383 505Q374 454 351 414T291 352T203 329ZM207 377Q260
377 289 414T328 508Q330 518 331 527T332 547T333 567Q333 613 312 631T253 650Q201 650 172 613T133 520Q132 511 131 501T129 481T128 460Q128 415 149 396T207 377Z" />
<glyph unicode="&#xbb;" glyph-name="guillemotright" horiz-adv-x="540" d="M366 526L494 326L304 126H233L404 326L304 526H366ZM180 526L308 326L118 126H47L218 326L118 526H180Z" />
<glyph unicode="&#xbc;" glyph-name="onequarter" horiz-adv-x="841" d="M74 -12L745 698H813L142 -12H74ZM69 340L78 389H169L209 614H118L124 652Q147 653 168 657T210 670T249 693H277L223 389H306L298 340H69ZM634 0L648 81H481L489 123Q530 177 563 234T623
356H680Q666 322 648 288T611 222T576 167T547 128H656L675 233Q680 244 685 254T696 276T706 298H739L709 128H757L749 81H701L686 0H634Z" />
<glyph unicode="&#xbd;" glyph-name="onehalf" horiz-adv-x="841" d="M74 -12L745 698H813L142 -12H74ZM69 340L78 389H169L209 614H118L124 652Q147 653 168 657T210 670T249 693H277L223 389H306L298 340H69ZM472 0L476 21Q481 50 500 72T547 113T604 149T658
183T700 221T716 265Q716 286 701 298T658 310Q630 310 612 301T585 277T573 245L568 220H517Q517 228 518 235T520 249Q527 288 548 311T599 346T663 357Q697 357 721 347T759 318T772 271Q772 241 760 218T728 176T682 141T632 111T584 82T546 50H735L726 0H472Z"
/>
<glyph unicode="&#xbe;" glyph-name="threequarters" horiz-adv-x="841" d="M74 -12L745 698H813L142 -12H74ZM192 328Q131 328 100 350T68 412Q68 417 68 425T72 447H124Q122 435 122 431T121 423Q121 400 138 388T187 375Q213 375 233 382T266 406T279 447Q279
465 269 474T243 488T207 492H160L168 539H214Q234 539 253 545T286 567T300 606Q300 629 283 639T241 650Q222 650 204 644T174 624T158 591L157 579H102L104 593Q109 624 128 647T177 684T240 697Q295 697 325 676T355 612Q355 589 346 572T323 542T292 521V516Q312
506 323 489T334 446Q334 409 315 382T264 342T192 328ZM634 0L648 81H481L489 123Q530 177 563 234T623 356H680Q666 322 648 288T611 222T576 167T547 128H656L675 233Q680 244 685 254T696 276T706 298H739L709 128H757L749 81H701L686 0H634Z" />
<glyph unicode="&#xbf;" glyph-name="questiondown" horiz-adv-x="632" d="M252 -172Q197 -172 161 -159T103 -123T73 -74T64 -21Q64 30 79 66T120 129T173 175T228 213T274 253T297 303L307 356H377L367 295Q360 256 341 229T297 181T244 142T194 103T157 55T142
-13Q142 -33 150 -55T183 -92T253 -107Q298 -107 329 -93T382 -56T415 -9T431 38Q432 45 432 51T433 62H505Q505 38 496 7T469 -56T421 -113T350 -156T252 -172ZM312 432L329 526H413L396 432H312Z" />
<glyph unicode="&#xc0;" glyph-name="Agrave" horiz-adv-x="669" d="M-26 0L360 686H459L604 0H524L487 185H159L57 0H-26ZM198 253H472L426 481Q424 495 421 511T413 546T406 582T400 614H395Q385 594 371 569T345 519T324 480L198 253ZM397 736L308 865L309
868H395L462 736H397Z" />
<glyph unicode="&#xc1;" glyph-name="Aacute" horiz-adv-x="669" d="M-26 0L360 686H459L604 0H524L487 185H159L57 0H-26ZM198 253H472L426 481Q424 495 421 511T413 546T406 582T400 614H395Q385 594 371 569T345 519T324 480L198 253ZM382 736L495 868H585V865L451
736H382Z" />
<glyph unicode="&#xc2;" glyph-name="Acircumflex" horiz-adv-x="669" d="M-26 0L360 686H459L604 0H524L487 185H159L57 0H-26ZM198 253H472L426 481Q424 495 421 511T413 546T406 582T400 614H395Q385 594 371 569T345 519T324 480L198 253ZM272 736L401 868H476L558
736H487L418 847H456L347 736H272Z" />
<glyph unicode="&#xc3;" glyph-name="Atilde" horiz-adv-x="669" d="M-26 0L360 686H459L604 0H524L487 185H159L57 0H-26ZM198 253H472L426 481Q424 495 421 511T413 546T406 582T400 614H395Q385 594 371 569T345 519T324 480L198 253ZM271 773Q277 798 289
818T322 851T370 863Q396 863 419 855T463 839T507 830Q523 830 532 839T546 863H597Q592 838 579 818T545 785T497 773Q473 773 450 782T405 799T361 807Q344 807 335 798T321 773H271Z" />
<glyph unicode="&#xc4;" glyph-name="Adieresis" horiz-adv-x="669" d="M-26 0L360 686H459L604 0H524L487 185H159L57 0H-26ZM198 253H472L426 481Q424 495 421 511T413 546T406 582T400 614H395Q385 594 371 569T345 519T324 480L198 253ZM299 781L315 868H392L376
781H299ZM479 781L495 868H571L555 781H479Z" />
<glyph unicode="&#xc5;" glyph-name="Aring" horiz-adv-x="669" d="M-26 0L360 686H459L604 0H524L487 185H159L57 0H-26ZM198 253H472L426 481Q424 495 421 511T413 546T406 582T400 614H395Q385 594 371 569T345 519T324 480L198 253ZM421 730Q385 730 361 752T336
807Q336 837 351 860T391 897T450 911Q487 911 511 890T535 835Q535 805 520 782T480 744T421 730ZM429 776Q445 776 457 783T477 802T485 829Q485 845 473 855T442 866Q427 866 415 859T395 840T387 812Q387 797 399 787T429 776Z" />
<glyph unicode="&#xc6;" glyph-name="AE" horiz-adv-x="1000" d="M-41 0L423 686H1013L1001 618H532L552 386H916L904 317H558L579 68H910L898 0H509L493 185H168L44 0H-41ZM213 253H488L466 510Q466 520 465 533T462 561T460 589T458 615H453Q443 599 431 579T406
541T385 510L213 253Z" />
<glyph unicode="&#xc7;" glyph-name="Ccedilla" horiz-adv-x="732" d="M341 -12Q205 -12 133 55T60 255Q60 284 62 311T69 363Q88 467 139 541T269 657T452 698Q534 698 594 677T686 611T719 497Q719 484 718 470T714 441H633Q636 454 637 466T638 490Q638 538
615 569T549 615T446 630Q385 630 335 610T247 553T185 465T150 350Q148 337 146 325T143 302T142 280T141 257Q141 186 165 142T235 77T342 56Q415 56 468 76T556 138T603 245H679Q665 157 618 100T500 16T341 -12ZM307 -173Q285 -173 262 -171T221 -165L227 -130H319Q345
-130 357 -121T370 -96Q370 -87 362 -82T335 -76H281L314 11H364L348 -41Q383 -41 407 -51T431 -90Q431 -114 422 -130T395 -155T356 -169T307 -173Z" />
<glyph unicode="&#xc8;" glyph-name="Egrave" horiz-adv-x="679" d="M46 0L166 686H691L679 618H233L192 386H595L582 317H180L136 68H589L577 0H46ZM409 736L320 865L321 868H407L475 736H409Z" />
<glyph unicode="&#xc9;" glyph-name="Eacute" horiz-adv-x="679" d="M46 0L166 686H691L679 618H233L192 386H595L582 317H180L136 68H589L577 0H46ZM394 736L507 868H598V865L463 736H394Z" />
<glyph unicode="&#xca;" glyph-name="Ecircumflex" horiz-adv-x="679" d="M46 0L166 686H691L679 618H233L192 386H595L582 317H180L136 68H589L577 0H46ZM284 736L414 868H488L570 736H500L430 847H469L359 736H284Z" />
<glyph unicode="&#xcb;" glyph-name="Edieresis" horiz-adv-x="679" d="M46 0L166 686H691L679 618H233L192 386H595L582 317H180L136 68H589L577 0H46ZM312 781L327 868H404L389 781H312ZM491 781L507 868H583L568 781H491Z" />
<glyph unicode="&#xcc;" glyph-name="Igrave" horiz-adv-x="260" d="M45 0L166 686H245L124 0H45ZM192 736L102 865L103 868H190L257 736H192Z" />
<glyph unicode="&#xcd;" glyph-name="Iacute" horiz-adv-x="260" d="M45 0L166 686H245L124 0H45ZM177 736L290 868H380V865L246 736H177Z" />
<glyph unicode="&#xce;" glyph-name="Icircumflex" horiz-adv-x="260" d="M45 0L166 686H245L124 0H45ZM67 736L196 868H271L353 736H282L213 847H251L142 736H67Z" />
<glyph unicode="&#xcf;" glyph-name="Idieresis" horiz-adv-x="260" d="M45 0L166 686H245L124 0H45ZM94 781L110 868H187L171 781H94ZM274 781L290 868H366L350 781H274Z" />
<glyph unicode="&#xd0;" glyph-name="Eth" horiz-adv-x="737" d="M9 316L21 380H397L386 316H9ZM45 0L166 686H407Q549 686 627 624T705 427Q705 399 703 372T696 319Q678 216 626 145T493 37T304 0H45ZM136 68H299Q369 68 424 86T519 138T583 222T617 336Q619
351 620 365T622 394T623 421Q623 494 597 537T521 599T399 618H233L136 68Z" />
<glyph unicode="&#xd1;" glyph-name="Ntilde" horiz-adv-x="737" d="M46 0L166 686H243L505 213Q511 203 518 189T533 159T546 132L551 133Q553 151 556 171T562 211L645 686H722L602 0H533L269 474Q261 489 247 516T224 561H218Q216 542 213 519T206 478L123
0H46ZM309 773Q315 798 327 818T360 851T407 863Q433 863 456 855T501 839T545 830Q560 830 569 839T584 863H635Q630 838 617 818T583 785T535 773Q510 773 487 782T443 799T399 807Q382 807 373 798T359 773H309Z" />
<glyph unicode="&#xd2;" glyph-name="Ograve" horiz-adv-x="791" d="M352 -12Q260 -12 195 18T95 109T60 256Q60 283 62 308T68 357Q87 460 139 536T274 655T467 698Q560 698 625 668T725 577T760 430Q760 405 758 380T751 331Q734 228 682 151T546 31T352 -12ZM356
56Q425 56 478 77T571 135T635 225T671 340Q673 353 674 364T677 386T678 407T679 428Q679 499 653 543T578 609T462 630Q395 630 341 610T248 551T184 461T148 346Q146 334 145 323T142 300T141 279T140 259Q140 188 166 144T241 78T356 56ZM455 736L366 865L367
868H453L521 736H455Z" />
<glyph unicode="&#xd3;" glyph-name="Oacute" horiz-adv-x="791" d="M352 -12Q260 -12 195 18T95 109T60 256Q60 283 62 308T68 357Q87 460 139 536T274 655T467 698Q560 698 625 668T725 577T760 430Q760 405 758 380T751 331Q734 228 682 151T546 31T352 -12ZM356
56Q425 56 478 77T571 135T635 225T671 340Q673 353 674 364T677 386T678 407T679 428Q679 499 653 543T578 609T462 630Q395 630 341 610T248 551T184 461T148 346Q146 334 145 323T142 300T141 279T140 259Q140 188 166 144T241 78T356 56ZM440 736L553 868H644V865L509
736H440Z" />
<glyph unicode="&#xd4;" glyph-name="Ocircumflex" horiz-adv-x="791" d="M352 -12Q260 -12 195 18T95 109T60 256Q60 283 62 308T68 357Q87 460 139 536T274 655T467 698Q560 698 625 668T725 577T760 430Q760 405 758 380T751 331Q734 228 682 151T546 31T352
-12ZM356 56Q425 56 478 77T571 135T635 225T671 340Q673 353 674 364T677 386T678 407T679 428Q679 499 653 543T578 609T462 630Q395 630 341 610T248 551T184 461T148 346Q146 334 145 323T142 300T141 279T140 259Q140 188 166 144T241 78T356 56ZM330 736L460
868H534L616 736H546L476 847H515L405 736H330Z" />
<glyph unicode="&#xd5;" glyph-name="Otilde" horiz-adv-x="791" d="M352 -12Q260 -12 195 18T95 109T60 256Q60 283 62 308T68 357Q87 460 139 536T274 655T467 698Q560 698 625 668T725 577T760 430Q760 405 758 380T751 331Q734 228 682 151T546 31T352 -12ZM356
56Q425 56 478 77T571 135T635 225T671 340Q673 353 674 364T677 386T678 407T679 428Q679 499 653 543T578 609T462 630Q395 630 341 610T248 551T184 461T148 346Q146 334 145 323T142 300T141 279T140 259Q140 188 166 144T241 78T356 56ZM330 773Q336 798 348
818T380 851T428 863Q454 863 477 855T522 839T565 830Q581 830 590 839T604 863H656Q651 838 638 818T604 785T555 773Q531 773 508 782T464 799T420 807Q403 807 394 798T379 773H330Z" />
<glyph unicode="&#xd6;" glyph-name="Odieresis" horiz-adv-x="791" d="M352 -12Q260 -12 195 18T95 109T60 256Q60 283 62 308T68 357Q87 460 139 536T274 655T467 698Q560 698 625 668T725 577T760 430Q760 405 758 380T751 331Q734 228 682 151T546 31T352
-12ZM356 56Q425 56 478 77T571 135T635 225T671 340Q673 353 674 364T677 386T678 407T679 428Q679 499 653 543T578 609T462 630Q395 630 341 610T248 551T184 461T148 346Q146 334 145 323T142 300T141 279T140 259Q140 188 166 144T241 78T356 56ZM358 781L373
868H450L435 781H358ZM537 781L553 868H629L614 781H537Z" />
<glyph unicode="&#xd7;" glyph-name="multiply" horiz-adv-x="620" d="M116 50L75 100L263 257L141 404L193 449L314 302L501 461L542 411L354 252L475 106L424 61L303 208L116 50Z" />
<glyph unicode="&#xd8;" glyph-name="Oslash" horiz-adv-x="791" d="M352 -12Q260 -12 195 18T95 109T60 256Q60 283 62 308T68 357Q87 460 139 536T274 655T467 698Q560 698 625 668T725 577T760 430Q760 405 758 380T751 331Q734 228 682 151T546 31T352 -12ZM356
56Q425 56 478 77T571 135T635 225T671 340Q673 353 674 364T677 386T678 407T679 428Q679 499 653 543T578 609T462 630Q395 630 341 610T248 551T184 461T148 346Q146 334 145 323T142 300T141 279T140 259Q140 188 166 144T241 78T356 56ZM8 -49L736 735H810L82
-49H8Z" />
<glyph unicode="&#xd9;" glyph-name="Ugrave" horiz-adv-x="735" d="M326 -12Q212 -12 148 36T83 190Q83 206 85 227T91 270L165 686H244L167 254Q164 242 163 224T161 194Q161 122 204 89T329 56Q424 56 486 103T564 246L642 686H721L646 262Q628 165 586 104T479
16T326 -12ZM432 736L343 865L344 868H430L497 736H432Z" />
<glyph unicode="&#xda;" glyph-name="Uacute" horiz-adv-x="735" d="M326 -12Q212 -12 148 36T83 190Q83 206 85 227T91 270L165 686H244L167 254Q164 242 163 224T161 194Q161 122 204 89T329 56Q424 56 486 103T564 246L642 686H721L646 262Q628 165 586 104T479
16T326 -12ZM417 736L530 868H620V865L486 736H417Z" />
<glyph unicode="&#xdb;" glyph-name="Ucircumflex" horiz-adv-x="735" d="M326 -12Q212 -12 148 36T83 190Q83 206 85 227T91 270L165 686H244L167 254Q164 242 163 224T161 194Q161 122 204 89T329 56Q424 56 486 103T564 246L642 686H721L646 262Q628 165 586
104T479 16T326 -12ZM307 736L437 868H511L593 736H523L453 847H492L382 736H307Z" />
<glyph unicode="&#xdc;" glyph-name="Udieresis" horiz-adv-x="735" d="M326 -12Q212 -12 148 36T83 190Q83 206 85 227T91 270L165 686H244L167 254Q164 242 163 224T161 194Q161 122 204 89T329 56Q424 56 486 103T564 246L642 686H721L646 262Q628 165 586
104T479 16T326 -12ZM335 781L350 868H427L412 781H335ZM514 781L530 868H606L591 781H514Z" />
<glyph unicode="&#xdd;" glyph-name="Yacute" horiz-adv-x="645" d="M238 0L288 287L85 686H167L335 356H340L621 686H711L367 287L316 0H238ZM371 736L484 868H574V865L440 736H371Z" />
<glyph unicode="&#xde;" glyph-name="Thorn" horiz-adv-x="674" d="M45 0L166 686H245L224 568H468Q534 568 576 548T638 490T659 403Q659 346 642 300T593 222T517 172T421 154H151L124 0H45ZM162 222H414Q464 222 500 243T557 302T578 394Q578 444 550 472T463
500H212L162 222Z" />
<glyph unicode="&#xdf;" glyph-name="germandbls" horiz-adv-x="616" d="M24 0L116 518Q125 571 147 611T202 679T279 721T376 735Q428 735 467 724T533 693T572 644T585 580Q585 535 566 498T513 434T431 395V391Q488 376 519 337T551 234Q551 175 531 131T475
58T394 15T301 0H194L205 62H302Q354 62 393 84T454 145T476 234Q476 275 461 301T417 341T355 354H256L268 417H354Q392 417 427 437T485 491T508 567Q508 615 476 644T379 674Q329 674 289 657T224 605T188 518L97 0H24Z" />
<glyph unicode="&#xe0;" glyph-name="agrave" horiz-adv-x="549" d="M201 -12Q148 -12 110 8T52 71T31 177Q31 197 33 219T39 267Q55 362 88 422T171 510T283 538Q319 538 347 529T397 501T432 452H438L464 526H521L500 405Q495 375 488 335T473 252T459 173T449
110T445 76Q445 64 452 58T472 51H514L507 5Q497 0 481 -5T446 -11Q417 -11 402 3T382 42Q381 50 381 59T381 78L375 80Q342 33 297 11T201 -12ZM223 51Q248 51 274 60T326 92T371 154T401 254Q405 276 407 292T410 322T411 345Q411 388 399 416T360 460T293 475Q251
475 216 456T156 394T117 275Q112 249 110 232T107 201T106 176Q106 111 135 81T223 51ZM285 591L203 720L204 723H283L347 591H285Z" />
<glyph unicode="&#xe1;" glyph-name="aacute" horiz-adv-x="549" d="M201 -12Q148 -12 110 8T52 71T31 177Q31 197 33 219T39 267Q55 362 88 422T171 510T283 538Q319 538 347 529T397 501T432 452H438L464 526H521L500 405Q495 375 488 335T473 252T459 173T449
110T445 76Q445 64 452 58T472 51H514L507 5Q497 0 481 -5T446 -11Q417 -11 402 3T382 42Q381 50 381 59T381 78L375 80Q342 33 297 11T201 -12ZM223 51Q248 51 274 60T326 92T371 154T401 254Q405 276 407 292T410 322T411 345Q411 388 399 416T360 460T293 475Q251
475 216 456T156 394T117 275Q112 249 110 232T107 201T106 176Q106 111 135 81T223 51ZM275 591L386 723H474V720L342 591H275Z" />
<glyph unicode="&#xe2;" glyph-name="acircumflex" horiz-adv-x="549" d="M201 -12Q148 -12 110 8T52 71T31 177Q31 197 33 219T39 267Q55 362 88 422T171 510T283 538Q319 538 347 529T397 501T432 452H438L464 526H521L500 405Q495 375 488 335T473 252T459
173T449 110T445 76Q445 64 452 58T472 51H514L507 5Q497 0 481 -5T446 -11Q417 -11 402 3T382 42Q381 50 381 59T381 78L375 80Q342 33 297 11T201 -12ZM223 51Q248 51 274 60T326 92T371 154T401 254Q405 276 407 292T410 322T411 345Q411 388 399 416T360 460T293
475Q251 475 216 456T156 394T117 275Q112 249 110 232T107 201T106 176Q106 111 135 81T223 51ZM173 591L302 723H371L453 591H385L316 702H354L245 591H173Z" />
<glyph unicode="&#xe3;" glyph-name="atilde" horiz-adv-x="549" d="M201 -12Q148 -12 110 8T52 71T31 177Q31 197 33 219T39 267Q55 362 88 422T171 510T283 538Q319 538 347 529T397 501T432 452H438L464 526H521L500 405Q495 375 488 335T473 252T459 173T449
110T445 76Q445 64 452 58T472 51H514L507 5Q497 0 481 -5T446 -11Q417 -11 402 3T382 42Q381 50 381 59T381 78L375 80Q342 33 297 11T201 -12ZM223 51Q248 51 274 60T326 92T371 154T401 254Q405 276 407 292T410 322T411 345Q411 388 399 416T360 460T293 475Q251
475 216 456T156 394T117 275Q112 249 110 232T107 201T106 176Q106 111 135 81T223 51ZM162 629Q168 654 180 674T213 707T260 719Q286 719 309 711T354 694T398 685Q414 685 423 695T437 719H488Q483 694 470 674T436 641T388 629Q363 629 340 637T296 654T252
663Q235 663 226 654T212 629H162Z" />
<glyph unicode="&#xe4;" glyph-name="adieresis" horiz-adv-x="549" d="M201 -12Q148 -12 110 8T52 71T31 177Q31 197 33 219T39 267Q55 362 88 422T171 510T283 538Q319 538 347 529T397 501T432 452H438L464 526H521L500 405Q495 375 488 335T473 252T459 173T449
110T445 76Q445 64 452 58T472 51H514L507 5Q497 0 481 -5T446 -11Q417 -11 402 3T382 42Q381 50 381 59T381 78L375 80Q342 33 297 11T201 -12ZM223 51Q248 51 274 60T326 92T371 154T401 254Q405 276 407 292T410 322T411 345Q411 388 399 416T360 460T293 475Q251
475 216 456T156 394T117 275Q112 249 110 232T107 201T106 176Q106 111 135 81T223 51ZM192 638L207 720H286L271 638H192ZM377 638L392 720H471L456 638H377Z" />
<glyph unicode="&#xe5;" glyph-name="aring" horiz-adv-x="549" d="M201 -12Q148 -12 110 8T52 71T31 177Q31 197 33 219T39 267Q55 362 88 422T171 510T283 538Q319 538 347 529T397 501T432 452H438L464 526H521L500 405Q495 375 488 335T473 252T459 173T449
110T445 76Q445 64 452 58T472 51H514L507 5Q497 0 481 -5T446 -11Q417 -11 402 3T382 42Q381 50 381 59T381 78L375 80Q342 33 297 11T201 -12ZM223 51Q248 51 274 60T326 92T371 154T401 254Q405 276 407 292T410 322T411 345Q411 388 399 416T360 460T293 475Q251
475 216 456T156 394T117 275Q112 249 110 232T107 201T106 176Q106 111 135 81T223 51ZM317 580Q282 580 260 601T237 656Q237 703 266 732T343 761Q376 761 398 740T420 686Q420 655 407 631T371 594T317 580ZM322 620Q339 620 351 628T370 649T377 680Q377 699
367 710T337 722Q320 722 307 714T287 693T280 661Q280 643 292 632T322 620Z" />
<glyph unicode="&#xe6;" glyph-name="ae" horiz-adv-x="893" d="M166 -12Q135 -12 106 -6T54 15T18 53T4 112Q4 161 25 195T83 251T171 284T280 299T403 303L414 368Q415 375 416 385T418 402Q418 436 391 456T295 476Q244 476 213 464T167 432T146 385L143 370H74Q74
372 74 378T76 389Q87 439 117 472T196 521T307 538Q376 538 420 517T478 456Q512 497 560 517T669 538Q731 538 773 518T838 457T860 359Q860 338 857 308T846 245H467Q463 226 462 210T460 179Q460 132 475 104T519 62T590 48Q627 48 656 58T707 85T741 127T760
177H830Q823 138 805 104T756 43T683 3T586 -12Q513 -12 468 15T402 98Q367 54 326 30T243 -3T166 -12ZM176 49Q211 49 245 59T308 89T358 136T384 197L392 245Q305 245 235 236T124 200T83 118Q83 95 94 80T127 57T176 49ZM477 302H782Q785 318 786 331T787 356Q787
401 772 427T730 465T663 477Q615 477 578 459T516 402T477 302Z" />
<glyph unicode="&#xe7;" glyph-name="ccedilla" horiz-adv-x="505" d="M232 -12Q168 -12 124 8T58 72T35 184Q35 207 38 232T46 283Q57 344 78 391T132 471T207 521T306 538Q370 538 410 520T469 468T488 389Q488 376 487 362T482 332H411Q413 345 414 357T415
380Q415 413 404 434T369 466T305 477Q262 477 225 457T160 393T120 277Q116 253 114 236T111 206T110 182Q110 136 124 107T165 63T231 49Q280 49 312 67T362 117T388 194H458Q449 136 423 89T350 15T232 -12ZM184 -173Q163 -173 139 -171T98 -165L105 -130H196Q223
-130 235 -121T247 -96Q247 -87 239 -82T212 -76H158L191 11H242L225 -41Q261 -41 285 -51T309 -90Q309 -114 299 -130T272 -155T233 -169T184 -173Z" />
<glyph unicode="&#xe8;" glyph-name="egrave" horiz-adv-x="541" d="M238 -12Q170 -12 125 10T58 75T36 183Q36 210 39 237T47 289Q62 362 94 418T180 506T314 538Q381 538 423 515T487 450T508 349Q508 326 505 299T494 244H116Q113 228 112 214T111 185Q111
137 125 107T169 63T242 49Q269 49 294 56T341 78T380 117T408 177H478Q466 129 444 94T391 35T321 0T238 -12ZM127 301H431Q433 317 434 330T436 357Q436 396 423 423T382 463T311 477Q264 477 227 457T165 398T127 301ZM300 591L218 720L219 723H298L362 591H300Z"
/>
<glyph unicode="&#xe9;" glyph-name="eacute" horiz-adv-x="541" d="M238 -12Q170 -12 125 10T58 75T36 183Q36 210 39 237T47 289Q62 362 94 418T180 506T314 538Q381 538 423 515T487 450T508 349Q508 326 505 299T494 244H116Q113 228 112 214T111 185Q111
137 125 107T169 63T242 49Q269 49 294 56T341 78T380 117T408 177H478Q466 129 444 94T391 35T321 0T238 -12ZM127 301H431Q433 317 434 330T436 357Q436 396 423 423T382 463T311 477Q264 477 227 457T165 398T127 301ZM290 591L401 723H490V720L357 591H290Z"
/>
<glyph unicode="&#xea;" glyph-name="ecircumflex" horiz-adv-x="541" d="M238 -12Q170 -12 125 10T58 75T36 183Q36 210 39 237T47 289Q62 362 94 418T180 506T314 538Q381 538 423 515T487 450T508 349Q508 326 505 299T494 244H116Q113 228 112 214T111 185Q111
137 125 107T169 63T242 49Q269 49 294 56T341 78T380 117T408 177H478Q466 129 444 94T391 35T321 0T238 -12ZM127 301H431Q433 317 434 330T436 357Q436 396 423 423T382 463T311 477Q264 477 227 457T165 398T127 301ZM188 591L317 723H387L468 591H401L331
702H369L261 591H188Z" />
<glyph unicode="&#xeb;" glyph-name="edieresis" horiz-adv-x="541" d="M238 -12Q170 -12 125 10T58 75T36 183Q36 210 39 237T47 289Q62 362 94 418T180 506T314 538Q381 538 423 515T487 450T508 349Q508 326 505 299T494 244H116Q113 228 112 214T111 185Q111
137 125 107T169 63T242 49Q269 49 294 56T341 78T380 117T408 177H478Q466 129 444 94T391 35T321 0T238 -12ZM127 301H431Q433 317 434 330T436 357Q436 396 423 423T382 463T311 477Q264 477 227 457T165 398T127 301ZM207 638L222 720H301L286 638H207ZM392
638L407 720H486L471 638H392Z" />
<glyph unicode="&#xec;" glyph-name="igrave" horiz-adv-x="213" d="M24 0L117 526H189L96 0H24ZM133 591L51 720L52 723H131L195 591H133Z" />
<glyph unicode="&#xed;" glyph-name="iacute" horiz-adv-x="213" d="M24 0L117 526H189L96 0H24ZM123 591L234 723H323V720L190 591H123Z" />
<glyph unicode="&#xee;" glyph-name="icircumflex" horiz-adv-x="213" d="M24 0L117 526H189L96 0H24ZM21 591L150 723H220L301 591H234L164 702H202L94 591H21Z" />
<glyph unicode="&#xef;" glyph-name="idieresis" horiz-adv-x="213" d="M24 0L117 526H189L96 0H24ZM40 638L55 720H134L119 638H40ZM225 638L240 720H319L304 638H225Z" />
<glyph unicode="&#xf0;" glyph-name="eth" horiz-adv-x="545" d="M230 -12Q168 -12 125 9T60 74T37 183Q37 244 49 297T86 392Q101 425 122 451T170 496T230 525T301 536Q326 536 348 531T390 517L394 518Q380 547 364 573T327 622L184 611L193 662L286 669Q270
685 255 696T228 719L229 723H318Q329 714 342 702T370 675L512 686L503 635L411 628Q450 574 479 502T508 346Q508 304 503 265T485 190Q467 132 435 86T352 14T230 -12ZM238 49Q281 49 313 65T368 112T405 181Q413 199 418 218T427 257T433 298T435 340Q435 390
420 419T376 461T307 474Q265 474 234 458T180 414T143 348Q132 323 125 296T115 241T111 183Q111 135 126 106T169 63T238 49Z" />
<glyph unicode="&#xf1;" glyph-name="ntilde" horiz-adv-x="553" d="M24 0L116 526H172L164 443H171Q200 479 232 499T297 529T365 538Q407 538 439 526T491 485T510 412Q510 399 509 385T504 356L442 0H370L432 354Q434 365 435 376T436 395Q436 427 424 444T389
467T337 474Q308 474 278 463T221 430T176 374T148 296L96 0H24ZM192 629Q198 654 210 674T243 707T291 719Q317 719 340 711T385 694T428 685Q444 685 453 695T467 719H519Q513 694 500 674T466 641T418 629Q394 629 371 637T326 654T283 663Q266 663 257 654T242
629H192Z" />
<glyph unicode="&#xf2;" glyph-name="ograve" horiz-adv-x="556" d="M238 -12Q172 -12 127 9T58 73T34 184Q34 204 36 225T43 271Q59 364 95 423T187 510T317 538Q384 538 429 517T498 452T521 340Q521 321 520 300T513 255Q497 163 461 104T369 17T238 -12ZM240
49Q292 49 331 70T397 135T435 251Q440 275 442 292T445 321T446 343Q446 389 431 418T386 462T315 477Q263 477 224 456T159 390T120 275Q116 251 114 234T110 205T109 182Q109 136 124 107T168 64T240 49ZM305 591L223 720L224 723H303L367 591H305Z" />
<glyph unicode="&#xf3;" glyph-name="oacute" horiz-adv-x="556" d="M238 -12Q172 -12 127 9T58 73T34 184Q34 204 36 225T43 271Q59 364 95 423T187 510T317 538Q384 538 429 517T498 452T521 340Q521 321 520 300T513 255Q497 163 461 104T369 17T238 -12ZM240
49Q292 49 331 70T397 135T435 251Q440 275 442 292T445 321T446 343Q446 389 431 418T386 462T315 477Q263 477 224 456T159 390T120 275Q116 251 114 234T110 205T109 182Q109 136 124 107T168 64T240 49ZM295 591L406 723H495V720L363 591H295Z" />
<glyph unicode="&#xf4;" glyph-name="ocircumflex" horiz-adv-x="556" d="M238 -12Q172 -12 127 9T58 73T34 184Q34 204 36 225T43 271Q59 364 95 423T187 510T317 538Q384 538 429 517T498 452T521 340Q521 321 520 300T513 255Q497 163 461 104T369 17T238 -12ZM240
49Q292 49 331 70T397 135T435 251Q440 275 442 292T445 321T446 343Q446 389 431 418T386 462T315 477Q263 477 224 456T159 390T120 275Q116 251 114 234T110 205T109 182Q109 136 124 107T168 64T240 49ZM193 591L323 723H392L474 591H406L336 702H375L266 591H193Z"
/>
<glyph unicode="&#xf5;" glyph-name="otilde" horiz-adv-x="556" d="M238 -12Q172 -12 127 9T58 73T34 184Q34 204 36 225T43 271Q59 364 95 423T187 510T317 538Q384 538 429 517T498 452T521 340Q521 321 520 300T513 255Q497 163 461 104T369 17T238 -12ZM240
49Q292 49 331 70T397 135T435 251Q440 275 442 292T445 321T446 343Q446 389 431 418T386 462T315 477Q263 477 224 456T159 390T120 275Q116 251 114 234T110 205T109 182Q109 136 124 107T168 64T240 49ZM183 629Q189 654 201 674T233 707T281 719Q307 719 330
711T375 694T418 685Q434 685 443 695T457 719H509Q504 694 491 674T457 641T408 629Q384 629 361 637T317 654T273 663Q256 663 247 654T232 629H183Z" />
<glyph unicode="&#xf6;" glyph-name="odieresis" horiz-adv-x="556" d="M238 -12Q172 -12 127 9T58 73T34 184Q34 204 36 225T43 271Q59 364 95 423T187 510T317 538Q384 538 429 517T498 452T521 340Q521 321 520 300T513 255Q497 163 461 104T369 17T238 -12ZM240
49Q292 49 331 70T397 135T435 251Q440 275 442 292T445 321T446 343Q446 389 431 418T386 462T315 477Q263 477 224 456T159 390T120 275Q116 251 114 234T110 205T109 182Q109 136 124 107T168 64T240 49ZM212 638L227 720H306L291 638H212ZM397 638L412 720H491L476
638H397Z" />
<glyph unicode="&#xf7;" glyph-name="divide" horiz-adv-x="620" d="M67 222L78 288H551L539 222H67ZM229 34L243 116H324L310 34H229ZM292 395L306 476H387L373 395H292Z" />
<glyph unicode="&#xf8;" glyph-name="oslash" horiz-adv-x="556" d="M238 -12Q172 -12 127 9T58 73T34 184Q34 204 36 225T43 271Q59 364 95 423T187 510T317 538Q384 538 429 517T498 452T521 340Q521 321 520 300T513 255Q497 163 461 104T369 17T238 -12ZM240
49Q292 49 331 70T397 135T435 251Q440 275 442 292T445 321T446 343Q446 389 431 418T386 462T315 477Q263 477 224 456T159 390T120 275Q116 251 114 234T110 205T109 182Q109 136 124 107T168 64T240 49ZM-32 -49L529 575H589L30 -49H-32Z" />
<glyph unicode="&#xf9;" glyph-name="ugrave" horiz-adv-x="553" d="M188 -12Q146 -12 113 0T61 41T42 114Q42 127 43 141T48 170L110 526H183L121 172Q119 161 118 151T116 131Q116 99 128 82T164 58T215 52Q246 52 275 62T331 94T376 147T402 223L456 526H528L436
0H380L388 83H382Q353 48 321 27T256 -3T188 -12ZM300 591L218 720L219 723H298L363 591H300Z" />
<glyph unicode="&#xfa;" glyph-name="uacute" horiz-adv-x="553" d="M188 -12Q146 -12 113 0T61 41T42 114Q42 127 43 141T48 170L110 526H183L121 172Q119 161 118 151T116 131Q116 99 128 82T164 58T215 52Q246 52 275 62T331 94T376 147T402 223L456 526H528L436
0H380L388 83H382Q353 48 321 27T256 -3T188 -12ZM290 591L402 723H490V720L358 591H290Z" />
<glyph unicode="&#xfb;" glyph-name="ucircumflex" horiz-adv-x="553" d="M188 -12Q146 -12 113 0T61 41T42 114Q42 127 43 141T48 170L110 526H183L121 172Q119 161 118 151T116 131Q116 99 128 82T164 58T215 52Q246 52 275 62T331 94T376 147T402 223L456 526H528L436
0H380L388 83H382Q353 48 321 27T256 -3T188 -12ZM188 591L318 723H387L469 591H401L331 702H370L261 591H188Z" />
<glyph unicode="&#xfc;" glyph-name="udieresis" horiz-adv-x="553" d="M188 -12Q146 -12 113 0T61 41T42 114Q42 127 43 141T48 170L110 526H183L121 172Q119 161 118 151T116 131Q116 99 128 82T164 58T215 52Q246 52 275 62T331 94T376 147T402 223L456 526H528L436
0H380L388 83H382Q353 48 321 27T256 -3T188 -12ZM208 638L222 720H301L286 638H208ZM392 638L407 720H486L472 638H392Z" />
<glyph unicode="&#xfd;" glyph-name="yacute" horiz-adv-x="493" d="M36 -182Q16 -182 -2 -180T-29 -176L-20 -122H25Q52 -122 75 -113T123 -76T173 5L66 526H138L191 250Q196 229 201 199T211 139T220 84H225Q233 101 243 123T263 167T283 210T301 246L442 526H518L250
9Q228 -35 207 -70T161 -130T106 -168T36 -182ZM259 591L370 723H459V720L327 591H259Z" />
<glyph unicode="&#xfe;" glyph-name="thorn" horiz-adv-x="548" d="M-7 -173L151 723H224L177 457H184Q204 483 230 501T286 528T349 538Q402 538 438 517T493 452T512 345Q512 322 510 297T503 247Q490 169 458 111T375 20T257 -12Q226 -12 199 -4T151 22T115
68H108L65 -173H-7ZM250 51Q303 51 339 76T397 147T429 249Q433 267 434 282T437 313T438 342Q438 389 426 418T389 461T326 475Q271 475 233 447T172 371T139 268Q137 252 135 237T133 209T132 182Q132 129 149 101T194 62T250 51Z" />
<glyph unicode="&#xff;" glyph-name="ydieresis" horiz-adv-x="493" d="M36 -182Q16 -182 -2 -180T-29 -176L-20 -122H25Q52 -122 75 -113T123 -76T173 5L66 526H138L191 250Q196 229 201 199T211 139T220 84H225Q233 101 243 123T263 167T283 210T301 246L442
526H518L250 9Q228 -35 207 -70T161 -130T106 -168T36 -182ZM176 638L191 720H270L255 638H176ZM361 638L376 720H455L440 638H361Z" />
<glyph unicode="&#x2013;" glyph-name="endash" horiz-adv-x="500" d="M-3 237L8 305H507L495 237H-3Z" />
<glyph unicode="&#x2014;" glyph-name="emdash" horiz-adv-x="1000" d="M-3 237L8 305H1007L995 237H-3Z" />
<glyph unicode="&#x2018;" glyph-name="quoteleft" horiz-adv-x="219" d="M239 686L232 650Q214 645 201 631T178 595T164 547H203L186 453H102L116 536Q126 593 147 624T193 669T239 686Z" />
<glyph unicode="&#x2019;" glyph-name="quoteright" horiz-adv-x="219" d="M88 453L95 489Q113 494 126 508T149 544T162 592H124L141 686H225L210 603Q200 547 179 515T134 470T88 453Z" />
<glyph unicode="&#x201a;" glyph-name="quotesinglbase" horiz-adv-x="219" d="M-16 -139L-9 -103Q9 -99 22 -85T45 -49T58 0H20L37 94H121L106 11Q96 -46 75 -77T30 -122T-16 -139Z" />
<glyph unicode="&#x201c;" glyph-name="quotedblleft" horiz-adv-x="352" d="M372 686L365 650Q347 645 334 631T311 595T297 547H336L319 453H235L249 536Q259 593 280 624T326 669T372 686ZM239 686L232 650Q214 645 201 631T178 595T164 547H203L186 453H102L116
536Q126 593 147 624T193 669T239 686Z" />
<glyph unicode="&#x201d;" glyph-name="quotedblright" horiz-adv-x="352" d="M88 453L95 489Q113 494 126 508T149 544T162 592H124L141 686H225L210 603Q200 547 179 515T134 470T88 453ZM221 453L228 489Q246 494 259 508T282 544T295 592H257L274 686H358L343
603Q333 547 313 515T267 470T221 453Z" />
<glyph unicode="&#x201e;" glyph-name="quotedblbase" horiz-adv-x="352" d="M-16 -139L-9 -103Q9 -99 22 -85T45 -49T58 0H20L37 94H121L106 11Q96 -46 75 -77T30 -122T-16 -139ZM117 -139L124 -103Q142 -99 155 -85T178 -49T191 0H153L170 94H254L239 11Q229
-46 208 -77T163 -122T117 -139Z" />
<glyph unicode="&#x2022;" glyph-name="bullet" horiz-adv-x="374" d="M182 224Q152 224 129 236T93 270T80 319Q80 361 98 393T149 444T221 463Q252 463 275 451T310 417T323 368Q323 326 305 294T255 243T182 224Z" />
<glyph unicode="&#x2039;" glyph-name="guilsinglleft" horiz-adv-x="354" d="M196 126L68 326L258 526H329L158 326L258 126H196Z" />
<glyph unicode="&#x203a;" glyph-name="guilsinglright" horiz-adv-x="354" d="M180 526L308 326L118 126H47L218 326L118 526H180Z" />
</font>
</defs>
</svg>
