<?xml version="1.0" standalone="no"?>
<!DOCTYPE svg PUBLIC "-//W3C//DTD SVG 1.1//EN" "http://www.w3.org/Graphics/SVG/1.1/DTD/svg11.dtd">
<svg xmlns="http://www.w3.org/2000/svg">
<defs >
<font id="Archivo" horiz-adv-x="577" ><font-face
    font-family="Archivo Medium"
    units-per-em="1000"
    panose-1="0 0 0 0 0 0 0 0 0 0"
    ascent="878"
    descent="-210"
    alphabetic="0" />
<glyph unicode=" " glyph-name="space" horiz-adv-x="205" />
<glyph unicode="!" glyph-name="exclam" horiz-adv-x="282" d="M94 185L155 686H277L160 185H94ZM39 0L60 116H172L151 0H39Z" />
<glyph unicode="&quot;" glyph-name="quotedbl" horiz-adv-x="407" d="M104 409L107 539L133 686H243L217 539L174 409H104ZM285 409L287 539L313 686H423L398 539L355 409H285Z" />
<glyph unicode="#" glyph-name="numbersign" horiz-adv-x="582" d="M72 -12L112 174H37V260H130L161 405H83V491H179L225 698H314L269 491H403L448 698H538L493 491H571V405H475L444 260H525V174H426L386 -12H296L336 174H201L162 -12H72ZM219 260H354L385 405H250L219
260Z" />
<glyph unicode="$" glyph-name="dollar" horiz-adv-x="524" d="M175 -49L312 723H362L225 -49H175ZM241 67Q189 67 149 76T82 103T41 146T27 201Q27 213 29 224T34 243H136Q134 237 133 230T132 219Q132 194 146 179T186 157T244 150Q268 150 290 155T331 169T359
193T369 229Q369 248 358 260T327 282T284 298T232 312Q205 320 179 330T131 354T96 391T83 446Q83 489 100 521T149 574T221 606T308 617Q352 617 388 609T451 586T492 547T507 495Q507 481 505 469T500 453H399Q400 459 400 464T401 473Q401 494 390 507T357
527T306 534Q279 534 259 530T223 516T200 494T192 466Q192 443 210 431T256 411T317 392Q346 382 374 373T427 348T465 310T479 251Q479 202 461 167T409 110T333 78T241 67Z" />
<glyph unicode="%" glyph-name="percent" horiz-adv-x="958" d="M142 0L761 686H851L230 0H142ZM275 337Q206 337 168 364T130 460Q130 474 131 490T136 522Q147 586 169 624T227 680T311 698Q379 698 417 671T455 574Q455 560 454 546T450 515Q440 451 418 412T360
355T275 337ZM676 -12Q608 -12 570 15T531 111Q531 125 533 141T538 176Q549 239 571 276T629 331T712 349Q781 349 819 322T857 225Q857 211 856 195T850 161Q839 98 817 60T759 5T676 -12ZM273 403Q317 403 335 432T362 509Q365 523 366 533T369 551T370 566Q370
599 357 615T312 632Q270 632 251 603T223 526Q221 513 219 503T217 485T216 469Q216 437 229 420T273 403ZM674 54Q717 54 736 83T764 160Q767 174 768 184T769 202T770 217Q770 250 757 266T713 283Q671 283 652 254T624 176Q622 163 620 153T618 136T617 120Q617
88 630 71T674 54Z" />
<glyph unicode="&amp;" glyph-name="ampersand" horiz-adv-x="710" d="M286 -12Q210 -12 154 8T67 65T36 157Q36 213 59 253T119 318T200 352L201 356Q161 376 136 405T110 482Q110 535 131 575T192 642T282 684T392 698Q465 698 518 679T601 624T631 540Q631
533 630 522T625 489H520Q523 504 523 511T524 523Q524 553 508 572T462 601T393 611Q357 611 326 603T269 580T230 539T216 480Q216 451 231 431T272 401T330 391H394L379 306H317Q288 306 258 300T202 279T162 239T146 174Q146 139 162 118T210 86T284 75Q339
75 377 88T439 128T468 194L503 391H695L680 304H592L573 197Q561 131 525 85T429 13T286 -12Z" />
<glyph unicode="&apos;" glyph-name="quotesingle" horiz-adv-x="227" d="M104 409L107 539L133 686H243L217 539L174 409H104Z" />
<glyph unicode="(" glyph-name="parenleft" horiz-adv-x="356" d="M163 -157Q111 -85 85 1T58 180Q58 283 89 382T178 570T318 735H388Q339 676 297 610T224 471T176 322T158 168Q158 109 167 52T192 -59T231 -157H163Z" />
<glyph unicode=")" glyph-name="parenright" horiz-adv-x="356" d="M203 735Q255 663 281 577T308 398Q308 295 277 196T188 8T48 -157H-22Q27 -98 69 -32T142 107T190 256T208 410Q208 470 199 527T174 637T135 735H203Z" />
<glyph unicode="*" glyph-name="asterisk" horiz-adv-x="407" d="M180 331L215 466L97 389L71 452L198 509L92 567L139 629L230 551L243 687H314L279 551L398 629L422 567L295 509L402 452L356 389L264 466L251 331H180Z" />
<glyph unicode="+" glyph-name="plus" horiz-adv-x="630" d="M223 0L261 212H70L86 298H277L314 511H403L366 298H558L542 212H350L312 0H223Z" />
<glyph unicode="," glyph-name="comma" horiz-adv-x="288" d="M2 -154L11 -109Q34 -105 50 -90T78 -51T93 0H39L60 116H171L153 11Q145 -33 130 -63T95 -112T51 -142T2 -154Z" />
<glyph unicode="-" glyph-name="hyphen" horiz-adv-x="333" d="M33 220L50 320H302L285 220H33Z" />
<glyph unicode="." glyph-name="period" horiz-adv-x="288" d="M42 0L62 116H174L153 0H42Z" />
<glyph unicode="/" glyph-name="slash" horiz-adv-x="296" d="M-55 -49L297 735H379L27 -49H-55Z" />
<glyph unicode="0" glyph-name="zero" horiz-adv-x="574" d="M251 -12Q189 -12 143 7T72 72T47 197Q47 219 48 242T53 290T61 343Q76 440 102 507T163 617T246 679T349 698Q413 698 459 679T530 614T555 487Q555 467 553 444T549 395T541 343Q525 246 499 179T437
69T355 7T251 -12ZM252 75Q291 75 320 91T370 139T404 215T429 319Q435 352 439 377T445 423T448 459T449 490Q449 552 427 581T350 610Q310 610 281 594T231 546T197 470T172 366Q166 334 162 308T156 262T152 226T151 195Q151 134 174 105T252 75Z" />
<glyph unicode="1" glyph-name="one" horiz-adv-x="547" d="M14 0L30 87H199L279 542H109L120 607Q148 609 178 615T239 631T302 656T360 687H409L304 87H462L446 0H14Z" />
<glyph unicode="2" glyph-name="two" horiz-adv-x="571" d="M-2 0L4 31Q13 82 42 123T111 199T198 263T288 323T370 383T429 449T451 527Q451 561 426 585T347 610Q301 610 270 595T222 553T198 491L190 450H86Q91 514 113 561T171 638T255 683T355 698Q430 698
474 675T539 614T559 532Q559 478 539 435T486 355T411 289T328 232T248 181T183 130Q173 122 165 113T152 94H487L470 0H-2Z" />
<glyph unicode="3" glyph-name="three" horiz-adv-x="575" d="M254 -12Q180 -12 129 7T53 64T27 151Q27 162 28 174T32 205H138Q135 190 134 180T133 163Q133 118 164 96T250 74Q295 74 331 89T388 136T410 217Q410 251 393 270T346 297T284 305H219L234 392H302Q331
392 357 400T405 426T438 469T450 530Q450 559 437 576T400 602T347 610Q310 610 279 598T229 561T204 503L202 487H97L100 505Q111 565 146 608T235 675T352 698Q415 698 462 680T534 626T560 538Q560 489 541 454T489 395T417 356L416 352Q460 337 488 302T517
211Q517 142 482 92T387 15T254 -12Z" />
<glyph unicode="4" glyph-name="four" horiz-adv-x="566" d="M297 0L327 161H16L30 247Q83 317 128 388T213 536T288 698H404Q382 644 352 588T290 477T227 377T171 297T130 247H341L375 439Q386 457 397 477T418 518T438 559T456 596H507L445 247H533L519 161H431L402
0H297Z" />
<glyph unicode="5" glyph-name="five" horiz-adv-x="573" d="M253 -12Q185 -12 136 9T59 69T32 165Q32 176 33 188T36 213H143Q142 204 141 196T140 180Q140 146 153 122T192 86T250 74Q283 74 312 85T364 120T400 177T413 255Q413 308 386 334T311 360Q283 360
258 352T210 328T172 292L76 306L171 686H563L546 590H246L199 398Q215 410 236 421T284 439T344 446Q397 446 437 427T499 367T522 268Q522 181 487 119T390 22T253 -12Z" />
<glyph unicode="6" glyph-name="six" horiz-adv-x="575" d="M264 -12Q196 -12 148 8T72 75T45 202Q45 228 48 259T57 326Q81 466 122 547T223 663T358 698Q425 698 467 678T529 621T549 538Q549 525 548 512T544 485H439Q441 496 442 506T443 525Q443 568 421
589T352 611Q297 611 263 582T208 499T173 369Q188 387 213 403T270 430T340 441Q404 441 445 418T506 355T526 261Q526 200 506 150T449 63T366 8T264 -12ZM259 75Q301 75 332 92T383 138Q400 160 408 188T416 248Q416 278 405 302T371 340T311 355Q272 355 241
340T188 298Q170 276 161 246T151 182Q151 151 162 127T198 89T259 75Z" />
<glyph unicode="7" glyph-name="seven" horiz-adv-x="564" d="M95 0Q110 88 146 171T231 330T334 472T443 590H96L113 686H600L589 619Q545 576 500 527T411 421T330 304T266 179T227 48Q224 35 223 26T219 0H95Z" />
<glyph unicode="8" glyph-name="eight" horiz-adv-x="575" d="M251 -12Q172 -12 123 9T51 67T28 150Q28 197 44 236T93 305T173 352Q138 372 120 405T102 477Q102 523 120 563T170 633T248 680T350 698Q420 698 465 677T533 619T555 537Q555 497 541 462T498 398T429
352Q475 331 495 296T516 216Q516 153 486 101T397 19T251 -12ZM252 74Q273 74 292 78T329 89T361 108Q383 126 396 153T409 215Q409 259 380 283T293 308Q274 308 256 305T222 296T193 280Q166 262 152 233T137 165Q137 121 166 98T252 74ZM308 393Q329 393 348
397T384 411T413 433Q430 450 439 473T448 527Q448 569 421 590T347 612Q327 612 310 608T278 597T250 579Q231 561 220 536T208 477Q208 436 233 415T308 393Z" />
<glyph unicode="9" glyph-name="nine" horiz-adv-x="574" d="M240 -12Q174 -12 131 8T68 65T48 148Q48 161 49 174T53 201H159Q158 190 157 180T155 161Q155 119 177 97T245 75Q301 75 335 104T391 187T425 317Q409 299 385 283T328 256T258 245Q193 245 153 268T92
333T72 427Q72 488 92 538T148 623T231 678T334 698Q402 698 451 678T526 611T553 484Q553 458 550 427T541 360Q518 220 476 139T375 23T240 -12ZM287 331Q326 331 357 346T410 388Q428 410 437 440T447 504Q447 536 435 560T400 597T338 611Q298 611 266 594T215
548Q198 526 190 498T182 438Q182 408 193 384T227 346T287 331Z" />
<glyph unicode=":" glyph-name="colon" horiz-adv-x="315" d="M126 411L147 527H259L238 411H126ZM55 0L76 116H187L167 0H55Z" />
<glyph unicode=";" glyph-name="semicolon" horiz-adv-x="315" d="M17 -154L26 -109Q48 -105 64 -90T92 -51T107 0H53L74 116H185L167 11Q159 -33 144 -63T109 -112T65 -142T17 -154ZM125 411L146 527H257L237 411H125Z" />
<glyph unicode="&lt;" glyph-name="less" horiz-adv-x="630" d="M496 4L56 203L76 310L585 510L568 410L150 253L513 97L496 4Z" />
<glyph unicode="=" glyph-name="equal" horiz-adv-x="630" d="M88 317L104 403H577L562 317H88ZM51 106L66 191H540L524 106H51Z" />
<glyph unicode="&gt;" glyph-name="greater" horiz-adv-x="630" d="M43 4L60 103L479 260L116 416L133 510L572 310L552 203L43 4Z" />
<glyph unicode="?" glyph-name="question" horiz-adv-x="595" d="M232 184L241 236Q248 278 266 307T309 357T359 397T407 433T444 474T458 529Q458 546 451 563T422 593T360 605Q322 605 296 594T252 564T225 525T211 484Q210 478 210 472T209 461H104Q104 497
115 531T148 596T202 649T275 685T367 698Q420 698 459 687T523 654T560 605T573 541Q573 493 557 459T516 399T462 353T406 314T361 274T337 224L330 184H232ZM196 0L216 116H328L307 0H196Z" />
<glyph unicode="@" glyph-name="at" horiz-adv-x="1002" d="M454 -153Q341 -153 265 -127T142 -52T76 60T55 203Q55 288 70 358T116 483T191 579T293 646T419 685T567 698Q663 698 737 676T861 613T936 513T962 379Q962 331 952 281T921 185T867 102T788 44T681
22Q649 22 628 30T595 55T583 96L578 100Q551 62 512 42T430 22Q384 22 349 42T296 102T277 203Q277 224 278 245T284 287Q292 334 309 376T354 451T417 502T499 521Q531 521 555 514T599 491T630 452H636L662 510H742L722 395Q714 351 707 313T694 242T684 186T677
147T674 128Q674 115 683 108T714 100Q746 100 773 115T821 156T858 218T881 294T889 379Q889 457 853 514T745 602T567 633Q487 633 419 617T297 568T205 484T148 365T128 210Q128 145 144 91T197 -4T297 -66T454 -88Q483 -88 510 -87T561 -82T604 -76T636 -70L625
-139Q609 -141 584 -144T527 -150T454 -153ZM462 106Q487 106 507 116T544 142T572 179Q583 199 590 219T602 260T609 300T612 335Q612 373 600 395T568 428T521 439Q497 439 478 431T443 408T416 373Q406 356 399 336T387 294T380 250T377 208Q377 156 397 131T462
106Z" />
<glyph unicode="A" glyph-name="A" horiz-adv-x="695" d="M-35 0L351 686H492L638 0H524L491 160H171L83 0H-35ZM224 255H471L431 454Q428 470 425 488T418 524T412 559T407 588H402Q392 568 379 542T353 491T332 451L224 255Z" />
<glyph unicode="B" glyph-name="B" horiz-adv-x="702" d="M35 0L156 686H481Q544 686 589 669T660 618T685 534Q685 492 667 456T616 395T543 360V356Q588 342 617 306T646 211Q646 139 613 92T525 23T402 0H35ZM164 96H403Q441 96 470 108T517 147T534 215Q534
257 508 280T431 304H201L164 96ZM218 399H444Q473 399 496 407T535 431T559 467T568 510Q568 551 544 570T481 590H251L218 399Z" />
<glyph unicode="C" glyph-name="C" horiz-adv-x="725" d="M341 -12Q203 -12 129 53T54 254Q54 283 56 310T63 362Q82 466 132 541T262 657T446 698Q527 698 588 676T683 607T718 491Q718 478 717 464T713 436H598Q601 446 601 456T602 475Q602 518 583 546T528
588T443 602Q388 602 344 585T267 537T213 460T181 360Q177 343 175 329T172 303T170 281T169 258Q169 198 189 160T248 103T343 84Q404 84 451 102T529 157T570 249H680Q666 160 618 102T498 16T341 -12Z" />
<glyph unicode="D" glyph-name="D" horiz-adv-x="731" d="M35 0L156 686H409Q550 686 627 622T705 419Q705 393 703 368T697 319Q679 219 628 148T498 38T316 0H35ZM164 96H310Q366 96 412 111T493 156T549 229T580 329Q584 347 585 362T588 390T589 415Q589 477
568 515T504 572T402 590H251L164 96Z" />
<glyph unicode="E" glyph-name="E" horiz-adv-x="674" d="M36 0L156 686H688L671 590H252L218 399H594L578 303H200L164 96H591L574 0H36Z" />
<glyph unicode="F" glyph-name="F" horiz-adv-x="611" d="M36 0L156 686H646L629 590H252L215 387H557L541 292H199L147 0H36Z" />
<glyph unicode="G" glyph-name="G" horiz-adv-x="795" d="M344 -12Q204 -12 129 54T54 256Q54 282 56 308T63 361Q82 467 135 542T272 658T463 698Q526 698 579 686T671 649T731 587T753 499Q753 488 752 477T748 452H634Q635 459 635 466T636 480Q636 512 624
535T588 573T534 595T466 603Q409 603 362 588T278 543T217 468T181 363Q178 344 176 329T172 302T170 279T169 257Q169 197 190 159T251 102T350 83Q421 83 474 104T561 165T602 257L604 271H374L391 364H733L669 0H590V83Q557 51 519 30T438 -2T344 -12Z" />
<glyph unicode="H" glyph-name="H" horiz-adv-x="734" d="M36 0L156 686H268L217 399H566L617 686H728L608 0H496L549 303H200L147 0H36Z" />
<glyph unicode="I" glyph-name="I" horiz-adv-x="274" d="M35 0L156 686H268L147 0H35Z" />
<glyph unicode="J" glyph-name="J" horiz-adv-x="571" d="M231 -12Q129 -12 75 28T20 149Q20 159 21 175T30 221H141Q134 193 133 180T132 161Q132 123 157 103T232 83Q290 83 327 121T377 230L457 686H569L490 232Q475 149 440 95T353 15T231 -12Z" />
<glyph unicode="K" glyph-name="K" horiz-adv-x="677" d="M36 0L156 686H268L209 352L585 686H732L420 410L619 0H494L335 334L184 210L147 0H36Z" />
<glyph unicode="L" glyph-name="L" horiz-adv-x="552" d="M36 0L156 686H267L164 97H507L490 0H36Z" />
<glyph unicode="M" glyph-name="M" horiz-adv-x="846" d="M36 0L156 686H324L386 270Q389 250 391 226T394 180T396 139H403Q410 158 419 181T439 229T457 272L664 686H839L719 0H607L686 447Q690 467 695 492T705 539T711 569H703Q698 557 692 542T679 512T668
488L425 0H323L255 481Q252 501 251 526T247 569H240Q237 551 235 527T229 482T222 447L143 0H36Z" />
<glyph unicode="N" glyph-name="N" horiz-adv-x="734" d="M36 0L156 686H264L492 260Q497 251 504 237T518 209T530 183L536 184Q538 201 541 221T546 257L621 686H728L608 0H504L282 416Q273 432 259 460T235 507H230Q228 490 224 465T217 423L143 0H36Z" />
<glyph unicode="O" glyph-name="O" horiz-adv-x="785" d="M357 -12Q261 -12 194 18T90 108T54 256Q54 281 56 304T62 351Q80 458 131 536T265 656T457 698Q553 698 620 668T724 578T761 430Q761 407 759 384T753 338Q736 231 684 152T550 31T357 -12ZM357 84Q417
84 464 101T546 151T603 231T636 337Q638 352 640 364T643 387T644 406T645 425Q645 484 623 523T559 583T456 603Q397 603 350 586T267 536T210 456T177 350Q175 335 174 323T171 300T170 280T169 262Q169 203 191 164T255 104T357 84Z" />
<glyph unicode="P" glyph-name="P" horiz-adv-x="667" d="M36 0L156 686H464Q541 686 589 664T660 601T683 506Q683 447 665 401T612 321T529 271T422 254H193L147 0H36ZM209 350H420Q464 350 497 367T550 416T569 494Q569 540 543 565T462 590H252L209 350Z" />
<glyph unicode="Q" glyph-name="Q" horiz-adv-x="785" d="M496 -130L395 -10Q386 -11 376 -11T357 -12Q261 -12 194 18T90 108T54 256Q54 281 56 304T62 351Q80 458 131 536T265 656T457 698Q553 698 620 668T724 578T761 430Q761 407 759 384T753 338Q733 219
671 135T509 14L634 -130H496ZM357 84Q417 84 464 101T546 151T603 231T636 337Q638 352 640 364T643 387T644 406T645 425Q645 484 623 523T559 583T456 603Q397 603 350 586T267 536T210 456T177 350Q175 335 174 323T171 300T170 280T169 262Q169 203 191 164T255
104T357 84Z" />
<glyph unicode="R" glyph-name="R" horiz-adv-x="722" d="M35 0L156 686H500Q569 686 614 666T681 609T703 521Q703 459 684 412T629 333T544 283L638 0H520L435 264H194L147 0H35ZM211 359H446Q486 359 518 377T569 428T588 507Q588 547 564 568T491 590H252L211 359Z" />
<glyph unicode="S" glyph-name="S" horiz-adv-x="670" d="M309 -12Q250 -12 199 -2T110 28T50 81T29 159Q29 173 31 189T37 219H148Q146 210 144 198T141 177Q141 145 161 124T217 94T301 84Q348 84 383 91T442 113T478 148T490 194Q490 219 476 236T437 267T383
290T319 309Q281 321 243 334T174 369T124 420T105 494Q105 547 127 585T189 648T279 685T387 698Q443 698 489 688T571 659T625 609T644 537Q644 528 643 516T639 488H528Q531 499 532 506T533 518Q533 559 496 581T390 603Q341 603 302 592T241 561T219 509Q219
488 230 473T262 447T309 427T364 409Q405 396 447 382T526 347T584 294T606 214Q606 153 582 110T515 40T420 1T309 -12Z" />
<glyph unicode="T" glyph-name="T" horiz-adv-x="612" d="M204 0L307 590H80L97 686H664L648 590H419L315 0H204Z" />
<glyph unicode="U" glyph-name="U" horiz-adv-x="728" d="M330 -12Q207 -12 140 39T72 196Q72 211 74 229T79 265L153 686H264L189 258Q187 249 185 235T183 209Q183 146 221 115T331 83Q414 83 468 126T537 254L613 686H725L649 257Q633 165 592 105T485 17T330 -12Z" />
<glyph unicode="V" glyph-name="V" horiz-adv-x="659" d="M218 0L87 686H201L278 267Q283 239 287 211T296 160T301 122H308Q318 144 332 172T361 228T385 273L602 686H721L349 0H218Z" />
<glyph unicode="W" glyph-name="W" horiz-adv-x="938" d="M156 0L87 686H194L237 234Q239 223 240 204T242 165T245 127H251Q257 144 264 164T278 204T288 234L471 686H614L648 234Q649 223 649 204T651 165T653 127H658Q664 143 671 163T686 202T699 234L892
686H1002L698 0H563L529 458Q528 473 527 492T526 532T525 567H519Q514 551 507 531T494 491T481 458L291 0H156Z" />
<glyph unicode="X" glyph-name="X" horiz-adv-x="683" d="M-34 0L294 363L110 686H236L368 449H373L583 686H720L424 356L626 0H499L350 269H345L105 0H-34Z" />
<glyph unicode="Y" glyph-name="Y" horiz-adv-x="666" d="M232 0L282 282L85 686H200L349 381H355L608 686H731L393 282L344 0H232Z" />
<glyph unicode="Z" glyph-name="Z" horiz-adv-x="635" d="M-17 0L-7 55L471 590H112L129 686H661L651 631L171 96H566L549 0H-17Z" />
<glyph unicode="[" glyph-name="bracketleft" horiz-adv-x="316" d="M25 -161L182 735H380L367 660H261L129 -86H236L223 -161H25Z" />
<glyph unicode="\" glyph-name="backslash" horiz-adv-x="296" d="M167 -49L83 735H157L241 -49H167Z" />
<glyph unicode="]" glyph-name="bracketright" horiz-adv-x="316" d="M299 735L142 -161H-55L-43 -86H63L195 660H89L102 735H299Z" />
<glyph unicode="^" glyph-name="asciicircum" horiz-adv-x="630" d="M113 294L341 686H437L528 294H439L375 592L207 294H113Z" />
<glyph unicode="_" glyph-name="underscore" horiz-adv-x="495" d="M-71 -140L-58 -65H437L424 -140H-71Z" />
<glyph unicode="`" glyph-name="grave" horiz-adv-x="189" d="M162 591L81 720L82 723H188L247 591H162Z" />
<glyph unicode="a" glyph-name="a" horiz-adv-x="573" d="M195 -12Q143 -12 105 9T45 73T24 180Q24 200 26 222T33 269Q49 363 83 422T166 510T278 538Q313 538 341 530T392 504T427 460H434L463 526H549L526 399Q519 362 512 323T498 246T486 178T477 127T474
101Q474 88 482 82T503 75H539L527 4Q517 -1 500 -6T458 -12Q431 -12 413 -1T387 33Q384 42 382 52T380 75H373Q340 31 295 10T195 -12ZM238 78Q264 78 289 88T335 120T372 175T397 256Q400 275 401 289T404 314T405 334Q405 371 394 396T360 435T301 448Q258 448
227 430T175 373T142 271Q138 250 136 235T133 208T132 186Q132 131 158 105T238 78Z" />
<glyph unicode="b" glyph-name="b" horiz-adv-x="579" d="M292 -12Q236 -12 196 9T135 72H128L106 0H21L148 723H252L206 462H213Q233 489 258 505T313 530T375 538Q428 538 466 517T526 453T547 346Q547 327 545 305T538 257Q522 163 488 104T404 17T292 -12ZM269
78Q313 78 344 96T396 153T429 255Q433 276 435 291T438 318T439 340Q439 377 428 400T393 436T332 448Q305 448 280 438T234 407T196 351T172 270Q169 252 167 238T165 213T164 192Q164 156 175 130T209 91T269 78Z" />
<glyph unicode="c" glyph-name="c" horiz-adv-x="532" d="M250 -12Q178 -12 130 9T58 74T34 187Q34 215 37 243T47 298Q58 351 79 394T132 470T208 520T309 538Q376 538 420 519T488 465T511 379Q511 368 510 356T506 330H402Q403 339 404 347T405 365Q405 392
396 412T365 442T311 453Q268 453 236 433T183 373T151 276Q147 256 145 241T142 214T141 192Q141 151 153 125T189 87T248 74Q288 74 315 89T359 132T383 196H483Q473 133 444 86T367 14T250 -12Z" />
<glyph unicode="d" glyph-name="d" horiz-adv-x="579" d="M210 -12Q155 -12 116 11T55 77T34 180Q34 201 35 224T42 273Q54 342 77 391T131 473T201 522T283 538Q320 538 349 530T401 506T437 462H443L489 723H593L465 0H382L384 72H377Q345 30 302 9T210 -12ZM245
78Q290 78 322 98T376 158T406 254Q410 273 411 287T414 312T415 332Q415 374 403 399T367 436T312 448Q266 448 235 430T183 374T151 277Q148 254 146 238T142 210T141 187Q141 131 167 105T245 78Z" />
<glyph unicode="e" glyph-name="e" horiz-adv-x="554" d="M257 -12Q183 -12 133 9T59 75T34 187Q34 214 37 242T45 295Q59 365 91 419T178 506T316 538Q385 538 431 517T500 453T523 347Q523 324 520 295T508 237H144Q142 223 141 212T140 188Q140 149 152 123T191
85T257 73Q282 73 304 79T344 98T375 131T395 182H497Q488 132 467 96T414 36T343 0T257 -12ZM158 313H414Q416 325 417 335T418 355Q418 389 407 411T372 443T317 454Q276 454 245 438T192 391T158 313Z" />
<glyph unicode="f" glyph-name="f" horiz-adv-x="293" d="M-5 -182Q-19 -182 -33 -180T-59 -175T-79 -169L-67 -96H-16Q8 -96 22 -84T40 -49L125 440H49L64 526H141L154 601Q160 633 174 663T218 712T302 731Q316 731 329 730T355 725T376 718L363 645H312Q289
645 275 633T257 598L245 526H343L328 440H229L142 -53Q137 -85 123 -114T79 -163T-5 -182Z" />
<glyph unicode="g" glyph-name="g" horiz-adv-x="573" d="M195 -182Q141 -182 99 -168T32 -128T8 -62Q8 -55 8 -47T12 -25H113Q112 -30 112 -33T112 -39Q112 -60 124 -72T157 -90T204 -96Q251 -96 284 -80T338 -30T368 52Q370 62 371 71T373 87H367Q347 61 322
44T267 19T205 11Q152 11 114 31T54 94T33 201Q33 218 34 238T40 281Q63 415 127 476T285 538Q340 538 380 517T441 454H448L470 526H554L473 60Q457 -27 423 -80T333 -157T195 -182ZM247 101Q275 101 300 111T347 141T383 192T405 268Q408 286 410 298T412 321T413
340Q413 376 402 400T367 436T307 448Q267 448 235 432T181 379T149 283Q146 263 144 249T141 224T140 205Q140 170 151 147T187 113T247 101Z" />
<glyph unicode="h" glyph-name="h" horiz-adv-x="573" d="M21 0L148 723H252L206 463H213Q234 486 261 503T318 529T382 538Q424 538 457 525T511 483T531 406Q531 390 529 373T523 335L464 0H360L418 329Q420 342 421 354T423 376Q423 403 413 418T385 440T343
447Q315 447 288 437T238 406T199 356T176 287L125 0H21Z" />
<glyph unicode="i" glyph-name="i" horiz-adv-x="238" d="M128 617L147 723H251L232 617H128ZM21 0L114 526H218L125 0H21Z" />
<glyph unicode="j" glyph-name="j" horiz-adv-x="236" d="M126 617L145 723H249L231 617H126ZM-20 -182Q-34 -182 -49 -180T-78 -175T-101 -169L-89 -96H-42Q-19 -96 -6 -85T11 -51L113 526H217L115 -56Q109 -88 95 -116T53 -163T-20 -182Z" />
<glyph unicode="k" glyph-name="k" horiz-adv-x="528" d="M21 0L148 723H252L175 286L424 526H548L334 320L465 0H352L257 253L153 161L125 0H21Z" />
<glyph unicode="l" glyph-name="l" horiz-adv-x="238" d="M21 0L148 723H252L125 0H21Z" />
<glyph unicode="m" glyph-name="m" horiz-adv-x="860" d="M21 0L113 526H197L194 451H201Q224 479 250 498T307 527T370 538Q419 538 453 518T500 451H507Q531 479 558 498T616 527T681 538Q742 538 780 508T819 408Q819 393 817 377T812 342L750 0H647L706 333Q708
346 709 356T711 377Q711 404 702 419T675 440T636 447Q603 447 573 428T520 375T489 292L438 0H334L393 333Q395 346 396 357T398 377Q398 404 389 419T362 440T323 447Q290 447 260 428T207 375T176 292L125 0H21Z" />
<glyph unicode="n" glyph-name="n" horiz-adv-x="573" d="M21 0L113 526H197L194 451H201Q224 478 253 497T315 527T382 538Q424 538 457 525T511 483T531 406Q531 390 529 373T523 335L464 0H360L418 329Q420 342 421 354T423 376Q423 403 413 418T385 440T343
447Q315 447 288 437T238 406T199 356T176 287L125 0H21Z" />
<glyph unicode="o" glyph-name="o" horiz-adv-x="583" d="M252 -12Q180 -12 131 9T57 75T32 187Q32 206 34 227T40 271Q56 363 94 422T191 509T330 538Q403 538 452 517T525 451T550 338Q550 319 549 299T542 255Q526 163 489 104T394 17T252 -12ZM258 74Q307
74 342 93T399 153T432 254Q437 274 438 288T440 314T441 334Q441 374 429 400T390 439T324 452Q275 452 241 432T184 373T149 272Q146 252 144 237T141 212T140 191Q140 151 152 126T192 87T258 74Z" />
<glyph unicode="p" glyph-name="p" horiz-adv-x="579" d="M-10 -173L113 526H196L194 454H202Q234 496 277 517T368 538Q424 538 463 517T524 452T545 346Q545 325 544 302T537 253Q521 162 486 104T402 17T296 -12Q259 -12 229 -4T177 21T142 64H135L94 -173H-10ZM267
78Q312 78 344 96T396 152T427 249Q432 272 434 288T437 316T438 339Q438 377 426 401T392 436T334 448Q290 448 257 428T203 368T172 272Q169 253 167 239T164 215T163 194Q163 152 176 127T212 90T267 78Z" />
<glyph unicode="q" glyph-name="q" horiz-adv-x="579" d="M331 -173L372 64H366Q346 38 321 21T266 -4T204 -12Q152 -12 113 9T53 73T31 180Q31 200 33 222T40 269Q57 363 91 422T175 510T287 538Q343 538 383 517T444 454H451L473 526H558L435 -173H331ZM247
78Q274 78 299 88T345 119T382 175T406 256Q410 275 411 289T413 314T414 334Q414 371 403 396T369 435T310 448Q267 448 235 430T182 373T149 271Q146 250 144 235T140 208T139 186Q139 131 165 105T247 78Z" />
<glyph unicode="r" glyph-name="r" horiz-adv-x="346" d="M21 0L114 526H196L193 442H199Q212 466 230 487T273 523T332 538Q349 538 362 535T382 530L366 432H330Q298 432 272 422T226 392T193 344T174 278L125 0H21Z" />
<glyph unicode="s" glyph-name="s" horiz-adv-x="524" d="M227 -12Q175 -12 135 -3T68 24T27 67T13 122Q13 134 15 145T20 164H122Q120 158 119 151T118 140Q118 115 132 100T172 78T230 71Q254 71 276 75T317 89T345 113T355 150Q355 169 344 181T313 202T270
218T218 233Q191 241 165 251T117 275T82 312T69 367Q69 409 86 441T135 494T207 527T294 538Q338 538 374 530T437 506T478 468T493 416Q493 402 491 390T486 373H385Q386 379 386 384T387 393Q387 415 376 428T343 448T292 455Q265 455 245 451T209 437T186 415T178
386Q178 364 196 352T242 331T303 312Q332 303 360 293T413 269T451 231T465 172Q465 123 447 88T395 31T319 -1T227 -12Z" />
<glyph unicode="t" glyph-name="t" horiz-adv-x="305" d="M157 -12Q118 -12 97 1T66 34T57 81Q57 89 58 96T60 112L117 440H51L66 526H134L179 673H261L235 526H331L316 440H221L167 134Q166 130 165 120T163 106Q163 91 172 83T200 74H252L239 4Q229 0 215 -3T186
-9T157 -12Z" />
<glyph unicode="u" glyph-name="u" horiz-adv-x="572" d="M190 -12Q148 -12 114 1T59 43T39 120Q39 136 41 153T48 191L107 526H212L154 196Q152 183 150 172T148 150Q148 123 158 108T187 86T229 79Q257 79 284 89T333 119T372 168T395 236L446 526H551L458 0H374L377
75H370Q348 48 319 29T258 -1T190 -12Z" />
<glyph unicode="v" glyph-name="v" horiz-adv-x="516" d="M158 0L58 526H163L208 275Q212 257 216 229T224 170T231 114H236Q246 137 259 167T286 226T310 275L442 526H552L266 0H158Z" />
<glyph unicode="w" glyph-name="w" horiz-adv-x="740" d="M119 0L54 526H158L183 272Q184 258 186 232T189 178T192 126H196Q204 149 215 176T236 230T253 272L359 526H471L490 272Q491 255 492 229T495 176T498 126H502Q510 146 520 173T542 226T561 272L673
526H777L527 0H420L401 277Q400 293 399 315T397 360T396 400H391Q385 384 377 361T361 316T344 277L227 0H119Z" />
<glyph unicode="x" glyph-name="x" horiz-adv-x="529" d="M-35 0L204 272L68 526H184L275 348H281L431 526H552L326 269L469 0H353L257 189H251L87 0H-35Z" />
<glyph unicode="y" glyph-name="y" horiz-adv-x="516" d="M52 -182Q19 -182 -1 -178T-26 -172L-14 -96H38Q62 -96 84 -88T128 -58T167 2L57 526H161L213 273Q218 251 223 222T232 163T239 112H244Q251 128 259 148T277 189T296 229T312 263L443 526H552L289 20Q267
-23 243 -59T191 -123T129 -166T52 -182Z" />
<glyph unicode="z" glyph-name="z" horiz-adv-x="503" d="M-17 0L-7 52L331 440H80L95 526H506L497 475L157 86H443L427 0H-17Z" />
<glyph unicode="{" glyph-name="braceleft" horiz-adv-x="372" d="M249 -159Q201 -159 164 -151T106 -119T84 -52Q84 -38 88 -12T98 47T111 109T121 163T125 194Q125 223 101 233T45 244L61 331Q94 331 124 343T160 391L196 596Q206 654 233 684T304 724T406 735L395
672Q376 672 354 667T315 649T292 609L247 399Q240 365 227 341T189 305T120 293L118 283Q169 283 189 263T210 204Q210 194 207 168T199 107T189 41T181 -15T178 -44Q178 -65 190 -76T221 -92T260 -96L249 -159Z" />
<glyph unicode="|" glyph-name="bar" horiz-adv-x="245" d="M83 -187V723H165V-187H83Z" />
<glyph unicode="}" glyph-name="braceright" horiz-adv-x="373" d="M132 735Q180 735 217 727T275 696T297 628Q297 614 293 588T283 529T271 467T260 413T256 382Q256 353 280 343T336 332L320 245Q287 245 258 233T221 185L185 -20Q175 -78 148 -107T77 -148T-25
-159L-14 -96Q5 -96 27 -91T66 -73T89 -33L134 177Q142 212 154 235T192 271T261 283L263 293Q212 293 192 313T171 372Q171 382 174 408T182 469T192 535T200 592T203 620Q203 642 191 653T161 668T122 672L132 735Z" />
<glyph unicode="~" glyph-name="asciitilde" horiz-adv-x="630" d="M27 209L44 307Q44 307 55 318T86 343T136 368T201 379Q230 379 254 370T301 349T349 328T403 319Q435 319 463 330T513 355T547 380T560 391L544 294Q544 294 533 283T502 257T452 232T386 221Q358
221 334 230T286 251T239 273T185 282Q153 282 125 271T74 246T40 220T27 209Z" />
<glyph unicode="&#xa0;" glyph-name="uni00A0" horiz-adv-x="205" />
<glyph unicode="&#xa1;" glyph-name="exclamdown" horiz-adv-x="282" d="M7 -160L124 341H190L129 -160H7ZM112 410L133 526H244L224 410H112Z" />
<glyph unicode="&#xa2;" glyph-name="cent" horiz-adv-x="563" d="M195 -49L332 723H382L245 -49H195ZM276 67Q204 67 156 88T84 153T60 266Q60 293 63 321T72 377Q84 430 105 473T158 549T234 599T335 617Q401 617 446 598T514 544T537 458Q537 446 536 434T532
409H428Q429 418 430 426T431 444Q431 471 422 490T391 520T337 531Q293 531 261 511T208 452T177 354Q173 335 171 320T168 293T167 270Q167 230 179 204T215 166T273 153Q314 153 341 168T385 210T409 275H509Q499 211 470 165T393 93T276 67Z" />
<glyph unicode="&#xa3;" glyph-name="sterling" horiz-adv-x="574" d="M3 0L19 89H88L125 296H41L55 383H140L162 505Q174 572 204 614T282 677T389 698Q447 698 490 683T556 635T579 553Q579 538 578 526T573 494H469Q472 506 473 513T474 526T474 535Q474 561
464 577T435 602T389 611Q358 611 333 600T291 568T268 515L245 383H407L392 296H229L182 89H499L483 0H3Z" />
<glyph unicode="&#xa4;" glyph-name="currency" horiz-adv-x="574" d="M98 99L54 143L108 199Q82 231 70 270T57 351Q57 392 69 432T108 501L53 555L99 602L156 546Q186 572 224 585T303 598Q343 598 382 585T450 546L506 602L553 555L498 501Q524 472 536 432T549
351Q549 309 537 270T498 199L552 143L508 99L453 157Q422 129 383 116T303 102Q262 102 223 115T153 157L98 99ZM303 173Q351 173 389 197T451 262T475 351Q475 398 452 437T389 501T303 526Q256 526 217 502T155 438T131 351Q131 303 154 263T217 198T303 173Z"
/>
<glyph unicode="&#xa5;" glyph-name="yen" horiz-adv-x="567" d="M186 0L214 155H20L31 224H226L239 294H44L56 363H223Q213 384 202 410T185 447L85 686H198L275 484Q279 476 284 461T295 429T306 399H310Q320 413 331 429T354 461T371 484L517 686H632L446 440Q435
426 417 403T385 363H549L537 294H344L331 224H524L512 155H320L292 0H186Z" />
<glyph unicode="&#xa6;" glyph-name="brokenbar" horiz-adv-x="245" d="M83 348V723H165V348H83ZM83 -187V188H165V-187H83Z" />
<glyph unicode="&#xa7;" glyph-name="section" horiz-adv-x="573" d="M216 -182Q166 -182 128 -173T64 -148T25 -108T12 -58Q12 -47 14 -35T19 -17H126Q125 -22 124 -27T123 -37Q123 -55 133 -68T165 -90T224 -99Q265 -99 293 -87T335 -55T350 -13Q350 11 334
27T291 57T232 82T169 109T111 143T68 189T51 252Q51 278 59 301T83 345T120 383T168 414Q144 433 129 458T113 519Q113 555 125 583T158 632T210 668T277 690T357 698Q406 698 444 689T508 664T547 625T561 575Q561 564 559 552T554 533H446Q447 538 447 543T448
553Q448 570 439 584T408 606T349 614Q308 614 280 602T237 571T223 529Q223 505 239 488T281 458T340 431T403 404T462 370T505 324T521 260Q521 234 513 211T489 168T452 131T404 101Q429 83 444 59T459 0Q459 -37 447 -65T414 -116T363 -152T296 -174T216 -182ZM340
139Q359 150 375 165T401 199T412 242Q412 270 396 289T354 323T296 350T232 376Q214 366 197 351T170 316T159 274Q159 245 175 225T218 191T276 164T340 139Z" />
<glyph unicode="&#xa8;" glyph-name="dieresis" horiz-adv-x="295" d="M63 621L81 722H179L161 621H63ZM260 621L277 722H376L358 621H260Z" />
<glyph unicode="&#xa9;" glyph-name="copyright" horiz-adv-x="757" d="M394 -12Q317 -12 252 14T140 88T66 201T39 343Q39 420 65 485T139 597T252 671T394 698Q471 698 536 672T648 598T722 485T749 343Q749 266 723 201T649 89T536 15T394 -12ZM392 132Q335
132 296 153T238 221T218 342Q218 416 237 462T296 530T392 552Q444 552 479 535T532 481T550 388H483Q483 427 474 450T444 485T392 496Q340 496 313 461T286 346V338Q286 285 297 252T333 204T392 189Q424 189 445 200T476 235T486 295H550Q550 247 533 210T480
153T392 132ZM394 39Q481 39 549 78T655 186T694 343Q694 431 656 499T549 606T394 646Q306 646 238 607T131 499T92 343Q92 255 130 187T237 79T394 39Z" />
<glyph unicode="&#xaa;" glyph-name="ordfeminine" horiz-adv-x="390" d="M180 330Q132 330 103 363T74 462Q74 479 75 495T80 530Q88 575 107 613T156 675T228 698Q262 698 284 686T320 646H324L342 690H400L383 593Q378 567 373 541T364 492T357 450T352 420T350
405Q350 395 355 391T369 387H391L384 341Q375 337 364 334T337 330Q315 330 302 340T285 367Q284 372 284 378T285 389H281Q262 360 236 345T180 330ZM202 392Q223 392 238 402T264 429T282 465Q292 486 299 513T306 563Q306 590 299 606T278 630T246 637Q205
637 182 603T151 523Q148 506 147 493T146 465Q146 429 159 411T202 392Z" />
<glyph unicode="&#xab;" glyph-name="guillemotleft" horiz-adv-x="560" d="M183 126L69 326L244 526H333L177 326L262 126H183ZM387 126L273 326L449 526H538L381 326L467 126H387Z" />
<glyph unicode="&#xac;" glyph-name="logicalnot" horiz-adv-x="630" d="M429 196L459 364H60L76 448H558L513 196H429Z" />
<glyph unicode="&#xad;" glyph-name="uni00AD" horiz-adv-x="333" d="M33 220L50 320H302L285 220H33Z" />
<glyph unicode="&#xae;" glyph-name="registered" horiz-adv-x="757" d="M394 -12Q317 -12 252 14T140 88T66 201T39 343Q39 420 65 485T139 597T252 671T394 698Q471 698 536 672T648 598T722 485T749 343Q749 266 723 201T649 89T536 15T394 -12ZM394 39Q481
39 549 78T655 186T694 343Q694 431 656 499T549 606T394 646Q306 646 238 607T131 499T92 343Q92 255 130 187T237 79T394 39ZM251 137V549H437Q500 549 531 516T563 425Q563 385 546 354T492 308L579 137H507L428 296H317V137H251ZM317 354H431Q459 354 477 372T495
425Q495 458 478 475T431 492H317V354Z" />
<glyph unicode="&#xaf;" glyph-name="overscore" horiz-adv-x="303" d="M65 627L77 700H379L366 627H65Z" />
<glyph unicode="&#xb0;" glyph-name="degree" horiz-adv-x="400" d="M252 415Q213 415 181 433T129 484T110 556Q110 596 129 628T180 679T252 698Q292 698 324 679T375 628T394 556Q394 517 375 485T324 434T252 415ZM252 477Q285 477 307 500T330 556Q330 589
308 611T252 634Q220 634 197 612T173 556Q173 524 196 501T252 477Z" />
<glyph unicode="&#xb1;" glyph-name="plusminus" horiz-adv-x="630" d="M199 134L236 346H45L60 432H252L289 645H378L340 432H532L517 346H325L288 134H199ZM-16 0L0 86H471L456 0H-16Z" />
<glyph unicode="&#xb2;" glyph-name="uni00B2" horiz-adv-x="351" d="M78 440L83 463Q89 492 107 515T151 557T204 593T254 627T293 663T308 704Q308 719 297 729T262 740Q241 740 227 734T205 715T194 687L190 665H124Q124 673 124 680T126 694Q133 731 154 754T205
788T267 799Q307 799 331 787T366 755T378 711Q378 682 368 660T340 619T301 585T257 557T215 530T178 502H343L332 440H78Z" />
<glyph unicode="&#xb3;" glyph-name="uni00B3" horiz-adv-x="351" d="M217 428Q156 428 125 451T93 514Q93 519 94 527T97 547H165Q163 537 163 533T162 526Q162 506 176 496T215 486Q235 486 251 492T277 512T287 548Q287 564 279 572T258 583T230 587H193L203
646H237Q254 646 270 652T297 671T308 704Q308 723 295 732T262 741Q247 741 234 736T211 720T198 691L197 682H128L130 696Q135 727 153 750T201 786T263 799Q316 799 347 777T378 711Q378 688 370 671T347 642T312 621V617Q333 607 345 589T357 545Q357 507 338
482T287 442T217 428Z" />
<glyph unicode="&#xb4;" glyph-name="acute" horiz-adv-x="197" d="M58 591L164 723H278V720L148 591H58Z" />
<glyph unicode="&#xb5;" glyph-name="uni00B5" d="M-12 -182L114 526H218L160 196Q159 183 157 172T155 150Q155 123 165 108T193 86T234 79Q263 79 289 89T338 119T377 168T400 236L451 526H556L463 0H379L382 75H375Q353 48 325 29T264 -1T196 -12Q174 -12 156
-8T123 4Q122 -10 120 -24T116 -52L92 -182H-12Z" />
<glyph unicode="&#xb6;" glyph-name="paragraph" d="M180 -169L254 252Q206 254 167 274T104 333T80 428Q80 490 100 538T157 619T242 669T346 686H612L602 628H540L399 -169H324L465 628H396L255 -169H180Z" />
<glyph unicode="&#xb7;" glyph-name="middot" horiz-adv-x="333" d="M116 298L137 415H250L229 298H116Z" />
<glyph unicode="&#xb8;" glyph-name="cedilla" horiz-adv-x="221" d="M18 -179Q-5 -179 -30 -177T-77 -171L-68 -127H23Q47 -127 59 -120T72 -95Q72 -86 64 -82T35 -77H-12L19 11H87L72 -36Q107 -38 132 -49T157 -90Q157 -117 144 -134T109 -161T64 -175T18 -179Z" />
<glyph unicode="&#xb9;" glyph-name="uni00B9" horiz-adv-x="351" d="M90 440L101 502H188L224 707H137L145 753Q164 754 186 759T231 773T272 793H308L256 502H334L323 440H90Z" />
<glyph unicode="&#xba;" glyph-name="ordmasculine" horiz-adv-x="385" d="M216 330Q146 330 110 363T73 462Q73 478 74 494T79 530Q88 580 110 618T169 677T256 699Q327 699 364 667T401 567Q401 549 400 534T395 502Q386 449 363 411T302 351T216 330ZM216 390Q263
390 288 423T323 507Q325 518 326 527T328 545T329 563Q329 603 311 621T256 639Q210 639 184 606T150 522Q149 513 148 504T146 485T145 466Q145 426 163 408T216 390Z" />
<glyph unicode="&#xbb;" glyph-name="guillemotright" horiz-adv-x="560" d="M399 526L513 326L338 126H248L405 326L319 526H399ZM195 526L309 326L133 126H44L201 326L115 526H195Z" />
<glyph unicode="&#xbc;" glyph-name="onequarter" horiz-adv-x="850" d="M80 -12L751 698H834L163 -12H80ZM72 340L83 402H170L206 607H119L127 653Q146 654 168 659T213 673T254 693H290L238 402H316L305 340H72ZM644 0L658 76H500L509 130Q548 180 580 237T640
359H713Q699 326 681 293T644 228T608 173T578 135H668L681 210Q688 222 695 236T711 264T725 292H764L736 135H779L769 76H726L712 0H644Z" />
<glyph unicode="&#xbd;" glyph-name="onehalf" horiz-adv-x="850" d="M80 -12L751 698H834L163 -12H80ZM72 340L83 402H170L206 607H119L127 653Q146 654 168 659T213 673T254 693H290L238 402H316L305 340H72ZM490 0L495 23Q500 52 518 75T562 117T615 153T666
187T704 223T719 264Q719 279 709 289T674 300Q653 300 639 294T617 275T606 247L601 225H536Q536 233 536 240T538 254Q545 291 566 314T617 348T679 359Q719 359 743 347T778 315T789 271Q789 242 779 220T751 179T713 145T669 117T626 90T590 62H755L744 0H490Z"
/>
<glyph unicode="&#xbe;" glyph-name="threequarters" horiz-adv-x="850" d="M80 -12L751 698H834L163 -12H80ZM199 328Q138 328 107 351T75 414Q75 419 76 427T79 447H147Q145 437 145 433T144 426Q144 406 158 396T197 386Q217 386 233 392T259 412T269 448Q269
464 261 472T240 483T212 487H175L185 546H219Q236 546 252 552T279 571T290 604Q290 623 277 632T244 641Q229 641 216 636T193 620T180 591L179 582H110L112 596Q117 627 135 650T183 686T245 699Q298 699 329 677T360 611Q360 588 352 571T329 542T294 521V517Q315
507 327 489T339 445Q339 408 320 382T269 342T199 328ZM644 0L658 76H500L509 130Q548 180 580 237T640 359H713Q699 326 681 293T644 228T608 173T578 135H668L681 210Q688 222 695 236T711 264T725 292H764L736 135H779L769 76H726L712 0H644Z" />
<glyph unicode="&#xbf;" glyph-name="questiondown" horiz-adv-x="620" d="M244 -172Q191 -172 152 -161T88 -128T50 -79T38 -15Q38 33 53 67T94 127T149 173T205 212T251 252T274 302L281 342H379L370 290Q363 248 345 219T302 169T251 129T203 93T167 52T153
-3Q153 -20 160 -37T188 -67T250 -79Q288 -79 315 -68T359 -38T386 1T400 42Q401 48 401 54T402 65H507Q507 29 496 -5T463 -70T409 -123T336 -159T244 -172ZM283 410L304 526H415L395 410H283Z" />
<glyph unicode="&#xc0;" glyph-name="Agrave" horiz-adv-x="695" d="M-35 0L351 686H492L638 0H524L491 160H171L83 0H-35ZM224 255H471L431 454Q428 470 425 488T418 524T412 559T407 588H402Q392 568 379 542T353 491T332 451L224 255ZM400 736L312 865L313
868H426L488 736H400Z" />
<glyph unicode="&#xc1;" glyph-name="Aacute" horiz-adv-x="695" d="M-35 0L351 686H492L638 0H524L491 160H171L83 0H-35ZM224 255H471L431 454Q428 470 425 488T418 524T412 559T407 588H402Q392 568 379 542T353 491T332 451L224 255ZM386 736L494 868H611V865L478
736H386Z" />
<glyph unicode="&#xc2;" glyph-name="Acircumflex" horiz-adv-x="695" d="M-35 0L351 686H492L638 0H524L491 160H171L83 0H-35ZM224 255H471L431 454Q428 470 425 488T418 524T412 559T407 588H402Q392 568 379 542T353 491T332 451L224 255ZM275 736L404 868H509L591
736H497L431 843L480 842L374 736H275Z" />
<glyph unicode="&#xc3;" glyph-name="Atilde" horiz-adv-x="695" d="M-35 0L351 686H492L638 0H524L491 160H171L83 0H-35ZM224 255H471L431 454Q428 470 425 488T418 524T412 559T407 588H402Q392 568 379 542T353 491T332 451L224 255ZM278 759Q284 788 297
812T333 851T387 866Q413 866 434 858T477 841T520 832Q534 832 544 840T559 866H621Q616 837 602 813T566 774T512 759Q487 759 466 768T423 785T379 794Q365 794 355 786T340 759H278Z" />
<glyph unicode="&#xc4;" glyph-name="Adieresis" horiz-adv-x="695" d="M-35 0L351 686H492L638 0H524L491 160H171L83 0H-35ZM224 255H471L431 454Q428 470 425 488T418 524T412 559T407 588H402Q392 568 379 542T353 491T332 451L224 255ZM296 766L313 868H411L393
766H296ZM490 766L508 868H606L588 766H490Z" />
<glyph unicode="&#xc5;" glyph-name="Aring" horiz-adv-x="695" d="M-35 0L351 686H492L638 0H524L491 160H171L83 0H-35ZM224 255H471L431 454Q428 470 425 488T418 524T412 559T407 588H402Q392 568 379 542T353 491T332 451L224 255ZM438 729Q398 729 372 752T346
811Q346 843 361 868T404 908T468 922Q508 922 534 900T560 841Q560 809 544 784T501 744T438 729ZM446 785Q462 785 473 791T492 807T500 832Q500 847 489 857T460 867Q445 867 433 861T414 844T407 819Q407 805 418 795T446 785Z" />
<glyph unicode="&#xc6;" glyph-name="AE" horiz-adv-x="999" d="M-46 0L413 686H1014L996 590H569L587 399H919L902 303H596L614 96H916L899 0H516L502 161H180L74 0H-46ZM241 255H494L471 520Q470 528 470 536T468 554T466 572T465 589H460Q453 578 445 566T430
542T415 520L241 255Z" />
<glyph unicode="&#xc7;" glyph-name="Ccedilla" horiz-adv-x="725" d="M341 -12Q203 -12 129 53T54 254Q54 283 56 310T63 362Q82 466 132 541T262 657T446 698Q527 698 588 676T683 607T718 491Q718 478 717 464T713 436H598Q601 446 601 456T602 475Q602 518
583 546T528 588T443 602Q388 602 344 585T267 537T213 460T181 360Q177 343 175 329T172 303T170 281T169 258Q169 198 189 160T248 103T343 84Q404 84 451 102T529 157T570 249H680Q666 160 618 102T498 16T341 -12ZM297 -179Q274 -179 249 -177T202 -171L210
-127H302Q326 -127 338 -120T351 -95Q351 -86 343 -82T314 -77H267L298 11H366L351 -36Q386 -38 411 -49T436 -90Q436 -117 423 -134T388 -161T343 -175T297 -179Z" />
<glyph unicode="&#xc8;" glyph-name="Egrave" horiz-adv-x="674" d="M36 0L156 686H688L671 590H252L218 399H594L578 303H200L164 96H591L574 0H36ZM394 736L307 865L308 868H420L482 736H394Z" />
<glyph unicode="&#xc9;" glyph-name="Eacute" horiz-adv-x="674" d="M36 0L156 686H688L671 590H252L218 399H594L578 303H200L164 96H591L574 0H36ZM380 736L488 868H605V865L473 736H380Z" />
<glyph unicode="&#xca;" glyph-name="Ecircumflex" horiz-adv-x="674" d="M36 0L156 686H688L671 590H252L218 399H594L578 303H200L164 96H591L574 0H36ZM269 736L399 868H503L585 736H492L425 843L475 842L368 736H269Z" />
<glyph unicode="&#xcb;" glyph-name="Edieresis" horiz-adv-x="674" d="M36 0L156 686H688L671 590H252L218 399H594L578 303H200L164 96H591L574 0H36ZM290 766L307 868H405L387 766H290ZM484 766L502 868H600L582 766H484Z" />
<glyph unicode="&#xcc;" glyph-name="Igrave" horiz-adv-x="274" d="M35 0L156 686H268L147 0H35ZM185 736L98 865L99 868H211L273 736H185Z" />
<glyph unicode="&#xcd;" glyph-name="Iacute" horiz-adv-x="274" d="M35 0L156 686H268L147 0H35ZM171 736L279 868H396V865L264 736H171Z" />
<glyph unicode="&#xce;" glyph-name="Icircumflex" horiz-adv-x="274" d="M35 0L156 686H268L147 0H35ZM60 736L190 868H295L376 736H283L216 843L266 842L159 736H60Z" />
<glyph unicode="&#xcf;" glyph-name="Idieresis" horiz-adv-x="274" d="M35 0L156 686H268L147 0H35ZM81 766L98 868H196L178 766H81ZM275 766L293 868H391L373 766H275Z" />
<glyph unicode="&#xd0;" glyph-name="Eth" horiz-adv-x="731" d="M7 304L23 392H396L381 304H7ZM35 0L156 686H409Q550 686 627 622T705 419Q705 393 703 368T697 319Q679 219 628 148T498 38T316 0H35ZM164 96H310Q366 96 412 111T493 156T549 229T580 329Q584
347 585 362T588 390T589 415Q589 477 568 515T504 572T402 590H251L164 96Z" />
<glyph unicode="&#xd1;" glyph-name="Ntilde" horiz-adv-x="734" d="M36 0L156 686H264L492 260Q497 251 504 237T518 209T530 183L536 184Q538 201 541 221T546 257L621 686H728L608 0H504L282 416Q273 432 259 460T235 507H230Q228 490 224 465T217 423L143
0H36ZM297 759Q303 788 316 812T352 851T405 866Q431 866 453 858T496 841T539 832Q553 832 563 840T578 866H640Q635 837 621 813T585 774T530 759Q506 759 484 768T442 785T398 794Q383 794 374 786T358 759H297Z" />
<glyph unicode="&#xd2;" glyph-name="Ograve" horiz-adv-x="785" d="M357 -12Q261 -12 194 18T90 108T54 256Q54 281 56 304T62 351Q80 458 131 536T265 656T457 698Q553 698 620 668T724 578T761 430Q761 407 759 384T753 338Q736 231 684 152T550 31T357 -12ZM357
84Q417 84 464 101T546 151T603 231T636 337Q638 352 640 364T643 387T644 406T645 425Q645 484 623 523T559 583T456 603Q397 603 350 586T267 536T210 456T177 350Q175 335 174 323T171 300T170 280T169 262Q169 203 191 164T255 104T357 84ZM440 736L353 865L354
868H466L528 736H440Z" />
<glyph unicode="&#xd3;" glyph-name="Oacute" horiz-adv-x="785" d="M357 -12Q261 -12 194 18T90 108T54 256Q54 281 56 304T62 351Q80 458 131 536T265 656T457 698Q553 698 620 668T724 578T761 430Q761 407 759 384T753 338Q736 231 684 152T550 31T357 -12ZM357
84Q417 84 464 101T546 151T603 231T636 337Q638 352 640 364T643 387T644 406T645 425Q645 484 623 523T559 583T456 603Q397 603 350 586T267 536T210 456T177 350Q175 335 174 323T171 300T170 280T169 262Q169 203 191 164T255 104T357 84ZM426 736L534 868H651V865L519
736H426Z" />
<glyph unicode="&#xd4;" glyph-name="Ocircumflex" horiz-adv-x="785" d="M357 -12Q261 -12 194 18T90 108T54 256Q54 281 56 304T62 351Q80 458 131 536T265 656T457 698Q553 698 620 668T724 578T761 430Q761 407 759 384T753 338Q736 231 684 152T550 31T357
-12ZM357 84Q417 84 464 101T546 151T603 231T636 337Q638 352 640 364T643 387T644 406T645 425Q645 484 623 523T559 583T456 603Q397 603 350 586T267 536T210 456T177 350Q175 335 174 323T171 300T170 280T169 262Q169 203 191 164T255 104T357 84ZM315 736L445
868H549L631 736H538L471 843L521 842L414 736H315Z" />
<glyph unicode="&#xd5;" glyph-name="Otilde" horiz-adv-x="785" d="M357 -12Q261 -12 194 18T90 108T54 256Q54 281 56 304T62 351Q80 458 131 536T265 656T457 698Q553 698 620 668T724 578T761 430Q761 407 759 384T753 338Q736 231 684 152T550 31T357 -12ZM357
84Q417 84 464 101T546 151T603 231T636 337Q638 352 640 364T643 387T644 406T645 425Q645 484 623 523T559 583T456 603Q397 603 350 586T267 536T210 456T177 350Q175 335 174 323T171 300T170 280T169 262Q169 203 191 164T255 104T357 84ZM318 759Q324 788
337 812T373 851T427 866Q453 866 474 858T517 841T561 832Q575 832 584 840T600 866H662Q657 837 643 813T606 774T552 759Q527 759 506 768T464 785T419 794Q405 794 395 786T380 759H318Z" />
<glyph unicode="&#xd6;" glyph-name="Odieresis" horiz-adv-x="785" d="M357 -12Q261 -12 194 18T90 108T54 256Q54 281 56 304T62 351Q80 458 131 536T265 656T457 698Q553 698 620 668T724 578T761 430Q761 407 759 384T753 338Q736 231 684 152T550 31T357
-12ZM357 84Q417 84 464 101T546 151T603 231T636 337Q638 352 640 364T643 387T644 406T645 425Q645 484 623 523T559 583T456 603Q397 603 350 586T267 536T210 456T177 350Q175 335 174 323T171 300T170 280T169 262Q169 203 191 164T255 104T357 84ZM336 766L353
868H451L433 766H336ZM530 766L548 868H646L628 766H530Z" />
<glyph unicode="&#xd7;" glyph-name="multiply" horiz-adv-x="630" d="M127 42L74 107L254 258L134 403L201 462L320 317L500 469L553 403L373 251L493 107L426 48L307 193L127 42Z" />
<glyph unicode="&#xd8;" glyph-name="Oslash" horiz-adv-x="785" d="M357 -12Q261 -12 194 18T90 108T54 256Q54 281 56 304T62 351Q80 458 131 536T265 656T457 698Q553 698 620 668T724 578T761 430Q761 407 759 384T753 338Q736 231 684 152T550 31T357 -12ZM357
84Q417 84 464 101T546 151T603 231T636 337Q638 352 640 364T643 387T644 406T645 425Q645 484 623 523T559 583T456 603Q397 603 350 586T267 536T210 456T177 350Q175 335 174 323T171 300T170 280T169 262Q169 203 191 164T255 104T357 84ZM-1 -49L719 735H815L95
-49H-1Z" />
<glyph unicode="&#xd9;" glyph-name="Ugrave" horiz-adv-x="728" d="M330 -12Q207 -12 140 39T72 196Q72 211 74 229T79 265L153 686H264L189 258Q187 249 185 235T183 209Q183 146 221 115T331 83Q414 83 468 126T537 254L613 686H725L649 257Q633 165 592 105T485
17T330 -12ZM418 736L331 865L332 868H444L506 736H418Z" />
<glyph unicode="&#xda;" glyph-name="Uacute" horiz-adv-x="728" d="M330 -12Q207 -12 140 39T72 196Q72 211 74 229T79 265L153 686H264L189 258Q187 249 185 235T183 209Q183 146 221 115T331 83Q414 83 468 126T537 254L613 686H725L649 257Q633 165 592 105T485
17T330 -12ZM404 736L512 868H629V865L497 736H404Z" />
<glyph unicode="&#xdb;" glyph-name="Ucircumflex" horiz-adv-x="728" d="M330 -12Q207 -12 140 39T72 196Q72 211 74 229T79 265L153 686H264L189 258Q187 249 185 235T183 209Q183 146 221 115T331 83Q414 83 468 126T537 254L613 686H725L649 257Q633 165 592
105T485 17T330 -12ZM293 736L423 868H528L609 736H516L449 843L499 842L392 736H293Z" />
<glyph unicode="&#xdc;" glyph-name="Udieresis" horiz-adv-x="728" d="M330 -12Q207 -12 140 39T72 196Q72 211 74 229T79 265L153 686H264L189 258Q187 249 185 235T183 209Q183 146 221 115T331 83Q414 83 468 126T537 254L613 686H725L649 257Q633 165 592
105T485 17T330 -12ZM314 766L331 868H429L411 766H314ZM508 766L526 868H624L606 766H508Z" />
<glyph unicode="&#xdd;" glyph-name="Yacute" horiz-adv-x="666" d="M232 0L282 282L85 686H200L349 381H355L608 686H731L393 282L344 0H232ZM365 736L473 868H590V865L458 736H365Z" />
<glyph unicode="&#xde;" glyph-name="Thorn" horiz-adv-x="684" d="M35 0L156 686H268L248 573H435Q513 573 561 551T631 489T654 393Q654 334 636 288T583 208T501 158T394 141H172L147 0H35ZM188 236H391Q435 236 468 253T521 302T540 381Q540 427 515 452T433
477H231L188 236Z" />
<glyph unicode="&#xdf;" glyph-name="germandbls" horiz-adv-x="622" d="M21 0L111 514Q121 569 143 610T198 679T276 721T376 735Q429 735 470 724T539 692T581 641T596 573Q596 530 578 495T527 434T449 395V391Q504 373 533 334T562 231Q562 177 543 135T488
62T404 16T299 0H203L218 86H301Q349 86 383 106T437 159T456 231Q456 265 442 289T404 325T346 338H262L278 429H355Q390 429 420 445T468 490T487 556Q487 597 460 623T376 650Q335 650 302 635T246 591T216 518L125 0H21Z" />
<glyph unicode="&#xe0;" glyph-name="agrave" horiz-adv-x="573" d="M195 -12Q143 -12 105 9T45 73T24 180Q24 200 26 222T33 269Q49 363 83 422T166 510T278 538Q313 538 341 530T392 504T427 460H434L463 526H549L526 399Q519 362 512 323T498 246T486 178T477
127T474 101Q474 88 482 82T503 75H539L527 4Q517 -1 500 -6T458 -12Q431 -12 413 -1T387 33Q384 42 382 52T380 75H373Q340 31 295 10T195 -12ZM238 78Q264 78 289 88T335 120T372 175T397 256Q400 275 401 289T404 314T405 334Q405 371 394 396T360 435T301 448Q258
448 227 430T175 373T142 271Q138 250 136 235T133 208T132 186Q132 131 158 105T238 78ZM286 591L205 720L206 723H312L371 591H286Z" />
<glyph unicode="&#xe1;" glyph-name="aacute" horiz-adv-x="573" d="M195 -12Q143 -12 105 9T45 73T24 180Q24 200 26 222T33 269Q49 363 83 422T166 510T278 538Q313 538 341 530T392 504T427 460H434L463 526H549L526 399Q519 362 512 323T498 246T486 178T477
127T474 101Q474 88 482 82T503 75H539L527 4Q517 -1 500 -6T458 -12Q431 -12 413 -1T387 33Q384 42 382 52T380 75H373Q340 31 295 10T195 -12ZM238 78Q264 78 289 88T335 120T372 175T397 256Q400 275 401 289T404 314T405 334Q405 371 394 396T360 435T301 448Q258
448 227 430T175 373T142 271Q138 250 136 235T133 208T132 186Q132 131 158 105T238 78ZM273 591L379 723H493V720L363 591H273Z" />
<glyph unicode="&#xe2;" glyph-name="acircumflex" horiz-adv-x="573" d="M195 -12Q143 -12 105 9T45 73T24 180Q24 200 26 222T33 269Q49 363 83 422T166 510T278 538Q313 538 341 530T392 504T427 460H434L463 526H549L526 399Q519 362 512 323T498 246T486
178T477 127T474 101Q474 88 482 82T503 75H539L527 4Q517 -1 500 -6T458 -12Q431 -12 413 -1T387 33Q384 42 382 52T380 75H373Q340 31 295 10T195 -12ZM238 78Q264 78 289 88T335 120T372 175T397 256Q400 275 401 289T404 314T405 334Q405 371 394 396T360 435T301
448Q258 448 227 430T175 373T142 271Q138 250 136 235T133 208T132 186Q132 131 158 105T238 78ZM168 591L298 723H396L477 591H387L320 697H370L264 591H168Z" />
<glyph unicode="&#xe3;" glyph-name="atilde" horiz-adv-x="573" d="M195 -12Q143 -12 105 9T45 73T24 180Q24 200 26 222T33 269Q49 363 83 422T166 510T278 538Q313 538 341 530T392 504T427 460H434L463 526H549L526 399Q519 362 512 323T498 246T486 178T477
127T474 101Q474 88 482 82T503 75H539L527 4Q517 -1 500 -6T458 -12Q431 -12 413 -1T387 33Q384 42 382 52T380 75H373Q340 31 295 10T195 -12ZM238 78Q264 78 289 88T335 120T372 175T397 256Q400 275 401 289T404 314T405 334Q405 371 394 396T360 435T301 448Q258
448 227 430T175 373T142 271Q138 250 136 235T133 208T132 186Q132 131 158 105T238 78ZM163 614Q169 643 182 667T218 707T272 722Q298 722 320 714T362 696T406 687Q420 687 429 695T445 722H507Q502 693 488 668T451 629T397 614Q372 614 351 623T308 641T265
650Q250 650 240 641T225 614H163Z" />
<glyph unicode="&#xe4;" glyph-name="adieresis" horiz-adv-x="573" d="M195 -12Q143 -12 105 9T45 73T24 180Q24 200 26 222T33 269Q49 363 83 422T166 510T278 538Q313 538 341 530T392 504T427 460H434L463 526H549L526 399Q519 362 512 323T498 246T486 178T477
127T474 101Q474 88 482 82T503 75H539L527 4Q517 -1 500 -6T458 -12Q431 -12 413 -1T387 33Q384 42 382 52T380 75H373Q340 31 295 10T195 -12ZM238 78Q264 78 289 88T335 120T372 175T397 256Q400 275 401 289T404 314T405 334Q405 371 394 396T360 435T301 448Q258
448 227 430T175 373T142 271Q138 250 136 235T133 208T132 186Q132 131 158 105T238 78ZM185 621L202 722H300L282 621H185ZM381 621L399 722H497L480 621H381Z" />
<glyph unicode="&#xe5;" glyph-name="aring" horiz-adv-x="573" d="M195 -12Q143 -12 105 9T45 73T24 180Q24 200 26 222T33 269Q49 363 83 422T166 510T278 538Q313 538 341 530T392 504T427 460H434L463 526H549L526 399Q519 362 512 323T498 246T486 178T477
127T474 101Q474 88 482 82T503 75H539L527 4Q517 -1 500 -6T458 -12Q431 -12 413 -1T387 33Q384 42 382 52T380 75H373Q340 31 295 10T195 -12ZM238 78Q264 78 289 88T335 120T372 175T397 256Q400 275 401 289T404 314T405 334Q405 371 394 396T360 435T301 448Q258
448 227 430T175 373T142 271Q138 250 136 235T133 208T132 186Q132 131 158 105T238 78ZM330 579Q293 579 269 603T244 663Q244 711 275 741T354 772Q390 772 413 749T437 689Q437 658 424 633T386 594T330 579ZM333 628Q350 628 362 635T380 654T387 683Q387
701 377 712T348 724Q333 724 321 717T301 697T294 668Q294 651 305 640T333 628Z" />
<glyph unicode="&#xe6;" glyph-name="ae" horiz-adv-x="894" d="M188 -12Q159 -12 128 -7T69 12T24 51T7 115Q7 164 27 199T82 256T166 291T272 308T394 313L402 364Q404 370 404 377T405 390Q405 419 384 436T306 454Q262 454 236 445T197 419T181 382L178 370H77Q77
372 77 377T79 386Q88 434 119 468T199 520T310 538Q377 538 420 522T485 474Q517 505 560 521T659 538Q726 538 771 517T840 455T863 351Q863 329 860 301T849 237H486Q484 223 483 211T481 186Q481 147 493 121T532 83T596 71Q625 71 649 78T690 100T719 134T736
182H838Q831 135 811 99T759 39T687 1T597 -12Q525 -12 476 10T402 78Q373 46 339 26T266 -3T188 -12ZM200 72Q233 72 262 81T315 109T354 151T375 206L381 237Q309 237 249 229T154 198T118 128Q118 110 127 98T155 79T200 72ZM501 313H755Q757 325 758 335T759
355Q759 391 747 412T713 444T659 454Q617 454 586 439T534 392T501 313Z" />
<glyph unicode="&#xe7;" glyph-name="ccedilla" horiz-adv-x="532" d="M250 -12Q178 -12 130 9T58 74T34 187Q34 215 37 243T47 298Q58 351 79 394T132 470T208 520T309 538Q376 538 420 519T488 465T511 379Q511 368 510 356T506 330H402Q403 339 404 347T405
365Q405 392 396 412T365 442T311 453Q268 453 236 433T183 373T151 276Q147 256 145 241T142 214T141 192Q141 151 153 125T189 87T248 74Q288 74 315 89T359 132T383 196H483Q473 133 444 86T367 14T250 -12ZM192 -179Q169 -179 144 -177T97 -171L106 -127H197Q221
-127 233 -120T246 -95Q246 -86 238 -82T209 -77H162L193 11H261L246 -36Q281 -38 306 -49T331 -90Q331 -117 318 -134T283 -161T238 -175T192 -179Z" />
<glyph unicode="&#xe8;" glyph-name="egrave" horiz-adv-x="554" d="M257 -12Q183 -12 133 9T59 75T34 187Q34 214 37 242T45 295Q59 365 91 419T178 506T316 538Q385 538 431 517T500 453T523 347Q523 324 520 295T508 237H144Q142 223 141 212T140 188Q140 149
152 123T191 85T257 73Q282 73 304 79T344 98T375 131T395 182H497Q488 132 467 96T414 36T343 0T257 -12ZM158 313H414Q416 325 417 335T418 355Q418 389 407 411T372 443T317 454Q276 454 245 438T192 391T158 313ZM289 591L208 720L209 723H315L374 591H289Z"
/>
<glyph unicode="&#xe9;" glyph-name="eacute" horiz-adv-x="554" d="M257 -12Q183 -12 133 9T59 75T34 187Q34 214 37 242T45 295Q59 365 91 419T178 506T316 538Q385 538 431 517T500 453T523 347Q523 324 520 295T508 237H144Q142 223 141 212T140 188Q140 149
152 123T191 85T257 73Q282 73 304 79T344 98T375 131T395 182H497Q488 132 467 96T414 36T343 0T257 -12ZM158 313H414Q416 325 417 335T418 355Q418 389 407 411T372 443T317 454Q276 454 245 438T192 391T158 313ZM277 591L382 723H497V720L367 591H277Z" />
<glyph unicode="&#xea;" glyph-name="ecircumflex" horiz-adv-x="554" d="M257 -12Q183 -12 133 9T59 75T34 187Q34 214 37 242T45 295Q59 365 91 419T178 506T316 538Q385 538 431 517T500 453T523 347Q523 324 520 295T508 237H144Q142 223 141 212T140 188Q140
149 152 123T191 85T257 73Q282 73 304 79T344 98T375 131T395 182H497Q488 132 467 96T414 36T343 0T257 -12ZM158 313H414Q416 325 417 335T418 355Q418 389 407 411T372 443T317 454Q276 454 245 438T192 391T158 313ZM172 591L302 723H400L481 591H391L324
697H374L268 591H172Z" />
<glyph unicode="&#xeb;" glyph-name="edieresis" horiz-adv-x="554" d="M257 -12Q183 -12 133 9T59 75T34 187Q34 214 37 242T45 295Q59 365 91 419T178 506T316 538Q385 538 431 517T500 453T523 347Q523 324 520 295T508 237H144Q142 223 141 212T140 188Q140
149 152 123T191 85T257 73Q282 73 304 79T344 98T375 131T395 182H497Q488 132 467 96T414 36T343 0T257 -12ZM158 313H414Q416 325 417 335T418 355Q418 389 407 411T372 443T317 454Q276 454 245 438T192 391T158 313ZM188 621L206 722H304L286 621H188ZM385
621L402 722H501L483 621H385Z" />
<glyph unicode="&#xec;" glyph-name="igrave" horiz-adv-x="238" d="M21 0L114 526H218L125 0H21ZM136 591L55 720L56 723H162L221 591H136Z" />
<glyph unicode="&#xed;" glyph-name="iacute" horiz-adv-x="238" d="M21 0L114 526H218L125 0H21ZM123 591L229 723H343V720L213 591H123Z" />
<glyph unicode="&#xee;" glyph-name="icircumflex" horiz-adv-x="238" d="M21 0L114 526H218L125 0H21ZM18 591L148 723H246L327 591H237L170 697H220L114 591H18Z" />
<glyph unicode="&#xef;" glyph-name="idieresis" horiz-adv-x="238" d="M21 0L114 526H218L125 0H21ZM35 621L52 722H150L132 621H35ZM231 621L249 722H347L330 621H231Z" />
<glyph unicode="&#xf0;" glyph-name="eth" horiz-adv-x="589" d="M260 -12Q186 -12 136 9T61 75T35 188Q35 263 54 327T110 437Q126 460 146 477T190 507T241 526T299 533Q325 533 349 528T394 515L398 517Q387 541 374 563T342 608L186 596L197 659L296 666Q282
680 268 693T239 718L242 723H363Q375 712 388 700T412 674L569 685L558 623L461 616Q500 561 527 492T554 345Q554 293 546 244T520 154Q500 104 466 67T381 9T260 -12ZM263 74Q310 74 343 92T397 144T429 223Q433 237 436 250T441 277T444 303T445 328Q445 369
432 395T392 433T323 446Q277 446 244 428T191 377T160 299Q154 280 150 262T145 226T143 192Q143 152 156 126T195 87T263 74Z" />
<glyph unicode="&#xf1;" glyph-name="ntilde" horiz-adv-x="573" d="M21 0L113 526H197L194 451H201Q224 478 253 497T315 527T382 538Q424 538 457 525T511 483T531 406Q531 390 529 373T523 335L464 0H360L418 329Q420 342 421 354T423 376Q423 403 413 418T385
440T343 447Q315 447 288 437T238 406T199 356T176 287L125 0H21ZM190 614Q196 643 209 667T245 707T299 722Q325 722 347 714T389 696T433 687Q447 687 456 695T472 722H534Q528 693 514 668T478 629T424 614Q399 614 378 623T335 641T292 650Q277 650 267 641T252
614H190Z" />
<glyph unicode="&#xf2;" glyph-name="ograve" horiz-adv-x="583" d="M252 -12Q180 -12 131 9T57 75T32 187Q32 206 34 227T40 271Q56 363 94 422T191 509T330 538Q403 538 452 517T525 451T550 338Q550 319 549 299T542 255Q526 163 489 104T394 17T252 -12ZM258
74Q307 74 342 93T399 153T432 254Q437 274 438 288T440 314T441 334Q441 374 429 400T390 439T324 452Q275 452 241 432T184 373T149 272Q146 252 144 237T141 212T140 191Q140 151 152 126T192 87T258 74ZM308 591L228 720L229 723H334L393 591H308Z" />
<glyph unicode="&#xf3;" glyph-name="oacute" horiz-adv-x="583" d="M252 -12Q180 -12 131 9T57 75T32 187Q32 206 34 227T40 271Q56 363 94 422T191 509T330 538Q403 538 452 517T525 451T550 338Q550 319 549 299T542 255Q526 163 489 104T394 17T252 -12ZM258
74Q307 74 342 93T399 153T432 254Q437 274 438 288T440 314T441 334Q441 374 429 400T390 439T324 452Q275 452 241 432T184 373T149 272Q146 252 144 237T141 212T140 191Q140 151 152 126T192 87T258 74ZM296 591L402 723H516V720L386 591H296Z" />
<glyph unicode="&#xf4;" glyph-name="ocircumflex" horiz-adv-x="583" d="M252 -12Q180 -12 131 9T57 75T32 187Q32 206 34 227T40 271Q56 363 94 422T191 509T330 538Q403 538 452 517T525 451T550 338Q550 319 549 299T542 255Q526 163 489 104T394 17T252 -12ZM258
74Q307 74 342 93T399 153T432 254Q437 274 438 288T440 314T441 334Q441 374 429 400T390 439T324 452Q275 452 241 432T184 373T149 272Q146 252 144 237T141 212T140 191Q140 151 152 126T192 87T258 74ZM191 591L321 723H419L500 591H410L343 697H393L287 591H191Z"
/>
<glyph unicode="&#xf5;" glyph-name="otilde" horiz-adv-x="583" d="M252 -12Q180 -12 131 9T57 75T32 187Q32 206 34 227T40 271Q56 363 94 422T191 509T330 538Q403 538 452 517T525 451T550 338Q550 319 549 299T542 255Q526 163 489 104T394 17T252 -12ZM258
74Q307 74 342 93T399 153T432 254Q437 274 438 288T440 314T441 334Q441 374 429 400T390 439T324 452Q275 452 241 432T184 373T149 272Q146 252 144 237T141 212T140 191Q140 151 152 126T192 87T258 74ZM186 614Q192 643 205 667T241 707T294 722Q320 722 342
714T385 696T428 687Q443 687 452 695T467 722H530Q524 693 510 668T474 629T420 614Q395 614 373 623T331 641T288 650Q273 650 263 641T247 614H186Z" />
<glyph unicode="&#xf6;" glyph-name="odieresis" horiz-adv-x="583" d="M252 -12Q180 -12 131 9T57 75T32 187Q32 206 34 227T40 271Q56 363 94 422T191 509T330 538Q403 538 452 517T525 451T550 338Q550 319 549 299T542 255Q526 163 489 104T394 17T252 -12ZM258
74Q307 74 342 93T399 153T432 254Q437 274 438 288T440 314T441 334Q441 374 429 400T390 439T324 452Q275 452 241 432T184 373T149 272Q146 252 144 237T141 212T140 191Q140 151 152 126T192 87T258 74ZM208 621L225 722H323L305 621H208ZM404 621L422 722H520L502
621H404Z" />
<glyph unicode="&#xf7;" glyph-name="divide" horiz-adv-x="630" d="M70 212L85 298H558L542 212H70ZM219 12L237 110H339L321 12H219ZM287 401L305 498H408L390 401H287Z" />
<glyph unicode="&#xf8;" glyph-name="oslash" horiz-adv-x="583" d="M252 -12Q180 -12 131 9T57 75T32 187Q32 206 34 227T40 271Q56 363 94 422T191 509T330 538Q403 538 452 517T525 451T550 338Q550 319 549 299T542 255Q526 163 489 104T394 17T252 -12ZM258
74Q307 74 342 93T399 153T432 254Q437 274 438 288T440 314T441 334Q441 374 429 400T390 439T324 452Q275 452 241 432T184 373T149 272Q146 252 144 237T141 212T140 191Q140 151 152 126T192 87T258 74ZM-22 -49L532 575H606L53 -49H-22Z" />
<glyph unicode="&#xf9;" glyph-name="ugrave" horiz-adv-x="572" d="M190 -12Q148 -12 114 1T59 43T39 120Q39 136 41 153T48 191L107 526H212L154 196Q152 183 150 172T148 150Q148 123 158 108T187 86T229 79Q257 79 284 89T333 119T372 168T395 236L446 526H551L458
0H374L377 75H370Q348 48 319 29T258 -1T190 -12ZM299 591L219 720L220 723H326L385 591H299Z" />
<glyph unicode="&#xfa;" glyph-name="uacute" horiz-adv-x="572" d="M190 -12Q148 -12 114 1T59 43T39 120Q39 136 41 153T48 191L107 526H212L154 196Q152 183 150 172T148 150Q148 123 158 108T187 86T229 79Q257 79 284 89T333 119T372 168T395 236L446 526H551L458
0H374L377 75H370Q348 48 319 29T258 -1T190 -12ZM287 591L393 723H507V720L377 591H287Z" />
<glyph unicode="&#xfb;" glyph-name="ucircumflex" horiz-adv-x="572" d="M190 -12Q148 -12 114 1T59 43T39 120Q39 136 41 153T48 191L107 526H212L154 196Q152 183 150 172T148 150Q148 123 158 108T187 86T229 79Q257 79 284 89T333 119T372 168T395 236L446
526H551L458 0H374L377 75H370Q348 48 319 29T258 -1T190 -12ZM182 591L312 723H410L491 591H401L334 697H384L278 591H182Z" />
<glyph unicode="&#xfc;" glyph-name="udieresis" horiz-adv-x="572" d="M190 -12Q148 -12 114 1T59 43T39 120Q39 136 41 153T48 191L107 526H212L154 196Q152 183 150 172T148 150Q148 123 158 108T187 86T229 79Q257 79 284 89T333 119T372 168T395 236L446
526H551L458 0H374L377 75H370Q348 48 319 29T258 -1T190 -12ZM199 621L216 722H314L296 621H199ZM395 621L413 722H511L494 621H395Z" />
<glyph unicode="&#xfd;" glyph-name="yacute" horiz-adv-x="516" d="M52 -182Q19 -182 -1 -178T-26 -172L-14 -96H38Q62 -96 84 -88T128 -58T167 2L57 526H161L213 273Q218 251 223 222T232 163T239 112H244Q251 128 259 148T277 189T296 229T312 263L443 526H552L289
20Q267 -23 243 -59T191 -123T129 -166T52 -182ZM258 591L364 723H479V720L349 591H258Z" />
<glyph unicode="&#xfe;" glyph-name="thorn" horiz-adv-x="576" d="M-10 -173L148 723H252L206 462H213Q233 487 257 504T312 529T375 538Q428 538 465 516T523 451T544 344Q544 324 542 301T535 253Q520 165 487 107T403 18T288 -12Q255 -12 228 -4T179 21T142
63H136L94 -173H-10ZM267 78Q315 78 346 98T397 158T427 254Q431 273 432 287T435 313T436 337Q436 376 426 400T392 436T332 448Q288 448 255 426T201 363T170 269Q168 253 166 239T164 214T163 193Q163 152 176 127T212 90T267 78Z" />
<glyph unicode="&#xff;" glyph-name="ydieresis" horiz-adv-x="516" d="M52 -182Q19 -182 -1 -178T-26 -172L-14 -96H38Q62 -96 84 -88T128 -58T167 2L57 526H161L213 273Q218 251 223 222T232 163T239 112H244Q251 128 259 148T277 189T296 229T312 263L443 526H552L289
20Q267 -23 243 -59T191 -123T129 -166T52 -182ZM170 621L188 722H285L268 621H170ZM367 621L384 722H483L465 621H367Z" />
<glyph unicode="&#x2013;" glyph-name="endash" horiz-adv-x="500" d="M-4 229L9 311H508L494 229H-4Z" />
<glyph unicode="&#x2014;" glyph-name="emdash" horiz-adv-x="1000" d="M-4 229L9 311H1008L994 229H-4Z" />
<glyph unicode="&#x2018;" glyph-name="quoteleft" horiz-adv-x="258" d="M271 686L262 640Q240 636 223 621T196 582T181 532H234L213 416H103L121 521Q131 579 153 613T207 665T271 686Z" />
<glyph unicode="&#x2019;" glyph-name="quoteright" horiz-adv-x="258" d="M89 416L98 462Q120 466 136 481T164 520T179 570H125L146 686H257L239 581Q229 524 206 489T153 437T89 416Z" />
<glyph unicode="&#x201a;" glyph-name="quotesinglbase" horiz-adv-x="258" d="M-12 -154L-3 -109Q20 -105 36 -90T64 -51T79 0H25L46 116H157L139 11Q129 -47 106 -82T53 -134T-12 -154Z" />
<glyph unicode="&#x201c;" glyph-name="quotedblleft" horiz-adv-x="435" d="M448 686L439 640Q417 636 400 621T373 582T358 532H411L391 416H280L298 521Q308 579 331 613T384 665T448 686ZM271 686L262 640Q240 636 223 621T196 582T181 532H234L213 416H103L121
521Q131 579 153 613T207 665T271 686Z" />
<glyph unicode="&#x201d;" glyph-name="quotedblright" horiz-adv-x="435" d="M89 416L98 462Q120 466 136 481T164 520T179 570H125L146 686H257L239 581Q229 524 206 489T153 437T89 416ZM266 416L275 462Q297 466 314 481T341 520T356 570H302L323 686H434L416
581Q406 524 383 489T330 437T266 416Z" />
<glyph unicode="&#x201e;" glyph-name="quotedblbase" horiz-adv-x="435" d="M-12 -154L-3 -109Q20 -105 36 -90T64 -51T79 0H25L46 116H157L139 11Q129 -47 106 -82T53 -134T-12 -154ZM166 -154L175 -109Q197 -105 213 -90T241 -51T256 0H202L223 116H334L316
11Q306 -47 283 -82T230 -134T166 -154Z" />
<glyph unicode="&#x2022;" glyph-name="bullet" horiz-adv-x="407" d="M198 216Q165 216 141 230T102 268T88 321Q88 365 107 398T161 451T238 471Q270 471 295 457T333 419T347 365Q347 322 328 289T276 236T198 216Z" />
<glyph unicode="&#x2039;" glyph-name="guilsinglleft" horiz-adv-x="355" d="M183 126L69 326L244 526H333L177 326L262 126H183Z" />
<glyph unicode="&#x203a;" glyph-name="guilsinglright" horiz-adv-x="355" d="M195 526L309 326L133 126H44L201 326L115 526H195Z" />
</font>
</defs>
</svg>
