<?xml version="1.0" standalone="no"?>
<!DOCTYPE svg PUBLIC "-//W3C//DTD SVG 1.1//EN" "http://www.w3.org/Graphics/SVG/1.1/DTD/svg11.dtd">
<svg xmlns="http://www.w3.org/2000/svg">
<defs >
<font id="Archivo" horiz-adv-x="577" ><font-face
    font-family="Archivo SemiBold"
    units-per-em="1000"
    panose-1="0 0 0 0 0 0 0 0 0 0"
    ascent="878"
    descent="-210"
    alphabetic="0" />
<glyph unicode=" " glyph-name="space" horiz-adv-x="200" />
<glyph unicode="!" glyph-name="exclam" horiz-adv-x="292" d="M95 189L150 686H292L171 189H95ZM37 0L60 128H187L164 0H37Z" />
<glyph unicode="&quot;" glyph-name="quotedbl" horiz-adv-x="444" d="M108 407V539L134 686H263L237 539L191 407H108ZM306 407V539L332 686H461L435 539L389 407H306Z" />
<glyph unicode="#" glyph-name="numbersign" horiz-adv-x="583" d="M68 -12L105 168H37V266H126L153 399H83V497H174L217 698H317L275 497H395L437 698H538L496 497H572V399H476L448 266H526V168H428L390 -12H289L327 168H206L169 -12H68ZM226 266H347L375 399H254L226
266Z" />
<glyph unicode="$" glyph-name="dollar" horiz-adv-x="541" d="M180 -49L317 723H368L231 -49H180ZM252 67Q197 67 155 77T85 105T42 148T28 204Q28 216 30 227T35 244H154Q153 240 152 234T151 226Q151 203 165 189T202 169T253 163Q274 163 294 166T332 177T359
196T369 226Q369 244 358 255T329 275T287 289T237 303Q209 311 181 321T131 346T95 384T81 440Q81 483 99 516T149 571T223 605T315 617Q362 617 400 609T466 584T509 546T524 495Q524 479 521 466T517 451H398Q399 456 399 460T400 467Q400 484 390 496T361 514T313
521Q286 521 267 517T234 504T215 486T208 464Q208 443 227 432T276 413T340 394Q369 385 396 376T447 351T483 313T497 254Q497 202 477 166T423 109T344 77T252 67Z" />
<glyph unicode="%" glyph-name="percent" horiz-adv-x="966" d="M140 0L763 686H862L237 0H140ZM280 337Q208 337 169 365T129 463Q129 477 130 492T135 524Q145 586 168 624T229 680T315 698Q386 698 425 670T465 570Q465 557 464 544T461 514Q451 452 428 413T368
356T280 337ZM680 -12Q609 -12 569 16T529 114Q529 128 531 144T536 178Q547 239 570 276T630 331T715 349Q787 349 826 321T866 221Q866 207 865 192T860 159Q849 98 826 61T766 6T680 -12ZM279 411Q320 411 337 439T362 508Q365 521 366 530T368 547T369 561Q369
592 357 608T314 624Q275 624 258 597T232 528Q230 515 228 506T226 489T225 474Q225 443 237 427T279 411ZM679 62Q720 62 737 90T763 159Q766 172 767 181T768 198T769 212Q769 243 757 259T715 275Q675 275 658 247T632 178Q630 165 629 156T627 139T626 125Q626
94 638 78T679 62Z" />
<glyph unicode="&amp;" glyph-name="ampersand" horiz-adv-x="729" d="M297 -12Q218 -12 160 7T70 64T38 156Q38 212 61 252T122 317T206 352L207 356Q166 376 139 405T112 484Q112 536 134 575T195 642T287 684T399 698Q474 698 529 679T614 624T645 540Q645
533 644 522T638 485H515Q518 502 518 509T519 520Q519 546 505 563T465 589T399 598Q363 598 334 590T282 567T248 530T236 478Q236 452 249 434T286 407T339 398H405L388 298H324Q297 298 269 293T218 274T181 237T167 175Q167 145 182 126T225 98T292 88Q344
88 380 100T437 138T465 198L500 398H714L697 297H605L588 201Q576 135 540 88T442 14T297 -12Z" />
<glyph unicode="&apos;" glyph-name="quotesingle" horiz-adv-x="246" d="M108 407V539L134 686H263L237 539L191 407H108Z" />
<glyph unicode="(" glyph-name="parenleft" horiz-adv-x="357" d="M156 -157Q105 -85 80 1T54 180Q54 282 84 381T172 570T310 735H392Q344 675 303 607T232 466T185 316T168 164Q168 106 176 49T199 -60T235 -157H156Z" />
<glyph unicode=")" glyph-name="parenright" horiz-adv-x="357" d="M211 735Q262 663 287 577T313 398Q313 296 283 197T195 8T57 -157H-25Q23 -97 64 -29T135 112T182 262T199 414Q199 473 191 529T168 638T132 735H211Z" />
<glyph unicode="*" glyph-name="asterisk" horiz-adv-x="407" d="M178 329L212 462L95 386L68 452L193 508L88 565L138 630L228 554L241 687H316L281 554L399 630L425 565L299 508L405 452L356 386L265 462L253 329H178Z" />
<glyph unicode="+" glyph-name="plus" horiz-adv-x="636" d="M220 0L257 206H72L90 304H275L311 511H412L376 304H562L544 206H358L321 0H220Z" />
<glyph unicode="," glyph-name="comma" horiz-adv-x="300" d="M-1 -163L9 -112Q34 -108 52 -92T82 -52T98 0H36L59 128H185L165 11Q157 -33 142 -64T104 -117T56 -149T-1 -163Z" />
<glyph unicode="-" glyph-name="hyphen" horiz-adv-x="333" d="M32 214L51 326H303L284 214H32Z" />
<glyph unicode="." glyph-name="period" horiz-adv-x="300" d="M40 0L63 128H190L167 0H40Z" />
<glyph unicode="/" glyph-name="slash" horiz-adv-x="298" d="M-55 -49L290 735H381L36 -49H-55Z" />
<glyph unicode="0" glyph-name="zero" horiz-adv-x="575" d="M255 -12Q192 -12 146 6T74 70T49 195Q49 216 50 239T55 288T64 343Q81 448 107 516T169 625T249 681T346 698Q411 698 457 679T529 615T554 489Q554 469 552 446T547 397T539 343Q522 238 495 170T432
61T352 5T255 -12ZM254 88Q289 88 314 102T356 145T385 217T408 318Q415 355 419 382T426 430T430 465T431 492Q431 545 413 571T349 597Q313 597 288 583T246 540T217 468T194 367Q187 330 183 303T175 255T171 220T170 193Q170 141 189 115T254 88Z" />
<glyph unicode="1" glyph-name="one" horiz-adv-x="576" d="M25 0L43 100H208L284 532H118L131 607Q154 609 184 616T247 634T313 658T374 686H434L331 100H483L465 0H25Z" />
<glyph unicode="2" glyph-name="two" horiz-adv-x="576" d="M-2 0L4 33Q13 85 41 127T108 203T192 268T279 327T357 386T414 450T435 525Q435 551 415 573T347 596Q308 596 281 584T239 548T216 491L208 450H86Q91 519 115 566T176 643T259 685T353 698Q435 698
480 673T543 609T561 528Q561 476 543 434T495 356T427 292T350 237T276 189T213 144Q203 136 195 128T180 110H493L473 0H-2Z" />
<glyph unicode="3" glyph-name="three" horiz-adv-x="576" d="M259 -12Q183 -12 132 8T54 65T28 153Q28 163 29 175T34 209H158Q155 192 154 183T153 167Q153 128 179 108T255 88Q293 88 324 102T374 145T393 219Q393 251 378 268T338 291T284 298H227L244 399H304Q328
399 351 406T392 429T422 469T433 526Q433 551 422 566T391 589T346 597Q312 597 286 586T244 553T223 501L221 485H97L101 506Q113 565 148 608T235 674T350 698Q415 698 462 680T535 625T561 537Q561 487 542 452T491 394T421 356L420 352Q463 337 490 302T518
211Q518 142 483 92T389 15T259 -12Z" />
<glyph unicode="4" glyph-name="four" d="M291 0L319 153H18L34 253Q85 319 129 389T213 536T289 698H425Q403 645 373 589T311 480T247 382T189 303T148 253H336L365 420Q378 439 391 461T416 506T440 553T460 596H518L458 253H543L526 153H441L413 0H291Z" />
<glyph unicode="5" glyph-name="five" horiz-adv-x="575" d="M257 -12Q188 -12 138 9T60 69T33 165Q33 176 34 188T37 213H163Q162 204 161 197T160 182Q160 153 171 132T203 99T253 88Q279 88 304 98T350 128T383 180T396 255Q396 302 372 325T307 348Q282 348
261 340T221 320T189 291L76 306L170 686H565L546 575H258L217 407Q231 416 249 425T293 440T348 446Q400 446 439 427T501 369T524 269Q524 181 488 118T392 22T257 -12Z" />
<glyph unicode="6" glyph-name="six" horiz-adv-x="576" d="M268 -12Q199 -12 150 8T73 75T46 203Q46 229 49 260T58 326Q82 467 123 548T222 663T354 698Q424 698 467 678T531 621T552 537Q552 524 551 511T547 484H423Q425 495 426 504T427 521Q427 559 409
578T350 598Q301 598 271 572T224 496T194 380Q205 390 225 404T276 429T343 440Q407 440 447 418T507 356T527 262Q527 200 507 150T451 63T368 8T268 -12ZM263 88Q301 88 329 105T374 151Q387 171 393 196T399 247Q399 275 390 296T361 329T309 341Q274 341 247
327T201 288Q186 268 178 241T170 184Q170 156 180 134T210 100T263 88Z" />
<glyph unicode="7" glyph-name="seven" horiz-adv-x="576" d="M95 0Q110 84 144 164T224 319T324 458T431 575H98L118 686H609L595 606Q553 564 510 516T425 414T348 302T287 180T249 50Q247 37 245 27T241 0H95Z" />
<glyph unicode="8" glyph-name="eight" horiz-adv-x="576" d="M255 -12Q173 -12 123 9T50 67T27 150Q27 196 42 235T90 304T169 352Q135 372 118 404T100 475Q100 520 117 560T167 631T246 680T349 698Q420 698 466 677T535 618T558 534Q558 496 544 462T503 399T434
352Q479 331 499 297T519 217Q519 156 490 104T403 20T255 -12ZM255 87Q273 87 289 90T321 101T349 118Q369 135 381 160T394 218Q394 258 369 279T293 301Q275 301 259 298T228 289T202 274Q180 257 168 231T155 169Q155 130 180 109T255 87ZM310 400Q329 400
346 404T378 417T404 439Q418 454 425 475T432 523Q432 560 410 579T346 599Q329 599 314 596T285 585T261 568Q244 552 234 529T224 474Q224 438 245 419T310 400Z" />
<glyph unicode="9" glyph-name="nine" horiz-adv-x="575" d="M246 -12Q177 -12 133 8T69 65T48 149Q48 162 49 175T53 202H177Q176 192 175 183T173 165Q173 128 191 108T250 88Q300 88 329 114T376 190T406 306Q395 296 375 282T325 257T257 246Q193 246 153
268T93 330T73 424Q73 486 93 536T149 623T232 678T332 698Q401 698 451 678T527 611T554 483Q554 457 551 426T542 360Q519 219 478 138T378 23T246 -12ZM291 345Q326 345 353 359T399 398Q414 418 422 445T430 502Q430 531 420 552T390 586T337 598Q300 598 272
581T226 535Q213 515 207 490T201 439Q201 411 210 390T240 357T291 345Z" />
<glyph unicode=":" glyph-name="colon" horiz-adv-x="336" d="M126 399L149 527H276L253 399H126ZM57 0L80 128H207L184 0H57Z" />
<glyph unicode=";" glyph-name="semicolon" horiz-adv-x="336" d="M18 -163L28 -112Q53 -108 71 -92T101 -52T117 0H55L78 128H204L184 11Q176 -33 161 -64T123 -117T75 -149T18 -163ZM125 399L148 527H275L252 399H125Z" />
<glyph unicode="&lt;" glyph-name="less" horiz-adv-x="636" d="M499 3L59 199L81 320L590 517L570 403L166 256L518 108L499 3Z" />
<glyph unicode="=" glyph-name="equal" horiz-adv-x="636" d="M90 311L108 409H580L563 311H90ZM53 99L70 196H543L525 99H53Z" />
<glyph unicode="&gt;" glyph-name="greater" horiz-adv-x="636" d="M46 3L65 116L470 263L118 410L137 517L576 320L554 199L46 3Z" />
<glyph unicode="?" glyph-name="question" horiz-adv-x="613" d="M233 192L241 239Q248 282 266 312T309 365T358 404T405 439T440 476T454 523Q454 538 448 553T422 579T364 590Q330 590 306 580T267 554T243 519T231 482Q230 476 230 470T229 459H105Q105 502
118 538T154 604T211 655T285 687T374 698Q425 698 465 688T533 657T575 607T590 538Q590 491 574 458T533 399T478 354T422 315T376 275T352 224L347 192H233ZM197 0L219 128H346L323 0H197Z" />
<glyph unicode="@" glyph-name="at" horiz-adv-x="998" d="M454 -153Q340 -153 263 -127T140 -52T73 62T52 206Q52 291 67 360T113 484T188 579T289 646T416 685T567 698Q663 698 737 676T861 613T936 512T962 379Q962 331 952 281T921 185T865 102T784 44T673
22Q642 22 620 30T586 53T574 93L569 98Q543 61 505 41T424 21Q378 21 343 41T288 103T268 205Q268 225 269 245T275 286Q283 332 300 374T344 450T406 502T487 521Q521 521 546 514T589 491T621 454H627L654 510H748L727 392Q718 343 711 304T698 234T688 183T682
151T680 137Q680 124 689 118T717 112Q748 112 773 126T819 167T853 227T874 300T881 379Q881 455 845 510T739 596T567 626Q486 626 419 610T298 562T208 480T152 364T133 213Q133 149 148 96T200 3T299 -59T454 -81Q483 -81 510 -80T561 -75T604 -69T636 -63L625
-139Q609 -141 584 -144T527 -150T454 -153ZM463 118Q486 118 504 127T537 151T563 185Q573 203 580 222T591 260T598 297T600 329Q600 362 591 383T563 415T517 426Q494 426 476 418T444 396T419 363Q410 347 404 328T393 289T387 249T385 211Q385 165 403 142T463
118Z" />
<glyph unicode="A" glyph-name="A" horiz-adv-x="709" d="M-40 0L346 686H510L657 0H524L494 146H177L97 0H-40ZM239 256H470L434 438Q431 456 428 474T421 511T415 545T411 573H406Q396 553 383 527T358 476T336 435L239 256Z" />
<glyph unicode="B" glyph-name="B" horiz-adv-x="706" d="M30 0L151 686H474Q541 686 589 669T663 617T690 529Q690 487 671 452T619 393T547 360V356Q593 342 622 305T652 208Q652 136 617 90T526 22T404 0H30ZM180 111H401Q433 111 460 121T503 155T520 215Q520
253 497 274T425 296H212L180 111ZM232 406H442Q470 406 491 414T525 435T546 466T553 502Q553 540 531 557T473 575H261L232 406Z" />
<glyph unicode="C" glyph-name="C" horiz-adv-x="721" d="M341 -12Q202 -12 127 51T51 254Q51 282 53 309T60 362Q79 466 129 541T258 657T443 698Q523 698 585 675T682 606T718 488Q718 475 717 461T713 433H579Q581 442 581 450T582 466Q582 507 565 534T516
574T441 587Q390 587 350 572T279 527T228 457T198 365Q194 346 192 331T188 304T186 281T185 259Q185 205 202 170T254 117T343 99Q398 99 441 116T514 168T552 252H681Q666 162 617 104T497 17T341 -12Z" />
<glyph unicode="D" glyph-name="D" horiz-adv-x="728" d="M30 0L151 686H410Q550 686 627 621T705 415Q705 390 703 366T697 319Q680 220 630 149T501 39T322 0H30ZM180 111H316Q365 111 406 125T478 167T530 234T560 325Q564 345 566 360T569 388T570 412Q570
467 551 503T495 557T404 575H261L180 111Z" />
<glyph unicode="E" glyph-name="E" horiz-adv-x="672" d="M30 0L151 686H687L667 575H262L232 406H594L575 295H212L180 111H592L572 0H30Z" />
<glyph unicode="F" glyph-name="F" horiz-adv-x="609" d="M30 0L151 686H645L625 575H262L229 391H556L537 280H210L160 0H30Z" />
<glyph unicode="G" glyph-name="G" horiz-adv-x="794" d="M339 -12Q202 -12 127 53T51 256Q51 283 53 309T60 361Q79 467 132 542T269 658T460 698Q522 698 575 686T669 648T732 585T755 496Q755 486 754 475T751 452H617Q618 458 618 463T618 474Q618 502 607
523T574 558T525 580T464 588Q409 588 364 573T286 530T230 460T198 366Q195 347 193 332T189 305T186 282T185 260Q185 205 203 169T258 116T349 98Q411 98 462 117T546 172T585 253L586 260H368L388 368H736L671 0H579V78Q546 49 510 29T432 -2T339 -12Z" />
<glyph unicode="H" glyph-name="H" horiz-adv-x="732" d="M30 0L151 686H281L232 407H553L602 686H732L611 0H481L533 295H212L160 0H30Z" />
<glyph unicode="I" glyph-name="I" horiz-adv-x="282" d="M30 0L151 686H281L160 0H30Z" />
<glyph unicode="J" glyph-name="J" horiz-adv-x="585" d="M242 -12Q135 -12 78 29T20 153Q20 163 21 179T30 228H159Q153 200 152 187T151 168Q151 134 174 116T246 98Q299 98 333 134T378 235L457 686H588L509 235Q494 151 459 96T369 15T242 -12Z" />
<glyph unicode="K" glyph-name="K" horiz-adv-x="695" d="M30 0L151 686H281L226 376L572 686H743L429 407L628 0H481L330 318L197 213L160 0H30Z" />
<glyph unicode="L" glyph-name="L" horiz-adv-x="570" d="M31 0L151 686H281L181 113H525L505 0H31Z" />
<glyph unicode="M" glyph-name="M" horiz-adv-x="844" d="M30 0L151 686H348L390 304Q393 281 394 254T397 202T398 159H406Q413 179 422 205T442 259T462 306L637 686H843L722 0H592L670 441Q673 459 678 483T689 529T695 557H687Q683 547 677 532T666 502T656
479L433 0H310L261 470Q259 490 258 516T256 557H248Q246 538 244 515T238 471T233 441L155 0H30Z" />
<glyph unicode="N" glyph-name="N" horiz-adv-x="732" d="M30 0L151 686H275L484 287Q489 278 495 265T509 237T521 212L527 213Q529 229 532 250T537 283L607 686H732L611 0H488L289 383Q280 400 266 428T242 477H236Q234 460 230 435T223 392L155 0H30Z" />
<glyph unicode="O" glyph-name="O" horiz-adv-x="782" d="M359 -12Q262 -12 193 18T88 107T51 256Q51 280 52 303T58 348Q76 457 127 535T260 656T452 698Q549 698 618 668T724 579T761 430Q761 408 760 386T754 342Q737 232 686 153T552 31T359 -12ZM357 99Q412
99 455 114T531 160T585 234T616 335Q619 351 621 364T624 387T625 406T626 423Q626 475 607 512T548 568T452 588Q398 588 355 573T279 527T225 453T194 352Q191 336 190 323T187 300T186 281T185 264Q185 212 204 175T262 119T357 99Z" />
<glyph unicode="P" glyph-name="P" horiz-adv-x="670" d="M30 0L151 686H451Q535 686 587 663T663 598T687 498Q687 438 668 391T613 311T527 261T414 244H204L160 0H30ZM223 355H413Q454 355 485 370T535 413T554 484Q554 528 529 551T451 575H262L223 355Z" />
<glyph unicode="Q" glyph-name="Q" horiz-adv-x="782" d="M484 -130L383 -11Q377 -12 371 -12T359 -12Q262 -12 193 18T88 107T51 256Q51 280 52 303T58 348Q76 457 127 535T260 656T452 698Q549 698 618 668T724 579T761 430Q761 408 760 386T754 342Q735 221
674 137T516 15L643 -130H484ZM357 99Q412 99 455 114T531 160T585 234T616 335Q619 351 621 364T624 387T625 406T626 423Q626 475 607 512T548 568T452 588Q398 588 355 573T279 527T225 453T194 352Q191 336 190 323T187 300T186 281T185 264Q185 212 204 175T262
119T357 99Z" />
<glyph unicode="R" glyph-name="R" horiz-adv-x="717" d="M30 0L151 686H493Q565 686 612 665T682 606T706 515Q706 456 688 409T636 329T549 276L642 0H504L423 254H205L160 0H30ZM225 364H443Q480 364 509 380T555 427T572 498Q572 535 550 555T483 575H262L225 364Z" />
<glyph unicode="S" glyph-name="S" horiz-adv-x="667" d="M312 -12Q252 -12 200 -2T109 30T48 85T26 163Q26 177 28 193T34 220H165Q164 214 162 204T159 185Q159 158 176 139T225 109T301 99Q346 99 378 106T432 125T463 156T473 195Q473 218 460 234T423 262T371
283T310 301Q273 312 236 325T167 360T117 411T98 486Q98 540 120 579T182 645T273 685T382 698Q438 698 485 689T568 660T624 609T644 536Q644 527 643 516T639 486H510Q513 497 513 502T514 511Q514 547 481 567T389 588Q342 588 307 578T252 550T232 504Q232
486 243 473T273 450T318 432T372 415Q412 403 453 389T530 354T587 300T609 220Q609 156 584 112T516 41T420 1T312 -12Z" />
<glyph unicode="T" glyph-name="T" horiz-adv-x="619" d="M198 0L299 574H80L100 686H668L649 574H429L328 0H198Z" />
<glyph unicode="U" glyph-name="U" horiz-adv-x="724" d="M332 -12Q205 -12 136 41T66 199Q66 213 67 229T72 262L146 686H276L201 260Q200 253 198 241T196 218Q196 159 230 129T332 98Q409 98 458 138T521 258L597 686H727L651 254Q635 165 594 106T488 17T332 -12Z" />
<glyph unicode="V" glyph-name="V" horiz-adv-x="671" d="M214 0L85 686H218L287 294Q293 261 298 232T306 180T311 145H318Q329 167 344 196T373 254T398 302L598 686H736L365 0H214Z" />
<glyph unicode="W" glyph-name="W" horiz-adv-x="954" d="M146 0L86 686H210L246 245Q247 235 247 218T249 181T250 146H255Q260 162 266 181T279 218T288 245L467 686H634L660 245Q661 235 661 218T661 181T662 146H667Q672 161 678 179T691 216T703 245L892
686H1019L712 0H558L531 450Q530 464 530 482T529 519T528 551H523Q519 536 513 517T501 480T490 450L300 0H146Z" />
<glyph unicode="X" glyph-name="X" horiz-adv-x="686" d="M-34 0L285 364L109 686H256L372 464H377L567 686H726L436 355L629 0H482L349 253H344L126 0H-34Z" />
<glyph unicode="Y" glyph-name="Y" horiz-adv-x="677" d="M229 0L278 279L85 686H219L357 395H364L600 686H743L408 279L359 0H229Z" />
<glyph unicode="Z" glyph-name="Z" horiz-adv-x="634" d="M-17 0L-6 62L441 575H109L129 686H662L651 623L203 111H570L550 0H-17Z" />
<glyph unicode="[" glyph-name="bracketleft" horiz-adv-x="339" d="M34 -161L190 735H398L384 649H281L153 -75H256L241 -161H34Z" />
<glyph unicode="\" glyph-name="backslash" horiz-adv-x="298" d="M160 -49L83 735H166L243 -49H160Z" />
<glyph unicode="]" glyph-name="bracketright" horiz-adv-x="339" d="M313 735L157 -161H-51L-37 -75H66L194 649H91L106 735H313Z" />
<glyph unicode="^" glyph-name="asciicircum" horiz-adv-x="636" d="M114 294L338 686H445L533 294H432L375 577L220 294H114Z" />
<glyph unicode="_" glyph-name="underscore" horiz-adv-x="507" d="M-72 -149L-58 -65H449L434 -149H-72Z" />
<glyph unicode="`" glyph-name="grave" horiz-adv-x="201" d="M161 591L81 720L82 723H203L259 591H161Z" />
<glyph unicode="a" glyph-name="a" horiz-adv-x="587" d="M192 -12Q141 -12 102 10T42 75T20 182Q20 202 22 223T29 270Q45 363 79 422T164 510T276 538Q310 538 338 530T389 506T424 465H431L462 526H564L540 396Q533 355 526 316T512 242T501 180T494 136T491
115Q491 101 499 95T520 88H553L539 4Q529 -1 510 -6T465 -12Q439 -12 420 -2T389 28Q385 37 382 48T379 73H372Q339 30 294 9T192 -12ZM246 93Q273 93 297 104T340 136T373 187T394 257Q397 274 398 286T400 309T401 327Q401 362 391 385T360 421T306 433Q262
433 233 416T185 362T156 269Q153 251 151 237T148 212T147 192Q147 142 170 118T246 93Z" />
<glyph unicode="b" glyph-name="b" horiz-adv-x="592" d="M306 -12Q251 -12 210 8T149 70H142L120 0H19L146 723H268L223 465H229Q249 490 273 506T326 530T390 538Q442 538 480 516T540 451T562 344Q562 325 560 303T553 256Q537 163 503 104T418 17T306 -12ZM276
93Q321 93 350 110T397 164T426 257Q430 276 431 289T434 314T435 334Q435 368 425 389T393 422T336 433Q308 433 284 422T241 390T209 339T188 269Q185 253 184 240T182 218T181 199Q181 165 191 141T222 105T276 93Z" />
<glyph unicode="c" glyph-name="c" horiz-adv-x="547" d="M260 -12Q184 -12 134 9T59 76T34 189Q34 219 37 249T47 307Q58 355 79 396T132 470T208 520T311 538Q379 538 426 519T499 464T524 374Q524 363 523 352T520 329H397Q398 336 398 342T399 356Q399 381
391 399T363 428T314 439Q271 439 242 419T196 361T168 275Q165 258 163 244T160 219T159 197Q159 160 169 136T202 100T257 88Q293 88 318 101T358 140T380 197H497Q487 131 457 84T377 13T260 -12Z" />
<glyph unicode="d" glyph-name="d" horiz-adv-x="592" d="M210 -12Q155 -12 115 12T54 79T32 182Q32 202 34 224T40 272Q52 341 75 391T130 473T200 522T280 538Q319 538 349 530T401 506T435 465H441L486 723H608L481 0H382V70H375Q344 29 301 9T210 -12ZM256
93Q298 93 327 112T376 167T404 257Q407 274 408 286T411 309T412 328Q412 362 402 385T371 421T316 433Q272 433 243 416T196 364T168 275Q165 255 163 240T159 214T158 192Q158 142 181 118T256 93Z" />
<glyph unicode="e" glyph-name="e" horiz-adv-x="561" d="M268 -12Q190 -12 138 9T59 76T33 189Q33 217 36 245T44 299Q58 366 90 420T178 506T317 538Q388 538 435 517T507 454T531 346Q531 323 528 293T516 233H160Q158 221 157 211T156 190Q156 155 167 132T203
97T265 86Q289 86 309 91T346 109T373 139T388 184H508Q500 134 479 97T426 36T354 0T268 -12ZM176 319H405Q407 329 407 338T408 354Q408 385 398 404T367 432T320 441Q282 441 254 427T207 386T176 319Z" />
<glyph unicode="f" glyph-name="f" horiz-adv-x="307" d="M3 -182Q-12 -182 -27 -180T-55 -175T-78 -167L-63 -82H-13Q10 -82 23 -71T40 -37L121 426H45L63 526H139L151 593Q157 628 172 659T220 711T308 731Q323 731 338 729T366 724T389 716L374 631H324Q302
631 289 620T271 586L261 526H356L338 426H243L160 -44Q154 -78 138 -110T90 -162T3 -182Z" />
<glyph unicode="g" glyph-name="g" horiz-adv-x="591" d="M206 -182Q149 -182 105 -168T35 -128T10 -62Q10 -55 10 -47T14 -25H132Q131 -29 131 -31T131 -35Q131 -52 142 -62T173 -77T216 -82Q260 -82 291 -66T341 -19T368 59Q370 68 371 76T373 88H367Q348 64
324 48T270 23T206 15Q154 15 115 35T55 98T33 206Q33 223 34 242T40 284Q63 416 127 477T285 538Q340 538 381 518T442 456H449L471 526H572L491 66Q475 -24 440 -78T348 -157T206 -182ZM259 120Q288 120 312 130T355 159T386 207T405 271Q408 287 409 298T411
318T412 335Q412 367 402 389T370 422T315 433Q275 433 245 417T195 368T167 283Q164 266 162 253T160 231T159 213Q159 182 169 162T201 131T259 120Z" />
<glyph unicode="h" glyph-name="h" horiz-adv-x="584" d="M19 0L146 723H268L223 466H229Q248 486 273 502T329 528T391 538Q434 538 468 525T522 482T543 403Q543 385 541 366T534 324L476 0H354L410 315Q412 329 414 341T416 365Q416 390 408 404T383 424T346
431Q319 431 294 422T248 393T212 346T191 282L141 0H19Z" />
<glyph unicode="i" glyph-name="i" horiz-adv-x="252" d="M124 607L145 723H267L247 607H124ZM19 0L112 526H234L141 0H19Z" />
<glyph unicode="j" glyph-name="j" horiz-adv-x="250" d="M123 607L144 723H266L246 607H123ZM-13 -182Q-28 -182 -45 -180T-78 -175T-103 -167L-89 -82H-40Q-17 -82 -5 -71T12 -38L112 526H234L133 -47Q127 -80 112 -111T66 -162T-13 -182Z" />
<glyph unicode="k" glyph-name="k" horiz-adv-x="543" d="M19 0L146 723H268L194 302L423 526H566L354 319L483 0H351L264 241L168 157L141 0H19Z" />
<glyph unicode="l" glyph-name="l" horiz-adv-x="252" d="M19 0L146 723H268L141 0H19Z" />
<glyph unicode="m" glyph-name="m" horiz-adv-x="861" d="M19 0L111 526H211V455H218Q238 479 262 497T316 527T378 538Q426 538 460 519T507 455H514Q535 479 560 497T616 527T681 538Q743 538 782 508T821 405Q821 389 819 371T812 333L752 0H631L688 321Q690
335 691 345T693 366Q693 391 685 405T663 425T628 431Q597 431 570 413T525 363T498 289L447 0H325L382 321Q384 335 385 346T387 367Q387 391 379 405T357 425T322 431Q292 431 265 413T219 363T192 289L141 0H19Z" />
<glyph unicode="n" glyph-name="n" horiz-adv-x="584" d="M19 0L111 526H211V455H218Q237 478 264 497T324 527T391 538Q434 538 468 525T522 482T543 403Q543 385 541 366T534 324L476 0H354L410 315Q412 329 414 341T416 365Q416 390 408 404T383 424T346 431Q319
431 294 422T248 393T212 346T191 282L141 0H19Z" />
<glyph unicode="o" glyph-name="o" horiz-adv-x="598" d="M260 -12Q184 -12 133 9T57 75T31 188Q31 207 33 228T39 271Q55 363 93 422T193 509T337 538Q414 538 465 517T541 451T567 337Q567 318 565 298T559 255Q543 163 506 104T408 17T260 -12ZM268 88Q316
88 348 106T401 162T431 256Q435 274 436 287T438 310T439 329Q439 365 428 389T392 426T329 438Q281 438 249 419T197 363T166 270Q163 252 161 239T158 215T157 196Q157 160 168 136T205 100T268 88Z" />
<glyph unicode="p" glyph-name="p" horiz-adv-x="592" d="M-12 -173L111 526H210V456H217Q248 497 291 517T382 538Q438 538 477 516T538 450T560 344Q560 324 559 302T552 254Q536 163 501 104T417 17T312 -12Q274 -12 244 -4T192 20T157 61H151L110 -173H-12ZM276
93Q320 93 349 110T396 162T424 251Q428 271 430 286T433 312T434 334Q434 368 424 389T392 422T336 433Q295 433 265 414T216 359T188 269Q185 252 183 240T181 217T180 198Q180 164 190 141T222 105T276 93Z" />
<glyph unicode="q" glyph-name="q" horiz-adv-x="592" d="M328 -173L369 61H363Q344 37 320 21T266 -4T202 -12Q151 -12 112 10T52 75T30 182Q30 202 32 223T39 270Q55 363 89 422T174 510T286 538Q341 538 382 518T443 456H450L472 526H573L450 -173H328ZM256
93Q285 93 308 104T351 136T383 187T404 257Q407 274 408 286T410 309T411 327Q411 362 401 385T370 421T316 433Q272 433 243 416T195 362T166 269Q163 251 161 237T158 212T157 192Q157 142 180 118T256 93Z" />
<glyph unicode="r" glyph-name="r" horiz-adv-x="362" d="M19 0L112 526H210V443H216Q230 468 247 489T289 524T346 538Q364 538 378 535T399 529L380 414H342Q311 414 285 405T240 378T207 333T188 268L141 0H19Z" />
<glyph unicode="s" glyph-name="s" horiz-adv-x="541" d="M238 -12Q183 -12 141 -2T71 26T28 69T14 125Q14 137 16 148T21 165H140Q139 161 138 155T137 147Q137 124 151 110T188 90T239 84Q260 84 280 87T318 98T345 117T355 147Q355 165 344 176T315 196T273
210T223 224Q195 232 167 242T117 267T81 305T67 361Q67 404 85 437T135 492T209 526T301 538Q348 538 386 530T452 505T495 467T510 416Q510 400 507 387T503 372H384Q385 377 385 381T386 388Q386 405 376 417T347 435T299 442Q272 442 253 438T220 425T201 407T194
385Q194 364 213 353T262 334T326 315Q355 306 382 297T433 272T469 234T483 175Q483 123 463 87T409 30T330 -2T238 -12Z" />
<glyph unicode="t" glyph-name="t" horiz-adv-x="314" d="M166 -12Q123 -12 100 2T66 40T56 92Q56 100 57 108T59 124L111 426H48L65 526H131L179 673H276L250 526H341L324 426H233L184 149Q183 146 182 135T180 122Q180 106 189 97T218 88H265L250 4Q240 0 226
-3T196 -9T166 -12Z" />
<glyph unicode="u" glyph-name="u" horiz-adv-x="583" d="M191 -12Q149 -12 114 1T59 44T38 123Q38 141 41 160T48 202L105 526H228L172 210Q170 196 168 184T166 161Q166 136 175 122T200 101T237 95Q264 95 289 104T334 133T370 180T391 244L441 526H564L471
0H371V71H364Q345 48 318 29T258 -1T191 -12Z" />
<glyph unicode="v" glyph-name="v" horiz-adv-x="529" d="M154 0L53 526H176L219 289Q222 272 226 244T234 185T241 129H246Q255 152 268 182T294 241T317 289L442 526H571L283 0H154Z" />
<glyph unicode="w" glyph-name="w" horiz-adv-x="758" d="M113 0L49 526H170L192 285Q193 273 194 248T197 195T199 142H203Q211 165 221 192T241 245T257 284L358 526H489L508 284Q509 269 510 244T513 191T516 142H520Q527 162 537 188T557 240T574 284L679
526H801L551 0H423L406 270Q405 286 404 306T403 347T402 383H398Q393 369 386 349T371 308T356 271L242 0H113Z" />
<glyph unicode="x" glyph-name="x" horiz-adv-x="546" d="M-37 0L203 273L68 526H204L286 362H292L430 526H571L345 269L488 0H352L264 175H258L106 0H-37Z" />
<glyph unicode="y" glyph-name="y" horiz-adv-x="529" d="M61 -182Q21 -182 0 -177T-25 -170L-10 -82H45Q68 -82 90 -74T131 -47T164 0L52 526H174L225 286Q230 264 235 235T244 177T250 128H255Q261 143 269 162T285 201T302 240T318 273L443 526H571L311 27Q289
-16 264 -53T208 -120T142 -165T61 -182Z" />
<glyph unicode="z" glyph-name="z" horiz-adv-x="509" d="M-19 0L-8 57L311 426H73L90 526H517L507 470L186 100H454L436 0H-19Z" />
<glyph unicode="{" glyph-name="braceleft" horiz-adv-x="394" d="M267 -159Q212 -159 172 -151T109 -118T86 -46Q86 -31 90 -5T100 51T112 111T122 162T126 192Q126 221 100 232T42 243L58 333Q92 333 123 346T161 393L195 587Q206 650 234 682T309 724T424 735L412
664Q391 664 368 659T328 641T304 600L262 401Q255 366 241 342T201 305T127 293L125 283Q180 283 202 262T225 200Q225 190 222 165T214 108T204 45T196 -8T193 -36Q193 -57 206 -68T239 -84T279 -88L267 -159Z" />
<glyph unicode="|" glyph-name="bar" horiz-adv-x="245" d="M77 -192V723H170V-192H77Z" />
<glyph unicode="}" glyph-name="braceright" horiz-adv-x="395" d="M136 735Q191 735 231 727T294 695T317 622Q317 607 313 581T303 525T291 465T281 414T277 384Q277 355 303 344T361 333L345 243Q311 243 280 230T242 183L208 -11Q197 -74 169 -105T94 -148T-21
-159L-9 -88Q12 -88 35 -83T76 -64T99 -24L141 175Q149 211 162 235T202 271T276 283L278 293Q223 293 201 314T178 376Q178 386 181 411T189 468T199 531T207 584T210 612Q210 634 197 645T165 660T124 664L136 735Z" />
<glyph unicode="~" glyph-name="asciitilde" horiz-adv-x="636" d="M24 203L43 314Q43 314 54 325T85 350T135 375T200 386Q229 386 253 377T300 356T348 335T402 326Q434 326 462 337T512 362T546 387T559 398L540 287Q540 287 529 276T498 251T448 226T383 215Q355
215 331 224T283 245T235 266T181 275Q149 275 121 264T71 239T37 214T24 203Z" />
<glyph unicode="&#xa0;" glyph-name="uni00A0" horiz-adv-x="200" />
<glyph unicode="&#xa1;" glyph-name="exclamdown" horiz-adv-x="292" d="M2 -160L123 337H199L144 -160H2ZM107 398L130 526H257L234 398H107Z" />
<glyph unicode="&#xa2;" glyph-name="cent" horiz-adv-x="556" d="M191 -49L328 723H379L242 -49H191ZM278 67Q202 67 152 88T77 155T52 268Q52 298 55 328T65 386Q76 434 97 475T150 549T226 599T329 617Q397 617 444 598T517 543T542 453Q542 442 541 431T538
408H415Q416 415 416 421T417 435Q417 460 409 478T381 507T332 518Q289 518 260 498T214 440T186 354Q183 337 181 323T178 298T177 276Q177 239 187 215T220 179T275 167Q311 167 336 180T376 219T398 276H515Q505 210 475 163T395 92T278 67Z" />
<glyph unicode="&#xa3;" glyph-name="sterling" horiz-adv-x="580" d="M3 0L21 102H86L119 289H40L56 389H136L156 499Q168 568 198 612T276 677T387 698Q449 698 494 683T563 635T587 551Q587 534 586 522T581 491H460Q462 502 463 509T464 520T464 528Q464 551
455 566T430 589T388 597Q359 597 337 587T300 559T281 513L259 389H418L401 289H241L196 102H507L489 0H3Z" />
<glyph unicode="&#xa4;" glyph-name="currency" horiz-adv-x="580" d="M102 99L57 144L111 200Q86 232 74 271T61 351Q61 392 73 432T111 501L56 555L104 603L161 547Q190 572 228 585T306 598Q346 598 384 585T451 547L508 603L556 555L501 501Q527 472 539 432T551
351Q551 310 539 271T501 200L555 144L510 99L455 157Q425 129 386 116T306 102Q266 102 227 115T157 157L102 99ZM306 181Q352 181 388 204T447 267T469 351Q469 396 447 434T388 495T306 519Q261 519 224 496T165 434T143 351Q143 306 165 267T224 205T306 181Z"
/>
<glyph unicode="&#xa5;" glyph-name="yen" horiz-adv-x="572" d="M182 0L209 150H18L30 226H222L235 296H43L56 372H218Q208 393 197 419T180 457L85 686H217L286 498Q290 489 294 475T304 446T313 418H317Q326 431 336 446T357 476T372 497L505 686H638L459 448Q447
432 430 410T401 372H559L546 296H357L344 226H533L520 150H331L304 0H182Z" />
<glyph unicode="&#xa6;" glyph-name="brokenbar" horiz-adv-x="245" d="M77 345V723H170V345H77ZM77 -192V186H170V-192H77Z" />
<glyph unicode="&#xa7;" glyph-name="section" horiz-adv-x="579" d="M222 -182Q174 -182 136 -174T71 -149T29 -109T14 -58Q14 -47 17 -34T21 -17H146Q145 -22 145 -26T144 -32Q144 -49 153 -61T181 -79T228 -86Q266 -86 289 -75T324 -47T335 -14Q335 7 320 23T279
52T224 79T164 108T109 144T69 192T53 255Q53 280 61 302T84 345T120 383T167 415Q144 434 130 460T116 521Q116 556 128 584T161 633T213 668T279 690T357 698Q404 698 442 690T507 665T549 626T564 575Q564 564 562 551T557 533H432Q433 538 433 541T433 548Q433
564 424 576T397 594T351 601Q312 601 289 590T254 563T243 530Q243 509 258 493T298 462T354 434T413 404T468 368T509 320T524 255Q524 231 516 209T493 167T458 130T411 100Q434 81 448 57T462 -1Q462 -37 450 -65T417 -116T365 -152T299 -174T222 -182ZM341
144Q360 156 372 170T392 201T399 237Q399 264 385 283T348 316T295 344T236 371Q218 359 205 345T185 314T178 278Q178 251 192 232T230 197T283 170T341 144Z" />
<glyph unicode="&#xa8;" glyph-name="dieresis" horiz-adv-x="312" d="M62 612L81 723H189L170 612H62ZM265 612L284 723H393L374 612H265Z" />
<glyph unicode="&#xa9;" glyph-name="copyright" horiz-adv-x="764" d="M397 -12Q320 -12 255 14T143 88T69 201T42 343Q42 420 68 485T142 597T255 671T397 698Q474 698 539 672T651 598T725 485T752 343Q752 266 726 201T652 89T539 15T397 -12ZM397 132Q336
132 297 154T238 223T219 342Q219 414 238 460T296 529T397 552Q453 552 488 534T539 479T556 388H481Q481 423 474 445T448 478T397 489Q344 489 320 456T295 342V341Q295 289 305 257T338 210T397 195Q429 195 448 206T476 240T485 295H556Q556 252 540 215T489
155T397 132ZM397 45Q483 45 549 83T654 189T692 343Q692 429 654 496T550 601T397 640Q311 640 244 602T139 496T101 343Q101 257 139 190T244 84T397 45Z" />
<glyph unicode="&#xaa;" glyph-name="ordfeminine" horiz-adv-x="397" d="M180 330Q134 330 105 363T75 462Q75 479 76 495T81 530Q89 575 107 613T155 675T224 698Q259 698 281 686T317 648H321L340 690H406L387 587Q382 558 377 532T368 485T362 449T358 424T356
413Q356 403 361 399T374 394H395L386 341Q379 338 367 334T337 330Q317 330 303 340T284 368Q283 373 283 378T282 388H278Q261 360 235 345T180 330ZM207 400Q222 400 233 407T255 425T272 450Q284 472 293 503T302 560Q302 584 296 599T278 622T248 630Q210
630 189 597T161 523Q158 506 157 493T156 467Q156 435 168 418T207 400Z" />
<glyph unicode="&#xab;" glyph-name="guillemotleft" horiz-adv-x="571" d="M175 126L69 326L236 526H336L187 326L265 126H175ZM390 126L284 326L451 526H551L402 326L480 126H390Z" />
<glyph unicode="&#xac;" glyph-name="logicalnot" horiz-adv-x="636" d="M421 194L450 358H51L69 454H561L514 194H421Z" />
<glyph unicode="&#xad;" glyph-name="uni00AD" horiz-adv-x="333" d="M32 214L51 326H303L284 214H32Z" />
<glyph unicode="&#xae;" glyph-name="registered" horiz-adv-x="764" d="M397 -12Q320 -12 255 14T143 88T69 201T42 343Q42 420 68 485T142 597T255 671T397 698Q474 698 539 672T651 598T725 485T752 343Q752 266 726 201T652 89T539 15T397 -12ZM397 45Q483
45 549 83T654 189T692 343Q692 429 654 496T550 601T397 640Q311 640 244 602T139 496T101 343Q101 257 139 190T244 84T397 45ZM250 138V550H442Q506 550 537 516T569 425Q569 385 552 354T500 308L587 138H506L428 295H325V138H250ZM325 359H432Q459 359 476
376T493 425Q493 456 477 471T432 487H325V359Z" />
<glyph unicode="&#xaf;" glyph-name="overscore" horiz-adv-x="305" d="M63 617L77 700H381L367 617H63Z" />
<glyph unicode="&#xb0;" glyph-name="degree" horiz-adv-x="400" d="M250 399Q209 399 175 419T121 473T101 548Q101 590 121 624T175 678T250 698Q292 698 326 678T380 624T400 548Q400 507 380 473T326 419T250 399ZM250 472Q282 472 304 494T326 548Q326 580
304 601T250 623Q219 623 197 602T174 548Q174 517 196 495T250 472Z" />
<glyph unicode="&#xb1;" glyph-name="plusminus" horiz-adv-x="636" d="M191 142L227 348H42L60 446H245L281 653H382L346 446H532L514 348H328L292 142H191ZM-19 0L-1 97H470L453 0H-19Z" />
<glyph unicode="&#xb2;" glyph-name="uni00B2" horiz-adv-x="357" d="M81 440L86 464Q92 493 110 516T152 559T203 595T251 628T288 663T302 703Q302 715 294 725T264 735Q247 735 235 730T215 714T205 688L201 668H127Q127 676 127 683T129 696Q136 733 157 755T207
789T269 800Q312 800 336 787T370 754T380 711Q380 683 371 661T346 620T311 587T271 560T231 535T196 509H347L335 440H81Z" />
<glyph unicode="&#xb3;" glyph-name="uni00B3" horiz-adv-x="357" d="M221 428Q160 428 129 451T97 515Q97 520 98 528T101 547H178Q176 538 176 534T175 527Q175 510 187 501T221 492Q238 492 251 498T273 516T281 548Q281 563 275 570T257 581T233 584H202L213
650H239Q255 650 269 655T292 673T302 703Q302 720 292 728T264 736Q251 736 240 732T222 717T210 691L209 684H132L134 698Q139 729 157 752T204 787T265 800Q318 800 349 778T381 711Q381 688 373 671T349 642T313 621V617Q335 607 347 589T359 544Q359 507 340
482T290 442T221 428Z" />
<glyph unicode="&#xb4;" glyph-name="acute" horiz-adv-x="209" d="M58 591L161 723H290V720L161 591H58Z" />
<glyph unicode="&#xb5;" glyph-name="uni00B5" horiz-adv-x="587" d="M-14 -185L112 526H234L179 210Q177 196 175 184T173 161Q173 136 181 122T205 101T242 95Q269 95 294 104T339 133T374 180T395 244L445 526H568L475 0H375V71H368Q350 48 323 29T264 -1T197
-12Q180 -12 166 -10T138 -3Q137 -17 135 -31T131 -59L108 -185H-14Z" />
<glyph unicode="&#xb6;" glyph-name="paragraph" horiz-adv-x="590" d="M184 -168L258 253Q209 253 168 272T102 330T77 428Q77 488 96 535T152 617T237 668T344 686H630L619 625H558L418 -168H334L474 625H408L268 -168H184Z" />
<glyph unicode="&#xb7;" glyph-name="middot" horiz-adv-x="333" d="M108 293L131 421H258L235 293H108Z" />
<glyph unicode="&#xb8;" glyph-name="cedilla" horiz-adv-x="233" d="M23 -182Q-2 -182 -28 -180T-77 -174L-68 -125H23Q46 -125 58 -119T71 -95Q71 -86 63 -82T34 -77H-10L20 11H98L84 -34Q119 -36 144 -48T169 -90Q169 -119 154 -137T115 -165T67 -178T23 -182Z" />
<glyph unicode="&#xb9;" glyph-name="uni00B9" horiz-adv-x="357" d="M91 440L104 509H188L222 703H138L147 753Q164 755 186 760T232 774T275 793H315L265 509H340L327 440H91Z" />
<glyph unicode="&#xba;" glyph-name="ordmasculine" horiz-adv-x="391" d="M224 330Q149 330 111 363T73 463Q73 479 74 495T79 531Q88 581 110 619T169 678T255 699Q331 699 369 667T408 566Q408 549 407 534T402 500Q393 447 369 409T308 351T224 330ZM221 397Q265
397 288 428T320 507Q322 518 323 527T325 544T326 560Q326 597 310 614T258 632Q215 632 191 602T159 523Q158 514 157 505T155 487T154 469Q154 433 170 415T221 397Z" />
<glyph unicode="&#xbb;" glyph-name="guillemotright" horiz-adv-x="571" d="M418 526L524 326L357 126H257L406 326L328 526H418ZM203 526L309 326L142 126H42L191 326L113 526H203Z" />
<glyph unicode="&#xbc;" glyph-name="onequarter" horiz-adv-x="855" d="M83 -12L754 698H845L174 -12H83ZM73 340L86 409H170L204 603H120L129 653Q146 655 168 660T214 674T257 693H297L247 409H322L309 340H73ZM650 0L663 74H511L521 134Q558 181 589 238T649
360H731Q718 328 700 295T663 232T625 177T595 139H674L684 197Q693 210 701 225T719 257T735 289H778L751 139H792L781 74H740L727 0H650Z" />
<glyph unicode="&#xbd;" glyph-name="onehalf" horiz-adv-x="855" d="M83 -12L754 698H845L174 -12H83ZM73 340L86 409H170L204 603H120L129 653Q146 655 168 660T214 674T257 693H297L247 409H322L309 340H73ZM500 0L505 24Q511 53 529 76T571 119T622 155T670
188T707 223T721 263Q721 275 713 285T683 295Q666 295 654 290T634 274T624 248L620 228H546Q546 236 546 243T548 256Q555 293 576 315T626 349T688 360Q731 360 755 347T789 314T799 271Q799 243 790 221T765 180T730 147T690 120T650 95T615 69H766L754 0H500Z"
/>
<glyph unicode="&#xbe;" glyph-name="threequarters" horiz-adv-x="855" d="M83 -12L754 698H845L174 -12H83ZM203 328Q142 328 111 351T79 415Q79 420 80 428T83 447H160Q158 438 158 434T157 427Q157 410 169 401T203 392Q220 392 233 398T255 416T263 448Q263
463 257 470T239 481T215 484H184L195 550H221Q237 550 251 555T274 573T284 603Q284 620 274 628T246 636Q233 636 222 632T204 617T192 591L191 584H114L116 598Q121 629 139 652T186 687T247 700Q300 700 331 678T363 611Q363 588 355 571T331 542T295 521V517Q317
507 329 489T341 444Q341 408 322 382T272 342T203 328ZM650 0L663 74H511L521 134Q558 181 589 238T649 360H731Q718 328 700 295T663 232T625 177T595 139H674L684 197Q693 210 701 225T719 257T735 289H778L751 139H792L781 74H740L727 0H650Z" />
<glyph unicode="&#xbf;" glyph-name="questiondown" horiz-adv-x="613" d="M239 -172Q188 -172 148 -162T80 -131T38 -81T23 -12Q23 35 39 68T80 127T135 172T191 211T238 251T261 302L266 334H380L372 287Q365 244 347 214T304 161T255 122T208 87T173 50T159
3Q159 -12 165 -27T191 -53T249 -64Q283 -64 307 -54T346 -28T370 7T382 44Q383 50 383 56T384 67H508Q508 24 495 -12T459 -78T402 -129T328 -161T239 -172ZM267 398L290 526H416L394 398H267Z" />
<glyph unicode="&#xc0;" glyph-name="Agrave" horiz-adv-x="709" d="M-40 0L346 686H510L657 0H524L494 146H177L97 0H-40ZM239 256H470L434 438Q431 456 428 474T421 511T415 545T411 573H406Q396 553 383 527T358 476T336 435L239 256ZM401 736L315 865L316
868H443L502 736H401Z" />
<glyph unicode="&#xc1;" glyph-name="Aacute" horiz-adv-x="709" d="M-40 0L346 686H510L657 0H524L494 146H177L97 0H-40ZM239 256H470L434 438Q431 456 428 474T421 511T415 545T411 573H406Q396 553 383 527T358 476T336 435L239 256ZM388 736L493 868H625V865L494
736H388Z" />
<glyph unicode="&#xc2;" glyph-name="Acircumflex" horiz-adv-x="709" d="M-40 0L346 686H510L657 0H524L494 146H177L97 0H-40ZM239 256H470L434 438Q431 456 428 474T421 511T415 545T411 573H406Q396 553 383 527T358 476T336 435L239 256ZM276 736L406 868H528L609
736H503L438 841L494 840L389 736H276Z" />
<glyph unicode="&#xc3;" glyph-name="Atilde" horiz-adv-x="709" d="M-40 0L346 686H510L657 0H524L494 146H177L97 0H-40ZM239 256H470L434 438Q431 456 428 474T421 511T415 545T411 573H406Q396 553 383 527T358 476T336 435L239 256ZM282 751Q288 782 302
808T339 851T396 868Q422 868 443 860T484 842T528 833Q541 833 551 840T567 868H635Q630 837 616 810T578 767T520 751Q495 751 474 760T433 778T389 787Q376 787 366 779T350 751H282Z" />
<glyph unicode="&#xc4;" glyph-name="Adieresis" horiz-adv-x="709" d="M-40 0L346 686H510L657 0H524L494 146H177L97 0H-40ZM239 256H470L434 438Q431 456 428 474T421 511T415 545T411 573H406Q396 553 383 527T358 476T336 435L239 256ZM294 757L312 868H421L402
757H294ZM496 757L515 868H625L606 757H496Z" />
<glyph unicode="&#xc5;" glyph-name="Aring" horiz-adv-x="709" d="M-40 0L346 686H510L657 0H524L494 146H177L97 0H-40ZM239 256H470L434 438Q431 456 428 474T421 511T415 545T411 573H406Q396 553 383 527T358 476T336 435L239 256ZM447 729Q405 729 378 753T351
814Q351 847 367 873T412 913T478 928Q520 928 547 905T574 844Q574 811 558 785T513 744T447 729ZM455 790Q471 790 482 795T501 811T508 833Q508 848 498 857T470 867Q455 867 444 862T425 846T418 823Q418 809 428 800T455 790Z" />
<glyph unicode="&#xc6;" glyph-name="AE" horiz-adv-x="999" d="M-49 0L407 686H1014L994 575H589L606 406H921L901 295H617L634 111H919L899 0H520L507 147H186L91 0H-49ZM257 256H497L473 526Q473 532 473 538T471 550T470 563T469 575H464Q459 567 454 559T443
543T432 526L257 256Z" />
<glyph unicode="&#xc7;" glyph-name="Ccedilla" horiz-adv-x="721" d="M341 -12Q202 -12 127 51T51 254Q51 282 53 309T60 362Q79 466 129 541T258 657T443 698Q523 698 585 675T682 606T718 488Q718 475 717 461T713 433H579Q581 442 581 450T582 466Q582 507
565 534T516 574T441 587Q390 587 350 572T279 527T228 457T198 365Q194 346 192 331T188 304T186 281T185 259Q185 205 202 170T254 117T343 99Q398 99 441 116T514 168T552 252H681Q666 162 617 104T497 17T341 -12ZM292 -182Q267 -182 241 -180T192 -174L201
-125H292Q315 -125 327 -119T340 -95Q340 -86 332 -82T303 -77H259L289 11H367L353 -34Q388 -36 413 -48T438 -90Q438 -119 423 -137T384 -165T336 -178T292 -182Z" />
<glyph unicode="&#xc8;" glyph-name="Egrave" horiz-adv-x="672" d="M30 0L151 686H687L667 575H262L232 406H594L575 295H212L180 111H592L572 0H30ZM385 736L299 865L300 868H427L486 736H385Z" />
<glyph unicode="&#xc9;" glyph-name="Eacute" horiz-adv-x="672" d="M30 0L151 686H687L667 575H262L232 406H594L575 295H212L180 111H592L572 0H30ZM372 736L477 868H609V865L478 736H372Z" />
<glyph unicode="&#xca;" glyph-name="Ecircumflex" horiz-adv-x="672" d="M30 0L151 686H687L667 575H262L232 406H594L575 295H212L180 111H592L572 0H30ZM260 736L390 868H512L593 736H487L422 841L478 840L373 736H260Z" />
<glyph unicode="&#xcb;" glyph-name="Edieresis" horiz-adv-x="672" d="M30 0L151 686H687L667 575H262L232 406H594L575 295H212L180 111H592L572 0H30ZM278 757L296 868H405L386 757H278ZM480 757L499 868H609L590 757H480Z" />
<glyph unicode="&#xcc;" glyph-name="Igrave" horiz-adv-x="282" d="M30 0L151 686H281L160 0H30ZM181 736L95 865L96 868H223L282 736H181Z" />
<glyph unicode="&#xcd;" glyph-name="Iacute" horiz-adv-x="282" d="M30 0L151 686H281L160 0H30ZM168 736L273 868H405V865L274 736H168Z" />
<glyph unicode="&#xce;" glyph-name="Icircumflex" horiz-adv-x="282" d="M30 0L151 686H281L160 0H30ZM56 736L186 868H308L389 736H283L218 841L274 840L169 736H56Z" />
<glyph unicode="&#xcf;" glyph-name="Idieresis" horiz-adv-x="282" d="M30 0L151 686H281L160 0H30ZM74 757L92 868H201L182 757H74ZM276 757L295 868H405L386 757H276Z" />
<glyph unicode="&#xd0;" glyph-name="Eth" horiz-adv-x="728" d="M6 298L24 398H396L378 298H6ZM30 0L151 686H410Q550 686 627 621T705 415Q705 390 703 366T697 319Q680 220 630 149T501 39T322 0H30ZM180 111H316Q365 111 406 125T478 167T530 234T560 325Q564
345 566 360T569 388T570 412Q570 467 551 503T495 557T404 575H261L180 111Z" />
<glyph unicode="&#xd1;" glyph-name="Ntilde" horiz-adv-x="732" d="M30 0L151 686H275L484 287Q489 278 495 265T509 237T521 212L527 213Q529 229 532 250T537 283L607 686H732L611 0H488L289 383Q280 400 266 428T242 477H236Q234 460 230 435T223 392L155
0H30ZM290 751Q296 782 310 808T347 851T404 868Q430 868 451 860T492 842T536 833Q549 833 559 840T575 868H643Q638 837 624 810T586 767T528 751Q503 751 482 760T441 778T397 787Q384 787 374 779T358 751H290Z" />
<glyph unicode="&#xd2;" glyph-name="Ograve" horiz-adv-x="782" d="M359 -12Q262 -12 193 18T88 107T51 256Q51 280 52 303T58 348Q76 457 127 535T260 656T452 698Q549 698 618 668T724 579T761 430Q761 408 760 386T754 342Q737 232 686 153T552 31T359 -12ZM357
99Q412 99 455 114T531 160T585 234T616 335Q619 351 621 364T624 387T625 406T626 423Q626 475 607 512T548 568T452 588Q398 588 355 573T279 527T225 453T194 352Q191 336 190 323T187 300T186 281T185 264Q185 212 204 175T262 119T357 99ZM431 736L345 865L346
868H473L532 736H431Z" />
<glyph unicode="&#xd3;" glyph-name="Oacute" horiz-adv-x="782" d="M359 -12Q262 -12 193 18T88 107T51 256Q51 280 52 303T58 348Q76 457 127 535T260 656T452 698Q549 698 618 668T724 579T761 430Q761 408 760 386T754 342Q737 232 686 153T552 31T359 -12ZM357
99Q412 99 455 114T531 160T585 234T616 335Q619 351 621 364T624 387T625 406T626 423Q626 475 607 512T548 568T452 588Q398 588 355 573T279 527T225 453T194 352Q191 336 190 323T187 300T186 281T185 264Q185 212 204 175T262 119T357 99ZM418 736L523 868H655V865L524
736H418Z" />
<glyph unicode="&#xd4;" glyph-name="Ocircumflex" horiz-adv-x="782" d="M359 -12Q262 -12 193 18T88 107T51 256Q51 280 52 303T58 348Q76 457 127 535T260 656T452 698Q549 698 618 668T724 579T761 430Q761 408 760 386T754 342Q737 232 686 153T552 31T359
-12ZM357 99Q412 99 455 114T531 160T585 234T616 335Q619 351 621 364T624 387T625 406T626 423Q626 475 607 512T548 568T452 588Q398 588 355 573T279 527T225 453T194 352Q191 336 190 323T187 300T186 281T185 264Q185 212 204 175T262 119T357 99ZM306 736L436
868H558L639 736H533L468 841L524 840L419 736H306Z" />
<glyph unicode="&#xd5;" glyph-name="Otilde" horiz-adv-x="782" d="M359 -12Q262 -12 193 18T88 107T51 256Q51 280 52 303T58 348Q76 457 127 535T260 656T452 698Q549 698 618 668T724 579T761 430Q761 408 760 386T754 342Q737 232 686 153T552 31T359 -12ZM357
99Q412 99 455 114T531 160T585 234T616 335Q619 351 621 364T624 387T625 406T626 423Q626 475 607 512T548 568T452 588Q398 588 355 573T279 527T225 453T194 352Q191 336 190 323T187 300T186 281T185 264Q185 212 204 175T262 119T357 99ZM312 751Q318 782
332 808T369 851T426 868Q452 868 473 860T514 842T558 833Q571 833 581 840T597 868H665Q660 837 646 810T608 767T550 751Q525 751 504 760T463 778T419 787Q406 787 396 779T380 751H312Z" />
<glyph unicode="&#xd6;" glyph-name="Odieresis" horiz-adv-x="782" d="M359 -12Q262 -12 193 18T88 107T51 256Q51 280 52 303T58 348Q76 457 127 535T260 656T452 698Q549 698 618 668T724 579T761 430Q761 408 760 386T754 342Q737 232 686 153T552 31T359
-12ZM357 99Q412 99 455 114T531 160T585 234T616 335Q619 351 621 364T624 387T625 406T626 423Q626 475 607 512T548 568T452 588Q398 588 355 573T279 527T225 453T194 352Q191 336 190 323T187 300T186 281T185 264Q185 212 204 175T262 119T357 99ZM324 757L342
868H451L432 757H324ZM526 757L545 868H655L636 757H526Z" />
<glyph unicode="&#xd7;" glyph-name="multiply" horiz-adv-x="636" d="M134 37L73 111L249 258L130 402L205 469L324 325L499 473L560 399L384 251L503 108L427 41L309 185L134 37Z" />
<glyph unicode="&#xd8;" glyph-name="Oslash" horiz-adv-x="782" d="M359 -12Q262 -12 193 18T88 107T51 256Q51 280 52 303T58 348Q76 457 127 535T260 656T452 698Q549 698 618 668T724 579T761 430Q761 408 760 386T754 342Q737 232 686 153T552 31T359 -12ZM357
99Q412 99 455 114T531 160T585 234T616 335Q619 351 621 364T624 387T625 406T626 423Q626 475 607 512T548 568T452 588Q398 588 355 573T279 527T225 453T194 352Q191 336 190 323T187 300T186 281T185 264Q185 212 204 175T262 119T357 99ZM-6 -49L709 735H817L102
-49H-6Z" />
<glyph unicode="&#xd9;" glyph-name="Ugrave" horiz-adv-x="724" d="M332 -12Q205 -12 136 41T66 199Q66 213 67 229T72 262L146 686H276L201 260Q200 253 198 241T196 218Q196 159 230 129T332 98Q409 98 458 138T521 258L597 686H727L651 254Q635 165 594 106T488
17T332 -12ZM410 736L324 865L325 868H452L511 736H410Z" />
<glyph unicode="&#xda;" glyph-name="Uacute" horiz-adv-x="724" d="M332 -12Q205 -12 136 41T66 199Q66 213 67 229T72 262L146 686H276L201 260Q200 253 198 241T196 218Q196 159 230 129T332 98Q409 98 458 138T521 258L597 686H727L651 254Q635 165 594 106T488
17T332 -12ZM397 736L502 868H634V865L503 736H397Z" />
<glyph unicode="&#xdb;" glyph-name="Ucircumflex" horiz-adv-x="724" d="M332 -12Q205 -12 136 41T66 199Q66 213 67 229T72 262L146 686H276L201 260Q200 253 198 241T196 218Q196 159 230 129T332 98Q409 98 458 138T521 258L597 686H727L651 254Q635 165 594
106T488 17T332 -12ZM285 736L415 868H537L618 736H512L447 841L503 840L398 736H285Z" />
<glyph unicode="&#xdc;" glyph-name="Udieresis" horiz-adv-x="724" d="M332 -12Q205 -12 136 41T66 199Q66 213 67 229T72 262L146 686H276L201 260Q200 253 198 241T196 218Q196 159 230 129T332 98Q409 98 458 138T521 258L597 686H727L651 254Q635 165 594
106T488 17T332 -12ZM303 757L321 868H430L411 757H303ZM505 757L524 868H634L615 757H505Z" />
<glyph unicode="&#xdd;" glyph-name="Yacute" horiz-adv-x="677" d="M229 0L278 279L85 686H219L357 395H364L600 686H743L408 279L359 0H229ZM362 736L467 868H599V865L468 736H362Z" />
<glyph unicode="&#xde;" glyph-name="Thorn" horiz-adv-x="690" d="M30 0L151 686H281L262 575H416Q501 575 552 553T628 488T652 387Q652 327 633 280T577 200T491 150T379 133H184L160 0H30ZM203 244H378Q419 244 450 259T500 302T519 373Q519 417 495 440T416
464H242L203 244Z" />
<glyph unicode="&#xdf;" glyph-name="germandbls" horiz-adv-x="625" d="M19 0L109 512Q119 568 141 609T196 679T275 721T376 735Q430 735 472 724T543 692T587 639T602 569Q602 528 585 494T535 434T459 395V391Q513 372 540 332T568 229Q568 178 549 136T495
64T409 17T298 0H208L225 100H301Q346 100 378 118T427 166T444 229Q444 259 432 281T396 316T341 329H265L284 436H355Q389 436 416 450T459 490T475 549Q475 587 451 611T375 636Q338 636 309 623T259 583T232 518L141 0H19Z" />
<glyph unicode="&#xe0;" glyph-name="agrave" horiz-adv-x="587" d="M192 -12Q141 -12 102 10T42 75T20 182Q20 202 22 223T29 270Q45 363 79 422T164 510T276 538Q310 538 338 530T389 506T424 465H431L462 526H564L540 396Q533 355 526 316T512 242T501 180T494
136T491 115Q491 101 499 95T520 88H553L539 4Q529 -1 510 -6T465 -12Q439 -12 420 -2T389 28Q385 37 382 48T379 73H372Q339 30 294 9T192 -12ZM246 93Q273 93 297 104T340 136T373 187T394 257Q397 274 398 286T400 309T401 327Q401 362 391 385T360 421T306
433Q262 433 233 416T185 362T156 269Q153 251 151 237T148 212T147 192Q147 142 170 118T246 93ZM286 591L206 720L207 723H328L384 591H286Z" />
<glyph unicode="&#xe1;" glyph-name="aacute" horiz-adv-x="587" d="M192 -12Q141 -12 102 10T42 75T20 182Q20 202 22 223T29 270Q45 363 79 422T164 510T276 538Q310 538 338 530T389 506T424 465H431L462 526H564L540 396Q533 355 526 316T512 242T501 180T494
136T491 115Q491 101 499 95T520 88H553L539 4Q529 -1 510 -6T465 -12Q439 -12 420 -2T389 28Q385 37 382 48T379 73H372Q339 30 294 9T192 -12ZM246 93Q273 93 297 104T340 136T373 187T394 257Q397 274 398 286T400 309T401 327Q401 362 391 385T360 421T306
433Q262 433 233 416T185 362T156 269Q153 251 151 237T148 212T147 192Q147 142 170 118T246 93ZM272 591L375 723H504V720L375 591H272Z" />
<glyph unicode="&#xe2;" glyph-name="acircumflex" horiz-adv-x="587" d="M192 -12Q141 -12 102 10T42 75T20 182Q20 202 22 223T29 270Q45 363 79 422T164 510T276 538Q310 538 338 530T389 506T424 465H431L462 526H564L540 396Q533 355 526 316T512 242T501
180T494 136T491 115Q491 101 499 95T520 88H553L539 4Q529 -1 510 -6T465 -12Q439 -12 420 -2T389 28Q385 37 382 48T379 73H372Q339 30 294 9T192 -12ZM246 93Q273 93 297 104T340 136T373 187T394 257Q397 274 398 286T400 309T401 327Q401 362 391 385T360
421T306 433Q262 433 233 416T185 362T156 269Q153 251 151 237T148 212T147 192Q147 142 170 118T246 93ZM166 591L296 723H410L491 591H388L323 695H379L275 591H166Z" />
<glyph unicode="&#xe3;" glyph-name="atilde" horiz-adv-x="587" d="M192 -12Q141 -12 102 10T42 75T20 182Q20 202 22 223T29 270Q45 363 79 422T164 510T276 538Q310 538 338 530T389 506T424 465H431L462 526H564L540 396Q533 355 526 316T512 242T501 180T494
136T491 115Q491 101 499 95T520 88H553L539 4Q529 -1 510 -6T465 -12Q439 -12 420 -2T389 28Q385 37 382 48T379 73H372Q339 30 294 9T192 -12ZM246 93Q273 93 297 104T340 136T373 187T394 257Q397 274 398 286T400 309T401 327Q401 362 391 385T360 421T306
433Q262 433 233 416T185 362T156 269Q153 251 151 237T148 212T147 192Q147 142 170 118T246 93ZM164 606Q170 637 184 663T221 706T278 723Q304 723 325 715T367 697T410 688Q424 688 433 695T449 723H518Q512 692 498 665T460 622T402 606Q377 606 356 615T315
633T272 642Q259 642 249 634T232 606H164Z" />
<glyph unicode="&#xe4;" glyph-name="adieresis" horiz-adv-x="587" d="M192 -12Q141 -12 102 10T42 75T20 182Q20 202 22 223T29 270Q45 363 79 422T164 510T276 538Q310 538 338 530T389 506T424 465H431L462 526H564L540 396Q533 355 526 316T512 242T501 180T494
136T491 115Q491 101 499 95T520 88H553L539 4Q529 -1 510 -6T465 -12Q439 -12 420 -2T389 28Q385 37 382 48T379 73H372Q339 30 294 9T192 -12ZM246 93Q273 93 297 104T340 136T373 187T394 257Q397 274 398 286T400 309T401 327Q401 362 391 385T360 421T306
433Q262 433 233 416T185 362T156 269Q153 251 151 237T148 212T147 192Q147 142 170 118T246 93ZM181 612L200 723H308L289 612H181ZM384 612L403 723H512L493 612H384Z" />
<glyph unicode="&#xe5;" glyph-name="aring" horiz-adv-x="587" d="M192 -12Q141 -12 102 10T42 75T20 182Q20 202 22 223T29 270Q45 363 79 422T164 510T276 538Q310 538 338 530T389 506T424 465H431L462 526H564L540 396Q533 355 526 316T512 242T501 180T494
136T491 115Q491 101 499 95T520 88H553L539 4Q529 -1 510 -6T465 -12Q439 -12 420 -2T389 28Q385 37 382 48T379 73H372Q339 30 294 9T192 -12ZM246 93Q273 93 297 104T340 136T373 187T394 257Q397 274 398 286T400 309T401 327Q401 362 391 385T360 421T306
433Q262 433 233 416T185 362T156 269Q153 251 151 237T148 212T147 192Q147 142 170 118T246 93ZM338 579Q299 579 274 604T248 667Q248 715 280 746T361 778Q398 778 422 754T447 691Q447 659 433 634T395 594T338 579ZM340 632Q356 632 367 638T386 657T393
684Q393 702 383 713T355 725Q340 725 328 718T309 700T302 672Q302 655 313 644T340 632Z" />
<glyph unicode="&#xe6;" glyph-name="ae" horiz-adv-x="895" d="M200 -12Q172 -12 139 -8T77 10T28 49T9 117Q9 166 28 201T81 259T163 295T267 313T389 319L396 362Q397 368 397 373T398 384Q398 410 380 426T312 442Q272 442 249 434T215 412T200 381L198 370H79Q79
372 79 376T80 384Q88 431 119 465T200 519T312 538Q377 538 420 524T489 484Q519 510 559 524T653 538Q723 538 770 517T841 454T865 346Q865 324 862 297T851 233H497Q495 221 494 211T493 190Q493 155 504 131T539 96T600 84Q624 84 644 90T681 108T707 139T722
184H842Q835 134 814 97T761 36T689 0T604 -12Q531 -12 480 7T402 66Q377 41 346 24T279 -3T200 -12ZM213 85Q245 85 272 94T319 120T352 160T370 211L374 233Q311 233 257 226T171 197T138 134Q138 119 146 108T171 91T213 85ZM514 319H740Q742 329 742 338T743
354Q743 385 733 404T703 432T656 441Q618 441 590 427T544 386T514 319Z" />
<glyph unicode="&#xe7;" glyph-name="ccedilla" horiz-adv-x="547" d="M260 -12Q184 -12 134 9T59 76T34 189Q34 219 37 249T47 307Q58 355 79 396T132 470T208 520T311 538Q379 538 426 519T499 464T524 374Q524 363 523 352T520 329H397Q398 336 398 342T399
356Q399 381 391 399T363 428T314 439Q271 439 242 419T196 361T168 275Q165 258 163 244T160 219T159 197Q159 160 169 136T202 100T257 88Q293 88 318 101T358 140T380 197H497Q487 131 457 84T377 13T260 -12ZM197 -182Q172 -182 146 -180T97 -174L106 -125H197Q220
-125 232 -119T245 -95Q245 -86 237 -82T208 -77H164L194 11H272L258 -34Q293 -36 318 -48T343 -90Q343 -119 328 -137T289 -165T241 -178T197 -182Z" />
<glyph unicode="&#xe8;" glyph-name="egrave" horiz-adv-x="561" d="M268 -12Q190 -12 138 9T59 76T33 189Q33 217 36 245T44 299Q58 366 90 420T178 506T317 538Q388 538 435 517T507 454T531 346Q531 323 528 293T516 233H160Q158 221 157 211T156 190Q156 155
167 132T203 97T265 86Q289 86 309 91T346 109T373 139T388 184H508Q500 134 479 97T426 36T354 0T268 -12ZM176 319H405Q407 329 407 338T408 354Q408 385 398 404T367 432T320 441Q282 441 254 427T207 386T176 319ZM283 591L203 720L204 723H325L381 591H283Z"
/>
<glyph unicode="&#xe9;" glyph-name="eacute" horiz-adv-x="561" d="M268 -12Q190 -12 138 9T59 76T33 189Q33 217 36 245T44 299Q58 366 90 420T178 506T317 538Q388 538 435 517T507 454T531 346Q531 323 528 293T516 233H160Q158 221 157 211T156 190Q156 155
167 132T203 97T265 86Q289 86 309 91T346 109T373 139T388 184H508Q500 134 479 97T426 36T354 0T268 -12ZM176 319H405Q407 329 407 338T408 354Q408 385 398 404T367 432T320 441Q282 441 254 427T207 386T176 319ZM269 591L372 723H501V720L372 591H269Z" />
<glyph unicode="&#xea;" glyph-name="ecircumflex" horiz-adv-x="561" d="M268 -12Q190 -12 138 9T59 76T33 189Q33 217 36 245T44 299Q58 366 90 420T178 506T317 538Q388 538 435 517T507 454T531 346Q531 323 528 293T516 233H160Q158 221 157 211T156 190Q156
155 167 132T203 97T265 86Q289 86 309 91T346 109T373 139T388 184H508Q500 134 479 97T426 36T354 0T268 -12ZM176 319H405Q407 329 407 338T408 354Q408 385 398 404T367 432T320 441Q282 441 254 427T207 386T176 319ZM163 591L293 723H407L488 591H385L320
695H376L272 591H163Z" />
<glyph unicode="&#xeb;" glyph-name="edieresis" horiz-adv-x="561" d="M268 -12Q190 -12 138 9T59 76T33 189Q33 217 36 245T44 299Q58 366 90 420T178 506T317 538Q388 538 435 517T507 454T531 346Q531 323 528 293T516 233H160Q158 221 157 211T156 190Q156
155 167 132T203 97T265 86Q289 86 309 91T346 109T373 139T388 184H508Q500 134 479 97T426 36T354 0T268 -12ZM176 319H405Q407 329 407 338T408 354Q408 385 398 404T367 432T320 441Q282 441 254 427T207 386T176 319ZM178 612L197 723H305L286 612H178ZM381
612L400 723H509L490 612H381Z" />
<glyph unicode="&#xec;" glyph-name="igrave" horiz-adv-x="252" d="M19 0L112 526H234L141 0H19ZM137 591L57 720L58 723H179L235 591H137Z" />
<glyph unicode="&#xed;" glyph-name="iacute" horiz-adv-x="252" d="M19 0L112 526H234L141 0H19ZM123 591L226 723H355V720L226 591H123Z" />
<glyph unicode="&#xee;" glyph-name="icircumflex" horiz-adv-x="252" d="M19 0L112 526H234L141 0H19ZM17 591L147 723H261L342 591H239L174 695H230L126 591H17Z" />
<glyph unicode="&#xef;" glyph-name="idieresis" horiz-adv-x="252" d="M19 0L112 526H234L141 0H19ZM32 612L51 723H159L140 612H32ZM235 612L254 723H363L344 612H235Z" />
<glyph unicode="&#xf0;" glyph-name="eth" horiz-adv-x="614" d="M277 -12Q196 -12 142 9T61 75T34 190Q34 274 57 345T124 462Q140 479 159 492T201 513T247 526T298 531Q325 531 349 527T396 514L400 517Q391 538 379 558T351 600L187 588L199 657L301 664Q288
678 274 691T245 718L249 723H388Q401 711 413 699T436 674L601 685L589 617L489 610Q528 553 554 486T580 345Q580 287 571 232T539 133Q518 89 483 56T396 6T277 -12ZM277 88Q327 88 360 107T414 162T443 246Q445 258 446 268T449 288T450 305T451 321Q451 358
439 382T400 418T332 430Q283 430 250 411T197 356T169 272Q166 256 164 243T162 218T161 197Q161 161 173 137T210 100T277 88Z" />
<glyph unicode="&#xf1;" glyph-name="ntilde" horiz-adv-x="584" d="M19 0L111 526H211V455H218Q237 478 264 497T324 527T391 538Q434 538 468 525T522 482T543 403Q543 385 541 366T534 324L476 0H354L410 315Q412 329 414 341T416 365Q416 390 408 404T383
424T346 431Q319 431 294 422T248 393T212 346T191 282L141 0H19ZM189 606Q195 637 209 663T246 706T303 723Q329 723 350 715T392 697T435 688Q449 688 458 695T474 723H543Q537 692 523 665T485 622T427 606Q402 606 381 615T340 633T297 642Q284 642 274 634T257
606H189Z" />
<glyph unicode="&#xf2;" glyph-name="ograve" horiz-adv-x="598" d="M260 -12Q184 -12 133 9T57 75T31 188Q31 207 33 228T39 271Q55 363 93 422T193 509T337 538Q414 538 465 517T541 451T567 337Q567 318 565 298T559 255Q543 163 506 104T408 17T260 -12ZM268
88Q316 88 348 106T401 162T431 256Q435 274 436 287T438 310T439 329Q439 365 428 389T392 426T329 438Q281 438 249 419T197 363T166 270Q163 252 161 239T158 215T157 196Q157 160 168 136T205 100T268 88ZM310 591L230 720L231 723H352L408 591H310Z" />
<glyph unicode="&#xf3;" glyph-name="oacute" horiz-adv-x="598" d="M260 -12Q184 -12 133 9T57 75T31 188Q31 207 33 228T39 271Q55 363 93 422T193 509T337 538Q414 538 465 517T541 451T567 337Q567 318 565 298T559 255Q543 163 506 104T408 17T260 -12ZM268
88Q316 88 348 106T401 162T431 256Q435 274 436 287T438 310T439 329Q439 365 428 389T392 426T329 438Q281 438 249 419T197 363T166 270Q163 252 161 239T158 215T157 196Q157 160 168 136T205 100T268 88ZM296 591L399 723H528V720L399 591H296Z" />
<glyph unicode="&#xf4;" glyph-name="ocircumflex" horiz-adv-x="598" d="M260 -12Q184 -12 133 9T57 75T31 188Q31 207 33 228T39 271Q55 363 93 422T193 509T337 538Q414 538 465 517T541 451T567 337Q567 318 565 298T559 255Q543 163 506 104T408 17T260 -12ZM268
88Q316 88 348 106T401 162T431 256Q435 274 436 287T438 310T439 329Q439 365 428 389T392 426T329 438Q281 438 249 419T197 363T166 270Q163 252 161 239T158 215T157 196Q157 160 168 136T205 100T268 88ZM190 591L320 723H434L515 591H412L347 695H403L299
591H190Z" />
<glyph unicode="&#xf5;" glyph-name="otilde" horiz-adv-x="598" d="M260 -12Q184 -12 133 9T57 75T31 188Q31 207 33 228T39 271Q55 363 93 422T193 509T337 538Q414 538 465 517T541 451T567 337Q567 318 565 298T559 255Q543 163 506 104T408 17T260 -12ZM268
88Q316 88 348 106T401 162T431 256Q435 274 436 287T438 310T439 329Q439 365 428 389T392 426T329 438Q281 438 249 419T197 363T166 270Q163 252 161 239T158 215T157 196Q157 160 168 136T205 100T268 88ZM188 606Q194 637 208 663T245 706T302 723Q328 723
349 715T391 697T434 688Q448 688 457 695T473 723H542Q536 692 522 665T484 622T426 606Q401 606 380 615T339 633T296 642Q283 642 273 634T256 606H188Z" />
<glyph unicode="&#xf6;" glyph-name="odieresis" horiz-adv-x="598" d="M260 -12Q184 -12 133 9T57 75T31 188Q31 207 33 228T39 271Q55 363 93 422T193 509T337 538Q414 538 465 517T541 451T567 337Q567 318 565 298T559 255Q543 163 506 104T408 17T260 -12ZM268
88Q316 88 348 106T401 162T431 256Q435 274 436 287T438 310T439 329Q439 365 428 389T392 426T329 438Q281 438 249 419T197 363T166 270Q163 252 161 239T158 215T157 196Q157 160 168 136T205 100T268 88ZM205 612L224 723H332L313 612H205ZM408 612L427 723H536L517
612H408Z" />
<glyph unicode="&#xf7;" glyph-name="divide" horiz-adv-x="636" d="M72 206L89 304H562L544 206H72ZM214 0L233 107H347L328 0H214ZM285 404L305 511H419L399 404H285Z" />
<glyph unicode="&#xf8;" glyph-name="oslash" horiz-adv-x="598" d="M260 -12Q184 -12 133 9T57 75T31 188Q31 207 33 228T39 271Q55 363 93 422T193 509T337 538Q414 538 465 517T541 451T567 337Q567 318 565 298T559 255Q543 163 506 104T408 17T260 -12ZM268
88Q316 88 348 106T401 162T431 256Q435 274 436 287T438 310T439 329Q439 365 428 389T392 426T329 438Q281 438 249 419T197 363T166 270Q163 252 161 239T158 215T157 196Q157 160 168 136T205 100T268 88ZM-16 -49L534 575H615L66 -49H-16Z" />
<glyph unicode="&#xf9;" glyph-name="ugrave" horiz-adv-x="583" d="M191 -12Q149 -12 114 1T59 44T38 123Q38 141 41 160T48 202L105 526H228L172 210Q170 196 168 184T166 161Q166 136 175 122T200 101T237 95Q264 95 289 104T334 133T370 180T391 244L441 526H564L471
0H371V71H364Q345 48 318 29T258 -1T191 -12ZM299 591L219 720L220 723H341L397 591H299Z" />
<glyph unicode="&#xfa;" glyph-name="uacute" horiz-adv-x="583" d="M191 -12Q149 -12 114 1T59 44T38 123Q38 141 41 160T48 202L105 526H228L172 210Q170 196 168 184T166 161Q166 136 175 122T200 101T237 95Q264 95 289 104T334 133T370 180T391 244L441 526H564L471
0H371V71H364Q345 48 318 29T258 -1T191 -12ZM285 591L388 723H517V720L388 591H285Z" />
<glyph unicode="&#xfb;" glyph-name="ucircumflex" horiz-adv-x="583" d="M191 -12Q149 -12 114 1T59 44T38 123Q38 141 41 160T48 202L105 526H228L172 210Q170 196 168 184T166 161Q166 136 175 122T200 101T237 95Q264 95 289 104T334 133T370 180T391 244L441
526H564L471 0H371V71H364Q345 48 318 29T258 -1T191 -12ZM179 591L309 723H423L504 591H401L336 695H392L288 591H179Z" />
<glyph unicode="&#xfc;" glyph-name="udieresis" horiz-adv-x="583" d="M191 -12Q149 -12 114 1T59 44T38 123Q38 141 41 160T48 202L105 526H228L172 210Q170 196 168 184T166 161Q166 136 175 122T200 101T237 95Q264 95 289 104T334 133T370 180T391 244L441
526H564L471 0H371V71H364Q345 48 318 29T258 -1T191 -12ZM194 612L213 723H321L302 612H194ZM397 612L416 723H525L506 612H397Z" />
<glyph unicode="&#xfd;" glyph-name="yacute" horiz-adv-x="529" d="M61 -182Q21 -182 0 -177T-25 -170L-10 -82H45Q68 -82 90 -74T131 -47T164 0L52 526H174L225 286Q230 264 235 235T244 177T250 128H255Q261 143 269 162T285 201T302 240T318 273L443 526H571L311
27Q289 -16 264 -53T208 -120T142 -165T61 -182ZM258 591L361 723H490V720L361 591H258Z" />
<glyph unicode="&#xfe;" glyph-name="thorn" horiz-adv-x="592" d="M-12 -173L146 723H268L223 465H229Q249 490 273 506T326 530T390 538Q442 538 480 516T540 451T562 344Q562 325 560 303T553 256Q537 163 503 104T418 17T306 -12Q271 -12 244 -4T195 21T157
60H151L110 -173H-12ZM276 93Q321 93 350 110T397 164T426 257Q430 276 431 289T434 314T435 334Q435 368 425 389T393 422T336 433Q298 433 268 414T218 359T188 269Q185 253 184 240T182 218T181 199Q181 165 191 141T222 105T276 93Z" />
<glyph unicode="&#xff;" glyph-name="ydieresis" horiz-adv-x="529" d="M61 -182Q21 -182 0 -177T-25 -170L-10 -82H45Q68 -82 90 -74T131 -47T164 0L52 526H174L225 286Q230 264 235 235T244 177T250 128H255Q261 143 269 162T285 201T302 240T318 273L443 526H571L311
27Q289 -16 264 -53T208 -120T142 -165T61 -182ZM167 612L186 723H294L275 612H167ZM370 612L389 723H498L479 612H370Z" />
<glyph unicode="&#x2013;" glyph-name="endash" horiz-adv-x="500" d="M-5 225L9 315H508L493 225H-5Z" />
<glyph unicode="&#x2014;" glyph-name="emdash" horiz-adv-x="1000" d="M-5 225L9 315H1008L993 225H-5Z" />
<glyph unicode="&#x2018;" glyph-name="quoteleft" horiz-adv-x="280" d="M289 686L279 635Q254 631 236 615T206 575T190 523H252L229 395H103L123 512Q133 571 157 607T215 663T289 686Z" />
<glyph unicode="&#x2019;" glyph-name="quoteright" horiz-adv-x="280" d="M89 395L99 446Q124 450 142 466T172 506T188 558H126L149 686H275L255 569Q245 511 221 474T163 418T89 395Z" />
<glyph unicode="&#x201a;" glyph-name="quotesinglbase" horiz-adv-x="280" d="M-9 -163L1 -112Q26 -108 44 -92T74 -52T90 0H28L51 128H177L157 11Q147 -47 123 -84T65 -140T-9 -163Z" />
<glyph unicode="&#x201c;" glyph-name="quotedblleft" horiz-adv-x="482" d="M491 686L481 635Q456 631 438 615T408 575T392 523H454L431 395H305L325 512Q335 571 359 607T417 663T491 686ZM289 686L279 635Q254 631 236 615T206 575T190 523H252L229 395H103L123
512Q133 571 157 607T215 663T289 686Z" />
<glyph unicode="&#x201d;" glyph-name="quotedblright" horiz-adv-x="482" d="M89 395L99 446Q124 450 142 466T172 506T188 558H126L149 686H275L255 569Q245 511 221 474T163 418T89 395ZM291 395L301 446Q326 450 344 466T374 506T390 558H328L351 686H477L457
569Q447 511 423 474T365 418T291 395Z" />
<glyph unicode="&#x201e;" glyph-name="quotedblbase" horiz-adv-x="482" d="M-9 -163L1 -112Q26 -108 44 -92T74 -52T90 0H28L51 128H177L157 11Q147 -47 123 -84T65 -140T-9 -163ZM193 -163L203 -112Q228 -108 246 -92T276 -52T292 0H230L253 128H379L359 11Q349
-47 325 -84T267 -140T193 -163Z" />
<glyph unicode="&#x2022;" glyph-name="bullet" horiz-adv-x="425" d="M207 212Q173 212 148 226T108 266T93 322Q93 367 113 401T168 455T247 475Q281 475 306 461T346 421T361 363Q361 319 341 285T287 232T207 212Z" />
<glyph unicode="&#x2039;" glyph-name="guilsinglleft" horiz-adv-x="356" d="M175 126L69 326L236 526H336L187 326L265 126H175Z" />
<glyph unicode="&#x203a;" glyph-name="guilsinglright" horiz-adv-x="356" d="M203 526L309 326L142 126H42L191 326L113 526H203Z" />
</font>
</defs>
</svg>
