<?xml version="1.0" standalone="no"?>
<!DOCTYPE svg PUBLIC "-//W3C//DTD SVG 1.1//EN" "http://www.w3.org/Graphics/SVG/1.1/DTD/svg11.dtd">
<svg xmlns="http://www.w3.org/2000/svg">
<defs >
<font id="Archivo" horiz-adv-x="577" ><font-face
    font-family="Archivo"
    units-per-em="1000"
    panose-1="0 0 0 0 0 0 0 0 0 0"
    ascent="878"
    descent="-210"
    alphabetic="0" />
<glyph unicode=" " glyph-name="space" horiz-adv-x="196" />
<glyph unicode="!" glyph-name="exclam" horiz-adv-x="301" d="M97 200L148 686H303L181 200H97ZM35 0L60 136H198L174 0H35Z" />
<glyph unicode="&quot;" glyph-name="quotedbl" horiz-adv-x="456" d="M112 405L108 539L134 686H270L244 539L192 405H112ZM315 405L310 539L336 686H473L447 539L394 405H315Z" />
<glyph unicode="#" glyph-name="numbersign" horiz-adv-x="600" d="M73 -12L110 166H35V266H132L159 397H81V498H181L224 698H329L286 498H404L446 698H551L509 498H588V397H489L461 266H545V166H439L402 -12H297L335 166H215L178 -12H73ZM236 266H356L383 397H264L236
266Z" />
<glyph unicode="$" glyph-name="dollar" horiz-adv-x="556" d="M185 -53L324 730H381L242 -53H185ZM257 67Q205 67 163 77T90 104T44 148T28 206Q28 217 30 228T34 246H168Q166 242 165 236T164 228Q164 206 177 193T213 174T261 168Q280 168 299 171T335 181T361
198T371 226Q371 243 361 253T333 271T292 285T244 298Q215 306 186 315T132 340T94 378T79 436Q79 481 98 515T151 572T229 606T326 618Q372 618 411 610T479 586T524 547T540 494Q540 479 538 467T534 451H401Q402 456 402 460T403 466Q403 483 393 494T365 511T320
517Q297 517 279 513T248 502T229 486T222 465Q222 446 238 436T282 418T340 402Q370 393 400 384T457 360T498 321T514 259Q514 206 494 169T437 110T355 78T257 67Z" />
<glyph unicode="%" glyph-name="percent" horiz-adv-x="973" d="M151 0L756 686H857L251 0H151ZM274 338Q200 338 161 368T121 466Q121 480 122 494T127 524Q137 584 161 622T223 679T314 698Q387 698 426 668T465 569Q465 556 464 543T461 515Q451 455 428 416T366
358T274 338ZM689 -12Q615 -12 576 18T536 116Q536 130 538 145T543 176Q553 236 577 273T639 329T729 348Q803 348 842 318T881 218Q881 205 880 191T876 160Q865 101 841 63T780 7T689 -12ZM275 413Q315 413 332 440T356 507Q360 522 361 532T363 549T364 563Q364
592 352 608T311 624Q273 624 256 597T230 530Q228 516 226 506T224 489T223 474Q223 445 235 429T275 413ZM691 62Q731 62 748 90T774 164Q776 176 777 184T778 200T779 212Q779 242 767 258T727 274Q687 274 670 246T644 172Q642 161 641 153T640 138T639 124Q639
94 651 78T691 62Z" />
<glyph unicode="&amp;" glyph-name="ampersand" horiz-adv-x="764" d="M315 -12Q230 -12 169 8T76 67T43 159Q43 212 65 251T125 317T208 353L209 357Q169 376 143 406T117 484Q117 536 141 576T206 643T302 684T419 698Q499 698 557 678T646 623T678 538Q678
531 677 520T671 485H536Q539 500 539 506T540 517Q540 541 526 557T485 581T418 590Q381 590 352 582T302 559T270 523T258 475Q258 450 270 434T304 409T352 401H426L408 296H331Q305 296 280 291T235 272T202 237T190 181Q190 153 204 135T247 107T315 97Q369
97 404 109T460 146T487 202L522 401H757L739 295H638L622 206Q610 138 573 90T471 15T315 -12Z" />
<glyph unicode="&apos;" glyph-name="quotesingle" horiz-adv-x="253" d="M112 405L108 539L134 686H270L244 539L192 405H112Z" />
<glyph unicode="(" glyph-name="parenleft" horiz-adv-x="364" d="M156 -158Q101 -81 75 11T54 203Q57 301 88 396T176 577T311 735H401Q355 678 316 613T247 478T200 335T180 191Q177 130 184 68T206 -51T244 -158H156Z" />
<glyph unicode=")" glyph-name="parenright" horiz-adv-x="364" d="M218 736Q273 659 298 567T320 375Q316 277 285 182T198 1T63 -157H-27Q18 -100 57 -35T127 100T174 243T194 387Q197 449 190 510T168 630T130 736H218Z" />
<glyph unicode="*" glyph-name="asterisk" horiz-adv-x="407" d="M176 327L210 458L93 383L65 452L189 507L85 563L137 632L227 557L239 687H318L283 557L400 632L428 563L303 507L408 452L356 383L266 458L255 327H176Z" />
<glyph unicode="+" glyph-name="plus" horiz-adv-x="641" d="M219 0L256 204H68L87 310H275L311 515H419L383 310H572L552 204H364L327 0H219Z" />
<glyph unicode="," glyph-name="comma" horiz-adv-x="307" d="M-5 -169L6 -111Q32 -107 52 -92T85 -52T103 0H32L57 143H202L180 14Q171 -32 154 -65T112 -121T58 -154T-5 -169Z" />
<glyph unicode="-" glyph-name="hyphen" horiz-adv-x="333" d="M31 210L52 332H304L283 210H31Z" />
<glyph unicode="." glyph-name="period" horiz-adv-x="307" d="M34 0L60 143H206L180 0H34Z" />
<glyph unicode="/" glyph-name="slash" horiz-adv-x="300" d="M-55 -49L284 735H383L44 -49H-55Z" />
<glyph unicode="0" glyph-name="zero" horiz-adv-x="595" d="M264 -12Q195 -12 147 9T73 77T48 203Q48 223 49 245T54 292T62 345Q79 444 105 511T167 620T251 680T358 698Q429 698 477 677T551 609T576 483Q576 463 574 441T569 394T561 343Q545 243 519 176T455
67T371 7T264 -12ZM266 96Q301 96 325 110T365 152T394 227T418 335Q423 366 427 390T433 432T437 464T438 489Q438 540 420 565T357 590Q322 590 298 576T258 533T229 459T205 351Q199 320 195 296T189 254T185 223T184 198Q184 147 203 122T266 96Z" />
<glyph unicode="1" glyph-name="one" horiz-adv-x="596" d="M27 0L47 112H211L283 517H117L132 601Q158 603 190 611T257 630T327 656T391 687H452L351 112H504L484 0H27Z" />
<glyph unicode="2" glyph-name="two" horiz-adv-x="596" d="M-2 0L5 36Q14 87 42 128T109 205T193 270T281 329T360 387T417 449T438 520Q438 545 419 566T353 588Q316 588 290 576T248 541T226 485L219 449H84Q89 517 113 564T176 641T263 684T363 698Q443 698
490 674T559 610T580 525Q580 476 564 436T519 362T456 300T383 247T310 200T246 155Q236 148 227 140T212 123H516L494 0H-2Z" />
<glyph unicode="3" glyph-name="three" horiz-adv-x="596" d="M267 -12Q188 -12 135 8T55 66T28 154Q28 164 29 176T34 209H169Q167 194 166 186T165 171Q165 134 191 115T265 96Q303 96 333 110T381 152T399 222Q399 251 386 267T350 289T301 296H240L259 402H318Q341
402 362 409T400 431T427 468T437 520Q437 543 426 558T397 582T352 590Q319 590 295 579T255 548T234 500L232 485H99L103 507Q114 565 149 608T239 674T362 698Q430 698 479 679T554 624T581 537Q581 489 563 454T513 395T443 357L442 353Q486 338 512 303T539
213Q539 142 503 92T404 15T267 -12Z" />
<glyph unicode="4" glyph-name="four" horiz-adv-x="597" d="M296 0L323 150H15L33 261Q82 323 126 392T211 538T288 698H439Q420 650 391 597T329 492T263 395T201 314T153 261H342L370 420Q383 439 398 462T427 510T453 559T475 604H539L479 261H566L547 150H460L432
0H296Z" />
<glyph unicode="5" glyph-name="five" horiz-adv-x="595" d="M267 -12Q194 -12 141 9T60 71T31 168Q31 179 32 191T35 215H172Q171 207 171 200T170 187Q170 159 180 139T212 107T262 96Q289 96 314 106T358 136T390 185T402 254Q402 299 378 321T313 344Q286
344 265 336T227 315T197 289L76 305L170 686H583L561 563H265L227 409Q240 417 258 426T302 442T361 449Q416 449 457 429T521 369T545 269Q545 182 508 119T407 22T267 -12Z" />
<glyph unicode="6" glyph-name="six" horiz-adv-x="596" d="M274 -12Q202 -12 151 9T72 80T44 210Q44 235 47 265T56 328Q80 468 121 548T224 663T364 698Q435 698 481 678T550 620T573 532Q573 519 572 507T569 481H433Q435 491 435 499T436 515Q436 552 417
571T359 591Q312 591 283 567T238 495T208 382Q221 393 242 406T293 430T357 440Q421 440 463 418T526 356T548 262Q548 199 527 149T469 63T381 8T274 -12ZM273 96Q308 96 334 111T376 150Q391 169 398 194T405 246Q405 273 396 293T368 325T317 336Q284 336 258
324T215 288Q199 269 191 243T183 187Q183 160 192 139T222 107T273 96Z" />
<glyph unicode="7" glyph-name="seven" horiz-adv-x="596" d="M96 0Q111 81 143 159T221 309T319 445T426 562H96L118 686H629L614 604Q571 561 528 513T444 411T368 299T308 180T272 52Q269 39 267 28T263 0H96Z" />
<glyph unicode="8" glyph-name="eight" horiz-adv-x="596" d="M260 -12Q178 -12 126 9T49 67T24 152Q24 198 40 236T88 304T165 351Q132 372 115 404T98 474Q98 521 116 561T169 633T251 681T357 698Q427 698 475 677T549 619T574 532Q574 494 560 460T519 399T452
351Q495 331 516 297T537 217Q537 152 505 101T411 19T260 -12ZM263 95Q281 95 297 98T328 109T354 125Q373 142 384 165T396 219Q396 257 371 277T299 298Q282 298 266 295T236 286T211 271Q191 254 180 230T168 173Q168 136 192 116T263 95ZM317 403Q335 403
351 407T382 418T407 438Q421 452 429 472T437 519Q437 555 415 573T351 592Q335 592 320 589T292 579T268 562Q252 547 243 525T233 474Q233 439 254 421T317 403Z" />
<glyph unicode="9" glyph-name="nine" horiz-adv-x="595" d="M255 -12Q185 -12 139 8T69 67T46 155Q46 167 47 180T51 206H187Q186 197 185 188T183 172Q183 135 202 116T261 96Q309 96 337 120T382 192T411 305Q398 294 377 281T327 257T262 247Q199 247 157
268T93 330T71 425Q71 487 92 537T151 624T238 679T345 698Q418 698 469 677T548 607T575 477Q575 452 573 422T564 358Q541 219 499 138T396 23T255 -12ZM303 350Q335 350 361 363T405 398Q420 417 428 443T437 500Q437 528 427 548T397 579T346 591Q312 591 286
577T243 537Q228 517 221 492T214 440Q214 413 223 393T252 362T303 350Z" />
<glyph unicode=":" glyph-name="colon" horiz-adv-x="335" d="M115 384L141 527H286L260 384H115ZM48 0L74 143H219L194 0H48Z" />
<glyph unicode=";" glyph-name="semicolon" horiz-adv-x="335" d="M10 -169L21 -111Q46 -107 66 -92T99 -52T117 0H46L71 143H216L194 14Q186 -32 169 -65T126 -121T72 -154T10 -169ZM113 384L139 527H284L259 384H113Z" />
<glyph unicode="&lt;" glyph-name="less" horiz-adv-x="641" d="M507 0L56 197L79 323L599 521L578 401L178 258L527 113L507 0Z" />
<glyph unicode="=" glyph-name="equal" horiz-adv-x="641" d="M87 311L106 416H590L571 311H87ZM49 96L67 201H552L533 96H49Z" />
<glyph unicode="&gt;" glyph-name="greater" horiz-adv-x="641" d="M42 0L63 121L463 264L114 408L134 521L584 323L562 197L42 0Z" />
<glyph unicode="?" glyph-name="question" horiz-adv-x="613" d="M231 204L239 251Q245 289 262 316T303 364T350 402T395 437T429 473T442 520Q442 535 436 549T411 574T359 584Q330 584 308 575T272 551T249 518T238 482Q237 475 237 469T236 457H99Q99 501
112 538T150 605T209 656T285 687T375 698Q426 698 467 687T536 656T580 604T595 534Q595 489 579 456T538 398T485 354T429 316T384 279T362 233L357 204H231ZM191 0L216 140H358L333 0H191Z" />
<glyph unicode="@" glyph-name="at" horiz-adv-x="1001" d="M452 -154Q342 -154 265 -129T141 -55T71 59T49 206Q49 289 64 358T111 482T186 578T289 645T417 685T570 699Q664 699 738 678T863 616T940 516T967 382Q967 329 957 278T925 180T869 98T788 43T678
22Q646 22 623 30T587 54T571 92L566 96Q540 60 502 41T424 21Q377 21 342 41T287 102T267 203Q267 225 269 246T275 288Q283 337 301 379T346 453T408 503T486 521Q519 521 543 514T585 491T616 453H622L651 510H751L730 392Q722 348 716 310T703 243T693 191T687
157T685 142Q685 128 694 123T721 117Q753 117 778 132T822 173T853 232T872 304T879 381Q879 457 843 510T738 592T570 621Q488 621 421 605T300 555T211 473T156 359T137 213Q137 148 153 95T207 4T305 -55T458 -76Q485 -76 512 -74T564 -69T610 -62T644 -55L631
-136Q612 -140 585 -144T524 -151T452 -154ZM466 126Q490 126 508 136T540 163T563 200Q572 216 577 233T587 267T592 299T594 326Q594 357 586 377T561 407T517 418Q494 418 477 410T446 386T422 348Q415 334 410 317T401 281T395 246T393 213Q393 170 410 148T466
126Z" />
<glyph unicode="A" glyph-name="A" horiz-adv-x="724" d="M-39 0L344 686H528L671 0H518L492 135H191L118 0H-39ZM255 255H469L438 421Q435 439 432 457T426 493T420 527T416 556H411Q401 536 389 511T364 461T343 419L255 255Z" />
<glyph unicode="B" glyph-name="B" horiz-adv-x="722" d="M29 0L151 686H499Q565 686 611 668T682 615T707 530Q707 488 688 453T637 393T564 360V356Q609 342 639 305T669 210Q669 139 635 93T545 23T424 0H29ZM201 122H411Q440 122 464 132T503 164T517 219Q517
253 497 272T432 292H230L201 122ZM252 409H449Q475 409 494 416T525 436T543 465T550 499Q550 533 530 550T477 567H279L252 409Z" />
<glyph unicode="C" glyph-name="C" horiz-adv-x="733" d="M346 -12Q203 -12 127 52T51 255Q51 282 53 308T60 360Q79 466 129 542T260 658T446 698Q529 698 592 675T692 604T728 484Q728 470 727 456T723 427H572Q574 436 574 444T575 460Q575 499 559 524T513
563T443 576Q395 576 358 561T292 519T246 454T218 367Q214 346 211 330T207 302T205 280T204 260Q204 210 220 177T269 128T351 111Q403 111 444 128T512 177T547 258H693Q678 167 630 107T508 18T346 -12Z" />
<glyph unicode="D" glyph-name="D" horiz-adv-x="739" d="M30 0L151 686H416Q559 686 637 621T716 417Q716 393 714 370T708 322Q690 220 640 148T510 38T327 0H30ZM201 123H324Q370 123 408 136T475 175T523 237T550 323Q555 347 557 363T561 391T562 413Q562
463 544 496T492 547T406 564H278L201 123Z" />
<glyph unicode="E" glyph-name="E" horiz-adv-x="683" d="M29 0L151 686H699L677 564H279L252 411H605L584 290H230L201 123H606L584 0H29Z" />
<glyph unicode="F" glyph-name="F" horiz-adv-x="622" d="M29 0L151 686H658L636 564H279L249 394H567L546 273H228L179 0H29Z" />
<glyph unicode="G" glyph-name="G" horiz-adv-x="802" d="M341 -12Q203 -12 127 53T51 255Q51 288 54 319T64 378Q86 480 140 551T276 660T464 698Q527 698 582 686T678 648T743 584T766 494Q766 483 765 472T762 449H611Q612 455 612 460T612 470Q612 496 601
515T571 548T525 569T467 576Q415 576 373 562T300 522T248 457T218 368Q215 347 213 331T209 303T206 282T205 262Q205 211 222 177T275 127T362 110Q418 110 465 127T542 177T578 250L579 257H375L396 371H748L683 0H586L584 76Q550 47 513 28T434 -2T341 -12Z"
/>
<glyph unicode="H" glyph-name="H" horiz-adv-x="754" d="M29 0L151 686H300L252 414H556L604 686H754L633 0H483L534 288H230L179 0H29Z" />
<glyph unicode="I" glyph-name="I" horiz-adv-x="301" d="M29 0L151 686H300L179 0H29Z" />
<glyph unicode="J" glyph-name="J" horiz-adv-x="603" d="M247 -12Q137 -12 78 31T18 159Q18 170 20 186T28 232H174Q169 208 168 195T166 176Q166 143 187 127T253 110Q302 110 333 142T376 236L455 686H605L526 235Q511 150 474 95T380 14T247 -12Z" />
<glyph unicode="K" glyph-name="K" horiz-adv-x="725" d="M29 0L151 686H300L246 383L579 686H775L464 407L659 0H489L349 305L214 196L179 0H29Z" />
<glyph unicode="L" glyph-name="L" horiz-adv-x="591" d="M30 0L151 686H300L202 127H546L524 0H30Z" />
<glyph unicode="M" glyph-name="M" horiz-adv-x="872" d="M29 0L151 686H369L407 335Q409 314 411 287T414 233T416 186H423Q431 207 441 233T462 287T482 336L643 686H871L750 0H602L673 399Q677 421 683 449T695 503T703 539H696Q692 529 686 514T674 483T664
459L451 0H316L271 452Q269 472 268 497T265 539H258Q256 517 254 490T248 439T241 399L171 0H29Z" />
<glyph unicode="N" glyph-name="N" horiz-adv-x="754" d="M29 0L151 686H288L488 317Q495 306 502 292T517 263T531 236L537 237Q539 254 542 274T547 307L612 686H754L633 0H496L299 363Q290 379 277 405T253 451H248Q246 433 242 409T235 369L171 0H29Z" />
<glyph unicode="O" glyph-name="O" horiz-adv-x="793" d="M363 -12Q264 -12 194 18T88 108T51 258Q51 281 52 304T58 349Q77 459 128 537T262 657T459 698Q557 698 627 668T734 578T772 428Q772 406 770 384T764 340Q747 229 695 150T560 30T363 -12ZM365 111Q416
111 456 125T527 168T577 237T606 330Q609 349 611 363T615 387T616 406T617 422Q617 470 599 505T545 558T454 576Q404 576 364 562T293 519T244 450T215 357Q211 338 210 324T207 300T206 281T205 265Q205 217 223 183T277 130T365 111Z" />
<glyph unicode="P" glyph-name="P" horiz-adv-x="681" d="M29 0L151 686H472Q550 686 600 663T674 598T698 497Q698 438 679 391T625 309T539 257T428 239H222L179 0H29ZM243 361H417Q455 361 483 375T528 416T545 481Q545 521 522 542T451 564H279L243 361Z" />
<glyph unicode="Q" glyph-name="Q" horiz-adv-x="793" d="M483 -130L383 -11Q378 -12 373 -12T363 -12Q264 -12 194 18T88 108T51 258Q51 281 52 304T58 349Q77 459 128 537T262 657T459 698Q557 698 627 668T734 578T772 428Q772 406 770 384T764 340Q745 221
686 139T533 18L661 -130H483ZM365 111Q416 111 456 125T527 168T577 237T606 330Q609 349 611 363T615 387T616 406T617 422Q617 470 599 505T545 558T454 576Q404 576 364 562T293 519T244 450T215 357Q211 338 210 324T207 300T206 281T205 265Q205 217 223
183T277 130T365 111Z" />
<glyph unicode="R" glyph-name="R" horiz-adv-x="730" d="M30 0L151 686H510Q581 686 628 665T698 605T721 514Q721 454 703 407T651 327T565 274L657 0H496L418 249H223L179 0H30ZM245 368H447Q480 368 507 383T551 427T567 493Q567 527 546 546T486 565H279L245 368Z" />
<glyph unicode="S" glyph-name="S" horiz-adv-x="679" d="M319 -12Q257 -12 204 -2T110 29T48 84T25 165Q25 179 27 195T33 223H181Q179 216 177 207T175 189Q175 163 191 145T237 118T308 109Q347 109 376 115T425 132T455 159T466 196Q466 217 452 232T415 258T363
277T302 294Q265 305 228 318T161 352T112 403T94 478Q94 535 118 576T183 645T277 685T388 698Q446 698 494 689T579 659T636 608T656 533Q656 524 655 513T651 484H505Q508 494 508 499T509 507Q509 540 479 560T394 580Q350 580 318 571T268 544T250 503Q250
486 260 474T288 452T331 435T384 420Q423 409 465 396T543 361T601 307T623 227Q623 163 598 118T529 44T431 2T319 -12Z" />
<glyph unicode="T" glyph-name="T" horiz-adv-x="641" d="M199 0L298 561H78L100 686H691L669 561H448L349 0H199Z" />
<glyph unicode="U" glyph-name="U" horiz-adv-x="748" d="M342 -12Q212 -12 140 42T67 203Q67 217 68 233T73 266L147 686H296L222 264Q221 257 220 246T218 225Q218 169 250 140T346 110Q419 110 465 149T525 263L600 686H750L675 257Q659 167 616 107T505 18T342 -12Z" />
<glyph unicode="V" glyph-name="V" horiz-adv-x="694" d="M214 0L87 686H240L303 311Q308 282 312 254T320 202T326 163H332Q343 185 357 213T385 269T409 317L599 686H758L388 0H214Z" />
<glyph unicode="W" glyph-name="W" horiz-adv-x="964" d="M140 0L85 686H229L259 277Q260 266 260 249T262 214T263 179H267Q273 195 279 214T291 250T301 277L465 686H644L667 277Q668 266 668 249T668 214T669 179H674Q679 194 685 212T698 247T709 277L881
686H1030L727 0H555L530 422Q529 437 529 455T528 491T527 522H522Q518 507 512 489T499 453T488 422L313 0H140Z" />
<glyph unicode="X" glyph-name="X" horiz-adv-x="706" d="M-36 0L283 364L107 686H278L384 475H389L568 686H748L458 357L651 0H480L358 243H353L146 0H-36Z" />
<glyph unicode="Y" glyph-name="Y" horiz-adv-x="699" d="M230 0L279 276L85 686H242L371 408H377L599 686H765L428 276L380 0H230Z" />
<glyph unicode="Z" glyph-name="Z" horiz-adv-x="653" d="M-17 0L-6 66L428 564H107L129 686H684L672 620L238 123H593L571 0H-17Z" />
<glyph unicode="[" glyph-name="bracketleft" horiz-adv-x="350" d="M27 -161L183 735H405L391 646H285L158 -71H264L248 -161H27Z" />
<glyph unicode="\" glyph-name="backslash" horiz-adv-x="300" d="M155 -49L83 735H173L245 -49H155Z" />
<glyph unicode="]" glyph-name="bracketright" horiz-adv-x="350" d="M331 735L175 -161H-48L-33 -72H73L199 645H94L110 735H331Z" />
<glyph unicode="^" glyph-name="asciicircum" horiz-adv-x="641" d="M111 303L337 686H452L545 303H436L377 571L226 303H111Z" />
<glyph unicode="_" glyph-name="underscore" horiz-adv-x="518" d="M-73 -156L-58 -64H460L444 -156H-73Z" />
<glyph unicode="`" glyph-name="grave" horiz-adv-x="219" d="M172 591L81 720L82 723H220L277 591H172Z" />
<glyph unicode="a" glyph-name="a" horiz-adv-x="604" d="M199 -12Q146 -12 106 10T44 75T22 183Q22 203 24 224T30 271Q46 363 80 422T165 510T279 538Q313 538 341 530T392 506T428 464H435L469 526H583L559 397Q552 358 545 320T532 247T521 186T514 142T511
121Q511 107 518 101T539 94H571L556 5Q543 -1 523 -6T476 -12Q449 -12 428 -3T395 26Q390 35 387 46T382 71H375Q342 30 297 9T199 -12ZM257 102Q283 102 306 112T346 143T377 191T396 255Q400 273 401 285T403 307T404 324Q404 357 395 379T365 412T314 424Q273
424 246 408T201 358T174 274Q170 253 168 239T165 214T164 195Q164 149 186 126T257 102Z" />
<glyph unicode="b" glyph-name="b" horiz-adv-x="608" d="M320 -12Q265 -12 224 8T162 71H155L132 0H18L145 723H284L239 468H245Q265 492 288 507T341 530T402 538Q457 538 496 516T557 451T579 343Q579 324 577 302T570 256Q555 164 520 105T434 17T320 -12ZM286
102Q328 102 355 118T400 168T427 253Q431 274 433 288T436 313T437 331Q437 363 428 383T397 413T343 424Q316 424 293 414T253 384T223 336T204 271Q200 254 199 241T197 219T196 202Q196 171 205 148T235 114T286 102Z" />
<glyph unicode="c" glyph-name="c" horiz-adv-x="573" d="M268 -12Q191 -12 139 10T60 78T33 194Q33 221 36 249T45 303Q56 354 79 397T136 472T218 521T324 538Q394 538 444 519T521 463T549 371Q549 360 548 349T545 326H407Q408 333 408 339T409 352Q409 377
400 394T372 422T324 432Q283 432 255 413T210 360T184 279Q180 258 178 243T175 218T174 198Q174 164 184 141T215 107T269 96Q305 96 329 108T369 145T391 201H523Q512 132 478 84T391 12T268 -12Z" />
<glyph unicode="d" glyph-name="d" horiz-adv-x="608" d="M212 -12Q156 -12 115 11T53 79T31 184Q31 204 33 226T39 273Q51 341 74 391T129 473T200 522T284 538Q321 538 350 531T401 508T436 468H442L486 723H625L498 0H385V71H378Q347 29 304 9T212 -12ZM265
102Q305 102 332 120T378 172T404 255Q408 273 409 285T412 307T413 325Q413 356 404 378T374 412T322 424Q281 424 254 408T210 360T183 278Q180 256 178 241T174 215T173 195Q173 149 195 126T265 102Z" />
<glyph unicode="e" glyph-name="e" horiz-adv-x="584" d="M277 -12Q197 -12 143 10T61 77T33 193Q33 220 35 246T43 297Q57 368 92 422T185 507T327 538Q401 538 451 517T527 453T553 343Q553 322 550 294T539 232H174Q173 221 172 211T170 191Q170 158 181 136T215
103T275 92Q300 92 320 98T355 115T381 144T395 186H531Q523 136 502 99T447 38T370 1T277 -12ZM191 320H412Q414 329 414 337T415 352Q415 381 405 399T376 426T330 435Q293 435 266 422T220 383T191 320Z" />
<glyph unicode="f" glyph-name="f" horiz-adv-x="325" d="M9 -188Q-6 -188 -23 -186T-55 -181T-81 -172L-64 -80H-14Q11 -80 24 -68T42 -31L121 419H45L65 526H140L150 584Q158 627 176 660T229 713T320 732Q336 732 352 730T384 725T409 717L392 625H343Q319
625 306 613T288 578L279 526H375L356 419H260L178 -41Q171 -81 153 -115T101 -168T9 -188Z" />
<glyph unicode="g" glyph-name="g" horiz-adv-x="607" d="M214 -188Q151 -188 105 -174T33 -132T8 -65Q8 -58 8 -48T13 -23H147Q146 -27 146 -29T146 -34Q146 -50 156 -60T184 -74T226 -79Q268 -79 296 -64T342 -20T367 49Q369 60 370 70T374 88H367Q348 65 324
49T270 26T208 18Q155 18 116 38T55 101T33 209Q33 226 34 245T40 286Q63 416 128 477T289 538Q343 538 383 518T444 455H451L475 526H589L507 59Q491 -30 454 -84T358 -163T214 -188ZM269 131Q296 131 319 141T360 169T389 214T406 272Q409 287 410 297T412 316T413
332Q413 361 403 382T373 413T321 424Q283 424 255 409T208 364T183 287Q180 269 178 256T176 235T175 219Q175 190 184 171T215 142T269 131Z" />
<glyph unicode="h" glyph-name="h" horiz-adv-x="602" d="M18 0L145 723H284L239 468H245Q265 488 290 504T346 529T408 538Q453 538 487 524T541 480T561 402Q561 385 559 367T553 328L495 0H356L412 316Q414 328 415 338T417 359Q417 382 409 396T386 416T350
423Q325 423 302 414T259 388T227 345T208 288L157 0H18Z" />
<glyph unicode="i" glyph-name="i" horiz-adv-x="267" d="M122 603L144 723H283L262 603H122ZM18 0L111 526H250L157 0H18Z" />
<glyph unicode="j" glyph-name="j" horiz-adv-x="264" d="M121 603L142 723H281L260 603H121ZM-10 -188Q-26 -188 -45 -186T-81 -181T-109 -172L-93 -80H-44Q-19 -80 -6 -68T12 -32L110 526H249L149 -43Q142 -83 125 -116T75 -168T-10 -188Z" />
<glyph unicode="k" glyph-name="k" horiz-adv-x="570" d="M18 0L145 724H284L210 307L434 526H596L379 319L512 0H362L276 229L182 148L156 0H18Z" />
<glyph unicode="l" glyph-name="l" horiz-adv-x="267" d="M18 0L145 723H284L156 0H18Z" />
<glyph unicode="m" glyph-name="m" horiz-adv-x="891" d="M18 0L110 526H224V454H231Q251 479 277 498T333 527T396 538Q448 538 482 518T530 454H537Q559 479 585 498T642 527T707 538Q773 538 812 507T851 404Q851 388 849 371T843 335L783 0H645L702 320Q704
332 705 341T706 360Q706 383 699 396T677 416T644 423Q615 423 590 407T547 361T522 294L470 0H332L388 320Q390 332 391 342T393 361Q393 383 386 396T364 416T330 423Q302 423 277 407T234 361T209 294L157 0H18Z" />
<glyph unicode="n" glyph-name="n" horiz-adv-x="602" d="M18 0L110 526H224V453H231Q251 478 279 497T340 527T407 538Q453 538 487 524T541 480T561 402Q561 385 559 367T553 328L495 0H356L412 316Q414 328 415 338T417 359Q417 382 409 396T386 416T350 423Q325
423 302 414T259 388T227 345T208 288L157 0H18Z" />
<glyph unicode="o" glyph-name="o" horiz-adv-x="613" d="M267 -12Q190 -12 138 10T58 77T31 192Q31 212 33 232T39 274Q54 365 94 423T197 510T344 538Q422 538 475 516T555 449T582 333Q582 303 577 276T561 221Q542 141 504 90T407 13T267 -12ZM277 96Q322
96 352 113T402 165T430 251Q434 273 436 287T438 310T439 329Q439 362 428 385T395 419T335 431Q290 431 260 413T211 361T182 275Q178 253 176 239T173 215T172 197Q172 164 183 142T217 108T277 96Z" />
<glyph unicode="p" glyph-name="p" horiz-adv-x="608" d="M-14 -178L110 526H223L224 455H231Q262 498 305 518T396 538Q453 538 493 516T556 451T578 342Q578 323 576 301T570 254Q554 163 519 104T434 17T325 -12Q288 -12 259 -5T208 19T173 58H166L125 -178H-14ZM286
102Q328 102 355 118T399 167T425 248Q430 271 432 286T435 312T436 332Q436 363 426 383T396 413T343 424Q305 424 277 406T230 354T204 272Q201 254 199 241T197 219T196 202Q196 170 205 148T235 114T286 102Z" />
<glyph unicode="q" glyph-name="q" horiz-adv-x="608" d="M328 -178L369 58H363Q344 35 320 20T267 -4T206 -12Q153 -12 113 10T51 75T29 183Q29 203 31 224T38 271Q54 363 89 422T174 510T288 538Q343 538 384 518T445 455H452L476 526H590L466 -178H328ZM265
102Q293 102 315 112T355 143T385 191T404 255Q408 273 409 285T411 307T412 324Q412 357 403 379T373 412T322 424Q281 424 253 408T209 358T182 274Q178 253 176 239T173 214T172 195Q172 149 194 126T265 102Z" />
<glyph unicode="r" glyph-name="r" horiz-adv-x="380" d="M18 0L111 526H223V444H229Q244 470 263 491T307 526T364 539Q383 539 397 536T418 529L397 403H353Q322 403 297 394T252 368T221 323T202 261L157 0H18Z" />
<glyph unicode="s" glyph-name="s" horiz-adv-x="556" d="M243 -12Q191 -12 149 -3T76 25T30 69T14 127Q14 138 16 149T20 167H154Q152 162 151 157T150 148Q150 127 163 114T199 95T247 89Q266 89 285 92T321 101T347 119T357 147Q357 163 347 173T319 191T278
205T230 218Q201 226 172 236T118 261T80 299T65 356Q65 402 84 436T137 493T215 527T312 539Q358 539 397 531T465 506T510 467T526 414Q526 400 524 388T520 372H387Q388 377 388 380T389 387Q389 403 379 414T351 431T306 437Q283 437 265 434T234 423T215 406T208
385Q208 367 224 357T268 339T326 322Q356 314 386 305T443 280T484 241T500 180Q500 126 480 90T423 31T341 -2T243 -12Z" />
<glyph unicode="t" glyph-name="t" horiz-adv-x="342" d="M181 -12Q137 -12 111 1T73 38T61 93Q61 102 62 113T66 140L114 419H49L67 526H137L190 676H298L271 526H367L348 419H253L207 162Q206 156 205 146T203 131Q203 114 212 105T243 96H292L275 4Q264 0 248
-3T214 -9T181 -12Z" />
<glyph unicode="u" glyph-name="u" horiz-adv-x="601" d="M193 -12Q148 -12 113 2T58 46T38 124Q38 141 41 159T47 198L105 526H244L188 210Q187 198 185 188T183 167Q183 144 191 130T215 110T251 103Q276 103 299 112T341 138T373 181T393 238L444 526H583L490
0H377V73H370Q349 48 321 29T261 -1T193 -12Z" />
<glyph unicode="v" glyph-name="v" horiz-adv-x="547" d="M154 0L52 526H193L231 304Q234 286 238 259T246 201T253 144H258Q268 170 281 199T306 256T329 304L444 526H590L300 0H154Z" />
<glyph unicode="w" glyph-name="w" horiz-adv-x="798" d="M120 0L49 526H188L208 303Q209 288 211 262T214 209T216 158H221Q229 181 240 208T261 261T277 302L372 526H518L535 302Q536 287 538 261T541 208T544 158H549Q556 178 566 204T587 257T605 302L703
526H842L584 0H442L424 250Q423 266 422 287T420 328T419 364H415Q410 350 403 330T387 289T371 251L263 0H120Z" />
<glyph unicode="x" glyph-name="x" horiz-adv-x="572" d="M-38 0L206 274L69 526H224L302 368H308L440 526H598L369 270L516 0H361L277 172H271L123 0H-38Z" />
<glyph unicode="y" glyph-name="y" horiz-adv-x="547" d="M64 -188Q25 -188 2 -183T-28 -175L-12 -80H48Q74 -80 96 -71T135 -44T164 0L51 526H191L237 292Q241 270 245 242T254 187T260 139H265Q272 155 279 173T295 211T312 249T327 282L445 526H590L327 25Q304
-19 278 -57T220 -125T150 -171T64 -188Z" />
<glyph unicode="z" glyph-name="z" horiz-adv-x="519" d="M-21 0L-9 60L300 419H69L88 526H529L519 468L208 108H467L448 0H-21Z" />
<glyph unicode="{" glyph-name="braceleft" horiz-adv-x="393" d="M270 -159Q210 -159 168 -151T104 -119T81 -50Q81 -37 85 -10T95 49T108 111T119 164T123 195Q123 223 97 234T40 245L55 332Q89 332 120 345T157 391L193 595Q203 655 231 685T307 725T427 735L414
659Q394 659 372 655T334 638T311 600L268 400Q261 366 247 342T207 305T137 293L135 283Q187 283 209 262T232 201Q232 193 229 168T221 111T211 48T204 -6T201 -34Q201 -54 212 -64T243 -78T283 -82L270 -159Z" />
<glyph unicode="|" glyph-name="bar" horiz-adv-x="253" d="M76 -196V724H178V-196H76Z" />
<glyph unicode="}" glyph-name="braceright" horiz-adv-x="393" d="M132 735Q192 735 233 727T297 696T320 626Q320 613 316 586T306 527T294 465T283 412T279 381Q279 353 305 342T362 331L346 244Q313 244 282 231T245 185L209 -19Q199 -79 171 -108T95 -148T-25
-159L-12 -83Q7 -83 29 -79T68 -61T91 -24L133 176Q141 211 155 235T195 271T265 283L267 293Q215 293 193 314T170 375Q170 383 173 408T181 465T190 528T198 582T201 610Q201 631 189 641T159 654T119 658L132 735Z" />
<glyph unicode="~" glyph-name="asciitilde" horiz-adv-x="641" d="M23 200L43 315Q43 315 54 326T87 351T139 377T205 388Q235 388 260 379T309 358T358 336T414 327Q447 327 476 338T528 363T564 389T577 400L557 285Q557 285 545 274T512 249T461 223T395 212Q365
212 340 221T291 242T242 264T186 273Q152 273 123 262T71 237T36 211T23 200Z" />
<glyph unicode="&#xa0;" glyph-name="uni00A0" horiz-adv-x="196" />
<glyph unicode="&#xa1;" glyph-name="exclamdown" horiz-adv-x="301" d="M0 -160L122 327H207L155 -160H0ZM105 390L129 526H268L243 390H105Z" />
<glyph unicode="&#xa2;" glyph-name="cent" horiz-adv-x="580" d="M201 -53L340 730H397L258 -53H201ZM287 67Q210 67 158 89T79 158T52 273Q52 301 55 328T64 382Q75 434 98 476T155 551T237 600T344 618Q413 618 463 599T541 542T568 451Q568 440 567 429T564
405H426Q427 412 427 418T428 432Q428 456 419 474T391 501T343 511Q302 511 274 492T229 439T203 358Q199 337 197 323T194 297T193 278Q193 243 203 220T234 186T288 175Q324 175 348 187T388 224T410 280H542Q531 211 497 164T410 92T287 67Z" />
<glyph unicode="&#xa3;" glyph-name="sterling" horiz-adv-x="599" d="M5 0L25 112H90L121 286H38L56 392H139L158 498Q170 564 201 608T282 675T400 698Q466 698 512 681T582 631T607 546Q607 530 606 518T601 486H463Q465 497 466 504T467 515T467 523Q467 544
459 558T436 579T398 587Q371 587 351 578T317 551T299 509L278 392H428L410 286H259L215 112H523L503 0H5Z" />
<glyph unicode="&#xa4;" glyph-name="currency" horiz-adv-x="597" d="M111 95L63 143L118 200Q93 230 81 268T68 348Q68 389 80 429T118 496L62 551L113 602L170 546Q198 570 236 583T314 596Q354 596 392 583T457 547L514 603L567 551L511 496Q536 469 548 430T560
348Q560 308 548 269T511 199L565 143L517 95L462 153Q433 126 394 113T314 100Q274 100 235 113T167 153L111 95ZM314 185Q359 185 393 207T448 267T469 348Q469 392 449 428T393 487T314 510Q271 510 236 488T180 429T159 348Q159 305 179 268T235 208T314 185Z"
/>
<glyph unicode="&#xa5;" glyph-name="yen" horiz-adv-x="595" d="M185 0L211 148H18L31 229H225L237 293H43L56 373H216Q207 393 196 418T180 455L85 686H236L300 505Q304 495 308 482T317 454T326 427H330Q338 440 348 454T367 482T382 504L509 686H661L487 454Q474
436 456 413T425 373H582L568 293H376L364 229H556L542 148H351L324 0H185Z" />
<glyph unicode="&#xa6;" glyph-name="brokenbar" horiz-adv-x="253" d="M76 343V724H178V343H76ZM76 -196V185H178V-196H76Z" />
<glyph unicode="&#xa7;" glyph-name="section" horiz-adv-x="598" d="M230 -182Q185 -182 146 -174T78 -150T32 -111T16 -57Q16 -47 18 -36T22 -18H159Q158 -22 158 -26T158 -32Q158 -48 166 -59T193 -76T237 -82Q271 -82 293 -72T327 -47T339 -16Q339 4 323 19T282
48T227 75T166 103T110 139T68 187T52 250Q52 276 60 299T84 343T121 381T167 413Q144 432 130 458T116 519Q116 555 129 583T165 633T219 669T288 691T367 698Q412 698 451 690T519 666T564 627T581 574Q581 564 579 552T575 534H437Q438 538 438 541T438 548Q438
563 429 574T403 591T361 597Q326 597 304 588T270 563T258 532Q258 512 273 496T314 467T370 439T431 410T487 374T528 326T544 261Q544 236 536 213T512 169T475 132T429 102Q453 83 467 59T481 1Q481 -36 468 -65T432 -116T378 -153T309 -175T230 -182ZM353
149Q371 160 382 173T400 201T407 234Q407 260 393 278T356 311T303 339T243 367Q226 356 214 343T196 314T189 281Q189 255 203 236T241 202T294 175T353 149Z" />
<glyph unicode="&#xa8;" glyph-name="dieresis" horiz-adv-x="325" d="M61 606L81 723H199L178 606H61ZM268 606L288 723H406L386 606H268Z" />
<glyph unicode="&#xa9;" glyph-name="copyright" horiz-adv-x="772" d="M401 -12Q324 -12 259 14T146 88T72 201T45 343Q45 420 72 485T146 597T259 671T401 698Q478 698 543 672T655 598T729 485T756 343Q756 266 730 201T656 89T543 15T401 -12ZM402 132Q339
132 298 154T236 224T216 343Q216 414 236 461T297 530T402 553Q459 553 496 534T551 478T569 386H483Q483 419 476 440T451 472T402 482Q350 482 328 450T305 343V342Q305 292 314 262T345 217T401 202Q432 202 451 213T478 245T487 297H569Q569 251 552 213T497
154T402 132ZM401 47Q486 47 551 85T655 191T693 344Q693 429 655 496T552 601T401 639Q316 639 250 601T146 496T108 344Q108 258 146 191T250 86T401 47Z" />
<glyph unicode="&#xaa;" glyph-name="ordfeminine" horiz-adv-x="398" d="M177 330Q128 330 98 363T67 462Q67 478 68 494T73 528Q82 575 101 613T151 675T222 698Q256 698 278 687T315 648H319L341 690H414L396 590Q391 562 386 537T377 490T371 454T367 429T365
418Q365 408 370 404T382 399H403L393 341Q384 338 371 334T340 330Q320 330 306 339T285 365Q283 370 282 375T280 387H276Q258 359 232 345T177 330ZM208 405Q224 405 236 412T258 432T274 458Q285 480 292 508T299 558Q299 581 294 595T277 617T247 625Q211
625 191 595T164 525Q161 505 160 493T158 468Q158 438 170 422T208 405Z" />
<glyph unicode="&#xab;" glyph-name="guillemotleft" horiz-adv-x="576" d="M173 124L62 326L236 526H346L191 326L275 124H173ZM393 124L281 326L456 526H565L411 326L494 124H393Z" />
<glyph unicode="&#xac;" glyph-name="logicalnot" horiz-adv-x="641" d="M421 185L450 353H51L71 462H577L527 185H421Z" />
<glyph unicode="&#xad;" glyph-name="uni00AD" horiz-adv-x="333" d="M31 210L52 332H304L283 210H31Z" />
<glyph unicode="&#xae;" glyph-name="registered" horiz-adv-x="772" d="M401 -12Q324 -12 259 14T146 88T72 201T45 343Q45 420 72 485T146 597T259 671T401 698Q478 698 543 672T655 598T729 485T756 343Q756 266 730 201T656 89T543 15T401 -12ZM401 47Q486
47 551 85T655 191T693 344Q693 429 655 496T552 601T401 639Q316 639 250 601T146 496T108 344Q108 258 146 191T250 86T401 47ZM249 138V550H445Q509 550 541 516T574 425Q574 385 557 355T507 308L592 138H498L424 293H337V138H249ZM337 363H429Q454 363 469
379T485 423Q485 451 470 465T429 480H337V363Z" />
<glyph unicode="&#xaf;" glyph-name="overscore" horiz-adv-x="307" d="M62 613L77 700H384L369 613H62Z" />
<glyph unicode="&#xb0;" glyph-name="degree" horiz-adv-x="400" d="M250 399Q209 399 175 419T121 473T101 548Q101 590 121 624T175 678T250 698Q292 698 326 678T380 624T400 548Q400 507 380 473T326 419T250 399ZM250 475Q281 475 302 496T323 548Q323 579
302 599T250 620Q220 620 199 600T177 548Q177 518 198 497T250 475Z" />
<glyph unicode="&#xb1;" glyph-name="plusminus" horiz-adv-x="641" d="M201 149L236 350H48L67 456H255L290 657H398L363 456H551L532 350H344L309 149H201ZM-13 0L6 105H489L471 0H-13Z" />
<glyph unicode="&#xb2;" glyph-name="uni00B2" horiz-adv-x="371" d="M81 440L86 464Q92 493 110 516T153 559T206 596T256 629T293 664T308 702Q308 714 300 724T269 734Q252 734 240 729T220 712T210 686L206 668H127Q127 676 127 682T129 693Q136 731 157 754T210
789T276 801Q319 801 344 788T382 755T394 710Q394 683 385 662T360 623T326 590T286 563T246 539T211 513H362L348 440H81Z" />
<glyph unicode="&#xb3;" glyph-name="uni00B3" horiz-adv-x="371" d="M226 428Q162 428 130 452T97 515Q97 521 98 528T101 546H182Q181 538 180 534T179 528Q179 512 191 503T227 494Q245 494 258 500T280 519T288 550Q288 564 282 571T266 582T244 585H211L222
651H249Q265 651 278 656T300 673T309 702Q309 718 299 726T269 735Q256 735 245 731T227 717T215 693L214 686H132L134 700Q139 730 158 753T207 788T274 801Q330 801 362 778T395 713Q395 690 386 673T362 643T326 622V618Q348 609 360 591T373 546Q373 508 353
482T300 442T226 428Z" />
<glyph unicode="&#xb4;" glyph-name="acute" horiz-adv-x="228" d="M58 591L163 723H308L309 720L169 591H58Z" />
<glyph unicode="&#xb5;" glyph-name="uni00B5" horiz-adv-x="605" d="M-16 -188L111 526H250L196 214Q194 201 192 189T190 167Q190 144 197 130T219 110T255 104Q280 104 303 112T345 138T377 182T396 241L447 526H587L494 0H381V73H374Q356 49 331 30T275 1T211
-10Q195 -10 181 -8T153 -1Q152 -17 150 -35T144 -70L123 -188H-16Z" />
<glyph unicode="&#xb6;" glyph-name="paragraph" horiz-adv-x="616" d="M182 -166L256 253Q206 254 165 275T100 337T78 437Q80 494 100 540T156 619T239 669T342 686H657L644 612H582L444 -166H351L488 612H414L276 -166H182Z" />
<glyph unicode="&#xb7;" glyph-name="middot" horiz-adv-x="333" d="M99 280L124 420H265L240 280H99Z" />
<glyph unicode="&#xb8;" glyph-name="cedilla" horiz-adv-x="238" d="M29 -188Q2 -188 -27 -186T-78 -179L-69 -128H25Q47 -128 60 -123T73 -98Q73 -89 65 -85T36 -80H-7L26 17H108L92 -33Q124 -35 148 -48T173 -92Q173 -122 158 -141T120 -170T72 -184T29 -188Z" />
<glyph unicode="&#xb9;" glyph-name="uni00B9" horiz-adv-x="371" d="M88 440L102 512H191L224 698H136L146 751Q165 753 190 759T240 774T286 794H326L276 512H358L345 440H88Z" />
<glyph unicode="&#xba;" glyph-name="ordmasculine" horiz-adv-x="393" d="M224 330Q147 330 107 363T67 465Q67 481 69 497T73 530Q83 582 107 620T169 678T257 699Q334 699 374 666T415 564Q415 548 414 533T409 499Q400 446 375 408T311 350T224 330ZM222 401Q263
401 286 429T317 505Q319 518 320 527T322 544T323 560Q323 594 308 611T259 628Q218 628 195 600T164 524Q163 513 162 504T159 486T158 469Q158 435 174 418T222 401Z" />
<glyph unicode="&#xbb;" glyph-name="guillemotright" horiz-adv-x="576" d="M425 526L536 325L362 124H252L407 325L323 526H425ZM205 526L317 325L142 124H33L187 325L104 526H205Z" />
<glyph unicode="&#xbc;" glyph-name="onequarter" horiz-adv-x="887" d="M106 -12L748 698H840L198 -12H106ZM70 340L84 412H173L206 598H118L128 651Q147 653 172 659T222 674T268 694H308L258 412H340L327 340H70ZM666 0L679 74H519L530 138Q566 183 599 240T662
361H750Q738 331 720 299T680 237T639 182T605 142H690L701 203Q711 216 721 232T741 265T758 298H802L774 142H817L806 74H762L749 0H666Z" />
<glyph unicode="&#xbd;" glyph-name="onehalf" horiz-adv-x="887" d="M106 -12L748 698H840L198 -12H106ZM70 340L84 412H173L206 598H118L128 651Q147 653 172 659T222 674T268 694H308L258 412H340L327 340H70ZM511 0L516 24Q522 53 540 76T584 119T636 156T686
189T724 224T739 262Q739 274 730 284T700 294Q683 294 670 289T650 272T640 246L636 228H557Q557 236 557 242T559 253Q566 291 587 314T640 349T707 361Q749 361 775 348T812 315T824 270Q824 243 815 222T790 183T756 150T716 123T676 99T641 73H792L779 0H511Z"
/>
<glyph unicode="&#xbe;" glyph-name="threequarters" horiz-adv-x="887" d="M106 -12L748 698H840L198 -12H106ZM208 328Q144 328 112 352T79 415Q79 421 80 428T83 446H164Q163 438 162 434T161 428Q161 412 173 403T209 394Q227 394 240 400T262 419T270 450Q270
464 264 471T248 482T226 485H193L204 551H231Q247 551 260 556T282 573T291 602Q291 618 281 626T251 635Q238 635 227 631T209 617T197 593L196 586H114L116 600Q121 630 140 653T189 688T256 701Q312 701 344 678T377 613Q377 590 368 573T344 543T308 522V518Q330
509 342 491T355 446Q355 409 335 383T282 342T208 328ZM660 0L673 74H513L524 138Q560 183 593 240T656 361H744Q732 331 714 299T674 237T633 182T599 142H684L695 203Q705 216 715 232T735 265T752 298H796L768 142H811L800 74H756L743 0H660Z" />
<glyph unicode="&#xbf;" glyph-name="questiondown" horiz-adv-x="613" d="M238 -172Q187 -172 146 -161T77 -129T33 -78T18 -8Q18 38 33 71T74 128T128 173T184 211T229 248T251 293L255 323H382L374 275Q368 237 351 210T310 162T263 124T218 90T184 53T171
7Q171 -8 177 -23T202 -47T253 -57Q284 -57 306 -48T342 -23T364 11T375 47Q376 53 376 58T377 69H514Q514 25 501 -12T463 -78T404 -129T328 -161T238 -172ZM255 386L280 526H421L397 386H255Z" />
<glyph unicode="&#xc0;" glyph-name="Agrave" horiz-adv-x="724" d="M-39 0L344 686H528L671 0H518L492 135H191L118 0H-39ZM255 255H469L438 421Q435 439 432 457T426 493T420 527T416 556H411Q401 536 389 511T364 461T343 419L255 255ZM404 739L307 868L308
872H450L511 739H404Z" />
<glyph unicode="&#xc1;" glyph-name="Aacute" horiz-adv-x="724" d="M-39 0L344 686H528L671 0H518L492 135H191L118 0H-39ZM255 255H469L438 421Q435 439 432 457T426 493T420 527T416 556H411Q401 536 389 511T364 461T343 419L255 255ZM388 739L495 872H643L644
868L501 739H388Z" />
<glyph unicode="&#xc2;" glyph-name="Acircumflex" horiz-adv-x="724" d="M-39 0L344 686H528L671 0H518L492 135H191L118 0H-39ZM255 255H469L438 421Q435 439 432 457T426 493T420 527T416 556H411Q401 536 389 511T364 461T343 419L255 255ZM270 739L406 872H538L626
739H511L442 841L498 840L391 739H270Z" />
<glyph unicode="&#xc3;" glyph-name="Atilde" horiz-adv-x="724" d="M-39 0L344 686H528L671 0H518L492 135H191L118 0H-39ZM255 255H469L438 421Q435 439 432 457T426 493T420 527T416 556H411Q401 536 389 511T364 461T343 419L255 255ZM275 749Q281 781 296
809T337 854T398 872Q426 872 449 863T493 845T539 836Q554 836 565 844T582 872H653Q648 840 632 812T591 766T529 749Q502 749 479 758T435 776T388 786Q374 786 363 777T345 749H275Z" />
<glyph unicode="&#xc4;" glyph-name="Adieresis" horiz-adv-x="724" d="M-39 0L344 686H528L671 0H518L492 135H191L118 0H-39ZM255 255H469L438 421Q435 439 432 457T426 493T420 527T416 556H411Q401 536 389 511T364 461T343 419L255 255ZM292 755L311 872H430L410
755H292ZM498 755L518 872H637L617 755H498Z" />
<glyph unicode="&#xc5;" glyph-name="Aring" horiz-adv-x="724" d="M-39 0L344 686H528L671 0H518L492 135H191L118 0H-39ZM255 255H469L438 421Q435 439 432 457T426 493T420 527T416 556H411Q401 536 389 511T364 461T343 419L255 255ZM453 729Q410 729 383
753T355 816Q355 849 371 875T417 916T483 931Q526 931 553 907T581 845Q581 812 565 786T519 744T453 729ZM461 792Q476 792 487 797T505 812T512 834Q512 849 502 858T475 868Q460 868 449 863T431 847T424 825Q424 811 434 802T461 792Z" />
<glyph unicode="&#xc6;" glyph-name="AE" horiz-adv-x="1004" d="M-49 0L397 686H1020L998 564H602L616 411H925L903 290H627L641 123H927L905 0H510L499 136H196L111 0H-49ZM270 255H489L469 499Q469 506 469 513T467 528T466 543T465 558H460Q455 548 449 539T437
519T424 499L270 255Z" />
<glyph unicode="&#xc7;" glyph-name="Ccedilla" horiz-adv-x="733" d="M346 -12Q203 -12 127 52T51 255Q51 282 53 308T60 360Q79 466 129 542T260 658T446 698Q529 698 592 675T692 604T728 484Q728 470 727 456T723 427H572Q574 436 574 444T575 460Q575 499
559 524T513 563T443 576Q395 576 358 561T292 519T246 454T218 367Q214 346 211 330T207 302T205 280T204 260Q204 210 220 177T269 128T351 111Q403 111 444 128T512 177T547 258H693Q678 167 630 107T508 18T346 -12ZM296 -188Q269 -188 240 -186T189 -179L199
-128H293Q315 -128 327 -123T340 -98Q340 -89 332 -85T303 -80H260L293 17H375L359 -33Q391 -35 416 -48T441 -92Q441 -122 426 -141T387 -170T340 -184T296 -188Z" />
<glyph unicode="&#xc8;" glyph-name="Egrave" horiz-adv-x="683" d="M29 0L151 686H699L677 564H279L252 411H605L584 290H230L201 123H606L584 0H29ZM389 739L292 868L293 872H435L496 739H389Z" />
<glyph unicode="&#xc9;" glyph-name="Eacute" horiz-adv-x="683" d="M29 0L151 686H699L677 564H279L252 411H605L584 290H230L201 123H606L584 0H29ZM373 739L480 872H629V868L486 739H373Z" />
<glyph unicode="&#xca;" glyph-name="Ecircumflex" horiz-adv-x="683" d="M29 0L151 686H699L677 564H279L252 411H605L584 290H230L201 123H606L584 0H29ZM255 739L391 872H523L611 739H496L427 841L483 840L376 739H255Z" />
<glyph unicode="&#xcb;" glyph-name="Edieresis" horiz-adv-x="683" d="M29 0L151 686H699L677 564H279L252 411H605L584 290H230L201 123H606L584 0H29ZM277 755L296 872H415L395 755H277ZM483 755L503 872H622L602 755H483Z" />
<glyph unicode="&#xcc;" glyph-name="Igrave" horiz-adv-x="301" d="M29 0L151 686H300L179 0H29ZM187 739L90 868L91 872H234L295 739H187Z" />
<glyph unicode="&#xcd;" glyph-name="Iacute" horiz-adv-x="301" d="M29 0L151 686H300L179 0H29ZM171 739L279 872H427V868L285 739H171Z" />
<glyph unicode="&#xce;" glyph-name="Icircumflex" horiz-adv-x="301" d="M29 0L151 686H300L179 0H29ZM54 739L190 872H322L409 739H295L226 841L282 840L174 739H54Z" />
<glyph unicode="&#xcf;" glyph-name="Idieresis" horiz-adv-x="301" d="M29 0L151 686H300L179 0H29ZM76 755L95 872H213L193 755H76ZM282 755L302 872H421L401 755H282Z" />
<glyph unicode="&#xd0;" glyph-name="Eth" horiz-adv-x="739" d="M5 294L25 402H403L383 294H5ZM30 0L151 686H416Q559 686 637 621T716 417Q716 393 714 370T708 322Q690 220 640 148T510 38T327 0H30ZM201 123H324Q370 123 408 136T475 175T523 237T550 323Q555
347 557 363T561 391T562 413Q562 463 544 496T492 547T406 564H278L201 123Z" />
<glyph unicode="&#xd1;" glyph-name="Ntilde" horiz-adv-x="754" d="M29 0L151 686H288L488 317Q495 306 502 292T517 263T531 236L537 237Q539 254 542 274T547 307L612 686H754L633 0H496L299 363Q290 379 277 405T253 451H248Q246 433 242 409T235 369L171
0H29ZM288 749Q294 781 309 809T350 854T411 872Q439 872 462 863T506 845T552 836Q567 836 578 844T595 872H666Q661 840 645 812T604 766T542 749Q515 749 492 758T448 776T401 786Q387 786 376 777T358 749H288Z" />
<glyph unicode="&#xd2;" glyph-name="Ograve" horiz-adv-x="793" d="M363 -12Q264 -12 194 18T88 108T51 258Q51 281 52 304T58 349Q77 459 128 537T262 657T459 698Q557 698 627 668T734 578T772 428Q772 406 770 384T764 340Q747 229 695 150T560 30T363 -12ZM365
111Q416 111 456 125T527 168T577 237T606 330Q609 349 611 363T615 387T616 406T617 422Q617 470 599 505T545 558T454 576Q404 576 364 562T293 519T244 450T215 357Q211 338 210 324T207 300T206 281T205 265Q205 217 223 183T277 130T365 111ZM434 739L337
868L338 872H480L541 739H434Z" />
<glyph unicode="&#xd3;" glyph-name="Oacute" horiz-adv-x="793" d="M363 -12Q264 -12 194 18T88 108T51 258Q51 281 52 304T58 349Q77 459 128 537T262 657T459 698Q557 698 627 668T734 578T772 428Q772 406 770 384T764 340Q747 229 695 150T560 30T363 -12ZM365
111Q416 111 456 125T527 168T577 237T606 330Q609 349 611 363T615 387T616 406T617 422Q617 470 599 505T545 558T454 576Q404 576 364 562T293 519T244 450T215 357Q211 338 210 324T207 300T206 281T205 265Q205 217 223 183T277 130T365 111ZM418 739L525
872H673L674 868L531 739H418Z" />
<glyph unicode="&#xd4;" glyph-name="Ocircumflex" horiz-adv-x="793" d="M363 -12Q264 -12 194 18T88 108T51 258Q51 281 52 304T58 349Q77 459 128 537T262 657T459 698Q557 698 627 668T734 578T772 428Q772 406 770 384T764 340Q747 229 695 150T560 30T363
-12ZM365 111Q416 111 456 125T527 168T577 237T606 330Q609 349 611 363T615 387T616 406T617 422Q617 470 599 505T545 558T454 576Q404 576 364 562T293 519T244 450T215 357Q211 338 210 324T207 300T206 281T205 265Q205 217 223 183T277 130T365 111ZM300
739L436 872H568L656 739H541L472 841L528 840L421 739H300Z" />
<glyph unicode="&#xd5;" glyph-name="Otilde" horiz-adv-x="793" d="M363 -12Q264 -12 194 18T88 108T51 258Q51 281 52 304T58 349Q77 459 128 537T262 657T459 698Q557 698 627 668T734 578T772 428Q772 406 770 384T764 340Q747 229 695 150T560 30T363 -12ZM365
111Q416 111 456 125T527 168T577 237T606 330Q609 349 611 363T615 387T616 406T617 422Q617 470 599 505T545 558T454 576Q404 576 364 562T293 519T244 450T215 357Q211 338 210 324T207 300T206 281T205 265Q205 217 223 183T277 130T365 111ZM305 749Q311
781 326 809T367 854T428 872Q456 872 479 863T523 845T569 836Q584 836 595 844T612 872H683Q678 840 662 812T621 766T559 749Q532 749 509 758T465 776T418 786Q404 786 393 777T375 749H305Z" />
<glyph unicode="&#xd6;" glyph-name="Odieresis" horiz-adv-x="793" d="M363 -12Q264 -12 194 18T88 108T51 258Q51 281 52 304T58 349Q77 459 128 537T262 657T459 698Q557 698 627 668T734 578T772 428Q772 406 770 384T764 340Q747 229 695 150T560 30T363
-12ZM365 111Q416 111 456 125T527 168T577 237T606 330Q609 349 611 363T615 387T616 406T617 422Q617 470 599 505T545 558T454 576Q404 576 364 562T293 519T244 450T215 357Q211 338 210 324T207 300T206 281T205 265Q205 217 223 183T277 130T365 111ZM322
755L341 872H460L440 755H322ZM528 755L548 872H667L647 755H528Z" />
<glyph unicode="&#xd7;" glyph-name="multiply" horiz-adv-x="641" d="M132 29L65 108L247 259L123 409L204 481L327 332L507 485L573 406L392 254L516 105L434 33L312 182L132 29Z" />
<glyph unicode="&#xd8;" glyph-name="Oslash" horiz-adv-x="793" d="M363 -12Q264 -12 194 18T88 108T51 258Q51 281 52 304T58 349Q77 459 128 537T262 657T459 698Q557 698 627 668T734 578T772 428Q772 406 770 384T764 340Q747 229 695 150T560 30T363 -12ZM365
111Q416 111 456 125T527 168T577 237T606 330Q609 349 611 363T615 387T616 406T617 422Q617 470 599 505T545 558T454 576Q404 576 364 562T293 519T244 450T215 357Q211 338 210 324T207 300T206 281T205 265Q205 217 223 183T277 130T365 111ZM-5 -46L717 733H826L105
-46H-5Z" />
<glyph unicode="&#xd9;" glyph-name="Ugrave" horiz-adv-x="748" d="M342 -12Q212 -12 140 42T67 203Q67 217 68 233T73 266L147 686H296L222 264Q221 257 220 246T218 225Q218 169 250 140T346 110Q419 110 465 149T525 263L600 686H750L675 257Q659 167 616
107T505 18T342 -12ZM417 739L320 868L322 872H464L525 739H417Z" />
<glyph unicode="&#xda;" glyph-name="Uacute" horiz-adv-x="748" d="M342 -12Q212 -12 140 42T67 203Q67 217 68 233T73 266L147 686H296L222 264Q221 257 220 246T218 225Q218 169 250 140T346 110Q419 110 465 149T525 263L600 686H750L675 257Q659 167 616
107T505 18T342 -12ZM401 739L509 872H657V868L515 739H401Z" />
<glyph unicode="&#xdb;" glyph-name="Ucircumflex" horiz-adv-x="748" d="M342 -12Q212 -12 140 42T67 203Q67 217 68 233T73 266L147 686H296L222 264Q221 257 220 246T218 225Q218 169 250 140T346 110Q419 110 465 149T525 263L600 686H750L675 257Q659 167
616 107T505 18T342 -12ZM284 739L420 872H552L639 739H525L456 841L512 840L405 739H284Z" />
<glyph unicode="&#xdc;" glyph-name="Udieresis" horiz-adv-x="748" d="M342 -12Q212 -12 140 42T67 203Q67 217 68 233T73 266L147 686H296L222 264Q221 257 220 246T218 225Q218 169 250 140T346 110Q419 110 465 149T525 263L600 686H750L675 257Q659 167 616
107T505 18T342 -12ZM306 755L325 872H443L423 755H306ZM512 755L532 872H651L631 755H512Z" />
<glyph unicode="&#xdd;" glyph-name="Yacute" horiz-adv-x="699" d="M230 0L279 276L85 686H242L371 408H377L599 686H765L428 276L380 0H230ZM368 739L475 872H624V868L482 739H368Z" />
<glyph unicode="&#xde;" glyph-name="Thorn" horiz-adv-x="697" d="M29 0L151 686H300L282 578H436Q516 578 565 555T638 490T662 389Q662 330 643 283T589 201T504 149T393 131H203L179 0H29ZM224 252H381Q419 252 448 266T493 307T509 372Q509 412 487 434T415
456H260L224 252Z" />
<glyph unicode="&#xdf;" glyph-name="germandbls" horiz-adv-x="634" d="M18 0L109 515Q119 571 141 612T198 680T279 721T382 735Q433 735 475 725T547 693T594 641T611 570Q611 529 594 495T546 435T472 396V392Q524 374 550 333T577 231Q577 179 558 137T503
64T417 17T305 0H219L238 108H303Q344 108 374 125T420 171T437 232Q437 260 426 281T393 315T341 328H276L297 443H358Q389 443 414 456T454 493T469 548Q469 583 446 606T377 629Q344 629 317 617T272 580T248 521L156 0H18Z" />
<glyph unicode="&#xe0;" glyph-name="agrave" horiz-adv-x="604" d="M199 -12Q146 -12 106 10T44 75T22 183Q22 203 24 224T30 271Q46 363 80 422T165 510T279 538Q313 538 341 530T392 506T428 464H435L469 526H583L559 397Q552 358 545 320T532 247T521 186T514
142T511 121Q511 107 518 101T539 94H571L556 5Q543 -1 523 -6T476 -12Q449 -12 428 -3T395 26Q390 35 387 46T382 71H375Q342 30 297 9T199 -12ZM257 102Q283 102 306 112T346 143T377 191T396 255Q400 273 401 285T403 307T404 324Q404 357 395 379T365 412T314
424Q273 424 246 408T201 358T174 274Q170 253 168 239T165 214T164 195Q164 149 186 126T257 102ZM291 591L201 720L202 723H339L397 591H291Z" />
<glyph unicode="&#xe1;" glyph-name="aacute" horiz-adv-x="604" d="M199 -12Q146 -12 106 10T44 75T22 183Q22 203 24 224T30 271Q46 363 80 422T165 510T279 538Q313 538 341 530T392 506T428 464H435L469 526H583L559 397Q552 358 545 320T532 247T521 186T514
142T511 121Q511 107 518 101T539 94H571L556 5Q543 -1 523 -6T476 -12Q449 -12 428 -3T395 26Q390 35 387 46T382 71H375Q342 30 297 9T199 -12ZM257 102Q283 102 306 112T346 143T377 191T396 255Q400 273 401 285T403 307T404 324Q404 357 395 379T365 412T314
424Q273 424 246 408T201 358T174 274Q170 253 168 239T165 214T164 195Q164 149 186 126T257 102ZM275 591L380 723H526V720L386 591H275Z" />
<glyph unicode="&#xe2;" glyph-name="acircumflex" horiz-adv-x="604" d="M199 -12Q146 -12 106 10T44 75T22 183Q22 203 24 224T30 271Q46 363 80 422T165 510T279 538Q313 538 341 530T392 506T428 464H435L469 526H583L559 397Q552 358 545 320T532 247T521
186T514 142T511 121Q511 107 518 101T539 94H571L556 5Q543 -1 523 -6T476 -12Q449 -12 428 -3T395 26Q390 35 387 46T382 71H375Q342 30 297 9T199 -12ZM257 102Q283 102 306 112T346 143T377 191T396 255Q400 273 401 285T403 307T404 324Q404 357 395 379T365
412T314 424Q273 424 246 408T201 358T174 274Q170 253 168 239T165 214T164 195Q164 149 186 126T257 102ZM164 591L300 723H426L513 591H401L332 692H389L282 591H164Z" />
<glyph unicode="&#xe3;" glyph-name="atilde" horiz-adv-x="604" d="M199 -12Q146 -12 106 10T44 75T22 183Q22 203 24 224T30 271Q46 363 80 422T165 510T279 538Q313 538 341 530T392 506T428 464H435L469 526H583L559 397Q552 358 545 320T532 247T521 186T514
142T511 121Q511 107 518 101T539 94H571L556 5Q543 -1 523 -6T476 -12Q449 -12 428 -3T395 26Q390 35 387 46T382 71H375Q342 30 297 9T199 -12ZM257 102Q283 102 306 112T346 143T377 191T396 255Q400 273 401 285T403 307T404 324Q404 357 395 379T365 412T314
424Q273 424 246 408T201 358T174 274Q170 253 168 239T165 214T164 195Q164 149 186 126T257 102ZM160 601Q166 633 181 661T222 706T283 723Q311 723 334 715T379 697T424 687Q439 687 450 695T467 723H539Q533 691 517 663T476 618T414 601Q387 601 364 610T320
628T274 638Q260 638 249 629T230 601H160Z" />
<glyph unicode="&#xe4;" glyph-name="adieresis" horiz-adv-x="604" d="M199 -12Q146 -12 106 10T44 75T22 183Q22 203 24 224T30 271Q46 363 80 422T165 510T279 538Q313 538 341 530T392 506T428 464H435L469 526H583L559 397Q552 358 545 320T532 247T521 186T514
142T511 121Q511 107 518 101T539 94H571L556 5Q543 -1 523 -6T476 -12Q449 -12 428 -3T395 26Q390 35 387 46T382 71H375Q342 30 297 9T199 -12ZM257 102Q283 102 306 112T346 143T377 191T396 255Q400 273 401 285T403 307T404 324Q404 357 395 379T365 412T314
424Q273 424 246 408T201 358T174 274Q170 253 168 239T165 214T164 195Q164 149 186 126T257 102ZM183 606L203 723H321L301 606H183ZM390 606L410 723H528L508 606H390Z" />
<glyph unicode="&#xe5;" glyph-name="aring" horiz-adv-x="604" d="M199 -12Q146 -12 106 10T44 75T22 183Q22 203 24 224T30 271Q46 363 80 422T165 510T279 538Q313 538 341 530T392 506T428 464H435L469 526H583L559 397Q552 358 545 320T532 247T521 186T514
142T511 121Q511 107 518 101T539 94H571L556 5Q543 -1 523 -6T476 -12Q449 -12 428 -3T395 26Q390 35 387 46T382 71H375Q342 30 297 9T199 -12ZM257 102Q283 102 306 112T346 143T377 191T396 255Q400 273 401 285T403 307T404 324Q404 357 395 379T365 412T314
424Q273 424 246 408T201 358T174 274Q170 253 168 239T165 214T164 195Q164 149 186 126T257 102ZM347 579Q308 579 282 604T256 667Q256 717 288 749T371 781Q409 781 434 757T459 693Q459 661 445 635T406 594T347 579ZM350 634Q366 634 377 640T395 659T402
685Q402 703 392 714T365 725Q350 725 339 719T320 701T313 674Q313 657 324 646T350 634Z" />
<glyph unicode="&#xe6;" glyph-name="ae" horiz-adv-x="920" d="M203 -12Q171 -12 137 -7T73 12T26 51T8 118Q8 168 26 203T79 261T162 297T268 315T392 320L398 359Q399 365 399 370T400 380Q400 405 382 420T319 436Q284 436 262 429T228 409T213 379L211 368H75Q75
371 75 375T76 382Q84 432 118 467T204 520T322 538Q385 538 430 525T502 486Q534 511 575 524T670 538Q741 538 790 517T864 452T889 342Q889 321 886 294T875 232H517Q515 221 514 211T513 190Q513 158 523 136T556 102T614 91Q638 91 657 97T692 114T717 144T731
186H867Q860 136 839 99T785 38T710 1T617 -12Q544 -12 491 7T410 65Q384 41 352 24T283 -2T203 -12ZM224 91Q253 91 278 99T323 123T355 160T372 207L377 232Q313 232 263 224T183 196T153 138Q153 123 161 113T185 97T224 91ZM534 320H748Q750 329 750 337T751
352Q751 381 741 399T713 426T668 435Q632 435 606 422T562 383T534 320Z" />
<glyph unicode="&#xe7;" glyph-name="ccedilla" horiz-adv-x="573" d="M268 -12Q191 -12 139 10T60 78T33 194Q33 221 36 249T45 303Q56 354 79 397T136 472T218 521T324 538Q394 538 444 519T521 463T549 371Q549 360 548 349T545 326H407Q408 333 408 339T409
352Q409 377 400 394T372 422T324 432Q283 432 255 413T210 360T184 279Q180 258 178 243T175 218T174 198Q174 164 184 141T215 107T269 96Q305 96 329 108T369 145T391 201H523Q512 132 478 84T391 12T268 -12ZM211 -188Q184 -188 155 -186T105 -179L114 -128H208Q230
-128 242 -123T255 -98Q255 -89 247 -85T219 -80H176L208 17H290L274 -33Q307 -35 331 -48T356 -92Q356 -122 341 -141T302 -170T255 -184T211 -188Z" />
<glyph unicode="&#xe8;" glyph-name="egrave" horiz-adv-x="584" d="M277 -12Q197 -12 143 10T61 77T33 193Q33 220 35 246T43 297Q57 368 92 422T185 507T327 538Q401 538 451 517T527 453T553 343Q553 322 550 294T539 232H174Q173 221 172 211T170 191Q170
158 181 136T215 103T275 92Q300 92 320 98T355 115T381 144T395 186H531Q523 136 502 99T447 38T370 1T277 -12ZM191 320H412Q414 329 414 337T415 352Q415 381 405 399T376 426T330 435Q293 435 266 422T220 383T191 320ZM287 591L197 720L198 723H335L393 591H287Z"
/>
<glyph unicode="&#xe9;" glyph-name="eacute" horiz-adv-x="584" d="M277 -12Q197 -12 143 10T61 77T33 193Q33 220 35 246T43 297Q57 368 92 422T185 507T327 538Q401 538 451 517T527 453T553 343Q553 322 550 294T539 232H174Q173 221 172 211T170 191Q170
158 181 136T215 103T275 92Q300 92 320 98T355 115T381 144T395 186H531Q523 136 502 99T447 38T370 1T277 -12ZM191 320H412Q414 329 414 337T415 352Q415 381 405 399T376 426T330 435Q293 435 266 422T220 383T191 320ZM271 591L376 723H521L522 720L382 591H271Z"
/>
<glyph unicode="&#xea;" glyph-name="ecircumflex" horiz-adv-x="584" d="M277 -12Q197 -12 143 10T61 77T33 193Q33 220 35 246T43 297Q57 368 92 422T185 507T327 538Q401 538 451 517T527 453T553 343Q553 322 550 294T539 232H174Q173 221 172 211T170 191Q170
158 181 136T215 103T275 92Q300 92 320 98T355 115T381 144T395 186H531Q523 136 502 99T447 38T370 1T277 -12ZM191 320H412Q414 329 414 337T415 352Q415 381 405 399T376 426T330 435Q293 435 266 422T220 383T191 320ZM160 591L296 723H422L509 591H397L328
692H384L278 591H160Z" />
<glyph unicode="&#xeb;" glyph-name="edieresis" horiz-adv-x="584" d="M277 -12Q197 -12 143 10T61 77T33 193Q33 220 35 246T43 297Q57 368 92 422T185 507T327 538Q401 538 451 517T527 453T553 343Q553 322 550 294T539 232H174Q173 221 172 211T170 191Q170
158 181 136T215 103T275 92Q300 92 320 98T355 115T381 144T395 186H531Q523 136 502 99T447 38T370 1T277 -12ZM191 320H412Q414 329 414 337T415 352Q415 381 405 399T376 426T330 435Q293 435 266 422T220 383T191 320ZM179 606L199 723H317L297 606H179ZM386
606L406 723H524L504 606H386Z" />
<glyph unicode="&#xec;" glyph-name="igrave" horiz-adv-x="267" d="M18 0L111 526H250L157 0H18ZM140 591L49 720L51 723H188L246 591H140Z" />
<glyph unicode="&#xed;" glyph-name="iacute" horiz-adv-x="267" d="M18 0L111 526H250L157 0H18ZM124 591L229 723H374V720L234 591H124Z" />
<glyph unicode="&#xee;" glyph-name="icircumflex" horiz-adv-x="267" d="M18 0L111 526H250L157 0H18ZM13 591L149 723H275L362 591H250L181 692H237L130 591H13Z" />
<glyph unicode="&#xef;" glyph-name="idieresis" horiz-adv-x="267" d="M18 0L111 526H250L157 0H18ZM32 606L52 723H169L149 606H32ZM238 606L259 723H377L357 606H238Z" />
<glyph unicode="&#xf0;" glyph-name="eth" horiz-adv-x="626" d="M280 -12Q200 -12 145 10T62 78T33 193Q33 277 57 347T129 463Q145 479 164 491T206 512T252 524T302 529Q328 529 352 525T398 513L403 517Q394 538 383 557T355 597L190 583L203 654L304 662Q290
678 275 692T245 718L249 723H398Q412 712 425 700T449 675L611 687L599 617L503 610Q541 555 567 489T593 347Q593 289 584 235T552 137Q530 91 493 58T403 6T280 -12ZM283 96Q331 96 363 114T414 169T442 256Q444 266 445 275T447 292T448 308T449 322Q449 356
438 378T402 413T339 425Q292 425 260 406T210 352T182 264Q179 250 178 238T176 217T175 198Q175 164 186 142T221 108T283 96Z" />
<glyph unicode="&#xf1;" glyph-name="ntilde" horiz-adv-x="602" d="M18 0L110 526H224V453H231Q251 478 279 497T340 527T407 538Q453 538 487 524T541 480T561 402Q561 385 559 367T553 328L495 0H356L412 316Q414 328 415 338T417 359Q417 382 409 396T386
416T350 423Q325 423 302 414T259 388T227 345T208 288L157 0H18ZM184 601Q190 633 205 661T246 706T307 723Q335 723 358 715T403 697T448 687Q464 687 474 695T491 723H563Q557 691 541 663T500 618T438 601Q411 601 388 610T344 628T298 638Q284 638 273 629T255
601H184Z" />
<glyph unicode="&#xf2;" glyph-name="ograve" horiz-adv-x="613" d="M267 -12Q190 -12 138 10T58 77T31 192Q31 212 33 232T39 274Q54 365 94 423T197 510T344 538Q422 538 475 516T555 449T582 333Q582 303 577 276T561 221Q542 141 504 90T407 13T267 -12ZM277
96Q322 96 352 113T402 165T430 251Q434 273 436 287T438 310T439 329Q439 362 428 385T395 419T335 431Q290 431 260 413T211 361T182 275Q178 253 176 239T173 215T172 197Q172 164 183 142T217 108T277 96ZM313 591L223 720L224 723H361L419 591H313Z" />
<glyph unicode="&#xf3;" glyph-name="oacute" horiz-adv-x="613" d="M267 -12Q190 -12 138 10T58 77T31 192Q31 212 33 232T39 274Q54 365 94 423T197 510T344 538Q422 538 475 516T555 449T582 333Q582 303 577 276T561 221Q542 141 504 90T407 13T267 -12ZM277
96Q322 96 352 113T402 165T430 251Q434 273 436 287T438 310T439 329Q439 362 428 385T395 419T335 431Q290 431 260 413T211 361T182 275Q178 253 176 239T173 215T172 197Q172 164 183 142T217 108T277 96ZM297 591L402 723H547L548 720L408 591H297Z" />
<glyph unicode="&#xf4;" glyph-name="ocircumflex" horiz-adv-x="613" d="M267 -12Q190 -12 138 10T58 77T31 192Q31 212 33 232T39 274Q54 365 94 423T197 510T344 538Q422 538 475 516T555 449T582 333Q582 303 577 276T561 221Q542 141 504 90T407 13T267 -12ZM277
96Q322 96 352 113T402 165T430 251Q434 273 436 287T438 310T439 329Q439 362 428 385T395 419T335 431Q290 431 260 413T211 361T182 275Q178 253 176 239T173 215T172 197Q172 164 183 142T217 108T277 96ZM186 591L322 723H448L535 591H423L354 692H410L304
591H186Z" />
<glyph unicode="&#xf5;" glyph-name="otilde" horiz-adv-x="613" d="M267 -12Q190 -12 138 10T58 77T31 192Q31 212 33 232T39 274Q54 365 94 423T197 510T344 538Q422 538 475 516T555 449T582 333Q582 303 577 276T561 221Q542 141 504 90T407 13T267 -12ZM277
96Q322 96 352 113T402 165T430 251Q434 273 436 287T438 310T439 329Q439 362 428 385T395 419T335 431Q290 431 260 413T211 361T182 275Q178 253 176 239T173 215T172 197Q172 164 183 142T217 108T277 96ZM181 601Q188 633 203 661T244 706T305 723Q333 723
356 715T400 697T446 687Q461 687 472 695T489 723H561Q555 691 539 663T498 618T436 601Q408 601 386 610T342 628T296 638Q282 638 271 629T252 601H181Z" />
<glyph unicode="&#xf6;" glyph-name="odieresis" horiz-adv-x="613" d="M267 -12Q190 -12 138 10T58 77T31 192Q31 212 33 232T39 274Q54 365 94 423T197 510T344 538Q422 538 475 516T555 449T582 333Q582 303 577 276T561 221Q542 141 504 90T407 13T267 -12ZM277
96Q322 96 352 113T402 165T430 251Q434 273 436 287T438 310T439 329Q439 362 428 385T395 419T335 431Q290 431 260 413T211 361T182 275Q178 253 176 239T173 215T172 197Q172 164 183 142T217 108T277 96ZM205 606L225 723H343L323 606H205ZM412 606L432 723H550L530
606H412Z" />
<glyph unicode="&#xf7;" glyph-name="divide" horiz-adv-x="641" d="M68 204L87 309H572L552 204H68ZM216 3L236 115H354L334 3H216ZM285 398L306 510H424L403 398H285Z" />
<glyph unicode="&#xf8;" glyph-name="oslash" horiz-adv-x="613" d="M267 -12Q190 -12 138 10T58 77T31 192Q31 212 33 232T39 274Q54 365 94 423T197 510T344 538Q422 538 475 516T555 449T582 333Q582 303 577 276T561 221Q542 141 504 90T407 13T267 -12ZM277
96Q322 96 352 113T402 165T430 251Q434 273 436 287T438 310T439 329Q439 362 428 385T395 419T335 431Q290 431 260 413T211 361T182 275Q178 253 176 239T173 215T172 197Q172 164 183 142T217 108T277 96ZM-14 -47L544 573H628L70 -47H-14Z" />
<glyph unicode="&#xf9;" glyph-name="ugrave" horiz-adv-x="601" d="M193 -12Q148 -12 113 2T58 46T38 124Q38 141 41 159T47 198L105 526H244L188 210Q187 198 185 188T183 167Q183 144 191 130T215 110T251 103Q276 103 299 112T341 138T373 181T393 238L444
526H583L490 0H377V73H370Q349 48 321 29T261 -1T193 -12ZM304 591L213 720L215 723H352L410 591H304Z" />
<glyph unicode="&#xfa;" glyph-name="uacute" horiz-adv-x="601" d="M193 -12Q148 -12 113 2T58 46T38 124Q38 141 41 159T47 198L105 526H244L188 210Q187 198 185 188T183 167Q183 144 191 130T215 110T251 103Q276 103 299 112T341 138T373 181T393 238L444
526H583L490 0H377V73H370Q349 48 321 29T261 -1T193 -12ZM287 591L392 723H538V720L398 591H287Z" />
<glyph unicode="&#xfb;" glyph-name="ucircumflex" horiz-adv-x="601" d="M193 -12Q148 -12 113 2T58 46T38 124Q38 141 41 159T47 198L105 526H244L188 210Q187 198 185 188T183 167Q183 144 191 130T215 110T251 103Q276 103 299 112T341 138T373 181T393 238L444
526H583L490 0H377V73H370Q349 48 321 29T261 -1T193 -12ZM177 591L313 723H438L526 591H414L344 692H401L294 591H177Z" />
<glyph unicode="&#xfc;" glyph-name="udieresis" horiz-adv-x="601" d="M193 -12Q148 -12 113 2T58 46T38 124Q38 141 41 159T47 198L105 526H244L188 210Q187 198 185 188T183 167Q183 144 191 130T215 110T251 103Q276 103 299 112T341 138T373 181T393 238L444
526H583L490 0H377V73H370Q349 48 321 29T261 -1T193 -12ZM196 606L216 723H333L313 606H196ZM402 606L422 723H541L521 606H402Z" />
<glyph unicode="&#xfd;" glyph-name="yacute" horiz-adv-x="547" d="M64 -188Q25 -188 2 -183T-28 -175L-12 -80H48Q74 -80 96 -71T135 -44T164 0L51 526H191L237 292Q241 270 245 242T254 187T260 139H265Q272 155 279 173T295 211T312 249T327 282L445 526H590L327
25Q304 -19 278 -57T220 -125T150 -171T64 -188ZM260 591L365 723H511V720L371 591H260Z" />
<glyph unicode="&#xfe;" glyph-name="thorn" horiz-adv-x="608" d="M-14 -178L145 723H284L239 468H245Q265 492 289 507T342 530T403 538Q457 538 496 516T557 451T579 343Q579 323 577 301T570 253Q554 165 520 106T435 18T319 -12Q285 -12 258 -4T210 19T172
57H166L125 -178H-14ZM286 101Q328 101 356 118T401 170T428 256Q431 273 432 285T435 309T436 329Q436 361 427 382T397 413T343 424Q306 424 278 406T231 353T203 269Q200 255 199 243T197 221T196 202Q196 171 205 148T235 113T286 101Z" />
<glyph unicode="&#xff;" glyph-name="ydieresis" horiz-adv-x="547" d="M64 -188Q25 -188 2 -183T-28 -175L-12 -80H48Q74 -80 96 -71T135 -44T164 0L51 526H191L237 292Q241 270 245 242T254 187T260 139H265Q272 155 279 173T295 211T312 249T327 282L445 526H590L327
25Q304 -19 278 -57T220 -125T150 -171T64 -188ZM169 606L189 723H306L286 606H169ZM375 606L395 723H514L494 606H375Z" />
<glyph unicode="&#x2013;" glyph-name="endash" horiz-adv-x="500" d="M-7 219L10 319H509L492 219H-7Z" />
<glyph unicode="&#x2014;" glyph-name="emdash" horiz-adv-x="1000" d="M-7 219L10 319H1009L992 219H-7Z" />
<glyph unicode="&#x2018;" glyph-name="quoteleft" horiz-adv-x="280" d="M293 686L282 630Q258 627 239 611T206 571T188 518H257L232 380H93L115 505Q125 565 151 603T214 662T293 686Z" />
<glyph unicode="&#x2019;" glyph-name="quoteright" horiz-adv-x="280" d="M82 380L93 436Q117 440 136 455T169 495T187 548H118L143 686H282L260 561Q250 502 224 463T161 404T82 380Z" />
<glyph unicode="&#x201a;" glyph-name="quotesinglbase" horiz-adv-x="280" d="M-14 -168L-4 -112Q21 -109 40 -93T73 -53T90 0H22L47 138H186L164 13Q154 -47 128 -85T65 -144T-14 -168Z" />
<glyph unicode="&#x201c;" glyph-name="quotedblleft" horiz-adv-x="488" d="M501 686L490 630Q466 627 447 611T415 571T396 518H465L440 380H301L323 505Q333 565 359 603T422 662T501 686ZM293 686L282 630Q258 627 239 611T206 571T188 518H257L232 380H93L115
505Q125 565 151 603T214 662T293 686Z" />
<glyph unicode="&#x201d;" glyph-name="quotedblright" horiz-adv-x="488" d="M82 380L93 436Q117 440 136 455T169 495T187 548H118L143 686H282L260 561Q250 502 224 463T161 404T82 380ZM290 380L301 436Q325 440 345 455T378 495T395 548H326L351 686H490L469
561Q458 502 432 463T369 404T290 380Z" />
<glyph unicode="&#x201e;" glyph-name="quotedblbase" horiz-adv-x="488" d="M-14 -168L-4 -112Q21 -109 40 -93T73 -53T90 0H22L47 138H186L164 13Q154 -47 128 -85T65 -144T-14 -168ZM194 -168L205 -112Q229 -109 248 -93T281 -53T298 0H230L255 138H394L372
13Q362 -47 336 -85T273 -144T194 -168Z" />
<glyph unicode="&#x2022;" glyph-name="bullet" horiz-adv-x="441" d="M214 206Q179 206 153 220T111 261T95 321Q95 368 116 404T173 461T257 482Q291 482 318 468T360 427T376 365Q376 319 355 283T298 227T214 206Z" />
<glyph unicode="&#x2039;" glyph-name="guilsinglleft" horiz-adv-x="357" d="M173 124L62 326L236 526H346L191 326L275 124H173Z" />
<glyph unicode="&#x203a;" glyph-name="guilsinglright" horiz-adv-x="356" d="M205 528L317 326L142 126H33L187 326L104 528H205Z" />
</font>
</defs>
</svg>
