<?xml version="1.0" standalone="no"?>
<!DOCTYPE svg PUBLIC "-//W3C//DTD SVG 1.1//EN" "http://www.w3.org/Graphics/SVG/1.1/DTD/svg11.dtd">
<svg xmlns="http://www.w3.org/2000/svg">
<defs >
<font id="ArchivoNarrow" horiz-adv-x="471" ><font-face
    font-family="Archivo Narrow"
    units-per-em="1000"
    panose-1="0 0 0 0 0 0 0 0 0 0"
    ascent="1035"
    descent="-312"
    alphabetic="0" />
<glyph unicode=" " glyph-name="space" horiz-adv-x="228" />
<glyph unicode="!" glyph-name="exclam" horiz-adv-x="228" d="M80 171L128 686H241L142 171H80ZM38 0L53 108H153L138 0H38Z" />
<glyph unicode="&quot;" glyph-name="quotedbl" horiz-adv-x="291" d="M211 407L208 539L229 686H311L290 539L250 407H211ZM79 407L75 539L96 686H178L157 539L118 407H79Z" />
<glyph unicode="#" glyph-name="numbersign" horiz-adv-x="456" d="M41 0L81 179H17V255H98L132 410H56V486H149L196 696H272L225 486H315L362 696H438L391 486H451V410H374L340 255H411V179H323L283 0H207L247 179H157L117 0H41ZM174 255H264L298 410H208L174 255Z" />
<glyph unicode="$" glyph-name="dollar" horiz-adv-x="456" d="M166 -50L183 72Q128 83 92 125T55 230Q55 238 55 246T57 262H138Q137 254 136 246T135 230Q135 196 151 176T193 146L218 322Q191 338 165 356T121 401T104 470Q104 510 121 542T174 595T260 618L275
723H323L307 615Q350 607 376 583T414 525T426 453H345Q345 491 331 511T297 539L275 383Q304 369 332 351T380 305T399 228Q399 178 378 143T320 89T230 68L214 -50H166ZM240 140Q275 143 296 164T318 215Q318 244 302 262T262 296L240 140ZM230 409L250 545Q227
541 206 525T185 482Q185 457 198 440T230 409Z" />
<glyph unicode="%" glyph-name="percent" horiz-adv-x="729" d="M85 0L600 686H671L155 0H85ZM532 -12Q479 -12 448 14T416 109Q416 202 437 254T492 328T566 349Q621 349 651 323T681 228Q681 192 675 151T653 72T608 12T532 -12ZM532 47Q568 47 584 79T607 161Q611
186 612 200T613 224Q613 254 603 272T566 290Q530 290 515 258T491 176Q487 151 486 138T485 113Q485 82 495 65T532 47ZM189 337Q136 337 105 363T73 458Q73 551 94 603T149 677T223 698Q278 698 308 672T338 577Q338 541 332 500T310 421T265 361T189 337ZM189
396Q225 396 241 428T264 510Q268 535 269 549T270 573Q270 603 260 621T223 639Q187 639 172 607T148 525Q144 500 143 487T142 462Q142 431 152 414T189 396Z" />
<glyph unicode="&amp;" glyph-name="ampersand" horiz-adv-x="547" d="M389 0L204 351Q177 402 169 439T160 509Q160 561 179 604T236 672T329 698Q364 698 394 683T443 640T462 568Q462 513 436 468T366 392T272 344L245 407Q285 416 315 436T362 488T380 561Q380
593 363 610T322 627Q280 627 260 593T240 514Q240 483 247 453T270 400L482 0H389ZM183 -13Q137 -13 101 6T43 63T22 152Q22 209 44 257T108 341T211 398L240 333Q197 322 167 297T122 236T106 162Q106 112 129 86T196 60Q239 60 289 89T382 182T448 344H526Q506
253 469 186T385 74T285 9T183 -13Z" />
<glyph unicode="&apos;" glyph-name="quotesingle" horiz-adv-x="157" d="M79 407L75 539L96 686H178L157 539L118 407H79Z" />
<glyph unicode="(" glyph-name="parenleft" horiz-adv-x="273" d="M141 -157Q32 -5 32 193Q32 216 33 240T39 288Q56 411 115 527T266 735H320Q263 660 218 569T145 382T118 191Q118 97 139 6T195 -157H141Z" />
<glyph unicode=")" glyph-name="parenright" horiz-adv-x="273" d="M-47 -157Q9 -82 55 9T128 197T155 387Q155 482 134 572T77 735H131Q184 661 211 571T239 384Q239 360 237 336T232 288Q215 165 157 50T6 -157H-47Z" />
<glyph unicode="*" glyph-name="asterisk" horiz-adv-x="319" d="M151 419L172 508L91 456L65 515L153 553L76 591L118 649L185 597L188 686H256L235 598L316 649L342 591L255 553L331 515L289 456L222 508L219 419H151Z" />
<glyph unicode="+" glyph-name="plus" horiz-adv-x="479" d="M161 0L191 213H37L48 297H202L232 511H315L285 297H440L429 213H274L244 0H161Z" />
<glyph unicode="," glyph-name="comma" horiz-adv-x="228" d="M18 -124L69 0H36L51 108H151L137 9L73 -124H18Z" />
<glyph unicode="-" glyph-name="hyphen" horiz-adv-x="273" d="M3 221L16 319H268L255 221H3Z" />
<glyph unicode="." glyph-name="period" horiz-adv-x="228" d="M38 0L53 108H153L138 0H38Z" />
<glyph unicode="/" glyph-name="slash" horiz-adv-x="228" d="M-47 -49L220 735H290L23 -49H-47Z" />
<glyph unicode="0" glyph-name="zero" horiz-adv-x="456" d="M198 -12Q149 -12 113 6T58 69T38 193Q38 256 50 343Q69 483 100 560T175 667T277 698Q327 698 363 680T418 616T438 489Q438 458 435 422T426 343Q407 204 375 127T299 19T198 -12ZM198 61Q239 61
266 93T310 180T337 308Q344 364 348 398T354 454T356 492Q356 553 339 589T277 625Q237 625 210 593T165 506T138 378Q131 327 127 294T121 239T119 201Q119 138 135 100T198 61Z" />
<glyph unicode="1" glyph-name="one" horiz-adv-x="456" d="M3 0L14 73H177L245 561H81L88 613Q117 616 156 626T236 651T313 686H345L259 73H409L398 0H3Z" />
<glyph unicode="2" glyph-name="two" horiz-adv-x="456" d="M10 0L12 13Q18 54 35 91T80 162Q110 199 148 234T224 305T295 378T347 456T367 541Q367 571 351 596T287 622Q235 622 207 583T172 491L167 450H82Q82 517 105 573T176 664T294 698Q363 698 409 665T455
555Q455 498 433 449T376 355T299 272T218 195T148 119Q141 110 136 101T125 84H394L382 0H10Z" />
<glyph unicode="3" glyph-name="three" horiz-adv-x="456" d="M201 -12Q113 -12 69 32T24 152Q24 162 25 173T28 202H111Q108 185 108 174T107 157Q107 110 131 86T200 61Q233 61 261 77T307 129T325 220Q325 274 295 293T227 312H170L180 385H239Q268 385 295
401T339 450T357 534Q357 582 334 603T278 625Q237 625 206 594T164 492H80Q85 557 114 603T187 673T282 698Q356 698 399 660T443 548Q443 469 410 425T329 356V352Q364 338 386 306T409 220Q409 149 381 97T305 16T201 -12Z" />
<glyph unicode="4" glyph-name="four" horiz-adv-x="456" d="M251 0L275 169H11L21 243Q66 309 110 384T193 540T263 698H346Q322 629 287 558T215 422T146 311T97 242H285L316 458Q330 483 339 504T358 547T377 596H417L367 242H437L427 169H357L333 0H251Z" />
<glyph unicode="5" glyph-name="five" horiz-adv-x="456" d="M201 -12Q120 -12 74 34T27 164Q27 175 28 187T31 213H116Q113 195 113 178Q113 123 138 92T202 60Q233 60 263 82T314 149T334 262Q334 315 312 343T252 372Q219 372 189 350T139 293L63 306L140 686H452L440
602H199L156 393Q174 410 205 428T280 446Q341 446 380 405T420 280Q420 187 391 122T312 22T201 -12Z" />
<glyph unicode="6" glyph-name="six" horiz-adv-x="456" d="M209 -12Q158 -12 121 8T64 73T44 197Q44 224 46 255T54 323Q74 466 107 548T187 664T293 698Q370 698 403 652T437 533Q437 520 436 505T433 475H350Q352 489 353 501T354 524Q354 573 338 599T289
625Q246 625 219 594T174 504T144 366Q170 396 203 413T274 431Q348 431 383 383T418 261Q418 178 389 117T313 22T209 -12ZM204 61Q240 61 264 80T304 128T326 189T333 249Q333 296 314 327T251 359Q212 359 184 333T141 263T126 170Q126 123 144 92T204 61Z"
/>
<glyph unicode="7" glyph-name="seven" horiz-adv-x="456" d="M88 0Q100 89 130 173T200 336T285 481T370 602H87L99 686H489L481 633Q438 580 392 514T305 372T233 216T191 51Q189 37 188 28T185 0H88Z" />
<glyph unicode="8" glyph-name="eight" horiz-adv-x="456" d="M194 -12Q104 -12 65 33T26 146Q26 188 37 228T74 301T140 352Q112 372 99 403T85 472Q85 532 108 583T176 666T283 698Q336 698 370 678T421 622T438 542Q438 484 412 433T339 352Q375 333 391 300T407
225Q407 162 384 108T314 21T194 -12ZM199 61Q255 61 289 104T323 218Q323 263 301 288T234 314Q194 314 167 293T125 236T111 157Q111 112 133 87T199 61ZM245 387Q291 387 323 427T356 534Q356 577 335 601T278 625Q243 625 218 604T180 550T167 479Q167 436
187 412T245 387Z" />
<glyph unicode="9" glyph-name="nine" horiz-adv-x="456" d="M191 -12Q115 -12 81 34T47 153Q47 167 48 181T51 211H134Q133 198 132 186T130 162Q130 113 146 87T195 61Q238 61 265 92T310 182T340 320Q315 290 282 273T210 255Q136 255 101 303T66 425Q66 508
95 569T172 664T275 698Q327 698 363 678T420 613T440 489Q440 462 438 431T430 363Q411 220 378 138T298 22T191 -12ZM233 327Q273 327 300 353T343 423T358 516Q358 563 340 594T280 625Q244 625 220 606T180 558T158 497T151 437Q151 390 170 359T233 327Z"
/>
<glyph unicode=":" glyph-name="colon" horiz-adv-x="228" d="M95 418L110 526H210L195 418H95ZM36 0L51 108H151L136 0H36Z" />
<glyph unicode=";" glyph-name="semicolon" horiz-adv-x="228" d="M18 -124L69 0H36L51 108H151L137 9L73 -124H18ZM95 418L110 526H210L195 418H95Z" />
<glyph unicode="&lt;" glyph-name="less" horiz-adv-x="479" d="M400 4L36 200L51 307L471 504L458 414L125 254L413 94L400 4Z" />
<glyph unicode="=" glyph-name="equal" horiz-adv-x="479" d="M51 318L63 402H455L443 318H51ZM22 106L33 189H425L414 106H22Z" />
<glyph unicode="&gt;" glyph-name="greater" horiz-adv-x="479" d="M8 4L21 94L355 254L66 414L79 504L443 307L428 200L8 4Z" />
<glyph unicode="?" glyph-name="question" horiz-adv-x="456" d="M175 180L183 236Q189 278 207 306T249 357T296 402T334 455T349 532Q349 550 344 571T322 606T274 621Q240 621 219 606T185 567T166 520T159 479T157 459H68Q69 523 94 577T166 664T282 698Q354
698 398 657T442 548Q442 488 426 448T386 380T337 329T292 281T268 221L262 180H175ZM142 0L158 108H258L242 0H142Z" />
<glyph unicode="@" glyph-name="at" horiz-adv-x="832" d="M406 -154Q297 -154 218 -119T97 -6T55 194Q55 359 106 471T252 641T476 698Q578 698 641 674T739 606T785 502T798 369Q798 308 786 247T749 135T682 53T583 22Q548 22 527 34T496 63T482 92Q463 57
434 40T374 22Q322 22 288 64T253 199Q253 309 280 380T350 486T437 521Q470 521 496 505T536 444L553 510H611Q611 510 607 486T598 424T585 341T573 254T563 180T559 137Q559 106 573 97T605 87Q624 87 644 101T683 142Q700 167 712 201T732 278T739 368Q739
414 734 454T715 525Q690 584 636 613T493 643Q412 643 343 619T222 543T142 405T113 196Q113 86 150 21T251 -71T397 -99Q465 -99 497 -89T529 -79L521 -136Q513 -139 479 -146T406 -154ZM397 88Q423 88 442 108T475 160T496 228T508 297T512 352Q512 403 496
429T448 455Q419 455 399 436T365 385T343 318T332 249T329 192Q329 140 346 114T397 88Z" />
<glyph unicode="A" glyph-name="A" horiz-adv-x="547" d="M-37 0L277 686H390L511 0H420L394 153H119L50 0H-37ZM155 233H381L330 538Q328 550 327 568T326 600T325 614H321Q321 614 316 600T305 567T293 538L155 233Z" />
<glyph unicode="B" glyph-name="B" horiz-adv-x="547" d="M34 0L131 686H372Q446 686 491 647T537 541Q537 496 519 460T472 398T408 360L407 356Q451 341 478 302T506 206Q506 142 475 96T396 25T293 0H34ZM134 80H293Q324 80 352 94T397 137T415 206Q415 249
388 280T311 311H166L134 80ZM177 391H314Q353 391 382 409T426 456T442 518Q442 563 415 584T340 606H207L177 391Z" />
<glyph unicode="C" glyph-name="C" horiz-adv-x="592" d="M285 -12Q178 -12 115 49T51 241Q51 295 60 357T89 479T144 589T230 668T353 698Q460 698 515 638T570 453V437H479V459Q479 537 448 577T352 617Q305 617 271 595T214 538T176 460T154 375T144 299T141
246Q141 161 177 116T282 70Q333 70 369 94T426 157T454 242H541Q532 174 501 116T415 23T285 -12Z" />
<glyph unicode="D" glyph-name="D" horiz-adv-x="592" d="M34 0L131 686H334Q443 686 503 622T563 429Q563 376 553 317T521 201T465 100T381 27T265 0H34ZM134 80H255Q307 80 344 102T406 162T445 245T466 338T472 428Q472 518 433 562T324 606H207L134 80Z" />
<glyph unicode="E" glyph-name="E" horiz-adv-x="547" d="M34 0L131 686H554L542 606H207L177 391H468L457 311H166L134 80H475L463 0H34Z" />
<glyph unicode="F" glyph-name="F" horiz-adv-x="501" d="M34 0L131 686H527L515 606H207L176 384H448L437 304H165L122 0H34Z" />
<glyph unicode="G" glyph-name="G" horiz-adv-x="638" d="M285 -12Q178 -12 114 49T50 241Q50 295 59 357T90 479T147 589T237 668T364 698Q479 698 537 638T596 452H505V459Q505 537 471 577T363 617Q304 617 264 588T200 512T162 415T145 318T140 246Q140 161
177 116T293 70Q349 70 387 94T448 157T478 242L490 318L522 280H304L315 357H584L533 0H475L467 76Q436 36 391 12T285 -12Z" />
<glyph unicode="H" glyph-name="H" horiz-adv-x="592" d="M33 0L130 686H218L176 391H452L494 686H582L485 0H397L441 311H165L121 0H33Z" />
<glyph unicode="I" glyph-name="I" horiz-adv-x="228" d="M34 0L131 686H219L122 0H34Z" />
<glyph unicode="J" glyph-name="J" horiz-adv-x="410" d="M152 -12Q79 -12 39 22T-1 124Q-1 130 -1 138T2 162T8 208H95Q89 165 88 154T86 137Q86 69 154 69Q192 69 215 92T244 158L319 686H407L333 163Q321 78 274 33T152 -12Z" />
<glyph unicode="K" glyph-name="K" horiz-adv-x="547" d="M34 0L131 686H219L168 329L484 686H589L344 409L499 0H401L279 335L152 213L122 0H34Z" />
<glyph unicode="L" glyph-name="L" horiz-adv-x="456" d="M34 0L131 686H219L134 80H414L402 0H34Z" />
<glyph unicode="M" glyph-name="M" horiz-adv-x="683" d="M24 0L121 686H253L310 236Q312 220 313 197T315 153T316 117T317 102H321Q321 102 324 116T333 153T346 197T359 236L545 686H680L583 0H495L565 498Q566 506 568 520T573 548T578 573T580 584H576Q576
584 570 567T557 529T545 498L338 0H259L194 498Q193 506 192 526T189 565T187 584H183Q183 584 182 573T179 547T176 518T173 498L103 0H24Z" />
<glyph unicode="N" glyph-name="N" horiz-adv-x="592" d="M33 0L130 686H202L397 255Q403 242 410 220T423 181T429 163L432 164Q432 164 434 182T438 222T442 255L503 686H582L485 0H416L219 437Q213 452 205 473T192 512T186 529L183 528Q183 528 182 511T178
473T174 437L112 0H33Z" />
<glyph unicode="O" glyph-name="O" horiz-adv-x="638" d="M290 -12Q178 -12 116 52T53 247Q53 304 63 366T95 488T153 594T243 670T369 698Q482 698 544 633T607 437Q607 380 597 318T565 197T506 91T416 16T290 -12ZM291 69Q345 69 384 92T448 156T489 244T510
343T516 437Q516 527 477 572T368 617Q314 617 276 594T211 531T171 443T150 344T143 249Q143 158 182 114T291 69Z" />
<glyph unicode="P" glyph-name="P" horiz-adv-x="547" d="M34 0L131 686H366Q461 686 508 638T555 512Q555 440 526 389T444 310T323 283H162L122 0H34ZM174 363H332Q388 363 425 399T462 496Q462 546 437 576T361 606H207L174 363Z" />
<glyph unicode="Q" glyph-name="Q" horiz-adv-x="638" d="M400 -124L296 -12Q172 -12 112 54T51 247Q51 304 61 366T93 488T151 594T241 670T367 698Q480 698 542 633T605 437Q605 376 594 310T557 183T491 75T388 5L510 -124H400ZM289 69Q343 69 382 92T446 156T487
244T508 343T514 437Q514 527 475 572T366 617Q312 617 274 594T209 531T169 443T148 344T141 249Q141 158 180 114T289 69Z" />
<glyph unicode="R" glyph-name="R" horiz-adv-x="592" d="M34 0L131 686H397Q495 686 539 642T583 527Q583 451 544 396T439 318L531 0H438L350 303H165L122 0H34ZM176 383H353Q411 383 451 419T491 513Q491 557 464 581T384 606H207L176 383Z" />
<glyph unicode="S" glyph-name="S" horiz-adv-x="547" d="M249 -12Q200 -12 160 1T92 40T48 103T33 188Q33 199 33 210T36 234H127Q125 221 124 210T122 187Q122 146 138 120T185 82T256 69Q276 69 300 74T347 93T383 130T398 190Q398 228 377 252T321 293T250
327T178 364T123 419T101 502Q101 565 126 609T199 675T314 698Q393 698 439 670T506 594T526 485H435Q435 542 415 570T366 608T309 617Q296 617 277 614T238 601T205 569T192 512Q192 476 213 454T269 416T341 384T413 346T468 290T490 203Q490 169 479 131T442
61T368 9T249 -12Z" />
<glyph unicode="T" glyph-name="T" horiz-adv-x="501" d="M166 0L251 606H64L76 686H538L526 606H339L254 0H166Z" />
<glyph unicode="U" glyph-name="U" horiz-adv-x="592" d="M264 -12Q166 -12 112 35T57 173Q57 183 61 215T71 294T84 394T99 498T113 592T123 660T127 686H215Q215 686 212 660T202 591T188 496T174 392T160 294T150 220T146 185Q146 128 177 99T266 69Q331 69
373 107T425 218L491 686H579L513 223Q497 108 432 48T264 -12Z" />
<glyph unicode="V" glyph-name="V" horiz-adv-x="547" d="M186 0L74 686H165L257 96H261L517 686H605L299 0H186Z" />
<glyph unicode="W" glyph-name="W" horiz-adv-x="774" d="M139 0L77 686H166L205 212Q207 192 207 163T208 112T209 90H213Q213 90 218 108T230 154T247 212L391 686H518L535 212Q535 200 535 180T536 140T536 105T536 90H540Q540 90 546 111T561 161T578 212L749
686H831L575 0H461L446 463Q445 498 444 533T441 603H436Q436 603 433 589T424 552T412 506T401 465L253 0H139Z" />
<glyph unicode="X" glyph-name="X" horiz-adv-x="547" d="M-31 0L239 360L85 686H185L301 441H302L483 686H582L338 361L507 0H408L277 280H276L66 0H-31Z" />
<glyph unicode="Y" glyph-name="Y" horiz-adv-x="547" d="M195 0L235 284L70 686H166L291 368H295L509 686H601L323 284L283 0H195Z" />
<glyph unicode="Z" glyph-name="Z" horiz-adv-x="501" d="M-16 0L-13 38L388 606H86L98 686H526L523 648L121 80H451L439 0H-16Z" />
<glyph unicode="[" glyph-name="bracketleft" horiz-adv-x="228" d="M-13 -161L111 735H270L261 670H178L71 -96H154L145 -161H-13Z" />
<glyph unicode="\" glyph-name="backslash" horiz-adv-x="228" d="M157 -49L49 735H119L228 -49H157Z" />
<glyph unicode="]" glyph-name="bracketright" horiz-adv-x="228" d="M-42 -161L-33 -96H49L156 670H73L82 735H241L116 -161H-42Z" />
<glyph unicode="^" glyph-name="asciicircum" horiz-adv-x="385" d="M9 294L199 686H306L388 294H298L241 609L98 294H9Z" />
<glyph unicode="_" glyph-name="underscore" horiz-adv-x="456" d="M-45 -124L-39 -71H416L409 -124H-45Z" />
<glyph unicode="`" glyph-name="grave" horiz-adv-x="0" d="M154 591L64 720L65 723H155L223 591H154Z" />
<glyph unicode="a" glyph-name="a" horiz-adv-x="456" d="M166 -12Q108 -12 71 35T33 183Q33 304 63 382T140 499T236 538Q272 538 301 520T345 453L363 526H428Q428 526 425 503T416 442T405 358T391 266T379 181T371 117T367 89Q367 74 374 68T391 61H423L415
4Q408 -1 394 -6T359 -12Q328 -12 308 7T287 71Q259 28 230 8T166 -12ZM191 61Q220 61 241 83T276 140T300 215T313 291T317 352Q317 408 300 436T248 465Q216 465 193 444T156 388T133 315T121 238T117 175Q117 118 135 90T191 61Z" />
<glyph unicode="b" glyph-name="b" horiz-adv-x="456" d="M219 -12Q182 -12 152 6T106 73L88 0H23L124 723H206L171 466Q199 504 227 521T289 538Q347 538 384 491T422 343Q422 271 411 214T379 114T333 44T278 2T219 -12ZM207 61Q239 61 262 82T299 138T322 211T334
288T338 351Q338 408 320 436T264 465Q233 465 211 443T173 386T150 311T138 235T134 174Q134 118 152 90T207 61Z" />
<glyph unicode="c" glyph-name="c" horiz-adv-x="410" d="M192 -12Q118 -12 75 34T31 179Q31 237 40 300T71 417T135 504T240 538Q314 538 352 492T390 349V331H305V348Q305 406 289 435T240 465Q207 465 185 442T149 383T128 308T119 236T116 186Q116 127 135
94T190 61Q218 61 239 79T274 128T292 192H374Q368 139 345 92T284 17T192 -12Z" />
<glyph unicode="d" glyph-name="d" horiz-adv-x="456" d="M167 -12Q109 -12 72 35T34 183Q34 304 64 382T141 499T237 538Q270 538 297 522T342 468L378 723H460L359 0H294V71Q268 28 236 8T167 -12ZM192 61Q223 61 245 83T283 140T306 215T318 291T322 352Q322
408 304 436T249 465Q217 465 194 444T157 388T134 315T122 238T118 175Q118 118 136 90T192 61Z" />
<glyph unicode="e" glyph-name="e" horiz-adv-x="456" d="M205 -12Q124 -12 80 34T35 179Q35 224 41 273T61 370T101 455T164 515T258 538Q337 538 378 492T420 349Q420 324 419 296T412 239H123Q122 223 121 210T120 186Q120 123 141 92T205 61Q249 61 279 96T316
178H399Q391 127 367 84T302 15T205 -12ZM133 312H334Q335 322 335 331T335 348Q335 406 316 435T258 465Q222 465 197 443T157 385T133 312Z" />
<glyph unicode="f" glyph-name="f" horiz-adv-x="228" d="M-22 -182Q-40 -182 -58 -178T-89 -170L-81 -113H-37Q10 -113 16 -65L84 453H38L48 526H94L106 610Q110 640 123 668T162 713T227 731Q245 731 263 728T294 719L286 662H242Q194 662 188 614L176 526H267L257
453H166L98 -61Q94 -91 81 -118T43 -164T-22 -182Z" />
<glyph unicode="g" glyph-name="g" horiz-adv-x="456" d="M165 -182Q111 -182 76 -160T24 -102T7 -24H89Q89 -67 108 -88T168 -110Q217 -110 244 -77T282 25L293 91Q266 48 237 28T171 8Q122 8 93 35T50 104T37 190Q37 262 48 318T80 416T125 485T180 525T239
538Q277 538 306 520T352 453L369 526H434L367 49Q350 -74 300 -128T165 -182ZM197 81Q226 81 247 101T284 155T307 225T320 296T324 352Q323 408 305 436T250 465Q217 465 195 444T158 390T135 318T124 243T121 182Q121 81 197 81Z" />
<glyph unicode="h" glyph-name="h" horiz-adv-x="456" d="M22 0L123 723H205L169 465Q184 488 215 513T299 538Q343 538 367 521T402 477T413 420Q413 412 409 379T399 298T385 198T372 101T361 28T357 0H275Q275 0 279 27T289 96T302 188T315 283T325 361T329
401Q329 435 314 450T269 465Q219 465 187 418T144 294L103 0H22Z" />
<glyph unicode="i" glyph-name="i" horiz-adv-x="228" d="M38 0L111 526H193L119 0H38ZM123 628L137 723H222L208 628H123Z" />
<glyph unicode="j" glyph-name="j" horiz-adv-x="182" d="M-32 -182Q-50 -182 -68 -178T-99 -170L-91 -113H-47Q0 -113 5 -65L88 526H170L88 -61Q84 -91 71 -118T33 -164T-32 -182ZM99 628L113 723H198L184 628H99Z" />
<glyph unicode="k" glyph-name="k" horiz-adv-x="410" d="M19 0L120 723H202L141 292L338 526H436L250 310L370 0H280L192 242L127 187L101 0H19Z" />
<glyph unicode="l" glyph-name="l" horiz-adv-x="182" d="M16 0L116 723H198L97 0H16Z" />
<glyph unicode="m" glyph-name="m" horiz-adv-x="683" d="M22 0L96 526H160V448Q167 463 183 484T227 521T295 538Q346 538 370 511T399 446Q406 461 422 482T466 521T535 538Q575 538 598 521T631 477T641 420Q641 412 637 379T627 298T613 198T600 101T589 28T585
0H503Q503 0 507 27T517 96T530 188T543 283T553 361T557 401Q557 435 543 450T505 465Q459 465 429 422T388 307L345 0H263Q263 0 267 27T277 96T290 188T303 283T313 361T317 401Q317 435 303 450T265 465Q217 465 187 418T145 294L104 0H22Z" />
<glyph unicode="n" glyph-name="n" horiz-adv-x="456" d="M22 0L96 526H160V448Q168 463 184 484T229 521T300 538Q344 538 368 521T403 477T414 420Q414 412 410 379T400 298T386 198T373 101T362 28T358 0H276Q276 0 280 27T290 96T303 188T316 283T326 361T330
401Q330 435 315 450T270 465Q220 465 188 418T145 294L104 0H22Z" />
<glyph unicode="o" glyph-name="o" horiz-adv-x="456" d="M199 -12Q118 -12 76 33T33 175Q33 218 39 267T59 365T99 452T162 514T256 538Q337 538 379 492T422 349Q422 306 416 257T396 160T356 74T293 12T199 -12ZM199 61Q236 61 260 83T300 141T323 216T334
291T337 348Q337 406 317 435T256 465Q220 465 195 443T155 387T132 314T121 241T118 186Q118 123 137 92T199 61Z" />
<glyph unicode="p" glyph-name="p" horiz-adv-x="456" d="M-1 -182L98 526H163V455Q189 498 221 518T290 538Q348 538 385 491T423 343Q423 223 393 144T316 27T220 -12Q187 -12 160 4T115 58L81 -182H-1ZM208 61Q240 61 263 82T300 138T323 211T335 288T339 351Q339
408 321 436T265 465Q234 465 212 443T174 386T151 311T139 235T135 174Q135 118 153 90T208 61Z" />
<glyph unicode="q" glyph-name="q" horiz-adv-x="456" d="M252 -173L284 60Q256 23 229 6T166 -12Q108 -12 71 35T33 183Q33 255 44 312T76 412T122 482T177 524T236 538Q274 538 303 520T349 453L367 526H432L334 -173H252ZM191 61Q222 61 244 83T282 140T305
215T317 291T321 352Q321 408 303 436T248 465Q216 465 193 444T156 388T133 315T121 238T117 175Q117 118 135 90T191 61Z" />
<glyph unicode="r" glyph-name="r" horiz-adv-x="273" d="M16 0L90 526H154V442Q164 462 176 484T209 522T259 538Q276 538 286 534T297 530L285 445H258Q219 445 185 410T141 304L98 0H16Z" />
<glyph unicode="s" glyph-name="s" horiz-adv-x="410" d="M186 -12Q141 -12 104 8T44 64T21 150Q21 158 21 166T23 182H108Q107 174 106 166T105 150Q105 104 131 82T194 60Q229 60 249 82T270 135Q270 165 256 184T219 219T170 248T122 280T85 324T70 390Q70
432 88 465T142 518T232 538Q286 538 319 515T367 454T382 373H297Q297 427 274 446T223 466Q201 466 178 450T155 402Q155 372 169 353T206 321T255 294T303 263T340 218T355 148Q355 98 334 62T276 7T186 -12Z" />
<glyph unicode="t" glyph-name="t" horiz-adv-x="228" d="M115 -10Q69 -10 52 15T34 75Q34 82 38 111T47 184T60 273T72 361T82 427T86 453H41L51 526H96L132 672H199L178 526H249L239 453H168Q168 453 165 428T155 364T143 280T131 195T122 128T118 98Q118 61
155 61H184L176 4Q164 -2 147 -6T115 -10Z" />
<glyph unicode="u" glyph-name="u" horiz-adv-x="456" d="M156 -12Q113 -12 88 5T53 49T42 106Q42 114 46 147T56 228T70 328T83 425T94 498T98 526H180Q180 526 176 499T166 430T153 338T140 243T130 165T126 125Q126 91 141 76T186 61Q236 61 268 108T311 232L352
526H434L360 0H296V77Q289 62 272 41T227 4T156 -12Z" />
<glyph unicode="v" glyph-name="v" horiz-adv-x="410" d="M124 0L46 526H133L171 243Q173 228 175 213T179 181T183 150T187 119H191Q197 134 203 149T216 180T229 211T242 242L359 526H447L213 0H124Z" />
<glyph unicode="w" glyph-name="w" horiz-adv-x="592" d="M101 0L43 526H122L152 230Q154 216 155 193T159 144T161 93H165Q165 93 169 116T180 171T196 230L290 526H388L402 230Q402 226 402 218T403 195T403 156T403 93H407Q407 93 409 105T417 139T429 184T444
230L555 526H632L428 0H337L323 342Q323 363 324 385T326 423T327 438H323Q323 438 319 415T307 360T290 300L193 0H101Z" />
<glyph unicode="x" glyph-name="x" horiz-adv-x="410" d="M-27 0L164 270L52 526H147L219 349H220L338 526H436L253 269L370 0H275L198 190H197L69 0H-27Z" />
<glyph unicode="y" glyph-name="y" horiz-adv-x="410" d="M35 -182Q18 -182 4 -180T-22 -174L-14 -117H14Q47 -117 79 -92T134 0L47 526H134L179 209Q181 196 183 183T186 158T190 132T194 106H198Q203 119 208 132T218 157T228 183T238 209L360 526H448L234 27Q210
-30 181 -77T117 -153T35 -182Z" />
<glyph unicode="z" glyph-name="z" horiz-adv-x="410" d="M2 0L5 39L289 453H78L88 526H414L411 488L126 73H366L356 0H2Z" />
<glyph unicode="{" glyph-name="braceleft" horiz-adv-x="274" d="M191 -159Q154 -159 122 -151T71 -118T51 -46Q51 -38 52 -30T54 -11Q54 -11 57 9T64 58T72 118T80 170T83 195Q83 224 61 235T14 246L25 330Q52 330 79 343T111 390L139 587Q148 650 174 682T237
724T316 735L308 678Q291 678 272 673T238 652T219 607Q212 555 202 505T183 401Q174 350 152 322T80 293L79 283Q120 283 136 262T153 202Q153 171 150 134T141 60T133 -4T129 -46Q129 -80 151 -91T199 -102L191 -159Z" />
<glyph unicode="|" glyph-name="bar" horiz-adv-x="213" d="M67 -173V723H146V-173H67Z" />
<glyph unicode="}" glyph-name="braceright" horiz-adv-x="274" d="M-42 -159L-34 -102Q-16 -102 3 -97T36 -76T55 -31Q62 21 72 72T91 175Q100 226 122 254T194 283L195 293Q154 293 138 314T121 374Q121 405 124 442T133 516T141 580T145 622Q145 657 123 667T75
678L83 735Q121 735 152 727T203 694T223 622Q223 614 223 606T220 587Q220 587 217 567T210 518T202 458T194 406T191 381Q191 353 213 342T260 330L249 246Q222 246 195 233T163 186L135 -11Q126 -74 100 -105T37 -148T-42 -159Z" />
<glyph unicode="~" glyph-name="asciitilde" horiz-adv-x="479" d="M22 211L35 303Q35 303 44 314T69 339T109 365T163 376Q186 376 206 367T245 346T284 324T328 315Q353 315 375 325T416 350T444 375T456 388L443 296Q443 296 434 285T409 260T369 234T315 223Q292
223 272 232T233 253T194 275T150 284Q125 284 103 274T62 249T34 224T22 211Z" />
<glyph unicode="&#xa0;" glyph-name="uni00A0" horiz-adv-x="228" />
<glyph unicode="&#xa1;" glyph-name="exclamdown" horiz-adv-x="273" d="M47 -160L145 355H207L160 -160H47ZM136 418L151 526H251L236 418H136Z" />
<glyph unicode="&#xa2;" glyph-name="cent" horiz-adv-x="456" d="M162 -48L179 71Q120 82 87 128T53 259Q53 316 61 377T92 491T154 579T256 617L271 723H320L304 614Q362 604 392 559T422 429V411H341V428Q341 474 329 502T294 540L238 144Q275 153 299 189T328
272H406Q400 220 378 175T318 100T227 68L211 -48H162ZM189 145L245 542Q216 535 196 510T164 450T145 379T136 312T134 266Q134 217 148 187T189 145Z" />
<glyph unicode="&#xa3;" glyph-name="sterling" horiz-adv-x="456" d="M-1 0L11 79H71L102 304H30L40 376H112L130 499Q145 603 190 650T309 698Q377 698 416 667T456 558Q456 545 455 531T450 491H368Q372 513 373 524T374 543Q374 585 357 605T308 625Q270 625
247 599T215 515L195 376H328L318 304H184L144 79H393L381 0H-1Z" />
<glyph unicode="&#xa4;" glyph-name="currency" horiz-adv-x="456" d="M228 96Q188 96 153 111T88 154L45 111L-3 159L46 208Q30 237 21 271T11 342Q11 379 20 413T46 476L-3 525L45 573L87 530Q116 558 152 573T228 589Q268 589 304 574T368 530L411 573L459
525L410 476Q427 447 436 413T445 342Q445 305 436 271T410 208L459 159L411 111L368 154Q340 127 304 112T228 96ZM228 165Q269 165 302 189T356 253T376 342Q376 392 356 432T303 496T228 520Q187 520 153 496T99 432T79 342Q79 293 99 253T153 189T228 165Z"
/>
<glyph unicode="&#xa5;" glyph-name="yen" horiz-adv-x="456" d="M147 0L171 169H12L21 234H180L190 304H31L40 369H168L62 686H157L252 393H256L430 686H513L318 369H446L437 304H278L268 234H427L418 169H259L235 0H147Z" />
<glyph unicode="&#xa6;" glyph-name="brokenbar" horiz-adv-x="213" d="M67 343V723H146V343H67ZM67 -173V207H146V-173H67Z" />
<glyph unicode="&#xa7;" glyph-name="section" horiz-adv-x="456" d="M172 -182Q101 -182 65 -147T29 -61Q29 -51 31 -38T35 -19H120Q118 -30 118 -35T117 -45Q117 -71 130 -90T180 -110Q216 -110 233 -93T256 -54T262 -21Q262 10 248 30T211 67T163 98T115 133T78
179T63 246Q63 308 91 349T154 412Q135 431 123 456T111 518Q111 573 133 613T194 676T288 698Q359 698 395 663T431 577Q431 567 429 554T425 535H340Q342 546 342 551T343 561Q343 587 330 606T280 626Q244 626 227 609T204 571T198 537Q198 506 212 486T249
449T297 418T345 383T382 337T397 270Q397 209 369 168T306 105Q325 86 337 61T349 -2Q349 -57 327 -97T266 -160T172 -182ZM265 136Q286 150 300 177T314 239Q314 277 296 301T250 343T195 380Q174 366 160 339T146 277Q146 240 164 216T210 173T265 136Z" />
<glyph unicode="&#xa8;" glyph-name="dieresis" horiz-adv-x="0" d="M201 628L215 723H302L288 628H201ZM51 628L65 723H152L138 628H51Z" />
<glyph unicode="&#xa9;" glyph-name="copyright" horiz-adv-x="604" d="M302 -12Q215 -12 152 32T55 155T21 343Q21 451 55 531T152 654T302 698Q390 698 452 655T549 531T583 343Q583 235 549 156T453 32T302 -12ZM304 139Q225 139 185 191T145 348Q145 454 185
506T304 558Q366 558 405 520T445 405H387Q387 456 365 481T304 506Q253 506 229 471T204 364V334Q204 263 228 227T304 191Q342 191 365 216T389 291H445Q445 213 406 176T304 139ZM302 35Q375 35 427 73T508 180T537 343Q537 437 509 506T428 613T302 651Q229
651 177 613T96 506T67 343Q67 250 95 181T176 73T302 35Z" />
<glyph unicode="&#xaa;" glyph-name="ordfeminine" horiz-adv-x="303" d="M152 362Q112 362 87 394T61 495Q61 577 82 630T134 709T199 736Q222 736 240 724T268 678L301 728H330Q330 728 327 707T319 653T309 583T299 512T291 456T288 431Q288 421 293 417T305
412H326L321 373Q316 369 307 366T283 362Q259 362 245 375T229 418Q211 390 193 376T152 362ZM169 416Q192 416 207 438T231 492T245 557T249 610Q249 646 239 664T207 682Q182 682 166 661T140 607T127 543T123 489Q123 416 169 416Z" />
<glyph unicode="&#xab;" glyph-name="guillemotleft" horiz-adv-x="456" d="M318 126L205 326L373 526H445L305 326L388 126H318ZM166 126L54 326L221 526H294L153 326L237 126H166Z" />
<glyph unicode="&#xac;" glyph-name="logicalnot" horiz-adv-x="479" d="M333 197L355 360H43L56 453H452L417 197H333Z" />
<glyph unicode="&#xad;" glyph-name="uni00AD" horiz-adv-x="273" d="M3 221L16 319H268L255 221H3Z" />
<glyph unicode="&#xae;" glyph-name="registered" horiz-adv-x="604" d="M302 -12Q215 -12 152 32T55 155T21 343Q21 451 55 531T152 654T302 698Q390 698 452 655T549 531T583 343Q583 235 549 156T453 32T302 -12ZM302 35Q375 35 427 73T508 180T537 343Q537
437 509 506T428 613T302 651Q229 651 177 613T96 506T67 343Q67 250 95 181T176 73T302 35ZM177 148V550H328Q379 550 410 519T441 435Q441 395 424 365T383 324L466 148H406L332 303H234V148H177ZM234 356H310Q348 356 365 375T382 428Q382 461 365 479T310 497H234V356Z"
/>
<glyph unicode="&#xaf;" glyph-name="overscore" horiz-adv-x="0" d="M47 599L57 671H307L297 599H47Z" />
<glyph unicode="&#xb0;" glyph-name="degree" horiz-adv-x="400" d="M210 428Q173 428 142 446T93 495T75 563Q75 601 93 631T142 680T210 698Q248 698 278 680T327 632T345 563Q345 526 327 495T279 446T210 428ZM210 481Q244 481 267 505T291 563Q291 597 268
620T210 644Q176 644 152 621T128 563Q128 529 152 505T210 481Z" />
<glyph unicode="&#xb1;" glyph-name="plusminus" horiz-adv-x="549" d="M209 127L234 310H80L92 394H246L272 578H355L329 394H484L472 310H317L292 127H209ZM37 0L49 83H441L429 0H37Z" />
<glyph unicode="&#xb2;" glyph-name="uni00B2" horiz-adv-x="273" d="M58 435L60 451Q66 497 98 531T165 596Q195 623 218 648T242 701Q242 715 234 727T205 740Q186 740 173 724T157 682L154 653H91Q91 653 91 656T90 666Q90 726 124 762T210 799Q252 799 279
779T306 712Q306 675 292 647T255 597T210 556Q191 540 174 524T149 491H280L272 435H58Z" />
<glyph unicode="&#xb3;" glyph-name="uni00B3" horiz-adv-x="273" d="M162 428Q107 428 81 454T64 536L66 547H130L128 534Q124 512 135 499T166 485Q194 485 209 502T224 549Q224 572 211 581T180 591H155L162 644H188Q209 644 225 663T241 709Q241 728 230 735T205
742Q187 742 174 730T157 697L154 677H91L94 702Q99 746 132 772T212 799Q254 799 279 780T305 721Q305 683 288 659T249 621Q267 610 277 591T287 549Q287 497 252 463T162 428Z" />
<glyph unicode="&#xb4;" glyph-name="acute" horiz-adv-x="0" d="M46 591L150 723H240L241 720L115 591H46Z" />
<glyph unicode="&#xb5;" glyph-name="uni00B5" horiz-adv-x="456" d="M0 -173L98 526H180L127 135Q122 94 139 78T186 61Q236 61 268 109T311 233L352 526H434L360 0H298L296 77Q286 50 263 30T212 -2T156 -13Q132 -13 111 -4T78 26L96 44Q99 12 97 -25T91 -99T82
-173H0Z" />
<glyph unicode="&#xb6;" glyph-name="paragraph" horiz-adv-x="440" d="M126 -173L186 250Q122 258 83 308T44 431Q44 510 76 567T160 655T270 686H479L470 625H422L310 -173H244L356 625H303L191 -173H126Z" />
<glyph unicode="&#xb7;" glyph-name="middot" horiz-adv-x="228" d="M72 288L87 399H188L173 288H72Z" />
<glyph unicode="&#xb8;" glyph-name="cedilla" horiz-adv-x="0" d="M21 -182Q-24 -182 -61 -174L-55 -125H21Q41 -125 51 -118T61 -96Q61 -77 30 -77H-3L24 11H79L65 -36Q138 -42 138 -91Q138 -134 108 -158T21 -182Z" />
<glyph unicode="&#xb9;" glyph-name="uni00B9" horiz-adv-x="273" d="M68 435L76 491H147L178 709H106L111 747Q135 750 167 760T225 786H255L213 491H280L272 435H68Z" />
<glyph unicode="&#xba;" glyph-name="ordmasculine" horiz-adv-x="299" d="M171 361Q116 361 87 392T58 488Q58 525 64 567T87 648T134 710T210 735Q265 735 294 704T323 606Q323 570 317 528T294 447T248 385T171 361ZM171 415Q195 415 211 430T236 468T251 518T258
568T260 606Q260 681 210 681Q186 681 170 667T145 629T130 581T123 533T121 496Q121 415 171 415Z" />
<glyph unicode="&#xbb;" glyph-name="guillemotright" horiz-adv-x="456" d="M173 126L315 326L230 526H301L414 326L246 126H173ZM22 126L163 326L79 526H149L263 326L94 126H22Z" />
<glyph unicode="&#xbc;" glyph-name="onequarter" horiz-adv-x="683" d="M310 591L318 647H389L420 865H348L353 903Q377 906 409 916T467 942H497L455 647H522L514 591H310ZM64 -12L578 698H640L127 -12H64ZM535 0L546 79H409L416 128Q454 178 483 237T535 365H606Q590
321 568 277T523 196T485 139H554L563 199Q574 219 586 250T608 306H642L618 139H652L644 79H610L599 0H535Z" />
<glyph unicode="&#xbd;" glyph-name="onehalf" horiz-adv-x="683" d="M310 591L318 647H389L420 865H348L353 903Q377 906 409 916T467 942H497L455 647H522L514 591H310ZM64 -12L578 698H640L127 -12H64ZM407 0L409 16Q415 62 447 96T514 161Q544 188 567 213T591
266Q591 280 583 292T554 305Q535 305 522 289T506 247L503 218H440Q440 218 440 221T439 231Q439 291 473 327T559 364Q601 364 628 344T655 277Q655 240 641 212T604 162T559 121Q540 105 523 89T498 56H629L621 0H407Z" />
<glyph unicode="&#xbe;" glyph-name="threequarters" horiz-adv-x="683" d="M404 584Q349 584 323 610T306 692L308 703H372L370 690Q366 668 377 655T408 641Q436 641 451 658T466 705Q466 728 453 737T422 747H397L404 800H430Q451 800 467 819T483 865Q483
884 472 891T447 898Q429 898 416 886T399 853L396 833H333L336 858Q341 902 374 928T454 955Q496 955 521 936T547 877Q547 839 530 815T491 777Q509 766 519 747T529 705Q529 653 494 619T404 584ZM64 -12L578 698H640L127 -12H64ZM535 0L546 79H409L416 128Q454
178 483 237T535 365H606Q590 321 568 277T523 196T485 139H554L563 199Q574 219 586 250T608 306H642L618 139H652L644 79H610L599 0H535Z" />
<glyph unicode="&#xbf;" glyph-name="questiondown" horiz-adv-x="501" d="M235 -172Q163 -172 119 -131T75 -22Q75 38 91 78T131 146T180 197T225 245T249 305L255 346H342L334 290Q328 248 310 220T268 169T221 124T183 71T168 -6Q168 -24 173 -44T195 -80T243
-95Q277 -95 298 -80T332 -41T351 6T358 47T360 67H449Q448 4 423 -50T351 -138T235 -172ZM259 418L275 526H375L359 418H259Z" />
<glyph unicode="&#xc0;" glyph-name="Agrave" horiz-adv-x="547" d="M-37 0L277 686H390L511 0H420L394 153H119L50 0H-37ZM155 233H381L330 538Q328 550 327 568T326 600T325 614H321Q321 614 316 600T305 567T293 538L155 233ZM325 751L231 850L232 853H322L394
751H325Z" />
<glyph unicode="&#xc1;" glyph-name="Aacute" horiz-adv-x="547" d="M-37 0L277 686H390L511 0H420L394 153H119L50 0H-37ZM155 233H381L330 538Q328 550 327 568T326 600T325 614H321Q321 614 316 600T305 567T293 538L155 233ZM273 751L363 853H463L464 850L352
751H273Z" />
<glyph unicode="&#xc2;" glyph-name="Acircumflex" horiz-adv-x="547" d="M-37 0L277 686H390L511 0H420L394 153H119L50 0H-37ZM155 233H381L330 538Q328 550 327 568T326 600T325 614H321Q321 614 316 600T305 567T293 538L155 233ZM216 747L316 852H394L465
747H386L349 796L297 747H216Z" />
<glyph unicode="&#xc3;" glyph-name="Atilde" horiz-adv-x="547" d="M-37 0L277 686H390L511 0H420L394 153H119L50 0H-37ZM155 233H381L330 538Q328 550 327 568T326 600T325 614H321Q321 614 316 600T305 567T293 538L155 233ZM209 754Q212 775 221 797T249
833T300 848Q325 848 340 841T369 827T400 820Q412 820 421 826T435 848H487Q484 827 475 805T448 769T396 754Q372 754 356 761T327 775T296 782Q284 782 275 776T261 754H209Z" />
<glyph unicode="&#xc4;" glyph-name="Adieresis" horiz-adv-x="547" d="M-37 0L277 686H390L511 0H420L394 153H119L50 0H-37ZM155 233H381L330 538Q328 550 327 568T326 600T325 614H321Q321 614 316 600T305 567T293 538L155 233ZM377 788L391 883H478L464 788H377ZM227
788L241 883H328L314 788H227Z" />
<glyph unicode="&#xc5;" glyph-name="Aring" horiz-adv-x="547" d="M-37 0L277 686H390L511 0H420L394 153H119L50 0H-37ZM155 233H381L330 538Q328 550 327 568T326 600T325 614H321Q321 614 316 600T305 567T293 538L155 233ZM338 722Q302 722 278 746T254 805Q254
852 285 883T364 914Q400 914 424 891T448 832Q448 785 417 754T338 722ZM345 772Q368 772 383 787T398 825Q398 842 386 853T357 864Q335 864 320 850T305 814Q305 796 316 784T345 772Z" />
<glyph unicode="&#xc6;" glyph-name="AE" horiz-adv-x="820" d="M-43 0L331 686H830L818 606H451L469 391H744L733 311H475L495 80H751L739 0H410L397 153H128L49 0H-43ZM170 233H391L367 526Q366 538 365 556T364 588T363 602H359Q359 602 353 588T338 556T323
526L170 233Z" />
<glyph unicode="&#xc7;" glyph-name="Ccedilla" horiz-adv-x="592" d="M285 -12Q178 -12 115 49T51 241Q51 295 60 357T89 479T144 589T230 668T353 698Q460 698 515 638T570 453V437H479V459Q479 537 448 577T352 617Q305 617 271 595T214 538T176 460T154 375T144
299T141 246Q141 161 177 116T282 70Q333 70 369 94T426 157T454 242H541Q532 174 501 116T415 23T285 -12ZM235 -182Q190 -182 153 -174L159 -125H235Q275 -125 275 -96Q275 -86 268 -82T244 -77H211L238 11H293L279 -36Q352 -42 352 -91Q352 -134 322 -158T235
-182Z" />
<glyph unicode="&#xc8;" glyph-name="Egrave" horiz-adv-x="547" d="M34 0L131 686H554L542 606H207L177 391H468L457 311H166L134 80H475L463 0H34ZM335 751L241 850L242 853H332L404 751H335Z" />
<glyph unicode="&#xc9;" glyph-name="Eacute" horiz-adv-x="547" d="M34 0L131 686H554L542 606H207L177 391H468L457 311H166L134 80H475L463 0H34ZM283 751L373 853H473L474 850L362 751H283Z" />
<glyph unicode="&#xca;" glyph-name="Ecircumflex" horiz-adv-x="547" d="M34 0L131 686H554L542 606H207L177 391H468L457 311H166L134 80H475L463 0H34ZM226 747L326 852H404L475 747H396L359 796L307 747H226Z" />
<glyph unicode="&#xcb;" glyph-name="Edieresis" horiz-adv-x="547" d="M34 0L131 686H554L542 606H207L177 391H468L457 311H166L134 80H475L463 0H34ZM387 788L401 883H488L474 788H387ZM237 788L251 883H338L324 788H237Z" />
<glyph unicode="&#xcc;" glyph-name="Igrave" horiz-adv-x="228" d="M34 0L131 686H219L122 0H34ZM169 751L75 850L76 853H166L238 751H169Z" />
<glyph unicode="&#xcd;" glyph-name="Iacute" horiz-adv-x="228" d="M34 0L131 686H219L122 0H34ZM117 751L207 853H307L308 850L196 751H117Z" />
<glyph unicode="&#xce;" glyph-name="Icircumflex" horiz-adv-x="228" d="M34 0L131 686H219L122 0H34ZM60 747L160 852H238L309 747H230L193 796L141 747H60Z" />
<glyph unicode="&#xcf;" glyph-name="Idieresis" horiz-adv-x="228" d="M34 0L131 686H219L122 0H34ZM221 788L235 883H322L308 788H221ZM71 788L85 883H172L158 788H71Z" />
<glyph unicode="&#xd0;" glyph-name="Eth" horiz-adv-x="592" d="M34 0L79 323H14L23 387H88L131 686H334Q443 686 503 622T563 429Q563 376 553 317T521 201T465 100T381 27T265 0H34ZM134 80H255Q307 80 344 102T406 162T445 245T466 338T472 428Q472 518 433
562T324 606H207L176 387H333L324 323H167L134 80Z" />
<glyph unicode="&#xd1;" glyph-name="Ntilde" horiz-adv-x="592" d="M33 0L130 686H202L397 255Q403 242 410 220T423 181T429 163L432 164Q432 164 434 182T438 222T442 255L503 686H582L485 0H416L219 437Q213 452 205 473T192 512T186 529L183 528Q183 528
182 511T178 473T174 437L112 0H33ZM233 754Q236 775 245 797T273 833T324 848Q349 848 364 841T393 827T424 820Q436 820 445 826T459 848H511Q508 827 499 805T472 769T420 754Q396 754 380 761T351 775T320 782Q308 782 299 776T285 754H233Z" />
<glyph unicode="&#xd2;" glyph-name="Ograve" horiz-adv-x="638" d="M290 -12Q178 -12 116 52T53 247Q53 304 63 366T95 488T153 594T243 670T369 698Q482 698 544 633T607 437Q607 380 597 318T565 197T506 91T416 16T290 -12ZM291 69Q345 69 384 92T448 156T489
244T510 343T516 437Q516 527 477 572T368 617Q314 617 276 594T211 531T171 443T150 344T143 249Q143 158 182 114T291 69ZM374 751L280 850L281 853H371L443 751H374Z" />
<glyph unicode="&#xd3;" glyph-name="Oacute" horiz-adv-x="638" d="M290 -12Q178 -12 116 52T53 247Q53 304 63 366T95 488T153 594T243 670T369 698Q482 698 544 633T607 437Q607 380 597 318T565 197T506 91T416 16T290 -12ZM291 69Q345 69 384 92T448 156T489
244T510 343T516 437Q516 527 477 572T368 617Q314 617 276 594T211 531T171 443T150 344T143 249Q143 158 182 114T291 69ZM322 751L412 853H512L513 850L401 751H322Z" />
<glyph unicode="&#xd4;" glyph-name="Ocircumflex" horiz-adv-x="638" d="M290 -12Q178 -12 116 52T53 247Q53 304 63 366T95 488T153 594T243 670T369 698Q482 698 544 633T607 437Q607 380 597 318T565 197T506 91T416 16T290 -12ZM291 69Q345 69 384 92T448
156T489 244T510 343T516 437Q516 527 477 572T368 617Q314 617 276 594T211 531T171 443T150 344T143 249Q143 158 182 114T291 69ZM265 747L365 852H443L514 747H435L398 796L346 747H265Z" />
<glyph unicode="&#xd5;" glyph-name="Otilde" horiz-adv-x="638" d="M290 -12Q178 -12 116 52T53 247Q53 304 63 366T95 488T153 594T243 670T369 698Q482 698 544 633T607 437Q607 380 597 318T565 197T506 91T416 16T290 -12ZM291 69Q345 69 384 92T448 156T489
244T510 343T516 437Q516 527 477 572T368 617Q314 617 276 594T211 531T171 443T150 344T143 249Q143 158 182 114T291 69ZM258 754Q261 775 270 797T298 833T349 848Q374 848 389 841T418 827T449 820Q461 820 470 826T484 848H536Q533 827 524 805T497 769T445
754Q421 754 405 761T376 775T345 782Q333 782 324 776T310 754H258Z" />
<glyph unicode="&#xd6;" glyph-name="Odieresis" horiz-adv-x="638" d="M290 -12Q178 -12 116 52T53 247Q53 304 63 366T95 488T153 594T243 670T369 698Q482 698 544 633T607 437Q607 380 597 318T565 197T506 91T416 16T290 -12ZM291 69Q345 69 384 92T448 156T489
244T510 343T516 437Q516 527 477 572T368 617Q314 617 276 594T211 531T171 443T150 344T143 249Q143 158 182 114T291 69ZM426 788L440 883H527L513 788H426ZM276 788L290 883H377L363 788H276Z" />
<glyph unicode="&#xd7;" glyph-name="multiply" horiz-adv-x="479" d="M63 45L16 104L190 255L59 407L122 466L255 314L429 466L476 407L301 255L433 104L370 45L238 195L63 45Z" />
<glyph unicode="&#xd8;" glyph-name="Oslash" horiz-adv-x="638" d="M50 -37L541 723H605L114 -37H50ZM290 -12Q178 -12 116 52T53 247Q53 304 63 366T95 488T153 594T243 670T369 698Q482 698 544 633T607 437Q607 380 597 318T565 197T506 91T416 16T290 -12ZM291
69Q345 69 384 92T448 156T489 244T510 343T516 437Q516 527 477 572T368 617Q314 617 276 594T211 531T171 443T150 344T143 249Q143 158 182 114T291 69Z" />
<glyph unicode="&#xd9;" glyph-name="Ugrave" horiz-adv-x="592" d="M264 -12Q166 -12 112 35T57 173Q57 183 61 215T71 294T84 394T99 498T113 592T123 660T127 686H215Q215 686 212 660T202 591T188 496T174 392T160 294T150 220T146 185Q146 128 177 99T266
69Q331 69 373 107T425 218L491 686H579L513 223Q497 108 432 48T264 -12ZM346 751L252 850L253 853H343L415 751H346Z" />
<glyph unicode="&#xda;" glyph-name="Uacute" horiz-adv-x="592" d="M264 -12Q166 -12 112 35T57 173Q57 183 61 215T71 294T84 394T99 498T113 592T123 660T127 686H215Q215 686 212 660T202 591T188 496T174 392T160 294T150 220T146 185Q146 128 177 99T266
69Q331 69 373 107T425 218L491 686H579L513 223Q497 108 432 48T264 -12ZM294 751L384 853H484L485 850L373 751H294Z" />
<glyph unicode="&#xdb;" glyph-name="Ucircumflex" horiz-adv-x="592" d="M264 -12Q166 -12 112 35T57 173Q57 183 61 215T71 294T84 394T99 498T113 592T123 660T127 686H215Q215 686 212 660T202 591T188 496T174 392T160 294T150 220T146 185Q146 128 177 99T266
69Q331 69 373 107T425 218L491 686H579L513 223Q497 108 432 48T264 -12ZM237 747L337 852H415L486 747H407L370 796L318 747H237Z" />
<glyph unicode="&#xdc;" glyph-name="Udieresis" horiz-adv-x="592" d="M264 -12Q166 -12 112 35T57 173Q57 183 61 215T71 294T84 394T99 498T113 592T123 660T127 686H215Q215 686 212 660T202 591T188 496T174 392T160 294T150 220T146 185Q146 128 177 99T266
69Q331 69 373 107T425 218L491 686H579L513 223Q497 108 432 48T264 -12ZM398 788L412 883H499L485 788H398ZM248 788L262 883H349L335 788H248Z" />
<glyph unicode="&#xdd;" glyph-name="Yacute" horiz-adv-x="547" d="M195 0L235 284L70 686H166L291 368H295L509 686H601L323 284L283 0H195ZM280 751L370 853H470L471 850L359 751H280Z" />
<glyph unicode="&#xde;" glyph-name="Thorn" horiz-adv-x="547" d="M34 0L131 686H219L200 551H347Q442 551 489 504T536 380Q536 308 506 256T423 175T300 146H143L122 0H34ZM154 226H309Q366 226 404 263T443 364Q443 414 418 442T342 471H189L154 226Z" />
<glyph unicode="&#xdf;" glyph-name="germandbls" horiz-adv-x="501" d="M18 0L89 516Q100 594 132 642T212 713T314 735Q392 735 440 695T488 580Q488 542 473 504T432 437T369 395V391Q411 375 436 333T462 240Q462 195 445 153T398 76T328 21T240 0H155L165
74H232Q269 74 302 96T356 155T377 235Q377 284 348 317T271 350H204L214 423H273Q309 423 338 443T385 497T403 569Q403 612 380 637T309 662Q256 662 219 626T172 518L99 0H18Z" />
<glyph unicode="&#xe0;" glyph-name="agrave" horiz-adv-x="456" d="M166 -12Q108 -12 71 35T33 183Q33 304 63 382T140 499T236 538Q272 538 301 520T345 453L363 526H428Q428 526 425 503T416 442T405 358T391 266T379 181T371 117T367 89Q367 74 374 68T391
61H423L415 4Q408 -1 394 -6T359 -12Q328 -12 308 7T287 71Q259 28 230 8T166 -12ZM191 61Q220 61 241 83T276 140T300 215T313 291T317 352Q317 408 300 436T248 465Q216 465 193 444T156 388T133 315T121 238T117 175Q117 118 135 90T191 61ZM258 591L168 720L169
723H259L327 591H258Z" />
<glyph unicode="&#xe1;" glyph-name="aacute" horiz-adv-x="456" d="M166 -12Q108 -12 71 35T33 183Q33 304 63 382T140 499T236 538Q272 538 301 520T345 453L363 526H428Q428 526 425 503T416 442T405 358T391 266T379 181T371 117T367 89Q367 74 374 68T391
61H423L415 4Q408 -1 394 -6T359 -12Q328 -12 308 7T287 71Q259 28 230 8T166 -12ZM191 61Q220 61 241 83T276 140T300 215T313 291T317 352Q317 408 300 436T248 465Q216 465 193 444T156 388T133 315T121 238T117 175Q117 118 135 90T191 61ZM216 591L320 723H410L411
720L285 591H216Z" />
<glyph unicode="&#xe2;" glyph-name="acircumflex" horiz-adv-x="456" d="M166 -12Q108 -12 71 35T33 183Q33 304 63 382T140 499T236 538Q272 538 301 520T345 453L363 526H428Q428 526 425 503T416 442T405 358T391 266T379 181T371 117T367 89Q367 74 374 68T391
61H423L415 4Q408 -1 394 -6T359 -12Q328 -12 308 7T287 71Q259 28 230 8T166 -12ZM191 61Q220 61 241 83T276 140T300 215T313 291T317 352Q317 408 300 436T248 465Q216 465 193 444T156 388T133 315T121 238T117 175Q117 118 135 90T191 61ZM149 587L253 722H331L398
587H320L287 666L231 587H149Z" />
<glyph unicode="&#xe3;" glyph-name="atilde" horiz-adv-x="456" d="M166 -12Q108 -12 71 35T33 183Q33 304 63 382T140 499T236 538Q272 538 301 520T345 453L363 526H428Q428 526 425 503T416 442T405 358T391 266T379 181T371 117T367 89Q367 74 374 68T391
61H423L415 4Q408 -1 394 -6T359 -12Q328 -12 308 7T287 71Q259 28 230 8T166 -12ZM191 61Q220 61 241 83T276 140T300 215T313 291T317 352Q317 408 300 436T248 465Q216 465 193 444T156 388T133 315T121 238T117 175Q117 118 135 90T191 61ZM133 619Q137 643
149 667T182 707T233 723Q260 723 277 716T309 700T343 692Q357 692 367 699T382 723H440Q437 700 425 676T391 636T340 619Q314 619 297 627T264 642T229 650Q216 650 206 643T191 619H133Z" />
<glyph unicode="&#xe4;" glyph-name="adieresis" horiz-adv-x="456" d="M166 -12Q108 -12 71 35T33 183Q33 304 63 382T140 499T236 538Q272 538 301 520T345 453L363 526H428Q428 526 425 503T416 442T405 358T391 266T379 181T371 117T367 89Q367 74 374 68T391
61H423L415 4Q408 -1 394 -6T359 -12Q328 -12 308 7T287 71Q259 28 230 8T166 -12ZM191 61Q220 61 241 83T276 140T300 215T313 291T317 352Q317 408 300 436T248 465Q216 465 193 444T156 388T133 315T121 238T117 175Q117 118 135 90T191 61ZM310 628L324 723H411L397
628H310ZM160 628L174 723H261L247 628H160Z" />
<glyph unicode="&#xe5;" glyph-name="aring" horiz-adv-x="456" d="M166 -12Q108 -12 71 35T33 183Q33 304 63 382T140 499T236 538Q272 538 301 520T345 453L363 526H428Q428 526 425 503T416 442T405 358T391 266T379 181T371 117T367 89Q367 74 374 68T391
61H423L415 4Q408 -1 394 -6T359 -12Q328 -12 308 7T287 71Q259 28 230 8T166 -12ZM191 61Q220 61 241 83T276 140T300 215T313 291T317 352Q317 408 300 436T248 465Q216 465 193 444T156 388T133 315T121 238T117 175Q117 118 135 90T191 61ZM270 562Q235 562
211 586T187 645Q187 692 218 723T297 754Q333 754 357 731T381 672Q381 625 349 594T270 562ZM277 607Q302 607 318 624T335 666Q335 685 323 697T291 709Q266 709 249 693T232 652Q232 633 245 620T277 607Z" />
<glyph unicode="&#xe6;" glyph-name="ae" horiz-adv-x="729" d="M166 -12Q136 -12 104 -3T49 32T26 113Q26 175 49 214T112 274T206 304T319 312L329 380Q330 386 330 392T331 403Q331 431 316 448T258 465Q212 465 190 437T164 370H83Q83 422 107 459T174 517T269
538Q317 538 348 524T396 482Q421 508 454 523T531 538Q610 538 651 492T693 349Q693 324 692 296T685 239H396Q395 223 394 210T393 186Q393 123 414 92T478 61Q522 61 552 96T589 178H672Q664 127 640 84T575 15T478 -12Q368 -12 328 70Q299 32 255 10T166 -12ZM175
61Q201 61 228 74T275 115T301 183L309 239Q252 239 208 231T138 200T113 129Q113 92 129 77T175 61ZM406 312H607Q608 322 608 331T608 348Q608 406 589 435T531 465Q495 465 470 443T430 385T406 312Z" />
<glyph unicode="&#xe7;" glyph-name="ccedilla" horiz-adv-x="410" d="M192 -12Q118 -12 75 34T31 179Q31 237 40 300T71 417T135 504T240 538Q314 538 352 492T390 349V331H305V348Q305 406 289 435T240 465Q207 465 185 442T149 383T128 308T119 236T116 186Q116
127 135 94T190 61Q218 61 239 79T274 128T292 192H374Q368 139 345 92T284 17T192 -12ZM145 -182Q100 -182 63 -174L69 -125H145Q165 -125 175 -118T185 -96Q185 -77 154 -77H121L148 11H203L189 -36Q262 -42 262 -91Q262 -134 232 -158T145 -182Z" />
<glyph unicode="&#xe8;" glyph-name="egrave" horiz-adv-x="456" d="M205 -12Q124 -12 80 34T35 179Q35 224 41 273T61 370T101 455T164 515T258 538Q337 538 378 492T420 349Q420 324 419 296T412 239H123Q122 223 121 210T120 186Q120 123 141 92T205 61Q249
61 279 96T316 178H399Q391 127 367 84T302 15T205 -12ZM133 312H334Q335 322 335 331T335 348Q335 406 316 435T258 465Q222 465 197 443T157 385T133 312ZM259 591L169 720L170 723H260L328 591H259Z" />
<glyph unicode="&#xe9;" glyph-name="eacute" horiz-adv-x="456" d="M205 -12Q124 -12 80 34T35 179Q35 224 41 273T61 370T101 455T164 515T258 538Q337 538 378 492T420 349Q420 324 419 296T412 239H123Q122 223 121 210T120 186Q120 123 141 92T205 61Q249
61 279 96T316 178H399Q391 127 367 84T302 15T205 -12ZM133 312H334Q335 322 335 331T335 348Q335 406 316 435T258 465Q222 465 197 443T157 385T133 312ZM217 591L321 723H411L412 720L286 591H217Z" />
<glyph unicode="&#xea;" glyph-name="ecircumflex" horiz-adv-x="456" d="M205 -12Q124 -12 80 34T35 179Q35 224 41 273T61 370T101 455T164 515T258 538Q337 538 378 492T420 349Q420 324 419 296T412 239H123Q122 223 121 210T120 186Q120 123 141 92T205 61Q249
61 279 96T316 178H399Q391 127 367 84T302 15T205 -12ZM133 312H334Q335 322 335 331T335 348Q335 406 316 435T258 465Q222 465 197 443T157 385T133 312ZM150 587L254 722H332L399 587H321L288 666L232 587H150Z" />
<glyph unicode="&#xeb;" glyph-name="edieresis" horiz-adv-x="456" d="M205 -12Q124 -12 80 34T35 179Q35 224 41 273T61 370T101 455T164 515T258 538Q337 538 378 492T420 349Q420 324 419 296T412 239H123Q122 223 121 210T120 186Q120 123 141 92T205 61Q249
61 279 96T316 178H399Q391 127 367 84T302 15T205 -12ZM133 312H334Q335 322 335 331T335 348Q335 406 316 435T258 465Q222 465 197 443T157 385T133 312ZM311 628L325 723H412L398 628H311ZM161 628L175 723H262L248 628H161Z" />
<glyph unicode="&#xec;" glyph-name="igrave" horiz-adv-x="228" d="M38 0L111 526H193L119 0H38ZM401 591L311 720L312 723H402L470 591H401Z" />
<glyph unicode="&#xed;" glyph-name="iacute" horiz-adv-x="228" d="M38 0L111 526H193L119 0H38ZM103 591L207 723H297L298 720L172 591H103Z" />
<glyph unicode="&#xee;" glyph-name="icircumflex" horiz-adv-x="228" d="M38 0L111 526H193L119 0H38ZM292 587L396 722H474L541 587H463L430 666L374 587H292Z" />
<glyph unicode="&#xef;" glyph-name="idieresis" horiz-adv-x="228" d="M38 0L111 526H193L119 0H38ZM453 628L467 723H554L540 628H453ZM303 628L317 723H404L390 628H303Z" />
<glyph unicode="&#xf0;" glyph-name="eth" horiz-adv-x="456" d="M202 -12Q120 -12 78 34T35 177Q35 305 66 384T147 501T248 538Q265 538 279 535T306 526V527Q298 549 287 569T262 610L143 600L151 660L223 666Q214 679 205 692T184 719L186 723H274Q284 711
294 699T312 674L431 685L422 625L350 618Q385 561 404 495T424 351Q424 226 395 146T316 27T202 -12ZM201 61Q238 61 262 83T302 141T325 216T336 291T339 348Q339 406 319 435T258 465Q222 465 197 443T157 387T134 314T123 241T120 186Q120 123 139 92T201 61Z"
/>
<glyph unicode="&#xf1;" glyph-name="ntilde" horiz-adv-x="456" d="M22 0L96 526H160V448Q168 463 184 484T229 521T300 538Q344 538 368 521T403 477T414 420Q414 412 410 379T400 298T386 198T373 101T362 28T358 0H276Q276 0 280 27T290 96T303 188T316 283T326
361T330 401Q330 435 315 450T270 465Q220 465 188 418T145 294L104 0H22ZM129 619Q133 643 145 667T178 707T229 723Q256 723 273 716T305 700T339 692Q353 692 363 699T378 723H436Q433 700 421 676T387 636T336 619Q310 619 293 627T260 642T225 650Q212 650
202 643T187 619H129Z" />
<glyph unicode="&#xf2;" glyph-name="ograve" horiz-adv-x="456" d="M199 -12Q118 -12 76 33T33 175Q33 218 39 267T59 365T99 452T162 514T256 538Q337 538 379 492T422 349Q422 306 416 257T396 160T356 74T293 12T199 -12ZM199 61Q236 61 260 83T300 141T323
216T334 291T337 348Q337 406 317 435T256 465Q220 465 195 443T155 387T132 314T121 241T118 186Q118 123 137 92T199 61ZM258 591L168 720L169 723H259L327 591H258Z" />
<glyph unicode="&#xf3;" glyph-name="oacute" horiz-adv-x="456" d="M199 -12Q118 -12 76 33T33 175Q33 218 39 267T59 365T99 452T162 514T256 538Q337 538 379 492T422 349Q422 306 416 257T396 160T356 74T293 12T199 -12ZM199 61Q236 61 260 83T300 141T323
216T334 291T337 348Q337 406 317 435T256 465Q220 465 195 443T155 387T132 314T121 241T118 186Q118 123 137 92T199 61ZM216 591L320 723H410L411 720L285 591H216Z" />
<glyph unicode="&#xf4;" glyph-name="ocircumflex" horiz-adv-x="456" d="M199 -12Q118 -12 76 33T33 175Q33 218 39 267T59 365T99 452T162 514T256 538Q337 538 379 492T422 349Q422 306 416 257T396 160T356 74T293 12T199 -12ZM199 61Q236 61 260 83T300 141T323
216T334 291T337 348Q337 406 317 435T256 465Q220 465 195 443T155 387T132 314T121 241T118 186Q118 123 137 92T199 61ZM149 587L253 722H331L398 587H320L287 666L231 587H149Z" />
<glyph unicode="&#xf5;" glyph-name="otilde" horiz-adv-x="456" d="M199 -12Q118 -12 76 33T33 175Q33 218 39 267T59 365T99 452T162 514T256 538Q337 538 379 492T422 349Q422 306 416 257T396 160T356 74T293 12T199 -12ZM199 61Q236 61 260 83T300 141T323
216T334 291T337 348Q337 406 317 435T256 465Q220 465 195 443T155 387T132 314T121 241T118 186Q118 123 137 92T199 61ZM133 619Q137 643 149 667T182 707T233 723Q260 723 277 716T309 700T343 692Q357 692 367 699T382 723H440Q437 700 425 676T391 636T340
619Q314 619 297 627T264 642T229 650Q216 650 206 643T191 619H133Z" />
<glyph unicode="&#xf6;" glyph-name="odieresis" horiz-adv-x="456" d="M199 -12Q118 -12 76 33T33 175Q33 218 39 267T59 365T99 452T162 514T256 538Q337 538 379 492T422 349Q422 306 416 257T396 160T356 74T293 12T199 -12ZM199 61Q236 61 260 83T300 141T323
216T334 291T337 348Q337 406 317 435T256 465Q220 465 195 443T155 387T132 314T121 241T118 186Q118 123 137 92T199 61ZM310 628L324 723H411L397 628H310ZM160 628L174 723H261L247 628H160Z" />
<glyph unicode="&#xf7;" glyph-name="divide" horiz-adv-x="549" d="M37 213L48 297H510L499 213H37ZM203 51L215 141H299L287 51H203ZM247 369L260 460H344L331 369H247Z" />
<glyph unicode="&#xf8;" glyph-name="oslash" horiz-adv-x="456" d="M199 -12Q118 -12 76 33T33 175Q33 218 39 267T59 365T99 452T162 514T256 538Q337 538 379 492T422 349Q422 306 416 257T396 160T356 74T293 12T199 -12ZM199 61Q236 61 260 83T300 141T323
216T334 291T337 348Q337 406 317 435T256 465Q220 465 195 443T155 387T132 314T121 241T118 186Q118 123 137 92T199 61ZM33 -32L367 558H422L88 -32H33Z" />
<glyph unicode="&#xf9;" glyph-name="ugrave" horiz-adv-x="456" d="M156 -12Q113 -12 88 5T53 49T42 106Q42 114 46 147T56 228T70 328T83 425T94 498T98 526H180Q180 526 176 499T166 430T153 338T140 243T130 165T126 125Q126 91 141 76T186 61Q236 61 268
108T311 232L352 526H434L360 0H296V77Q289 62 272 41T227 4T156 -12ZM258 591L168 720L169 723H259L327 591H258Z" />
<glyph unicode="&#xfa;" glyph-name="uacute" horiz-adv-x="456" d="M156 -12Q113 -12 88 5T53 49T42 106Q42 114 46 147T56 228T70 328T83 425T94 498T98 526H180Q180 526 176 499T166 430T153 338T140 243T130 165T126 125Q126 91 141 76T186 61Q236 61 268
108T311 232L352 526H434L360 0H296V77Q289 62 272 41T227 4T156 -12ZM216 591L320 723H410L411 720L285 591H216Z" />
<glyph unicode="&#xfb;" glyph-name="ucircumflex" horiz-adv-x="456" d="M156 -12Q113 -12 88 5T53 49T42 106Q42 114 46 147T56 228T70 328T83 425T94 498T98 526H180Q180 526 176 499T166 430T153 338T140 243T130 165T126 125Q126 91 141 76T186 61Q236 61
268 108T311 232L352 526H434L360 0H296V77Q289 62 272 41T227 4T156 -12ZM149 587L253 722H331L398 587H320L287 666L231 587H149Z" />
<glyph unicode="&#xfc;" glyph-name="udieresis" horiz-adv-x="456" d="M156 -12Q113 -12 88 5T53 49T42 106Q42 114 46 147T56 228T70 328T83 425T94 498T98 526H180Q180 526 176 499T166 430T153 338T140 243T130 165T126 125Q126 91 141 76T186 61Q236 61 268
108T311 232L352 526H434L360 0H296V77Q289 62 272 41T227 4T156 -12ZM310 628L324 723H411L397 628H310ZM160 628L174 723H261L247 628H160Z" />
<glyph unicode="&#xfd;" glyph-name="yacute" horiz-adv-x="410" d="M35 -182Q18 -182 4 -180T-22 -174L-14 -117H14Q47 -117 79 -92T134 0L47 526H134L179 209Q181 196 183 183T186 158T190 132T194 106H198Q203 119 208 132T218 157T228 183T238 209L360 526H448L234
27Q210 -30 181 -77T117 -153T35 -182ZM198 591L302 723H392L393 720L267 591H198Z" />
<glyph unicode="&#xfe;" glyph-name="thorn" horiz-adv-x="456" d="M-1 -182L125 723H207L170 466Q195 503 225 520T290 538Q348 538 385 491T423 343Q423 223 393 144T316 27T220 -12Q187 -12 160 4T115 58L81 -182H-1ZM208 61Q240 61 263 82T300 138T323 211T335
288T339 351Q339 408 321 436T265 465Q234 465 212 443T174 386T151 311T139 235T135 174Q135 118 153 90T208 61Z" />
<glyph unicode="&#xff;" glyph-name="ydieresis" horiz-adv-x="410" d="M35 -182Q18 -182 4 -180T-22 -174L-14 -117H14Q47 -117 79 -92T134 0L47 526H134L179 209Q181 196 183 183T186 158T190 132T194 106H198Q203 119 208 132T218 157T228 183T238 209L360
526H448L234 27Q210 -30 181 -77T117 -153T35 -182ZM292 628L306 723H393L379 628H292ZM142 628L156 723H243L229 628H142Z" />
<glyph unicode="&#x2013;" glyph-name="endash" horiz-adv-x="456" d="M-5 233L5 308H460L449 233H-5Z" />
<glyph unicode="&#x2014;" glyph-name="emdash" horiz-adv-x="820" d="M-4 233L6 308H826L815 233H-4Z" />
<glyph unicode="&#x2018;" glyph-name="quoteleft" horiz-adv-x="182" d="M85 454L99 553L163 686H218L167 562H200L185 454H85Z" />
<glyph unicode="&#x2019;" glyph-name="quoteright" horiz-adv-x="182" d="M44 454L95 578H62L77 686H177L163 587L99 454H44Z" />
<glyph unicode="&#x201a;" glyph-name="quotesinglbase" horiz-adv-x="182" d="M18 -124L69 0H36L51 108H151L137 9L73 -124H18Z" />
<glyph unicode="&#x201c;" glyph-name="quotedblleft" horiz-adv-x="273" d="M189 454L203 553L267 686H322L271 562H304L289 454H189ZM54 454L68 553L132 686H187L136 562H169L154 454H54Z" />
<glyph unicode="&#x201d;" glyph-name="quotedblright" horiz-adv-x="273" d="M179 454L230 578H197L212 686H312L298 587L234 454H179ZM44 454L95 578H62L77 686H177L163 587L99 454H44Z" />
<glyph unicode="&#x201e;" glyph-name="quotedblbase" horiz-adv-x="273" d="M153 -124L204 0H171L186 108H286L272 9L208 -124H153ZM18 -124L69 0H36L51 108H151L137 9L73 -124H18Z" />
<glyph unicode="&#x2022;" glyph-name="bullet" horiz-adv-x="287" d="M143 232Q113 232 89 247T49 288T34 344Q34 375 49 400T88 440T143 455Q174 455 198 440T238 400T253 344Q253 314 238 289T199 248T143 232Z" />
<glyph unicode="&#x2039;" glyph-name="guilsinglleft" horiz-adv-x="273" d="M141 126L29 326L196 526H269L128 326L212 126H141Z" />
<glyph unicode="&#x203a;" glyph-name="guilsinglright" horiz-adv-x="273" d="M21 126L163 326L78 526H149L262 326L94 126H21Z" />
</font>
</defs>
</svg>
