<?xml version="1.0" standalone="no"?>
<!DOCTYPE svg PUBLIC "-//W3C//DTD SVG 1.1//EN" "http://www.w3.org/Graphics/SVG/1.1/DTD/svg11.dtd">
<svg xmlns="http://www.w3.org/2000/svg">
<defs >
<font id="ArchivoNarrow" horiz-adv-x="471" ><font-face
    font-family="Archivo Narrow SemiBold"
    units-per-em="1000"
    panose-1="0 0 0 0 0 0 0 0 0 0"
    ascent="1035"
    descent="-312"
    alphabetic="0" />
<glyph unicode=" " glyph-name="space" horiz-adv-x="228" />
<glyph unicode="!" glyph-name="exclam" horiz-adv-x="258" d="M86 188L125 686H264L161 188H86ZM35 0L54 127H179L160 0H35Z" />
<glyph unicode="&quot;" glyph-name="quotedbl" horiz-adv-x="355" d="M247 407L246 539L267 686H375L354 539L312 407H247ZM82 407L81 539L102 686H210L189 539L148 407H82Z" />
<glyph unicode="#" glyph-name="numbersign" horiz-adv-x="456" d="M41 0L84 190H20V271H102L134 417H59V498H152L197 697H281L236 498H316L361 697H445L400 498H462V417H382L350 271H422V190H332L289 0H205L248 190H168L125 0H41ZM186 271H266L298 417H218L186 271Z" />
<glyph unicode="$" glyph-name="dollar" horiz-adv-x="456" d="M162 -49L178 70Q114 79 75 116T35 212Q35 226 37 238T39 254H142Q142 251 140 242T138 227Q138 197 153 180T190 156L212 309Q182 324 152 341T103 386T83 459Q83 506 105 540T166 595T256 617L271
723H320L304 615Q354 608 383 584T424 525T437 452H334Q334 482 325 501T292 528L272 390Q307 376 339 359T393 314T414 239Q414 181 389 143T321 87T227 67L211 -49H162ZM239 151Q266 154 287 171T308 218Q308 243 294 258T258 287L239 151ZM227 412L244 532Q222
528 205 512T187 472Q187 451 198 437T227 412Z" />
<glyph unicode="%" glyph-name="percent" horiz-adv-x="729" d="M80 0L595 686H676L160 0H80ZM532 -12Q475 -12 442 15T409 111Q409 201 430 252T487 326T563 349Q621 349 653 322T686 225Q686 190 680 149T658 71T611 11T532 -12ZM532 56Q564 56 578 85T599 161Q603
185 603 198T604 221Q604 249 596 265T563 281Q531 281 517 252T496 176Q492 152 491 139T490 116Q490 89 499 73T532 56ZM193 337Q136 337 103 364T70 460Q70 550 91 601T148 675T224 698Q282 698 314 671T347 574Q347 539 341 498T319 420T272 360T193 337ZM193
405Q225 405 239 434T260 510Q264 534 264 547T265 570Q265 598 257 614T224 630Q192 630 178 601T157 525Q153 501 152 488T151 465Q151 438 160 422T193 405Z" />
<glyph unicode="&amp;" glyph-name="ampersand" horiz-adv-x="577" d="M391 0L201 360Q179 403 170 438T161 506Q161 559 182 602T244 672T342 698Q388 698 419 681T466 634T483 565Q483 514 458 467T389 385T285 333L258 418Q294 424 320 444T362 494T378 554Q378
579 366 593T333 607Q297 607 281 579T264 511Q264 482 271 452T294 400L510 0H391ZM197 -13Q142 -13 104 9T47 69T27 154Q27 208 50 259T117 351T224 409L253 322Q216 315 190 290T150 231T136 165Q136 127 154 103T210 79Q257 79 305 108T392 199T450 354H548Q527
260 489 191T401 76T299 9T197 -13Z" />
<glyph unicode="&apos;" glyph-name="quotesingle" horiz-adv-x="182" d="M82 407L81 539L102 686H210L189 539L148 407H82Z" />
<glyph unicode="(" glyph-name="parenleft" horiz-adv-x="273" d="M133 -157Q33 -8 33 186Q33 211 35 237T41 288Q58 411 114 527T258 735H329Q274 659 231 567T162 376T136 182Q136 90 155 2T204 -157H133Z" />
<glyph unicode=")" glyph-name="parenright" horiz-adv-x="273" d="M-47 -157Q7 -80 50 12T120 202T146 396Q146 488 128 576T78 735H148Q197 662 222 575T248 391Q248 367 246 341T240 289Q223 166 167 51T23 -157H-47Z" />
<glyph unicode="*" glyph-name="asterisk" horiz-adv-x="319" d="M146 394L169 492L81 434L53 499L148 540L65 582L111 645L184 588L187 686H262L239 589L327 645L356 582L260 540L344 499L298 434L225 492L221 394H146Z" />
<glyph unicode="+" glyph-name="plus" horiz-adv-x="479" d="M154 0L183 206H29L43 304H197L225 511H322L293 304H448L434 206H279L251 0H154Z" />
<glyph unicode="," glyph-name="comma" horiz-adv-x="228" d="M2 -145L68 0H23L40 127H165L150 11L68 -145H2Z" />
<glyph unicode="-" glyph-name="hyphen" horiz-adv-x="273" d="M10 214L25 326H270L254 214H10Z" />
<glyph unicode="." glyph-name="period" horiz-adv-x="228" d="M23 0L40 127H166L148 0H23Z" />
<glyph unicode="/" glyph-name="slash" horiz-adv-x="228" d="M-44 -49L213 735H293L36 -49H-44Z" />
<glyph unicode="0" glyph-name="zero" horiz-adv-x="456" d="M200 -12Q149 -12 112 7T55 71T35 197Q35 258 47 343Q66 483 98 560T175 667T279 698Q330 698 367 679T424 614T445 486Q445 456 442 421T433 343Q414 204 382 127T304 19T200 -12ZM203 79Q236 79 258
105T294 183T318 308Q326 367 330 402T336 459T338 497Q338 550 325 578T276 607Q243 607 221 581T185 503T161 378Q156 340 151 307T143 244T140 185Q140 134 154 107T203 79Z" />
<glyph unicode="1" glyph-name="one" horiz-adv-x="456" d="M0 0L12 91H168L231 540H74L83 610Q112 613 151 623T232 650T308 686H358L274 91H418L405 0H0Z" />
<glyph unicode="2" glyph-name="two" horiz-adv-x="456" d="M1 0L4 20Q12 71 34 113T88 194Q118 231 152 264T220 329T282 394T326 462T343 537Q343 562 330 583T280 604Q238 604 215 571T186 491L181 450H73Q73 516 97 572T170 663T289 698Q361 698 408 664T456
552Q456 495 436 447T384 355T315 274T241 203T178 138Q169 128 163 119T151 102H398L383 0H1Z" />
<glyph unicode="3" glyph-name="three" horiz-adv-x="456" d="M206 -12Q116 -12 70 32T24 153Q24 163 25 175T29 209H139Q136 188 135 178T134 161Q134 122 152 101T207 79Q235 79 258 94T295 140T309 221Q309 269 286 286T231 303H190L202 394H246Q269 394 291
409T327 456T341 533Q341 571 325 589T281 607Q246 607 222 579T189 485H79Q85 554 114 601T187 673T283 698Q361 698 407 659T453 544Q453 467 420 424T340 356V352Q375 338 397 306T420 220Q420 149 391 97T314 16T206 -12Z" />
<glyph unicode="4" glyph-name="four" horiz-adv-x="456" d="M234 0L257 160H6L18 248Q63 313 105 388T184 542T252 698H361Q337 630 302 561T230 428T160 319T111 251H269L291 405Q307 431 321 460T349 519T372 575H421L375 251H445L432 160H363L340 0H234Z" />
<glyph unicode="5" glyph-name="five" horiz-adv-x="456" d="M204 -12Q120 -12 73 35T25 167Q25 178 26 189T28 213H139Q136 194 136 177Q136 132 155 105T207 78Q234 78 259 98T300 160T317 261Q317 307 299 331T253 356Q223 356 200 338T161 291L60 306L137
686H460L445 584H215L179 406Q196 419 223 432T289 446Q349 446 388 405T428 279Q428 186 398 121T317 22T204 -12Z" />
<glyph unicode="6" glyph-name="six" horiz-adv-x="456" d="M213 -12Q159 -12 121 8T61 74T40 200Q40 227 42 257T49 323Q69 466 102 548T182 664T287 698Q370 698 406 652T443 531Q443 518 442 504T439 475H330Q332 489 333 501T334 525Q334 565 322 586T281
607Q246 607 225 578T190 497T166 373Q188 401 219 416T284 431Q356 431 390 384T424 263Q424 179 395 118T318 22T213 -12ZM211 79Q241 79 260 97T291 143T308 200T313 250Q313 291 298 316T249 342Q219 342 196 319T160 258T147 172Q147 132 162 106T211 79Z"
/>
<glyph unicode="7" glyph-name="seven" horiz-adv-x="456" d="M75 0Q87 85 116 166T184 324T268 465T357 584H78L93 686H494L483 615Q442 563 398 499T314 361T245 210T204 51Q202 37 201 28T198 0H75Z" />
<glyph unicode="8" glyph-name="eight" horiz-adv-x="456" d="M199 -12Q105 -12 64 34T23 148Q23 189 34 229T71 301T136 352Q108 372 95 403T82 471Q82 531 105 582T173 666T281 698Q338 698 374 676T428 618T445 539Q445 485 420 434T347 352Q382 333 398 300T414
225Q414 162 391 108T320 21T199 -12ZM204 79Q248 79 276 116T305 223Q305 262 288 283T235 305Q200 305 178 284T144 229T133 161Q133 121 151 100T204 79ZM248 396Q285 396 311 431T338 532Q338 568 322 587T277 607Q246 607 227 586T198 534T188 472Q188 435
203 416T248 396Z" />
<glyph unicode="9" glyph-name="nine" horiz-adv-x="456" d="M197 -12Q115 -12 78 35T41 155Q41 169 42 183T45 211H154Q152 197 151 185T150 161Q150 122 162 101T203 79Q238 79 259 108T294 189T318 313Q297 286 266 271T200 255Q129 255 95 302T60 423Q60 507
89 568T166 664T271 698Q325 698 363 678T423 612T444 486Q444 459 442 429T435 363Q416 220 383 138T303 22T197 -12ZM235 344Q266 344 289 367T324 428T337 514Q337 555 322 581T273 607Q243 607 224 589T193 543T176 486T171 436Q171 396 186 370T235 344Z"
/>
<glyph unicode=":" glyph-name="colon" horiz-adv-x="258" d="M83 399L101 526H226L208 399H83ZM27 0L45 127H170L152 0H27Z" />
<glyph unicode=";" glyph-name="semicolon" horiz-adv-x="258" d="M9 -145L75 0H30L48 127H173L157 11L76 -145H9ZM87 399L105 526H230L212 399H87Z" />
<glyph unicode="&lt;" glyph-name="less" horiz-adv-x="479" d="M405 -5L29 198L45 318L479 522L464 413L132 259L420 104L405 -5Z" />
<glyph unicode="=" glyph-name="equal" horiz-adv-x="479" d="M44 311L58 409H463L449 311H44ZM14 99L28 196H433L419 99H14Z" />
<glyph unicode="&gt;" glyph-name="greater" horiz-adv-x="479" d="M1 -5L15 104L348 259L59 413L74 522L450 318L434 198L1 -5Z" />
<glyph unicode="?" glyph-name="question" horiz-adv-x="486" d="M179 191L186 239Q191 275 208 303T249 355T294 403T331 457T346 527Q346 541 341 558T322 588T279 601Q254 601 237 591T208 563T191 527T183 489T180 459H67Q68 523 93 577T169 664T290 698Q371
698 418 657T465 548Q465 491 450 452T411 385T363 334T320 285T296 224L291 191H179ZM146 0L165 127H289L270 0H146Z" />
<glyph unicode="@" glyph-name="at" horiz-adv-x="811" d="M394 -154Q284 -154 205 -119T83 -6T41 194Q41 359 92 471T239 641T464 698Q565 698 629 674T727 606T775 502T789 369Q789 309 776 248T737 135T668 53T567 22Q533 22 512 32T478 56T460 82Q441 52 413
37T359 22Q301 22 267 64T233 194Q233 307 259 379T328 486T415 521Q450 521 475 504T514 450L532 510H607Q607 509 603 484T593 419T580 335T568 249T558 180T554 145Q554 121 564 111T595 101Q617 101 636 115T671 153Q689 180 700 216T718 291T724 368Q724 414
719 453T699 523Q674 579 622 607T481 636Q401 636 333 613T213 539T134 403T105 196Q105 88 141 25T241 -65T385 -92Q453 -92 485 -82T517 -72L509 -136Q501 -139 467 -146T394 -154ZM385 106Q409 106 426 123T455 169T472 230T482 293T485 344Q485 389 474 413T432
437Q407 437 389 419T360 372T342 310T333 248T330 201Q330 154 343 130T385 106Z" />
<glyph unicode="A" glyph-name="A" horiz-adv-x="577" d="M-34 0L280 686H415L537 0H421L397 141H142L80 0H-34ZM188 244H380L343 472Q340 493 338 519T335 565T334 585H330Q330 585 324 565T308 519T290 472L188 244Z" />
<glyph unicode="B" glyph-name="B" horiz-adv-x="577" d="M30 0L126 686H396Q472 686 519 645T566 536Q566 492 548 457T501 396T438 360L437 356Q481 341 508 302T536 205Q536 141 504 95T422 25T315 0H30ZM158 102H311Q340 102 365 115T405 153T420 214Q420
250 397 275T328 300H186L158 102ZM200 402H334Q369 402 394 417T433 456T446 508Q446 547 424 565T364 584H225L200 402Z" />
<glyph unicode="C" glyph-name="C" horiz-adv-x="592" d="M284 -12Q173 -12 110 51T47 247Q47 307 57 370T88 492T146 597T233 671T353 698Q461 698 522 636T583 447V433H466V452Q466 523 437 560T353 598Q313 598 283 580T232 533T198 466T176 390T166 315T163
252Q163 174 193 131T285 88Q332 88 365 110T417 170T445 250H557Q545 180 511 120T420 24T284 -12Z" />
<glyph unicode="D" glyph-name="D" horiz-adv-x="592" d="M30 0L126 686H335Q447 686 509 621T572 427Q572 372 562 313T529 198T470 98T383 27T264 0H30ZM158 102H254Q302 102 336 122T393 177T430 254T450 339T456 421Q456 502 420 543T319 584H225L158 102Z" />
<glyph unicode="E" glyph-name="E" horiz-adv-x="547" d="M30 0L126 686H555L541 584H225L200 402H472L458 300H186L158 102H480L465 0H30Z" />
<glyph unicode="F" glyph-name="F" horiz-adv-x="501" d="M30 0L127 686H524L510 584H225L199 394H445L430 291H185L144 0H30Z" />
<glyph unicode="G" glyph-name="G" horiz-adv-x="638" d="M274 -12Q168 -12 108 51T47 247Q47 305 57 367T90 489T150 595T240 670T366 698Q480 698 543 637T607 449H491V457Q491 526 459 562T369 598Q317 598 281 574T221 509T186 423T168 331T162 252Q162 174
194 131T296 88Q346 88 381 110T437 170T465 256L475 311L517 269H305L320 368H597L546 0H472L461 76Q428 36 382 12T274 -12Z" />
<glyph unicode="H" glyph-name="H" horiz-adv-x="592" d="M28 0L125 686H238L198 402H434L473 686H587L490 0H377L419 300H184L142 0H28Z" />
<glyph unicode="I" glyph-name="I" horiz-adv-x="228" d="M23 0L120 686H233L137 0H23Z" />
<glyph unicode="J" glyph-name="J" horiz-adv-x="440" d="M176 -12Q92 -12 47 23T1 127Q1 133 1 141T4 165T11 213H120Q115 175 114 165T112 151Q112 88 176 88Q210 88 229 108T253 168L326 686H440L366 163Q354 78 305 33T176 -12Z" />
<glyph unicode="K" glyph-name="K" horiz-adv-x="577" d="M30 0L126 686H241L192 342L489 686H624L380 406L534 0H408L295 317L170 188L144 0H30Z" />
<glyph unicode="L" glyph-name="L" horiz-adv-x="486" d="M30 0L126 686H240L159 106H444L428 0H30Z" />
<glyph unicode="M" glyph-name="M" horiz-adv-x="683" d="M22 0L118 686H280L320 283Q322 267 323 242T325 193T326 153T327 136H331Q331 136 335 153T346 195T360 246T373 286L526 686H686L590 0H482L547 458Q548 468 551 485T557 519T562 548T565 560H561Q557
548 551 531T538 495T525 460L351 0H252L207 460Q206 474 205 493T202 530T199 560H195Q195 560 194 548T192 518T189 483T185 458L120 0H22Z" />
<glyph unicode="N" glyph-name="N" horiz-adv-x="592" d="M30 0L126 686H224L394 290Q399 280 405 263T415 231T420 216L423 219Q423 219 424 233T428 263T431 287L487 686H588L492 0H394L223 398Q219 408 213 425T202 457T197 472L194 469Q194 469 193 457T190
428T187 401L130 0H30Z" />
<glyph unicode="O" glyph-name="O" horiz-adv-x="638" d="M293 -12Q176 -12 111 52T45 249Q45 308 55 371T89 492T149 596T240 670T366 698Q483 698 549 634T615 436Q615 377 605 314T571 193T510 89T419 16T293 -12ZM290 88Q340 88 376 110T436 170T473 253T492
345T498 432Q498 513 466 555T369 598Q318 598 283 576T223 516T186 433T167 340T161 253Q161 173 193 131T290 88Z" />
<glyph unicode="P" glyph-name="P" horiz-adv-x="547" d="M30 0L126 686H363Q459 686 506 637T553 510Q553 437 523 384T441 301T323 272H182L143 0H30ZM196 374H321Q371 374 403 405T435 491Q435 533 412 558T346 584H225L196 374Z" />
<glyph unicode="Q" glyph-name="Q" horiz-adv-x="638" d="M387 -124L296 -12Q176 -11 112 53T47 249Q47 308 57 371T91 492T151 596T242 670T368 698Q485 698 551 634T617 436Q617 375 606 311T571 188T507 83T411 11L526 -124H387ZM292 88Q342 88 378 110T437
170T475 253T494 345T500 432Q500 513 468 555T371 598Q320 598 285 576T225 516T188 433T169 340T163 253Q163 173 195 131T292 88Z" />
<glyph unicode="R" glyph-name="R" horiz-adv-x="592" d="M30 0L126 686H394Q494 686 541 640T588 520Q588 446 549 391T443 313L535 0H413L330 292H184L144 0H30ZM198 394H348Q400 394 433 424T466 504Q466 541 445 562T377 584H225L198 394Z" />
<glyph unicode="S" glyph-name="S" horiz-adv-x="547" d="M256 -12Q214 -12 174 -1T102 33T51 91T32 177Q32 192 33 208T36 233H154Q153 225 151 214T149 186Q149 160 159 138T195 102T263 88Q288 88 309 95T347 114T374 146T384 188Q384 224 363 247T308 287T237
320T167 357T112 412T91 495Q91 549 114 595T188 670T317 698Q401 698 447 669T511 592T530 484H414Q414 523 401 548T365 585T310 597Q301 597 285 595T251 585T222 560T210 515Q210 482 231 462T286 426T356 396T426 358T481 300T503 210Q503 162 487 122T439
52T361 5T256 -12Z" />
<glyph unicode="T" glyph-name="T" horiz-adv-x="501" d="M157 0L239 584H64L79 686H542L527 584H352L270 0H157Z" />
<glyph unicode="U" glyph-name="U" horiz-adv-x="592" d="M276 -12Q173 -12 116 35T58 175Q58 185 62 217T72 296T85 395T100 499T114 593T123 660T127 686H241Q241 686 238 661T228 593T214 501T200 399T186 303T177 230T173 194Q173 142 200 115T277 88Q332
88 366 123T410 224L475 686H588L523 223Q507 108 443 48T276 -12Z" />
<glyph unicode="V" glyph-name="V" horiz-adv-x="547" d="M181 0L69 686H186L264 163H268L493 686H607L303 0H181Z" />
<glyph unicode="W" glyph-name="W" horiz-adv-x="774" d="M125 0L70 686H184L208 248Q210 230 210 210T211 171T212 141H216Q216 141 221 159T232 202T245 246L386 686H525L543 246Q543 234 543 220T544 190T545 162T546 141H550Q550 141 554 159T566 203T580
246L730 686H832L589 0H461L435 446Q434 466 434 494T434 558H429Q429 558 426 546T419 515T409 479T400 447L253 0H125Z" />
<glyph unicode="X" glyph-name="X" horiz-adv-x="547" d="M-30 0L226 359L84 686H211L304 465H307L459 686H587L352 359L510 0H382L275 252H272L95 0H-30Z" />
<glyph unicode="Y" glyph-name="Y" horiz-adv-x="547" d="M184 0L222 268L68 686H186L294 379H298L489 686H606L336 268L297 0H184Z" />
<glyph unicode="Z" glyph-name="Z" horiz-adv-x="501" d="M-13 0L-10 45L353 584H85L100 686H528L524 640L160 102H456L442 0H-13Z" />
<glyph unicode="[" glyph-name="bracketleft" horiz-adv-x="258" d="M-8 -161L116 735H301L289 650H206L105 -76H188L176 -161H-8Z" />
<glyph unicode="\" glyph-name="backslash" horiz-adv-x="228" d="M129 -49L55 735H132L208 -49H129Z" />
<glyph unicode="]" glyph-name="bracketright" horiz-adv-x="258" d="M-31 -161L-20 -76H62L164 650H81L93 735H278L153 -161H-31Z" />
<glyph unicode="^" glyph-name="asciicircum" horiz-adv-x="447" d="M6 294L210 686H317L412 294H309L248 579L112 294H6Z" />
<glyph unicode="_" glyph-name="underscore" horiz-adv-x="456" d="M-44 -129L-37 -66H418L410 -129H-44Z" />
<glyph unicode="`" glyph-name="grave" horiz-adv-x="0" d="M154 591L64 720L65 723H175L243 591H154Z" />
<glyph unicode="a" glyph-name="a" horiz-adv-x="456" d="M165 -12Q101 -12 64 34T26 177Q26 302 55 382T131 500T226 538Q265 538 293 519T336 460L355 526H439Q439 526 436 504T427 446T415 365T402 277T390 195T381 134T377 107Q377 92 384 86T401 79H424L413
4Q405 -1 391 -6T355 -12Q323 -12 302 7T276 62Q254 23 224 6T165 -12ZM194 81Q220 81 239 100T270 150T290 217T301 286T304 343Q304 392 291 418T245 445Q218 445 199 425T167 373T147 306T136 238T133 185Q133 134 148 108T194 81Z" />
<glyph unicode="b" glyph-name="b" horiz-adv-x="486" d="M247 -12Q207 -12 176 7T128 71L106 0H23L123 723H230L195 471Q219 503 250 520T317 538Q377 538 414 492T452 347Q452 295 444 244T420 147T379 65T322 9T247 -12ZM225 85Q255 85 276 104T310 154T330
220T340 288T343 344Q343 392 328 416T277 441Q247 441 227 422T193 373T172 307T161 239T158 183Q158 136 174 111T225 85Z" />
<glyph unicode="c" glyph-name="c" horiz-adv-x="440" d="M199 -12Q119 -12 77 33T34 174Q34 235 43 298T77 416T145 504T259 538Q341 538 379 491T418 345V329H308V345Q308 395 296 421T253 447Q225 447 206 425T174 369T155 298T147 232T144 189Q144 136 157
108T204 79Q229 79 246 95T276 137T293 194H400Q390 140 366 93T302 17T199 -12Z" />
<glyph unicode="d" glyph-name="d" horiz-adv-x="486" d="M175 -12Q111 -12 73 35T35 177Q35 302 65 382T143 500T240 538Q279 538 306 521T349 469L386 723H492L391 0H305V74Q278 29 245 9T175 -12ZM210 85Q239 85 260 104T294 153T315 219T326 287T329 343Q329
391 314 416T263 441Q233 441 212 422T178 372T157 306T147 238T144 182Q144 134 159 110T210 85Z" />
<glyph unicode="e" glyph-name="e" horiz-adv-x="456" d="M204 -12Q120 -12 77 33T34 174Q34 224 40 275T61 373T102 457T168 516T263 538Q344 538 385 493T426 356Q426 328 424 297T416 235H144Q143 219 143 206T142 187Q142 132 157 105T207 77Q242 77 264 108T295
181H404Q394 129 370 85T305 15T204 -12ZM156 317H316Q317 335 317 342T317 355Q317 401 303 425T259 449Q230 449 210 430T177 381T156 317Z" />
<glyph unicode="f" glyph-name="f" horiz-adv-x="258" d="M-7 -182Q-27 -182 -49 -178T-86 -170L-75 -92H-31Q15 -92 21 -44L83 435H33L46 526H96L106 597Q111 630 125 661T168 711T241 731Q261 731 283 728T320 719L308 641H262Q218 641 212 596L202 526H293L280
435H190L126 -48Q122 -81 108 -112T66 -162T-7 -182Z" />
<glyph unicode="g" glyph-name="g" horiz-adv-x="486" d="M178 -182Q120 -182 82 -160T26 -102T7 -24H115Q115 -56 131 -73T184 -91Q228 -91 254 -62T289 25L298 83Q275 50 244 31T178 12Q135 12 103 33T54 93T36 188Q36 238 44 288T68 384T108 463T166 518T240
538Q280 538 311 519T359 455L380 526H464L397 49Q380 -74 325 -128T178 -182ZM214 105Q242 105 262 122T295 168T315 229T326 291T330 343Q330 391 314 416T262 441Q231 441 211 423T178 375T158 311T148 245T145 191Q145 105 214 105Z" />
<glyph unicode="h" glyph-name="h" horiz-adv-x="486" d="M23 0L123 723H229L193 469Q214 496 245 517T323 538Q366 538 393 522T433 476T446 409Q446 401 445 385T440 345T432 286T421 208T407 113T392 0H286Q294 57 301 106T313 195T323 267T331 322T335 358T337
376Q337 411 323 426T278 441Q239 441 210 406T172 308L129 0H23Z" />
<glyph unicode="i" glyph-name="i" horiz-adv-x="228" d="M28 0L101 526H207L134 0H28ZM111 615L126 723H235L219 615H111Z" />
<glyph unicode="j" glyph-name="j" horiz-adv-x="212" d="M-14 -182Q-34 -182 -57 -178T-93 -170L-82 -92H-39Q7 -92 14 -44L93 526H199L119 -48Q114 -81 100 -112T59 -162T-14 -182ZM101 615L116 723H225L209 615H101Z" />
<glyph unicode="k" glyph-name="k" horiz-adv-x="440" d="M22 0L122 723H228L171 316L348 526H470L286 310L404 0H291L210 224L151 169L128 0H22Z" />
<glyph unicode="l" glyph-name="l" horiz-adv-x="212" d="M20 0L120 723H226L126 0H20Z" />
<glyph unicode="m" glyph-name="m" horiz-adv-x="713" d="M23 0L97 526H183V455Q195 475 213 494T256 525T316 538Q364 538 390 514T425 450Q438 471 456 491T500 524T562 538Q601 538 626 522T663 476T675 409Q675 401 674 385T669 345T661 286T650 208T637 113T621
0H515Q523 57 530 106T542 195T552 267T560 322T564 360T566 381Q566 410 554 425T516 441Q481 441 454 408T418 313L376 0H270Q277 57 284 106T296 195T306 267T314 322T318 360T320 381Q320 410 308 425T271 441Q234 441 208 406T172 308L130 0H23Z" />
<glyph unicode="n" glyph-name="n" horiz-adv-x="486" d="M23 0L96 526H182V453Q195 474 214 493T260 525T324 538Q366 538 393 522T433 476T446 409Q446 401 445 385T440 345T432 286T421 208T408 113T392 0H287Q294 57 301 106T313 195T323 267T331 322T335
358T337 376Q337 411 323 426T279 441Q239 441 210 406T171 308L129 0H23Z" />
<glyph unicode="o" glyph-name="o" horiz-adv-x="486" d="M214 -12Q127 -12 81 34T35 178Q35 223 41 273T63 370T104 455T172 515T271 538Q359 538 404 491T450 345Q450 300 444 250T423 154T381 70T313 10T214 -12ZM217 79Q251 79 273 101T309 158T329 230T338
299T340 345Q340 395 323 421T269 447Q234 447 212 425T176 369T156 297T147 229T145 184Q145 132 162 106T217 79Z" />
<glyph unicode="p" glyph-name="p" horiz-adv-x="486" d="M0 -175L97 526H183V451Q209 497 242 517T313 538Q378 538 415 491T453 349Q453 224 423 144T346 26T248 -12Q209 -12 182 5T138 57L105 -175H0ZM227 85Q257 85 278 104T311 154T331 220T341 288T344 344Q344
392 329 416T278 441Q248 441 228 422T194 373T173 307T162 239T159 183Q159 136 175 111T227 85Z" />
<glyph unicode="q" glyph-name="q" horiz-adv-x="486" d="M261 -172L291 55Q268 22 237 5T169 -12Q110 -12 73 34T35 179Q35 231 43 282T67 379T107 461T165 517T239 538Q279 538 310 519T358 455L380 526H464L367 -172H261ZM210 85Q239 85 260 104T294 153T315
219T326 287T329 343Q329 391 313 416T261 441Q231 441 211 422T177 372T157 306T147 238T144 182Q144 134 159 110T210 85Z" />
<glyph unicode="r" glyph-name="r" horiz-adv-x="303" d="M21 0L94 526H180V445Q190 466 204 487T238 523T287 538Q308 538 319 534T331 530L317 425H283Q244 425 211 396T168 297L126 0H21Z" />
<glyph unicode="s" glyph-name="s" horiz-adv-x="440" d="M203 -12Q150 -12 109 5T45 55T22 133Q22 147 24 159T26 175H136Q135 172 134 163T132 147Q132 109 156 93T211 77Q237 77 258 93T280 138Q280 166 265 182T226 211T175 235T124 264T85 309T70 379Q70
429 93 464T159 519T253 538Q314 538 349 514T400 453T415 372H306Q306 410 292 429T242 449Q219 449 200 435T181 393Q181 367 196 351T235 325T286 303T338 275T377 231T393 159Q393 100 367 62T298 6T203 -12Z" />
<glyph unicode="t" glyph-name="t" horiz-adv-x="258" d="M137 -11Q82 -11 61 19T39 89Q39 95 42 122T51 189T63 271T74 350T83 411T87 435H36L49 526H99L138 673H227L205 526H279L267 435H193Q193 435 190 412T182 354T171 278T160 202T152 141T148 114Q148 79
185 79H216L206 1Q193 -3 173 -7T137 -11Z" />
<glyph unicode="u" glyph-name="u" horiz-adv-x="486" d="M162 -12Q120 -12 93 4T53 50T39 117Q39 125 41 141T46 181T54 240T65 318T78 413T93 526H199Q191 469 185 420T173 331T163 259T155 204T150 168T148 150Q148 116 162 101T207 85Q247 85 276 120T314
218L357 526H463L390 0H303V71Q290 51 271 32T225 1T162 -12Z" />
<glyph unicode="v" glyph-name="v" horiz-adv-x="440" d="M130 0L45 526H153L190 281Q192 266 194 244T199 198T203 157T205 134H209Q211 139 217 156T231 196T248 241T264 280L368 526H477L240 0H130Z" />
<glyph unicode="w" glyph-name="w" horiz-adv-x="622" d="M98 0L42 526H144L166 282Q168 253 170 219T173 158T175 122H179Q179 122 183 147T196 209T216 281L298 526H410L424 281Q424 267 425 245T426 200T427 156T427 122H431Q431 122 434 138T445 179T460 231T476
281L562 526H659L458 0H350L334 282Q332 308 332 336T331 385T331 406H326Q326 406 323 383T314 329T298 268L208 0H98Z" />
<glyph unicode="x" glyph-name="x" horiz-adv-x="440" d="M-26 0L168 271L57 526H174L237 367H240L346 526H464L282 271L400 0H282L213 176H210L91 0H-26Z" />
<glyph unicode="y" glyph-name="y" horiz-adv-x="440" d="M57 -182Q27 -182 10 -179T-12 -173L-2 -93H43Q71 -93 98 -72T144 0L48 526H157L201 255Q204 241 206 222T210 183T213 149T216 130H220Q221 134 226 148T237 181T249 219T262 254L369 526H477L265 27Q241
-30 211 -77T143 -153T57 -182Z" />
<glyph unicode="z" glyph-name="z" horiz-adv-x="410" d="M-7 0L-4 47L257 435H62L75 526H416L412 480L150 91H367L355 0H-7Z" />
<glyph unicode="{" glyph-name="braceleft" horiz-adv-x="304" d="M220 -159Q176 -159 139 -150T78 -116T54 -42Q54 -33 55 -26T57 -11Q62 26 66 57T74 112T80 154T84 181T86 194Q86 221 64 232T16 243L28 333Q55 333 82 346T114 393L142 587Q151 650 181 682T253
724T345 735L336 665Q319 665 300 660T266 642T247 600Q240 550 230 501T212 401Q203 350 177 322T96 293L95 283Q144 283 163 261T182 197Q182 177 179 143T171 72T163 5T159 -37Q159 -69 181 -79T229 -89L220 -159Z" />
<glyph unicode="|" glyph-name="bar" horiz-adv-x="224" d="M69 -173V723H155V-173H69Z" />
<glyph unicode="}" glyph-name="braceright" horiz-adv-x="304" d="M-33 -159L-23 -89Q-5 -89 14 -84T47 -65T65 -24Q72 26 82 75T100 175Q109 226 135 254T216 283L217 293Q169 293 150 315T130 379Q130 399 133 433T142 504T150 571T154 613Q154 646 131 655T83
665L92 735Q137 735 174 726T235 692T258 618Q258 609 258 603T256 587Q250 550 246 519T238 464T232 422T228 395T227 382Q227 356 248 345T296 333L284 243Q257 243 231 230T199 183L171 -11Q162 -74 132 -105T59 -148T-33 -159Z" />
<glyph unicode="~" glyph-name="asciitilde" horiz-adv-x="479" d="M21 202L36 312Q36 312 45 323T71 348T112 374T168 385Q191 385 211 376T251 355T291 333T337 324Q363 324 386 335T428 360T457 386T468 397L452 287Q452 287 443 276T417 251T376 225T321 214Q297
214 277 223T238 244T198 266T152 275Q126 275 103 264T61 239T32 213T21 202Z" />
<glyph unicode="&#xa0;" glyph-name="uni00A0" horiz-adv-x="228" />
<glyph unicode="&#xa1;" glyph-name="exclamdown" horiz-adv-x="273" d="M21 -160L123 338H198L161 -160H21ZM108 399L126 526H251L233 399H108Z" />
<glyph unicode="&#xa2;" glyph-name="cent" horiz-adv-x="456" d="M158 -49L174 70Q110 79 76 124T42 254Q42 313 50 375T81 490T145 578T251 617L266 723H315L299 615Q366 607 397 560T429 425V409H326V425Q326 467 317 492T287 527L235 158Q265 167 284 200T311
274H411Q401 221 379 176T318 101T222 68L206 -49H158ZM187 158L238 527Q215 518 198 493T171 435T155 369T147 308T145 269Q145 224 154 196T187 158Z" />
<glyph unicode="&#xa3;" glyph-name="sterling" horiz-adv-x="456" d="M-5 0L9 98H62L89 293H24L37 385H101L118 499Q132 600 181 649T309 698Q383 698 425 662T468 549Q468 538 467 526T463 491H357Q361 515 362 524T363 540Q363 573 348 590T305 607Q275 607
255 586T228 522L209 385H333L320 293H195L158 98H404L389 0H-5Z" />
<glyph unicode="&#xa4;" glyph-name="currency" horiz-adv-x="456" d="M228 104Q191 104 158 117T98 155L56 112L-1 169L49 219Q35 245 27 276T18 342Q18 375 26 406T48 464L-1 514L55 571L97 529Q124 554 157 567T228 581Q265 581 298 567T358 529L400 571L456
514L407 465Q422 438 430 407T438 342Q438 308 430 277T407 218L456 169L400 112L357 155Q331 131 298 118T228 104ZM228 187Q264 187 293 208T340 264T358 342Q358 386 341 421T294 477T228 498Q192 498 162 477T115 421T97 342Q97 299 114 264T162 208T228 187Z"
/>
<glyph unicode="&#xa5;" glyph-name="yen" horiz-adv-x="456" d="M139 0L162 158H16L26 234H171L181 304H36L47 380H159L67 686H183L254 413H258L402 686H512L334 380H446L436 303H291L281 234H426L415 158H270L248 0H139Z" />
<glyph unicode="&#xa6;" glyph-name="brokenbar" horiz-adv-x="224" d="M69 348V723H155V348H69ZM69 -173V202H155V-173H69Z" />
<glyph unicode="&#xa7;" glyph-name="section" horiz-adv-x="456" d="M175 -182Q102 -182 59 -149T15 -60Q15 -48 17 -34T21 -17H129Q128 -23 128 -28T127 -38Q127 -63 141 -78T185 -93Q210 -93 226 -82T249 -53T256 -20Q256 11 241 31T202 68T151 99T100 135T61
183T45 255Q45 303 69 344T133 411Q116 430 106 454T95 512Q95 572 120 613T189 676T287 698Q360 698 403 665T447 576Q447 565 445 551T441 533H333Q334 540 334 544T334 553Q334 579 320 594T277 609Q252 609 236 598T213 570T206 535Q206 505 221 485T260 448T311
417T362 381T401 333T417 261Q417 212 393 172T329 105Q346 86 356 62T367 3Q367 -57 342 -98T273 -160T175 -182ZM271 149Q286 163 296 184T307 233Q307 268 290 291T245 331T190 366Q174 351 165 330T155 282Q155 248 172 225T216 185T271 149Z" />
<glyph unicode="&#xa8;" glyph-name="dieresis" horiz-adv-x="0" d="M216 619L231 723H327L312 619H216ZM50 619L65 723H161L145 619H50Z" />
<glyph unicode="&#xa9;" glyph-name="copyright" horiz-adv-x="604" d="M302 -12Q214 -12 150 32T52 155T18 343Q18 451 52 531T150 654T302 698Q391 698 454 655T551 531T586 343Q586 235 552 156T454 32T302 -12ZM304 136Q227 136 186 187T144 345Q144 451 185
503T304 555Q367 555 408 517T450 398H373Q373 443 355 465T304 488Q262 488 242 455T222 360V331Q222 270 243 237T306 203Q337 203 356 224T376 291H450Q450 212 409 174T304 136ZM302 40Q374 40 426 77T506 183T534 343Q534 435 506 503T426 608T302 646Q230
646 178 609T98 503T70 343Q70 252 98 184T178 78T302 40Z" />
<glyph unicode="&#xaa;" glyph-name="ordfeminine" horiz-adv-x="303" d="M161 362Q118 362 93 393T67 490Q67 574 87 628T138 707T202 733Q229 733 247 720T275 681L304 725H346Q346 725 343 705T335 654T325 587T315 519T307 466T304 443Q304 433 308 429T320
424H336L329 373Q323 369 314 366T290 362Q267 362 253 374T234 412Q220 386 201 374T161 362ZM180 426Q202 426 216 445T238 494T249 553T253 601Q253 635 245 652T215 669Q193 669 179 649T156 600T144 541T141 495Q141 426 180 426Z" />
<glyph unicode="&#xab;" glyph-name="guillemotleft" horiz-adv-x="456" d="M318 126L209 326L372 526H459L321 326L402 126H318ZM146 126L37 326L199 526H287L149 326L230 126H146Z" />
<glyph unicode="&#xac;" glyph-name="logicalnot" horiz-adv-x="479" d="M326 190L348 353H41L56 460H465L428 190H326Z" />
<glyph unicode="&#xad;" glyph-name="uni00AD" horiz-adv-x="273" d="M10 214L25 326H270L254 214H10Z" />
<glyph unicode="&#xae;" glyph-name="registered" horiz-adv-x="604" d="M302 -12Q214 -12 150 32T52 155T18 343Q18 451 52 531T150 654T302 698Q391 698 454 655T552 531T586 343Q586 235 552 156T455 32T302 -12ZM302 40Q374 40 426 77T506 183T534 343Q534
436 506 503T426 608T302 646Q230 646 178 609T98 504T70 343Q70 251 98 183T178 78T302 40ZM174 143V547H330Q380 547 411 514T443 426Q443 388 429 361T392 320L469 143H392L326 296H250V143H174ZM250 360H305Q336 360 350 375T365 421Q365 450 351 464T305 478H250V360Z"
/>
<glyph unicode="&#xaf;" glyph-name="overscore" horiz-adv-x="0" d="M47 599L58 681H312L300 599H47Z" />
<glyph unicode="&#xb0;" glyph-name="degree" horiz-adv-x="400" d="M202 419Q164 419 132 437T81 488T62 558Q62 598 81 629T132 679T202 698Q241 698 272 680T323 630T342 558Q342 520 323 488T273 438T202 419ZM202 482Q234 482 256 504T278 559Q278 590 256
612T202 634Q170 634 148 612T125 558Q125 527 147 505T202 482Z" />
<glyph unicode="&#xb1;" glyph-name="plusminus" horiz-adv-x="549" d="M203 138L227 315H73L87 412H241L266 589H362L338 412H493L479 315H324L299 138H203ZM30 0L43 96H448L435 0H30Z" />
<glyph unicode="&#xb2;" glyph-name="uni00B2" horiz-adv-x="273" d="M53 434L55 450Q61 494 92 529T158 595Q198 631 216 654T235 704Q235 718 229 727T205 736Q187 736 176 722T162 686L158 660H88Q88 660 88 663T88 671Q88 726 121 762T210 798Q255 798 281
776T307 713Q307 678 293 649T258 598T215 557Q197 541 181 526T159 496H283L274 434H53Z" />
<glyph unicode="&#xb3;" glyph-name="uni00B3" horiz-adv-x="273" d="M162 428Q104 428 78 456T60 536L62 547H133L131 534Q128 514 138 502T167 489Q191 489 206 505T221 547Q221 566 210 576T179 587H151L159 648H189Q208 648 222 666T237 708Q237 725 227 731T204
738Q188 738 176 727T160 697L157 677H87L90 702Q95 745 129 771T212 798Q255 798 282 779T309 720Q309 682 291 659T249 621Q269 611 280 592T291 549Q291 497 254 463T162 428Z" />
<glyph unicode="&#xb4;" glyph-name="acute" horiz-adv-x="0" d="M46 591L150 723H260L261 720L135 591H46Z" />
<glyph unicode="&#xb5;" glyph-name="uni00B5" horiz-adv-x="486" d="M-5 -173L93 526H200L151 171Q145 126 160 106T207 85Q248 85 278 120T316 218L359 526H464L390 0H305L302 69Q289 44 266 26T216 -2T164 -12Q136 -12 115 1T91 44L115 51Q119 23 118 -15T113
-93T102 -173H-5Z" />
<glyph unicode="&#xb6;" glyph-name="paragraph" horiz-adv-x="451" d="M126 -173L186 250Q122 258 83 308T44 431Q44 515 76 571T160 657T270 686H499L488 615H440L330 -173H254L365 615H312L201 -173H126Z" />
<glyph unicode="&#xb7;" glyph-name="middot" horiz-adv-x="228" d="M64 281L82 406H196L178 281H64Z" />
<glyph unicode="&#xb8;" glyph-name="cedilla" horiz-adv-x="0" d="M21 -182Q-24 -182 -61 -174L-55 -125H18Q39 -125 48 -119T58 -96Q58 -77 27 -77H-6L19 11H82L70 -34Q141 -40 141 -91Q141 -134 110 -158T21 -182Z" />
<glyph unicode="&#xb9;" glyph-name="uni00B9" horiz-adv-x="273" d="M67 434L77 498H146L175 701H102L108 746Q136 751 165 761T220 786H260L219 498H285L276 434H67Z" />
<glyph unicode="&#xba;" glyph-name="ordmasculine" horiz-adv-x="299" d="M177 362Q118 362 87 393T56 491Q56 529 63 571T87 650T136 710T216 734Q276 734 306 702T337 603Q337 565 330 523T306 445T257 385T177 362ZM179 426Q202 426 217 441T240 478T253 526T259
572T261 603Q261 670 214 670Q191 670 176 656T153 618T140 571T134 526T132 495Q132 426 179 426Z" />
<glyph unicode="&#xbb;" glyph-name="guillemotright" horiz-adv-x="456" d="M185 126L324 326L242 526H326L436 326L272 126H185ZM13 126L151 326L70 526H154L264 326L100 126H13Z" />
<glyph unicode="&#xbc;" glyph-name="onequarter" horiz-adv-x="683" d="M309 590L319 654H388L417 857H344L350 902Q378 907 407 917T462 942H502L461 654H527L518 590H309ZM76 -12L577 698H641L141 -12H76ZM536 0L547 80H403L411 133Q446 182 476 239T530 365H606Q590
321 567 277T522 197T483 140H555L566 214Q577 234 587 258T607 307H649L625 140H658L650 80H617L606 0H536Z" />
<glyph unicode="&#xbd;" glyph-name="onehalf" horiz-adv-x="683" d="M309 590L319 654H388L417 857H344L350 902Q378 907 407 917T462 942H502L461 654H527L518 590H309ZM76 -12L577 698H641L141 -12H76ZM402 0L404 16Q410 60 441 95T507 161Q547 197 565 220T584
270Q584 284 578 293T554 302Q536 302 525 288T511 252L507 226H437Q437 226 437 229T437 237Q437 292 470 328T559 364Q604 364 630 342T656 279Q656 244 642 215T607 164T564 123Q546 107 530 92T508 62H632L623 0H402Z" />
<glyph unicode="&#xbe;" glyph-name="threequarters" horiz-adv-x="683" d="M404 584Q346 584 320 612T302 692L304 703H375L373 690Q370 670 380 658T409 645Q433 645 448 661T463 703Q463 722 452 732T421 743H393L401 804H431Q450 804 464 822T479 864Q479
881 469 887T446 894Q430 894 418 883T402 853L399 833H329L332 858Q337 901 371 927T454 954Q497 954 524 935T551 876Q551 838 533 815T491 777Q511 767 522 748T533 705Q533 653 496 619T404 584ZM76 -12L577 698H641L141 -12H76ZM536 0L547 80H403L411 133Q446
182 476 239T530 365H606Q590 321 567 277T522 197T483 140H555L566 214Q577 234 587 258T607 307H649L625 140H658L650 80H617L606 0H536Z" />
<glyph unicode="&#xbf;" glyph-name="questiondown" horiz-adv-x="501" d="M232 -172Q151 -172 104 -131T57 -22Q57 35 73 74T112 141T159 192T203 241T227 302L231 335H343L337 287Q331 251 314 223T273 171T228 123T192 69T177 -1Q177 -15 181 -32T201 -62T244
-75Q268 -75 285 -65T314 -37T331 -1T339 37T342 67H455Q455 4 429 -50T354 -138T232 -172ZM233 399L252 526H376L358 399H233Z" />
<glyph unicode="&#xc0;" glyph-name="Agrave" horiz-adv-x="577" d="M-34 0L280 686H415L537 0H421L397 141H142L80 0H-34ZM188 244H380L343 472Q340 493 338 519T335 565T334 585H330Q330 585 324 565T308 519T290 472L188 244ZM329 751L235 850L236 853H346L418
751H329Z" />
<glyph unicode="&#xc1;" glyph-name="Aacute" horiz-adv-x="577" d="M-34 0L280 686H415L537 0H421L397 141H142L80 0H-34ZM188 244H380L343 472Q340 493 338 519T335 565T334 585H330Q330 585 324 565T308 519T290 472L188 244ZM282 751L365 853H485L486 850L381
751H282Z" />
<glyph unicode="&#xc2;" glyph-name="Acircumflex" horiz-adv-x="577" d="M-34 0L280 686H415L537 0H421L397 141H142L80 0H-34ZM188 244H380L343 472Q340 493 338 519T335 565T334 585H330Q330 585 324 565T308 519T290 472L188 244ZM223 748L323 853H414L485
748H400L362 790L311 748H223Z" />
<glyph unicode="&#xc3;" glyph-name="Atilde" horiz-adv-x="577" d="M-34 0L280 686H415L537 0H421L397 141H142L80 0H-34ZM188 244H380L343 472Q340 493 338 519T335 565T334 585H330Q330 585 324 565T308 519T290 472L188 244ZM208 749Q213 780 225 804T258
841T309 854Q335 854 352 847T384 831T418 823Q432 823 442 829T457 854H514Q510 824 498 800T465 763T414 749Q388 749 371 757T339 773T304 781Q291 781 281 774T265 749H208Z" />
<glyph unicode="&#xc4;" glyph-name="Adieresis" horiz-adv-x="577" d="M-34 0L280 686H415L537 0H421L397 141H142L80 0H-34ZM188 244H380L343 472Q340 493 338 519T335 565T334 585H330Q330 585 324 565T308 519T290 472L188 244ZM393 779L408 883H504L489 779H393ZM227
779L242 883H338L322 779H227Z" />
<glyph unicode="&#xc5;" glyph-name="Aring" horiz-adv-x="577" d="M-34 0L280 686H415L537 0H421L397 141H142L80 0H-34ZM188 244H380L343 472Q340 493 338 519T335 565T334 585H330Q330 585 324 565T308 519T290 472L188 244ZM350 721Q314 721 290 745T266 804Q266
851 297 882T376 913Q412 913 436 890T460 831Q460 784 429 753T350 721ZM357 774Q378 774 392 788T407 824Q407 840 397 850T369 861Q349 861 335 847T320 812Q320 795 330 785T357 774Z" />
<glyph unicode="&#xc6;" glyph-name="AE" horiz-adv-x="820" d="M-49 0L313 686H831L816 584H462L480 402H747L733 300H489L508 102H755L740 0H401L389 141H139L68 0H-49ZM190 244H380L357 501Q356 514 355 529T353 558T351 581H347Q347 581 341 561T325 514T305
467L190 244Z" />
<glyph unicode="&#xc7;" glyph-name="Ccedilla" horiz-adv-x="592" d="M284 -12Q173 -12 110 51T47 247Q47 307 57 370T88 492T146 597T233 671T353 698Q461 698 522 636T583 447V433H466V452Q466 523 437 560T353 598Q313 598 283 580T232 533T198 466T176 390T166
315T163 252Q163 174 193 131T285 88Q332 88 365 110T417 170T445 250H557Q545 180 511 120T420 24T284 -12ZM244 -182Q199 -182 162 -174L168 -125H241Q281 -125 281 -96Q281 -86 274 -82T250 -77H217L242 11H305L293 -34Q364 -39 364 -91Q364 -134 333 -158T244
-182Z" />
<glyph unicode="&#xc8;" glyph-name="Egrave" horiz-adv-x="547" d="M30 0L126 686H555L541 584H225L200 402H472L458 300H186L158 102H480L465 0H30ZM327 751L233 850L234 853H344L416 751H327Z" />
<glyph unicode="&#xc9;" glyph-name="Eacute" horiz-adv-x="547" d="M30 0L126 686H555L541 584H225L200 402H472L458 300H186L158 102H480L465 0H30ZM280 751L363 853H483L484 850L379 751H280Z" />
<glyph unicode="&#xca;" glyph-name="Ecircumflex" horiz-adv-x="547" d="M30 0L126 686H555L541 584H225L200 402H472L458 300H186L158 102H480L465 0H30ZM221 748L321 853H412L483 748H398L360 790L309 748H221Z" />
<glyph unicode="&#xcb;" glyph-name="Edieresis" horiz-adv-x="547" d="M30 0L126 686H555L541 584H225L200 402H472L458 300H186L158 102H480L465 0H30ZM391 779L406 883H502L487 779H391ZM225 779L240 883H336L320 779H225Z" />
<glyph unicode="&#xcc;" glyph-name="Igrave" horiz-adv-x="228" d="M23 0L120 686H233L137 0H23ZM161 751L67 850L68 853H178L250 751H161Z" />
<glyph unicode="&#xcd;" glyph-name="Iacute" horiz-adv-x="228" d="M23 0L120 686H233L137 0H23ZM114 751L197 853H317L318 850L213 751H114Z" />
<glyph unicode="&#xce;" glyph-name="Icircumflex" horiz-adv-x="228" d="M23 0L120 686H233L137 0H23ZM55 748L155 853H246L317 748H232L194 790L143 748H55Z" />
<glyph unicode="&#xcf;" glyph-name="Idieresis" horiz-adv-x="228" d="M23 0L120 686H233L137 0H23ZM225 779L240 883H336L321 779H225ZM59 779L74 883H170L154 779H59Z" />
<glyph unicode="&#xd0;" glyph-name="Eth" horiz-adv-x="592" d="M30 0L74 316H20L30 394H85L126 686H335Q447 686 509 621T572 427Q572 372 562 313T529 198T470 98T383 27T264 0H30ZM158 102H254Q302 102 336 122T393 177T430 254T450 339T456 421Q456 502 420
543T319 584H225L198 394H334L323 316H187L158 102Z" />
<glyph unicode="&#xd1;" glyph-name="Ntilde" horiz-adv-x="592" d="M30 0L126 686H224L394 290Q399 280 405 263T415 231T420 216L423 219Q423 219 424 233T428 263T431 287L487 686H588L492 0H394L223 398Q219 408 213 425T202 457T197 472L194 469Q194 469
193 457T190 428T187 401L130 0H30ZM221 749Q226 780 238 804T271 841T322 854Q348 854 365 847T397 831T431 823Q445 823 455 829T470 854H527Q523 824 511 800T478 763T427 749Q401 749 384 757T352 773T317 781Q304 781 294 774T278 749H221Z" />
<glyph unicode="&#xd2;" glyph-name="Ograve" horiz-adv-x="638" d="M293 -12Q176 -12 111 52T45 249Q45 308 55 371T89 492T149 596T240 670T366 698Q483 698 549 634T615 436Q615 377 605 314T571 193T510 89T419 16T293 -12ZM290 88Q340 88 376 110T436 170T473
253T492 345T498 432Q498 513 466 555T369 598Q318 598 283 576T223 516T186 433T167 340T161 253Q161 173 193 131T290 88ZM366 751L272 850L273 853H383L455 751H366Z" />
<glyph unicode="&#xd3;" glyph-name="Oacute" horiz-adv-x="638" d="M293 -12Q176 -12 111 52T45 249Q45 308 55 371T89 492T149 596T240 670T366 698Q483 698 549 634T615 436Q615 377 605 314T571 193T510 89T419 16T293 -12ZM290 88Q340 88 376 110T436 170T473
253T492 345T498 432Q498 513 466 555T369 598Q318 598 283 576T223 516T186 433T167 340T161 253Q161 173 193 131T290 88ZM319 751L402 853H522L523 850L418 751H319Z" />
<glyph unicode="&#xd4;" glyph-name="Ocircumflex" horiz-adv-x="638" d="M293 -12Q176 -12 111 52T45 249Q45 308 55 371T89 492T149 596T240 670T366 698Q483 698 549 634T615 436Q615 377 605 314T571 193T510 89T419 16T293 -12ZM290 88Q340 88 376 110T436
170T473 253T492 345T498 432Q498 513 466 555T369 598Q318 598 283 576T223 516T186 433T167 340T161 253Q161 173 193 131T290 88ZM260 748L360 853H451L522 748H437L399 790L348 748H260Z" />
<glyph unicode="&#xd5;" glyph-name="Otilde" horiz-adv-x="638" d="M293 -12Q176 -12 111 52T45 249Q45 308 55 371T89 492T149 596T240 670T366 698Q483 698 549 634T615 436Q615 377 605 314T571 193T510 89T419 16T293 -12ZM290 88Q340 88 376 110T436 170T473
253T492 345T498 432Q498 513 466 555T369 598Q318 598 283 576T223 516T186 433T167 340T161 253Q161 173 193 131T290 88ZM245 749Q250 780 262 804T295 841T346 854Q372 854 389 847T421 831T455 823Q469 823 479 829T494 854H551Q547 824 535 800T502 763T451
749Q425 749 408 757T376 773T341 781Q328 781 318 774T302 749H245Z" />
<glyph unicode="&#xd6;" glyph-name="Odieresis" horiz-adv-x="638" d="M293 -12Q176 -12 111 52T45 249Q45 308 55 371T89 492T149 596T240 670T366 698Q483 698 549 634T615 436Q615 377 605 314T571 193T510 89T419 16T293 -12ZM290 88Q340 88 376 110T436
170T473 253T492 345T498 432Q498 513 466 555T369 598Q318 598 283 576T223 516T186 433T167 340T161 253Q161 173 193 131T290 88ZM430 779L445 883H541L526 779H430ZM264 779L279 883H375L359 779H264Z" />
<glyph unicode="&#xd7;" glyph-name="multiply" horiz-adv-x="479" d="M66 41L9 109L178 256L51 404L127 471L254 323L423 471L480 404L310 256L438 109L363 41L235 188L66 41Z" />
<glyph unicode="&#xd8;" glyph-name="Oslash" horiz-adv-x="638" d="M47 -37L540 723H617L124 -37H47ZM293 -12Q176 -12 111 52T45 249Q45 308 55 371T89 492T149 596T240 670T366 698Q483 698 549 634T615 436Q615 377 605 314T571 193T510 89T419 16T293 -12ZM290
88Q340 88 376 110T436 170T473 253T492 345T498 432Q498 513 466 555T369 598Q318 598 283 576T223 516T186 433T167 340T161 253Q161 173 193 131T290 88Z" />
<glyph unicode="&#xd9;" glyph-name="Ugrave" horiz-adv-x="592" d="M276 -12Q173 -12 116 35T58 175Q58 185 62 217T72 296T85 395T100 499T114 593T123 660T127 686H241Q241 686 238 661T228 593T214 501T200 399T186 303T177 230T173 194Q173 142 200 115T277
88Q332 88 366 123T410 224L475 686H588L523 223Q507 108 443 48T276 -12ZM341 751L247 850L248 853H358L430 751H341Z" />
<glyph unicode="&#xda;" glyph-name="Uacute" horiz-adv-x="592" d="M276 -12Q173 -12 116 35T58 175Q58 185 62 217T72 296T85 395T100 499T114 593T123 660T127 686H241Q241 686 238 661T228 593T214 501T200 399T186 303T177 230T173 194Q173 142 200 115T277
88Q332 88 366 123T410 224L475 686H588L523 223Q507 108 443 48T276 -12ZM294 751L377 853H497L498 850L393 751H294Z" />
<glyph unicode="&#xdb;" glyph-name="Ucircumflex" horiz-adv-x="592" d="M276 -12Q173 -12 116 35T58 175Q58 185 62 217T72 296T85 395T100 499T114 593T123 660T127 686H241Q241 686 238 661T228 593T214 501T200 399T186 303T177 230T173 194Q173 142 200
115T277 88Q332 88 366 123T410 224L475 686H588L523 223Q507 108 443 48T276 -12ZM234 748L334 853H425L496 748H411L373 790L322 748H234Z" />
<glyph unicode="&#xdc;" glyph-name="Udieresis" horiz-adv-x="592" d="M276 -12Q173 -12 116 35T58 175Q58 185 62 217T72 296T85 395T100 499T114 593T123 660T127 686H241Q241 686 238 661T228 593T214 501T200 399T186 303T177 230T173 194Q173 142 200 115T277
88Q332 88 366 123T410 224L475 686H588L523 223Q507 108 443 48T276 -12ZM404 779L419 883H515L500 779H404ZM238 779L253 883H349L333 779H238Z" />
<glyph unicode="&#xdd;" glyph-name="Yacute" horiz-adv-x="547" d="M184 0L222 268L68 686H186L294 379H298L489 686H606L336 268L297 0H184ZM277 751L360 853H480L481 850L376 751H277Z" />
<glyph unicode="&#xde;" glyph-name="Thorn" horiz-adv-x="547" d="M30 0L126 686H240L222 558H345Q441 558 488 509T535 383Q535 311 505 257T423 173T304 143H164L144 0H30ZM178 245H302Q352 245 384 277T417 365Q417 407 395 431T328 456H208L178 245Z" />
<glyph unicode="&#xdf;" glyph-name="germandbls" horiz-adv-x="501" d="M17 0L88 519Q99 596 132 643T213 713T317 735Q398 735 447 693T497 573Q497 536 482 500T441 436T379 395V391Q421 374 446 331T471 233Q471 190 455 149T408 74T338 20T251 0H173L185
92H242Q273 92 300 111T345 162T363 230Q363 274 339 303T276 333H218L232 432H285Q312 432 335 450T373 499T388 563Q388 599 369 621T310 644Q266 644 235 613T196 525L122 0H17Z" />
<glyph unicode="&#xe0;" glyph-name="agrave" horiz-adv-x="456" d="M165 -12Q101 -12 64 34T26 177Q26 302 55 382T131 500T226 538Q265 538 293 519T336 460L355 526H439Q439 526 436 504T427 446T415 365T402 277T390 195T381 134T377 107Q377 92 384 86T401
79H424L413 4Q405 -1 391 -6T355 -12Q323 -12 302 7T276 62Q254 23 224 6T165 -12ZM194 81Q220 81 239 100T270 150T290 217T301 286T304 343Q304 392 291 418T245 445Q218 445 199 425T167 373T147 306T136 238T133 185Q133 134 148 108T194 81ZM242 591L152 720L153
723H263L331 591H242Z" />
<glyph unicode="&#xe1;" glyph-name="aacute" horiz-adv-x="456" d="M165 -12Q101 -12 64 34T26 177Q26 302 55 382T131 500T226 538Q265 538 293 519T336 460L355 526H439Q439 526 436 504T427 446T415 365T402 277T390 195T381 134T377 107Q377 92 384 86T401
79H424L413 4Q405 -1 391 -6T355 -12Q323 -12 302 7T276 62Q254 23 224 6T165 -12ZM194 81Q220 81 239 100T270 150T290 217T301 286T304 343Q304 392 291 418T245 445Q218 445 199 425T167 373T147 306T136 238T133 185Q133 134 148 108T194 81ZM202 591L306 723H416L417
720L291 591H202Z" />
<glyph unicode="&#xe2;" glyph-name="acircumflex" horiz-adv-x="456" d="M165 -12Q101 -12 64 34T26 177Q26 302 55 382T131 500T226 538Q265 538 293 519T336 460L355 526H439Q439 526 436 504T427 446T415 365T402 277T390 195T381 134T377 107Q377 92 384
86T401 79H424L413 4Q405 -1 391 -6T355 -12Q323 -12 302 7T276 62Q254 23 224 6T165 -12ZM194 81Q220 81 239 100T270 150T290 217T301 286T304 343Q304 392 291 418T245 445Q218 445 199 425T167 373T147 306T136 238T133 185Q133 134 148 108T194 81ZM135 588L239
723H330L397 588H313L278 660L224 588H135Z" />
<glyph unicode="&#xe3;" glyph-name="atilde" horiz-adv-x="456" d="M165 -12Q101 -12 64 34T26 177Q26 302 55 382T131 500T226 538Q265 538 293 519T336 460L355 526H439Q439 526 436 504T427 446T415 365T402 277T390 195T381 134T377 107Q377 92 384 86T401
79H424L413 4Q405 -1 391 -6T355 -12Q323 -12 302 7T276 62Q254 23 224 6T165 -12ZM194 81Q220 81 239 100T270 150T290 217T301 286T304 343Q304 392 291 418T245 445Q218 445 199 425T167 373T147 306T136 238T133 185Q133 134 148 108T194 81ZM109 607Q113 638
128 664T167 707T219 723Q245 723 265 715T304 697T340 688Q355 688 367 697T383 723H447Q442 692 427 666T388 623T335 607Q307 607 287 616T250 633T215 642Q201 642 189 633T172 607H109Z" />
<glyph unicode="&#xe4;" glyph-name="adieresis" horiz-adv-x="456" d="M165 -12Q101 -12 64 34T26 177Q26 302 55 382T131 500T226 538Q265 538 293 519T336 460L355 526H439Q439 526 436 504T427 446T415 365T402 277T390 195T381 134T377 107Q377 92 384 86T401
79H424L413 4Q405 -1 391 -6T355 -12Q323 -12 302 7T276 62Q254 23 224 6T165 -12ZM194 81Q220 81 239 100T270 150T290 217T301 286T304 343Q304 392 291 418T245 445Q218 445 199 425T167 373T147 306T136 238T133 185Q133 134 148 108T194 81ZM305 619L320 723H416L401
619H305ZM139 619L154 723H250L234 619H139Z" />
<glyph unicode="&#xe5;" glyph-name="aring" horiz-adv-x="456" d="M165 -12Q101 -12 64 34T26 177Q26 302 55 382T131 500T226 538Q265 538 293 519T336 460L355 526H439Q439 526 436 504T427 446T415 365T402 277T390 195T381 134T377 107Q377 92 384 86T401
79H424L413 4Q405 -1 391 -6T355 -12Q323 -12 302 7T276 62Q254 23 224 6T165 -12ZM194 81Q220 81 239 100T270 150T290 217T301 286T304 343Q304 392 291 418T245 445Q218 445 199 425T167 373T147 306T136 238T133 185Q133 134 148 108T194 81ZM262 561Q227 561
203 585T179 644Q179 691 210 722T289 753Q325 753 349 730T373 671Q373 624 341 593T262 561ZM270 610Q293 610 308 625T324 665Q324 682 313 693T283 705Q259 705 244 690T228 651Q228 633 240 622T270 610Z" />
<glyph unicode="&#xe6;" glyph-name="ae" horiz-adv-x="729" d="M163 -12Q133 -12 100 -2T44 38T21 124Q21 181 44 218T109 277T202 308T311 317L318 377Q319 382 319 387T320 398Q320 420 309 434T265 449Q225 449 208 426T186 370H82Q82 421 106 459T175 517T276
538Q319 538 350 526T399 490Q424 512 456 525T530 538Q611 538 652 493T693 356Q693 328 691 297T683 235H411Q410 219 410 206T409 187Q409 132 424 105T474 77Q509 77 531 108T562 181H671Q661 129 637 85T572 15T471 -12Q363 -12 323 61Q293 28 253 8T163 -12ZM189
79Q216 79 238 94T274 135T294 196L299 235Q256 235 218 227T157 197T133 132Q133 105 147 92T189 79ZM423 317H583Q584 335 584 342T584 355Q584 401 570 425T526 449Q497 449 477 430T444 381T423 317Z" />
<glyph unicode="&#xe7;" glyph-name="ccedilla" horiz-adv-x="440" d="M199 -12Q119 -12 77 33T34 174Q34 235 43 298T77 416T145 504T259 538Q341 538 379 491T418 345V329H308V345Q308 395 296 421T253 447Q225 447 206 425T174 369T155 298T147 232T144 189Q144
136 157 108T204 79Q229 79 246 95T276 137T293 194H400Q390 140 366 93T302 17T199 -12ZM154 -182Q109 -182 72 -174L78 -125H151Q172 -125 181 -119T191 -96Q191 -77 160 -77H127L152 11H215L203 -34Q274 -40 274 -91Q274 -134 243 -158T154 -182Z" />
<glyph unicode="&#xe8;" glyph-name="egrave" horiz-adv-x="456" d="M204 -12Q120 -12 77 33T34 174Q34 224 40 275T61 373T102 457T168 516T263 538Q344 538 385 493T426 356Q426 328 424 297T416 235H144Q143 219 143 206T142 187Q142 132 157 105T207 77Q242
77 264 108T295 181H404Q394 129 370 85T305 15T204 -12ZM156 317H316Q317 335 317 342T317 355Q317 401 303 425T259 449Q230 449 210 430T177 381T156 317ZM249 591L159 720L160 723H270L338 591H249Z" />
<glyph unicode="&#xe9;" glyph-name="eacute" horiz-adv-x="456" d="M204 -12Q120 -12 77 33T34 174Q34 224 40 275T61 373T102 457T168 516T263 538Q344 538 385 493T426 356Q426 328 424 297T416 235H144Q143 219 143 206T142 187Q142 132 157 105T207 77Q242
77 264 108T295 181H404Q394 129 370 85T305 15T204 -12ZM156 317H316Q317 335 317 342T317 355Q317 401 303 425T259 449Q230 449 210 430T177 381T156 317ZM209 591L313 723H423L424 720L298 591H209Z" />
<glyph unicode="&#xea;" glyph-name="ecircumflex" horiz-adv-x="456" d="M204 -12Q120 -12 77 33T34 174Q34 224 40 275T61 373T102 457T168 516T263 538Q344 538 385 493T426 356Q426 328 424 297T416 235H144Q143 219 143 206T142 187Q142 132 157 105T207
77Q242 77 264 108T295 181H404Q394 129 370 85T305 15T204 -12ZM156 317H316Q317 335 317 342T317 355Q317 401 303 425T259 449Q230 449 210 430T177 381T156 317ZM143 588L247 723H338L405 588H321L286 660L232 588H143Z" />
<glyph unicode="&#xeb;" glyph-name="edieresis" horiz-adv-x="456" d="M204 -12Q120 -12 77 33T34 174Q34 224 40 275T61 373T102 457T168 516T263 538Q344 538 385 493T426 356Q426 328 424 297T416 235H144Q143 219 143 206T142 187Q142 132 157 105T207 77Q242
77 264 108T295 181H404Q394 129 370 85T305 15T204 -12ZM156 317H316Q317 335 317 342T317 355Q317 401 303 425T259 449Q230 449 210 430T177 381T156 317ZM313 619L328 723H424L409 619H313ZM147 619L162 723H258L242 619H147Z" />
<glyph unicode="&#xec;" glyph-name="igrave" horiz-adv-x="228" d="M28 0L101 526H207L134 0H28ZM393 591L303 720L304 723H414L482 591H393Z" />
<glyph unicode="&#xed;" glyph-name="iacute" horiz-adv-x="228" d="M28 0L101 526H207L134 0H28ZM97 591L201 723H311L312 720L186 591H97Z" />
<glyph unicode="&#xee;" glyph-name="icircumflex" horiz-adv-x="228" d="M28 0L101 526H207L134 0H28ZM287 588L391 723H482L549 588H465L430 660L376 588H287Z" />
<glyph unicode="&#xef;" glyph-name="idieresis" horiz-adv-x="228" d="M28 0L101 526H207L134 0H28ZM457 619L472 723H568L553 619H457ZM291 619L306 723H402L386 619H291Z" />
<glyph unicode="&#xf0;" glyph-name="eth" horiz-adv-x="486" d="M213 -12Q125 -12 80 34T34 180Q34 301 64 380T145 498T251 538Q266 538 280 536T305 529L308 532Q302 548 293 565T274 600L148 589L158 658L232 665Q220 680 209 694T189 719L191 723H303Q312
713 323 701T344 675L471 686L461 618L387 611Q414 563 432 502T450 362Q450 233 421 151T338 28T213 -12ZM215 79Q250 79 272 101T308 158T328 230T337 299T339 345Q339 395 322 421T267 447Q233 447 211 425T175 369T155 297T146 229T144 184Q144 132 161 106T215
79Z" />
<glyph unicode="&#xf1;" glyph-name="ntilde" horiz-adv-x="486" d="M23 0L96 526H182V453Q195 474 214 493T260 525T324 538Q366 538 393 522T433 476T446 409Q446 401 445 385T440 345T432 286T421 208T408 113T392 0H287Q294 57 301 106T313 195T323 267T331
322T335 358T337 376Q337 411 323 426T279 441Q239 441 210 406T171 308L129 0H23ZM133 607Q137 638 152 664T191 707T243 723Q269 723 289 715T328 697T364 688Q379 688 391 697T407 723H471Q466 692 451 666T412 623T359 607Q331 607 311 616T274 633T239 642Q225
642 213 633T196 607H133Z" />
<glyph unicode="&#xf2;" glyph-name="ograve" horiz-adv-x="486" d="M214 -12Q127 -12 81 34T35 178Q35 223 41 273T63 370T104 455T172 515T271 538Q359 538 404 491T450 345Q450 300 444 250T423 154T381 70T313 10T214 -12ZM217 79Q251 79 273 101T309 158T329
230T338 299T340 345Q340 395 323 421T269 447Q234 447 212 425T176 369T156 297T147 229T145 184Q145 132 162 106T217 79ZM263 591L173 720L174 723H284L352 591H263Z" />
<glyph unicode="&#xf3;" glyph-name="oacute" horiz-adv-x="486" d="M214 -12Q127 -12 81 34T35 178Q35 223 41 273T63 370T104 455T172 515T271 538Q359 538 404 491T450 345Q450 300 444 250T423 154T381 70T313 10T214 -12ZM217 79Q251 79 273 101T309 158T329
230T338 299T340 345Q340 395 323 421T269 447Q234 447 212 425T176 369T156 297T147 229T145 184Q145 132 162 106T217 79ZM223 591L327 723H437L438 720L312 591H223Z" />
<glyph unicode="&#xf4;" glyph-name="ocircumflex" horiz-adv-x="486" d="M214 -12Q127 -12 81 34T35 178Q35 223 41 273T63 370T104 455T172 515T271 538Q359 538 404 491T450 345Q450 300 444 250T423 154T381 70T313 10T214 -12ZM217 79Q251 79 273 101T309
158T329 230T338 299T340 345Q340 395 323 421T269 447Q234 447 212 425T176 369T156 297T147 229T145 184Q145 132 162 106T217 79ZM157 588L261 723H352L419 588H335L300 660L246 588H157Z" />
<glyph unicode="&#xf5;" glyph-name="otilde" horiz-adv-x="486" d="M214 -12Q127 -12 81 34T35 178Q35 223 41 273T63 370T104 455T172 515T271 538Q359 538 404 491T450 345Q450 300 444 250T423 154T381 70T313 10T214 -12ZM217 79Q251 79 273 101T309 158T329
230T338 299T340 345Q340 395 323 421T269 447Q234 447 212 425T176 369T156 297T147 229T145 184Q145 132 162 106T217 79ZM131 607Q135 638 150 664T189 707T241 723Q267 723 287 715T326 697T362 688Q377 688 389 697T405 723H469Q464 692 449 666T410 623T357
607Q329 607 309 616T272 633T237 642Q223 642 211 633T194 607H131Z" />
<glyph unicode="&#xf6;" glyph-name="odieresis" horiz-adv-x="486" d="M214 -12Q127 -12 81 34T35 178Q35 223 41 273T63 370T104 455T172 515T271 538Q359 538 404 491T450 345Q450 300 444 250T423 154T381 70T313 10T214 -12ZM217 79Q251 79 273 101T309 158T329
230T338 299T340 345Q340 395 323 421T269 447Q234 447 212 425T176 369T156 297T147 229T145 184Q145 132 162 106T217 79ZM327 619L342 723H438L423 619H327ZM161 619L176 723H272L256 619H161Z" />
<glyph unicode="&#xf7;" glyph-name="divide" horiz-adv-x="549" d="M29 206L43 304H518L504 206H29ZM195 44L210 148H307L292 44H195ZM240 362L255 467H352L337 362H240Z" />
<glyph unicode="&#xf8;" glyph-name="oslash" horiz-adv-x="486" d="M214 -12Q127 -12 81 34T35 178Q35 223 41 273T63 370T104 455T172 515T271 538Q359 538 404 491T450 345Q450 300 444 250T423 154T381 70T313 10T214 -12ZM217 79Q251 79 273 101T309 158T329
230T338 299T340 345Q340 395 323 421T269 447Q234 447 212 425T176 369T156 297T147 229T145 184Q145 132 162 106T217 79ZM35 -32L383 558H451L103 -32H35Z" />
<glyph unicode="&#xf9;" glyph-name="ugrave" horiz-adv-x="486" d="M162 -12Q120 -12 93 4T53 50T39 117Q39 125 41 141T46 181T54 240T65 318T78 413T93 526H199Q191 469 185 420T173 331T163 259T155 204T150 168T148 150Q148 116 162 101T207 85Q247 85 276
120T314 218L357 526H463L390 0H303V71Q290 51 271 32T225 1T162 -12ZM261 591L171 720L172 723H282L350 591H261Z" />
<glyph unicode="&#xfa;" glyph-name="uacute" horiz-adv-x="486" d="M162 -12Q120 -12 93 4T53 50T39 117Q39 125 41 141T46 181T54 240T65 318T78 413T93 526H199Q191 469 185 420T173 331T163 259T155 204T150 168T148 150Q148 116 162 101T207 85Q247 85 276
120T314 218L357 526H463L390 0H303V71Q290 51 271 32T225 1T162 -12ZM221 591L325 723H435L436 720L310 591H221Z" />
<glyph unicode="&#xfb;" glyph-name="ucircumflex" horiz-adv-x="486" d="M162 -12Q120 -12 93 4T53 50T39 117Q39 125 41 141T46 181T54 240T65 318T78 413T93 526H199Q191 469 185 420T173 331T163 259T155 204T150 168T148 150Q148 116 162 101T207 85Q247
85 276 120T314 218L357 526H463L390 0H303V71Q290 51 271 32T225 1T162 -12ZM154 588L258 723H349L416 588H332L297 660L243 588H154Z" />
<glyph unicode="&#xfc;" glyph-name="udieresis" horiz-adv-x="486" d="M162 -12Q120 -12 93 4T53 50T39 117Q39 125 41 141T46 181T54 240T65 318T78 413T93 526H199Q191 469 185 420T173 331T163 259T155 204T150 168T148 150Q148 116 162 101T207 85Q247 85
276 120T314 218L357 526H463L390 0H303V71Q290 51 271 32T225 1T162 -12ZM324 619L339 723H435L420 619H324ZM158 619L173 723H269L253 619H158Z" />
<glyph unicode="&#xfd;" glyph-name="yacute" horiz-adv-x="440" d="M57 -182Q27 -182 10 -179T-12 -173L-2 -93H43Q71 -93 98 -72T144 0L48 526H157L201 255Q204 241 206 222T210 183T213 149T216 130H220Q221 134 226 148T237 181T249 219T262 254L369 526H477L265
27Q241 -30 211 -77T143 -153T57 -182ZM207 591L311 723H421L422 720L296 591H207Z" />
<glyph unicode="&#xfe;" glyph-name="thorn" horiz-adv-x="486" d="M0 -175L124 723H230L194 469Q220 505 250 521T313 538Q378 538 415 491T453 349Q453 224 423 144T346 26T248 -12Q209 -12 182 5T138 57L105 -175H0ZM227 85Q257 85 278 104T311 154T331 220T341
288T344 344Q344 392 329 416T278 441Q248 441 228 422T194 373T173 307T162 239T159 183Q159 136 175 111T227 85Z" />
<glyph unicode="&#xff;" glyph-name="ydieresis" horiz-adv-x="440" d="M57 -182Q27 -182 10 -179T-12 -173L-2 -93H43Q71 -93 98 -72T144 0L48 526H157L201 255Q204 241 206 222T210 183T213 149T216 130H220Q221 134 226 148T237 181T249 219T262 254L369 526H477L265
27Q241 -30 211 -77T143 -153T57 -182ZM311 619L326 723H422L407 619H311ZM145 619L160 723H256L240 619H145Z" />
<glyph unicode="&#x2013;" glyph-name="endash" horiz-adv-x="456" d="M-2 225L9 315H465L452 225H-2Z" />
<glyph unicode="&#x2014;" glyph-name="emdash" horiz-adv-x="820" d="M-4 225L7 315H827L814 225H-4Z" />
<glyph unicode="&#x2018;" glyph-name="quoteleft" horiz-adv-x="212" d="M71 414L87 530L168 686H234L169 541H214L196 414H71Z" />
<glyph unicode="&#x2019;" glyph-name="quoteright" horiz-adv-x="212" d="M61 414L127 559H82L99 686H224L208 570L127 414H61Z" />
<glyph unicode="&#x201a;" glyph-name="quotesinglbase" horiz-adv-x="212" d="M2 -145L68 0H23L40 127H165L150 11L68 -145H2Z" />
<glyph unicode="&#x201c;" glyph-name="quotedblleft" horiz-adv-x="363" d="M222 414L238 530L319 686H385L320 541H365L347 414H222ZM55 414L71 530L152 686H219L153 541H198L180 414H55Z" />
<glyph unicode="&#x201d;" glyph-name="quotedblright" horiz-adv-x="363" d="M228 414L293 559H248L266 686H391L375 570L294 414H228ZM61 414L127 559H82L99 686H224L208 570L127 414H61Z" />
<glyph unicode="&#x201e;" glyph-name="quotedblbase" horiz-adv-x="363" d="M169 -145L234 0H189L207 127H332L316 11L235 -145H169ZM2 -145L68 0H23L40 127H165L150 11L68 -145H2Z" />
<glyph unicode="&#x2022;" glyph-name="bullet" horiz-adv-x="287" d="M150 224Q118 224 92 240T50 284T34 344Q34 377 49 403T91 446T150 463Q183 463 209 447T251 404T267 344Q267 312 251 285T209 241T150 224Z" />
<glyph unicode="&#x2039;" glyph-name="guilsinglleft" horiz-adv-x="273" d="M140 126L31 326L193 526H281L143 326L224 126H140Z" />
<glyph unicode="&#x203a;" glyph-name="guilsinglright" horiz-adv-x="273" d="M15 126L153 326L71 526H156L265 326L102 126H15Z" />
</font>
</defs>
</svg>
