<?xml version="1.0" standalone="no"?>
<!DOCTYPE svg PUBLIC "-//W3C//DTD SVG 1.1//EN" "http://www.w3.org/Graphics/SVG/1.1/DTD/svg11.dtd">
<svg xmlns="http://www.w3.org/2000/svg">
<defs >
<font id="ArchivoNarrow" horiz-adv-x="471" ><font-face
    font-family="Archivo Narrow"
    units-per-em="1000"
    panose-1="0 0 0 0 0 0 0 0 0 0"
    ascent="1035"
    descent="-312"
    alphabetic="0" />
<glyph unicode=" " glyph-name="space" horiz-adv-x="228" />
<glyph unicode="!" glyph-name="exclam" horiz-adv-x="273" d="M89 197L123 686H276L171 197H89ZM34 0L54 137H192L172 0H34Z" />
<glyph unicode="&quot;" glyph-name="quotedbl" horiz-adv-x="389" d="M265 407V539L286 686H408L387 539L344 407H265ZM84 407V539L105 686H227L206 539L163 407H84Z" />
<glyph unicode="#" glyph-name="numbersign" horiz-adv-x="456" d="M41 0L85 195H22V279H104L135 420H61V504H154L198 698H286L242 504H317L361 698H449L405 504H467V420H386L355 279H428V195H336L292 0H204L248 195H173L129 0H41ZM192 279H267L298 420H223L192 279Z" />
<glyph unicode="$" glyph-name="dollar" horiz-adv-x="456" d="M160 -49L176 69Q106 77 65 112T24 203Q24 220 27 235T30 250H144Q144 250 142 241T140 225Q140 197 154 182T189 161L209 303Q177 316 146 333T93 378T72 453Q72 504 96 539T162 594T254 616L269
723H318L303 615Q356 609 386 585T429 525T442 451H329Q329 477 322 496T290 523L271 393Q309 379 343 363T400 319T422 244Q422 182 394 143T322 86T225 67L209 -49H160ZM238 157Q261 160 282 174T303 219Q303 242 290 256T256 282L238 157ZM225 414L241 525Q219
521 204 506T188 467Q188 448 198 436T225 414Z" />
<glyph unicode="%" glyph-name="percent" horiz-adv-x="729" d="M78 0L593 686H679L163 0H78ZM532 -12Q473 -12 439 15T405 112Q405 200 427 251T484 326T562 349Q621 349 655 322T689 224Q689 188 683 147T660 70T612 11T532 -12ZM532 61Q562 61 575 89T595 161Q598
184 599 197T600 220Q600 246 592 261T562 276Q532 276 519 248T499 176Q495 153 494 140T493 117Q493 92 501 77T532 61ZM195 337Q136 337 102 364T68 461Q68 549 90 600T147 675T225 698Q284 698 318 671T352 573Q352 537 346 496T323 419T275 360T195 337ZM195
410Q225 410 238 438T258 510Q261 533 262 546T263 569Q263 595 255 610T225 625Q195 625 182 597T162 525Q158 502 157 489T156 466Q156 441 164 426T195 410Z" />
<glyph unicode="&amp;" glyph-name="ampersand" horiz-adv-x="592" d="M392 0L200 364Q180 403 171 438T162 504Q162 558 184 602T249 672T349 698Q400 698 432 680T479 631T494 563Q494 515 470 467T400 382T292 327L265 424Q298 428 323 448T362 497T377 551Q377
571 368 584T339 597Q306 597 292 571T277 510Q277 482 284 452T307 400L524 0H392ZM204 -13Q145 -13 106 10T49 72T30 155Q30 207 53 260T121 356T231 415L260 316Q226 311 202 286T164 229T151 166Q151 135 167 112T217 89Q267 89 313 118T396 208T451 359H559Q538
263 499 193T410 77T307 9T204 -13Z" />
<glyph unicode="&apos;" glyph-name="quotesingle" horiz-adv-x="195" d="M84 407V539L105 686H227L206 539L163 407H84Z" />
<glyph unicode="(" glyph-name="parenleft" horiz-adv-x="273" d="M129 -157Q34 -10 34 183Q34 209 36 235T42 288Q59 411 114 527T254 735H333Q280 658 238 565T170 373T145 178Q145 87 162 0T208 -157H129Z" />
<glyph unicode=")" glyph-name="parenright" horiz-adv-x="273" d="M-47 -157Q6 -79 48 13T116 205T141 400Q141 491 124 578T78 735H157Q204 663 228 577T252 395Q252 370 250 343T244 290Q227 167 172 51T32 -157H-47Z" />
<glyph unicode="*" glyph-name="asterisk" horiz-adv-x="319" d="M144 381L168 483L76 423L47 491L145 533L59 577L107 643L183 584L187 686H265L241 585L333 643L363 577L263 533L351 491L302 423L226 483L222 381H144Z" />
<glyph unicode="+" glyph-name="plus" horiz-adv-x="479" d="M151 0L179 203H25L40 307H194L222 511H325L297 307H452L437 203H282L254 0H151Z" />
<glyph unicode="," glyph-name="comma" horiz-adv-x="228" d="M-6 -156L67 0H16L35 137H173L156 12L66 -156H-6Z" />
<glyph unicode="-" glyph-name="hyphen" horiz-adv-x="273" d="M13 211L30 329H271L254 211H13Z" />
<glyph unicode="." glyph-name="period" horiz-adv-x="228" d="M15 0L34 137H172L153 0H15Z" />
<glyph unicode="/" glyph-name="slash" horiz-adv-x="228" d="M-42 -49L210 735H295L43 -49H-42Z" />
<glyph unicode="0" glyph-name="zero" horiz-adv-x="456" d="M201 -12Q149 -12 112 7T54 72T33 199Q33 259 45 343Q64 483 96 560T175 667T280 698Q332 698 369 679T427 614T448 485Q448 455 446 420T437 343Q418 204 385 127T306 19T201 -12ZM205 89Q235 89 254
112T285 184T308 308Q317 368 321 404T327 462T329 500Q329 549 318 573T276 597Q246 597 227 574T196 502T173 378Q169 346 164 313T155 247T151 177Q151 132 163 111T205 89Z" />
<glyph unicode="1" glyph-name="one" horiz-adv-x="456" d="M-2 0L11 101H163L224 529H70L81 609Q110 612 149 622T230 649T306 686H364L282 101H422L408 0H-2Z" />
<glyph unicode="2" glyph-name="two" horiz-adv-x="456" d="M-4 0L0 24Q9 80 34 125T92 211Q122 247 155 279T219 341T275 402T316 465T331 535Q331 557 319 576T276 595Q239 595 219 564T194 491L189 450H68Q68 516 93 572T167 663T287 698Q360 698 407 663T457
550Q457 494 438 446T389 355T323 275T253 207T193 148Q184 138 177 129T164 112H400L384 0H-4Z" />
<glyph unicode="3" glyph-name="three" horiz-adv-x="456" d="M209 -12Q118 -12 71 33T24 154Q24 164 25 176T29 212H153Q150 189 149 180T148 163Q148 128 164 109T211 89Q236 89 256 103T289 146T301 221Q301 266 281 282T233 298H200L214 399H249Q269 399 288
414T320 458T333 533Q333 566 320 581T282 597Q251 597 231 571T202 482H79Q85 553 114 601T187 673T284 698Q364 698 411 659T458 542Q458 466 425 423T346 356V352Q381 338 403 306T425 220Q425 149 396 97T318 16T209 -12Z" />
<glyph unicode="4" glyph-name="four" horiz-adv-x="456" d="M225 0L247 155H3L17 251Q61 315 102 389T179 543T247 698H369Q345 631 310 562T238 431T168 322T119 256H261L278 378Q295 404 312 437T345 504T370 564H423L379 256H449L435 155H366L344 0H225Z" />
<glyph unicode="5" glyph-name="five" horiz-adv-x="456" d="M205 -12Q120 -12 72 35T24 168Q24 179 25 190T27 213H151Q148 194 148 177Q148 136 164 112T210 88Q234 88 256 107T293 165T308 260Q308 303 293 325T253 348Q225 348 206 332T172 290L59 306L135
686H464L448 574H224L191 412Q208 424 233 435T293 446Q353 446 392 405T432 278Q432 186 402 121T320 22T205 -12Z" />
<glyph unicode="6" glyph-name="six" horiz-adv-x="456" d="M215 -12Q160 -12 121 8T60 75T38 202Q38 228 40 258T47 323Q66 466 99 548T179 664T284 698Q370 698 408 651T446 530Q446 517 445 503T442 475H320Q322 489 323 502T324 526Q324 561 314 579T277 597Q246
597 228 570T199 494T177 377Q197 403 227 417T289 431Q360 431 393 385T427 264Q427 180 398 118T321 22T215 -12ZM214 89Q241 89 258 107T285 151T299 205T303 250Q303 288 290 310T248 333Q222 333 202 312T170 255T158 173Q158 136 172 113T214 89Z" />
<glyph unicode="7" glyph-name="seven" horiz-adv-x="456" d="M69 0Q81 83 109 163T175 317T259 457T351 574H74L90 686H496L484 605Q444 554 401 491T319 356T251 207T211 51Q209 37 208 28T205 0H69Z" />
<glyph unicode="8" glyph-name="eight" horiz-adv-x="456" d="M202 -12Q106 -12 64 34T21 149Q21 190 33 229T70 301T134 352Q106 372 93 402T80 470Q80 531 103 582T171 666T280 698Q339 698 376 676T431 617T449 538Q449 486 424 434T351 352Q386 333 402 300T418
225Q418 162 394 108T322 21T202 -12ZM206 88Q245 88 270 123T296 225Q296 262 281 281T236 301Q203 301 183 279T154 225T145 163Q145 126 161 107T206 88ZM250 400Q282 400 305 433T328 531Q328 564 315 581T277 598Q248 598 231 577T207 526T199 469Q199 435
212 418T250 400Z" />
<glyph unicode="9" glyph-name="nine" horiz-adv-x="456" d="M200 -12Q115 -12 77 35T38 156Q38 170 39 183T42 211H164Q162 197 161 184T160 160Q160 126 171 108T207 89Q238 89 256 116T286 192T307 309Q287 284 257 270T195 255Q125 255 91 301T57 422Q57 506
86 568T163 664T269 698Q324 698 363 678T424 611T446 484Q446 458 444 428T437 363Q418 220 385 138T305 22T200 -12ZM236 353Q263 353 283 374T314 431T326 513Q326 551 313 574T270 597Q243 597 226 579T199 535T185 481T181 436Q181 399 194 376T236 353Z"
/>
<glyph unicode=":" glyph-name="colon" horiz-adv-x="273" d="M77 389L96 526H234L215 389H77ZM23 0L42 137H180L161 0H23Z" />
<glyph unicode=";" glyph-name="semicolon" horiz-adv-x="273" d="M5 -156L78 0H27L46 137H184L167 12L77 -156H5ZM83 389L102 526H240L221 389H83Z" />
<glyph unicode="&lt;" glyph-name="less" horiz-adv-x="479" d="M408 -9L25 197L42 324L483 531L467 413L135 261L424 109L408 -9Z" />
<glyph unicode="=" glyph-name="equal" horiz-adv-x="479" d="M40 308L55 412H467L452 308H40ZM10 96L25 199H437L422 96H10Z" />
<glyph unicode="&gt;" glyph-name="greater" horiz-adv-x="479" d="M-3 -9L12 109L345 261L55 413L71 531L454 324L437 197L-3 -9Z" />
<glyph unicode="?" glyph-name="question" horiz-adv-x="501" d="M181 197L187 240Q192 274 209 301T249 354T293 404T329 458T344 524Q344 537 340 552T322 579T281 591Q261 591 246 583T221 561T204 530T195 495T192 459H67Q67 523 93 577T170 664T294 698Q380
698 428 657T477 548Q477 493 462 455T423 388T376 336T334 286T310 225L306 197H181ZM148 0L168 137H305L285 0H148Z" />
<glyph unicode="@" glyph-name="at" horiz-adv-x="800" d="M388 -154Q278 -154 198 -119T76 -6T33 194Q33 359 85 471T232 641T458 698Q559 698 623 674T722 606T770 502T784 369Q784 309 771 248T731 136T661 53T558 22Q525 22 503 30T469 52T449 77Q430 49 402
36T351 22Q290 22 256 64T222 191Q222 306 248 379T316 486T403 521Q440 521 464 503T502 453L521 510H605Q605 508 601 482T591 416T578 332T565 247T555 179T551 149Q551 129 560 119T590 109Q614 109 633 122T665 158Q683 186 694 223T710 299T716 368Q716 414
710 452T690 522Q666 576 615 604T475 633Q396 633 328 610T209 536T130 402T101 196Q101 89 137 27T236 -62T379 -89Q447 -89 479 -79T511 -69L503 -136Q495 -139 461 -146T388 -154ZM379 115Q402 115 418 131T444 174T460 231T468 290T471 340Q471 381 462 404T423
428Q401 428 385 411T358 365T341 306T333 248T330 205Q330 162 341 139T379 115Z" />
<glyph unicode="A" glyph-name="A" horiz-adv-x="592" d="M-33 0L281 686H428L551 0H421L399 135H154L95 0H-33ZM205 249H380L350 437Q346 463 344 494T340 547T338 570H334Q334 570 327 547T310 493T288 437L205 249Z" />
<glyph unicode="B" glyph-name="B" horiz-adv-x="592" d="M28 0L124 686H409Q486 686 533 644T581 534Q581 490 563 455T516 396T454 360L453 356Q496 341 523 302T551 204Q551 141 519 95T435 25T327 0H28ZM170 114H321Q349 114 372 126T408 161T422 218Q422
251 402 273T337 295H196L170 114ZM212 408H345Q378 408 401 421T436 456T448 503Q448 538 429 555T377 572H235L212 408Z" />
<glyph unicode="C" glyph-name="C" horiz-adv-x="592" d="M284 -12Q171 -12 108 52T45 250Q45 313 55 377T88 498T146 601T234 672T353 698Q461 698 525 635T589 444V431H459V449Q459 516 431 552T353 588Q317 588 289 573T242 531T209 470T188 398T177 324T174
255Q174 181 201 140T287 98Q332 98 363 119T413 176T441 254H566Q551 183 516 122T423 25T284 -12Z" />
<glyph unicode="D" glyph-name="D" horiz-adv-x="592" d="M28 0L124 686H335Q449 686 512 621T576 426Q576 370 566 311T532 196T472 96T384 26T264 0H28ZM171 114H253Q299 114 332 133T387 186T423 259T441 340T447 417Q447 494 413 533T317 572H235L171 114Z" />
<glyph unicode="E" glyph-name="E" horiz-adv-x="547" d="M28 0L124 686H556L540 572H235L212 408H474L458 294H196L170 114H482L466 0H28Z" />
<glyph unicode="F" glyph-name="F" horiz-adv-x="501" d="M28 0L125 686H523L508 572H235L211 399H443L427 285H195L155 0H28Z" />
<glyph unicode="G" glyph-name="G" horiz-adv-x="638" d="M269 -12Q163 -12 104 52T45 250Q45 310 56 373T90 494T151 598T242 671T367 698Q480 698 546 636T613 447H483V456Q483 521 453 554T372 588Q324 588 290 566T233 508T198 427T180 338T174 255Q174 181
203 140T297 98Q345 98 378 118T431 176T459 263L467 308L514 263H306L322 373H604L552 0H470L458 76Q424 36 377 12T269 -12Z" />
<glyph unicode="H" glyph-name="H" horiz-adv-x="592" d="M26 0L122 686H249L210 408H424L462 686H589L493 0H366L408 294H194L153 0H26Z" />
<glyph unicode="I" glyph-name="I" horiz-adv-x="228" d="M18 0L114 686H241L145 0H18Z" />
<glyph unicode="J" glyph-name="J" horiz-adv-x="456" d="M188 -12Q99 -12 51 24T2 129Q2 135 2 142T5 167T12 216H133Q128 180 127 171T126 158Q126 98 188 98Q219 98 236 117T258 173L330 686H457L383 163Q371 78 321 33T188 -12Z" />
<glyph unicode="K" glyph-name="K" horiz-adv-x="592" d="M28 0L124 686H252L204 348L492 686H642L399 405L552 0H412L304 307L180 175L156 0H28Z" />
<glyph unicode="L" glyph-name="L" horiz-adv-x="501" d="M28 0L124 686H251L172 120H459L442 0H28Z" />
<glyph unicode="M" glyph-name="M" horiz-adv-x="683" d="M21 0L117 686H294L325 308Q327 291 328 265T330 214T331 171T332 153H336Q336 153 341 171T353 217T367 271T381 312L516 686H689L593 0H476L537 437Q539 449 542 467T548 503T554 534T557 547H553Q547
530 541 512T528 477T515 441L358 0H248L213 440Q212 458 211 476T208 511T205 547H201Q201 547 200 534T198 502T195 465T191 437L129 0H21Z" />
<glyph unicode="N" glyph-name="N" horiz-adv-x="592" d="M28 0L124 686H236L393 308Q397 300 402 285T411 257T415 244L418 247Q418 247 419 259T422 285T425 304L478 686H591L495 0H382L225 378Q222 385 217 400T207 429T203 442L199 439Q199 439 198 429T196
405T193 382L140 0H28Z" />
<glyph unicode="O" glyph-name="O" horiz-adv-x="638" d="M295 -12Q175 -12 108 52T41 250Q41 310 52 373T86 494T147 598T239 671T364 698Q484 698 551 634T619 435Q619 375 608 312T573 191T511 88T420 15T295 -12ZM290 98Q338 98 372 120T429 178T465 258T483
347T489 430Q489 505 460 546T369 588Q320 588 286 566T229 508T194 427T176 338T170 255Q170 181 199 140T290 98Z" />
<glyph unicode="P" glyph-name="P" horiz-adv-x="547" d="M28 0L124 686H361Q458 686 505 636T552 509Q552 436 522 382T440 297T323 266H192L154 0H28ZM208 379H316Q362 379 391 408T421 489Q421 527 400 549T338 572H235L208 379Z" />
<glyph unicode="Q" glyph-name="Q" horiz-adv-x="638" d="M380 -124L296 -12Q178 -11 112 53T45 250Q45 310 56 373T90 494T151 598T243 671T368 698Q488 698 555 634T623 435Q623 375 612 312T577 190T515 86T423 14L535 -124H380ZM294 98Q342 98 376 120T433
178T469 258T487 347T493 430Q493 505 464 546T373 588Q324 588 290 566T233 508T198 427T180 338T174 255Q174 181 203 140T294 98Z" />
<glyph unicode="R" glyph-name="R" horiz-adv-x="592" d="M28 0L124 686H393Q493 686 541 639T590 517Q590 443 551 389T445 311L537 0H400L320 286H194L155 0H28ZM210 399H345Q395 399 424 426T453 499Q453 533 434 552T374 572H235L210 399Z" />
<glyph unicode="S" glyph-name="S" horiz-adv-x="547" d="M259 -12Q221 -12 181 -2T107 29T52 86T31 172Q31 189 33 207T36 233H168Q167 227 165 216T163 185Q163 168 170 148T200 113T267 98Q294 98 314 105T348 125T369 154T376 187Q376 222 355 245T301 284T231
316T161 354T107 408T86 491Q86 541 108 588T182 667T318 698Q405 698 451 669T514 591T532 484H403Q403 513 394 536T364 573T311 587Q303 587 288 585T258 576T231 555T220 516Q220 485 241 466T295 432T364 402T434 363T488 305T509 213Q509 159 490 117T437
47T358 3T259 -12Z" />
<glyph unicode="T" glyph-name="T" horiz-adv-x="501" d="M153 0L233 572H64L80 686H544L528 572H359L279 0H153Z" />
<glyph unicode="U" glyph-name="U" horiz-adv-x="592" d="M282 -12Q176 -12 118 36T59 176Q59 186 62 218T72 297T85 396T100 500T114 593T123 660T127 686H254Q254 686 251 661T241 595T228 503T214 402T200 308T191 235T187 199Q187 150 211 124T282 98Q332
98 362 131T402 227L466 686H593L528 223Q512 108 448 48T282 -12Z" />
<glyph unicode="V" glyph-name="V" horiz-adv-x="547" d="M178 0L67 686H197L268 198H272L480 686H608L305 0H178Z" />
<glyph unicode="W" glyph-name="W" horiz-adv-x="774" d="M118 0L67 686H193L210 266Q211 250 211 234T213 201T214 168H218Q218 168 222 186T233 227T244 264L384 686H529L547 264Q547 252 547 240T549 216T550 192T551 168H555Q555 168 559 185T569 224T581
264L720 686H832L596 0H461L430 437Q429 450 429 475T430 534H425Q425 534 423 523T416 496T408 464T399 437L253 0H118Z" />
<glyph unicode="X" glyph-name="X" horiz-adv-x="547" d="M-29 0L220 358L84 686H224L306 477H310L447 686H589L360 358L511 0H369L274 238H270L110 0H-29Z" />
<glyph unicode="Y" glyph-name="Y" horiz-adv-x="547" d="M179 0L215 259L67 686H197L296 385H300L479 686H608L342 259L305 0H179Z" />
<glyph unicode="Z" glyph-name="Z" horiz-adv-x="501" d="M-12 0L-8 49L335 572H85L101 686H529L525 636L181 114H459L443 0H-12Z" />
<glyph unicode="[" glyph-name="bracketleft" horiz-adv-x="273" d="M-6 -161L118 735H317L304 640H221L122 -66H205L192 -161H-6Z" />
<glyph unicode="\" glyph-name="backslash" horiz-adv-x="228" d="M115 -49L58 735H139L197 -49H115Z" />
<glyph unicode="]" glyph-name="bracketright" horiz-adv-x="273" d="M-26 -161L-13 -66H69L168 640H85L98 735H297L172 -161H-26Z" />
<glyph unicode="^" glyph-name="asciicircum" horiz-adv-x="479" d="M4 294L215 686H322L424 294H314L251 564L119 294H4Z" />
<glyph unicode="_" glyph-name="underscore" horiz-adv-x="456" d="M-44 -132L-36 -63H419L410 -132H-44Z" />
<glyph unicode="`" glyph-name="grave" horiz-adv-x="0" d="M154 591L64 720L65 723H185L253 591H154Z" />
<glyph unicode="a" glyph-name="a" horiz-adv-x="456" d="M164 -12Q97 -12 60 34T22 174Q22 301 51 381T126 500T221 538Q262 538 289 518T331 463L351 526H444Q444 526 441 505T432 447T420 369T407 283T395 203T386 143T382 117Q382 102 389 96T406 89H424L412
4Q403 -1 389 -6T353 -12Q320 -12 299 6T270 58Q251 21 221 5T164 -12ZM195 91Q220 91 238 109T267 156T285 218T294 284T297 338Q297 384 286 409T244 435Q219 435 202 416T172 366T154 301T144 237T141 190Q141 142 154 117T195 91Z" />
<glyph unicode="b" glyph-name="b" horiz-adv-x="501" d="M262 -12Q220 -12 189 7T140 70L116 0H23L123 723H242L207 474Q229 503 262 520T332 538Q392 538 429 493T467 349Q467 308 461 260T441 164T403 76T345 12T262 -12ZM235 97Q264 97 283 115T315 162T333
224T342 288T345 340Q345 384 331 406T283 429Q255 429 235 412T203 366T183 305T173 241T170 188Q170 145 185 121T235 97Z" />
<glyph unicode="c" glyph-name="c" horiz-adv-x="456" d="M203 -12Q120 -12 78 33T36 172Q36 234 45 298T80 416T151 504T269 538Q355 538 393 490T432 343V328H310V343Q310 389 300 413T260 437Q234 437 216 416T187 361T169 293T161 230T158 191Q158 141 169
115T212 89Q234 89 250 103T277 142T294 195H413Q401 140 377 93T312 17T203 -12Z" />
<glyph unicode="d" glyph-name="d" horiz-adv-x="501" d="M179 -12Q112 -12 74 35T36 174Q36 301 66 381T143 500T242 538Q283 538 310 520T353 469L390 723H508L408 0H311V76Q283 29 250 9T179 -12ZM220 97Q248 97 267 114T300 160T320 221T329 285T332 338Q332
382 318 405T271 429Q241 429 221 411T188 364T169 302T160 238T157 186Q157 143 171 120T220 97Z" />
<glyph unicode="e" glyph-name="e" horiz-adv-x="456" d="M203 -12Q118 -12 76 33T33 172Q33 224 39 276T61 375T102 459T169 517T266 538Q347 538 388 494T429 359Q429 330 427 298T418 233H155Q154 217 154 205T153 187Q153 136 165 111T208 85Q238 85 257 114T284
182H407Q395 130 371 86T306 15T203 -12ZM168 320H306Q308 342 308 348T308 359Q308 399 297 420T259 441Q234 441 217 424T187 379T168 320Z" />
<glyph unicode="f" glyph-name="f" horiz-adv-x="273" d="M1 -182Q-21 -182 -45 -178T-85 -170L-72 -81H-28Q17 -81 23 -33L83 425H31L45 526H97L106 590Q111 625 126 657T172 710T249 731Q269 731 294 728T333 719L320 630H272Q230 630 224 587L216 526H306L292
425H202L140 -41Q136 -76 121 -108T77 -161T1 -182Z" />
<glyph unicode="g" glyph-name="g" horiz-adv-x="501" d="M184 -182Q124 -182 85 -160T27 -102T7 -24H129Q129 -51 144 -66T192 -81Q233 -81 258 -55T292 25L300 79Q279 51 248 33T181 14Q141 14 108 32T56 88T36 187Q36 226 42 273T62 367T100 452T158 514T241
538Q282 538 314 519T363 456L386 526H480L413 49Q396 -74 339 -128T184 -182ZM223 117Q250 117 269 133T300 175T320 231T330 289T333 338Q333 382 318 405T268 429Q239 429 220 412T188 367T170 308T161 246T158 196Q158 117 223 117Z" />
<glyph unicode="h" glyph-name="h" horiz-adv-x="501" d="M23 0L123 723H242L206 471Q229 500 260 519T336 538Q378 538 406 522T449 476T463 403Q463 396 463 389T461 369T456 331T446 264T432 158T410 0H292Q304 87 312 147T326 246T334 308T339 342T340 357T341
363Q341 398 328 413T283 429Q249 429 222 400T186 316L142 0H23Z" />
<glyph unicode="i" glyph-name="i" horiz-adv-x="228" d="M23 0L96 526H215L142 0H23ZM105 608L121 723H242L226 608H105Z" />
<glyph unicode="j" glyph-name="j" horiz-adv-x="228" d="M-4 -182Q-26 -182 -51 -178T-90 -170L-78 -81H-35Q10 -81 18 -33L95 526H214L135 -41Q130 -76 116 -108T72 -161T-4 -182ZM102 608L118 723H239L223 608H102Z" />
<glyph unicode="k" glyph-name="k" horiz-adv-x="456" d="M23 0L123 723H242L187 329L353 526H488L304 310L422 0H296L220 215L164 160L142 0H23Z" />
<glyph unicode="l" glyph-name="l" horiz-adv-x="228" d="M22 0L122 723H241L141 0H22Z" />
<glyph unicode="m" glyph-name="m" horiz-adv-x="729" d="M24 0L98 526H195V458Q210 481 228 499T271 527T327 538Q373 538 400 516T438 452Q454 476 473 495T517 526T576 538Q615 538 641 522T680 476T693 403Q693 396 693 389T691 369T686 331T677 264T662 158T640
0H521Q533 87 541 147T555 246T564 308T568 343T570 360T571 371Q571 397 560 413T522 429Q492 429 467 401T434 316L392 0H273Q285 87 293 147T306 246T315 308T319 343T321 360T322 371Q322 397 311 413T274 429Q243 429 219 401T186 316L143 0H24Z" />
<glyph unicode="n" glyph-name="n" horiz-adv-x="501" d="M23 0L96 526H193V456Q209 479 229 497T275 527T336 538Q378 538 406 522T449 476T463 403Q463 396 463 389T461 369T456 331T446 264T432 158T410 0H292Q304 87 312 147T325 246T334 308T338 342T340
357T341 363Q341 398 328 413T283 429Q249 429 221 400T185 316L142 0H23Z" />
<glyph unicode="o" glyph-name="o" horiz-adv-x="501" d="M222 -12Q131 -12 84 35T36 180Q36 226 42 276T64 372T107 456T177 516T279 538Q371 538 418 490T465 343Q465 297 459 247T437 151T394 68T324 10T222 -12ZM226 89Q259 89 280 111T314 167T333 237T340
303T342 343Q342 389 326 413T275 437Q242 437 221 415T187 359T168 289T161 223T159 183Q159 137 175 113T226 89Z" />
<glyph unicode="p" glyph-name="p" horiz-adv-x="501" d="M0 -172L96 526H193V449Q220 497 254 517T325 538Q393 538 430 491T468 352Q468 225 438 145T361 26T262 -12Q220 -12 193 6T150 57L118 -172H0ZM237 97Q266 97 285 115T317 162T335 224T344 288T347 340Q347
384 333 406T284 429Q256 429 237 412T204 366T184 305T175 241T172 188Q172 145 187 121T237 97Z" />
<glyph unicode="q" glyph-name="q" horiz-adv-x="501" d="M265 -172L295 52Q274 22 242 5T171 -12Q111 -12 74 33T36 177Q36 218 42 266T62 362T100 450T158 514T241 538Q282 538 314 519T363 456L386 526H480L384 -172H265ZM220 97Q248 97 268 114T300 160T320
221T330 285T333 338Q333 382 318 405T268 429Q239 429 220 411T188 364T170 302T161 238T158 186Q158 143 172 120T220 97Z" />
<glyph unicode="r" glyph-name="r" horiz-adv-x="319" d="M23 0L96 526H193V446Q204 468 218 489T253 524T301 538Q324 538 336 534T349 530L334 414H296Q257 414 225 389T182 293L141 0H23Z" />
<glyph unicode="s" glyph-name="s" horiz-adv-x="456" d="M212 -12Q154 -12 111 4T45 51T22 124Q22 141 25 156T28 171H150Q150 171 148 162T146 146Q146 111 169 99T220 86Q241 86 263 98T285 140Q285 166 270 181T230 206T178 228T126 255T86 300T70 374Q70
428 96 464T167 519T264 538Q329 538 365 514T417 453T432 372H311Q311 401 301 420T252 440Q229 440 212 426T194 388Q194 364 209 350T250 327T303 307T356 281T396 237T412 165Q412 101 384 62T310 6T212 -12Z" />
<glyph unicode="t" glyph-name="t" horiz-adv-x="273" d="M148 -12Q88 -12 65 20T42 96Q42 102 45 128T53 192T64 270T75 345T83 403T87 425H34L48 526H101L141 674H241L219 526H295L281 425H206Q206 425 203 404T195 349T185 277T175 205T167 147T164 122Q164
89 200 89H233L221 0Q208 -4 187 -8T148 -12Z" />
<glyph unicode="u" glyph-name="u" horiz-adv-x="501" d="M165 -12Q123 -12 95 4T53 51T38 123Q38 130 38 137T40 157T45 195T55 262T70 368T91 526H209Q197 440 189 380T176 280T167 218T163 184T161 169T160 163Q160 129 173 113T218 97Q253 97 281 126T316
210L359 526H478L405 0H307V68Q291 46 271 28T224 -1T165 -12Z" />
<glyph unicode="v" glyph-name="v" horiz-adv-x="456" d="M133 0L44 526H163L200 300Q202 285 204 259T209 206T213 161T215 142H219Q219 142 225 160T239 204T258 256T275 300L372 526H493L254 0H133Z" />
<glyph unicode="w" glyph-name="w" horiz-adv-x="638" d="M97 0L42 526H155L173 309Q176 272 178 232T181 165T182 137H186Q186 137 191 163T205 229T227 308L302 526H422L435 307Q436 288 437 259T438 203T439 156T439 137H443Q443 137 447 154T459 199T475 256T492
307L566 526H673L474 0H356L339 251Q337 279 336 311T334 366T333 389H327Q327 389 325 367T317 313T302 252L216 0H97Z" />
<glyph unicode="x" glyph-name="x" horiz-adv-x="456" d="M-25 0L170 272L59 526H188L246 377H251L350 526H479L297 272L415 0H286L221 169H216L102 0H-25Z" />
<glyph unicode="y" glyph-name="y" horiz-adv-x="456" d="M68 -182Q32 -182 13 -178T-7 -173L4 -81H58Q84 -81 108 -62T149 0L49 526H169L213 279Q216 264 218 241T223 196T226 158T227 142H231Q231 142 235 156T246 193T260 238T275 278L374 526H492L281 27Q257
-30 227 -77T157 -153T68 -182Z" />
<glyph unicode="z" glyph-name="z" horiz-adv-x="410" d="M-12 0L-8 51L241 425H54L68 526H417L413 476L162 101H368L354 0H-12Z" />
<glyph unicode="{" glyph-name="braceleft" horiz-adv-x="319" d="M235 -159Q188 -159 147 -150T81 -116T56 -40Q56 -31 56 -25T58 -11Q66 45 71 81T79 140T84 172T86 187T87 194Q87 220 66 230T17 242L30 334Q57 334 83 347T115 394L143 587Q152 650 184 682T262
724T360 735L350 658Q333 658 314 654T280 636T262 597Q255 548 245 500T227 401Q218 350 191 322T104 293L103 283Q156 283 176 260T197 195Q197 180 194 147T186 77T178 10T174 -32Q174 -63 197 -72T245 -82L235 -159Z" />
<glyph unicode="|" glyph-name="bar" horiz-adv-x="230" d="M70 -173V723H160V-173H70Z" />
<glyph unicode="}" glyph-name="braceright" horiz-adv-x="319" d="M-28 -159L-18 -82Q0 -82 19 -78T52 -60T70 -21Q77 29 87 77T105 175Q114 226 142 254T228 283L229 293Q177 293 156 316T135 381Q135 396 138 429T146 499T154 567T158 608Q158 640 135 649T87
658L97 735Q145 735 185 726T251 692T276 616Q276 607 276 601T274 587Q266 531 261 495T253 436T248 404T246 389T245 382Q245 357 266 347T315 334L302 242Q275 242 249 229T217 182L189 -11Q180 -74 148 -105T70 -148T-28 -159Z" />
<glyph unicode="~" glyph-name="asciitilde" horiz-adv-x="479" d="M20 197L37 317Q37 317 46 328T72 353T114 379T170 390Q194 390 214 381T254 360T295 338T341 329Q368 329 392 340T434 365T463 391T474 402L457 282Q457 282 448 271T422 246T380 220T324 209Q300
209 280 218T240 239T199 261T153 270Q126 270 102 259T60 234T31 208T20 197Z" />
<glyph unicode="&#xa0;" glyph-name="uni00A0" horiz-adv-x="228" />
<glyph unicode="&#xa1;" glyph-name="exclamdown" horiz-adv-x="273" d="M8 -160L112 329H194L161 -160H8ZM93 389L113 526H251L231 389H93Z" />
<glyph unicode="&#xa2;" glyph-name="cent" horiz-adv-x="456" d="M156 -49L172 70Q105 78 71 122T36 252Q36 312 45 374T76 489T141 577T249 617L264 723H312L297 616Q368 609 400 561T432 423V408H318V423Q318 463 311 487T283 520L234 165Q260 175 277 206T302
275H413Q401 222 379 177T319 102T220 68L204 -49H156ZM186 165L235 519Q214 509 199 484T175 427T160 363T152 306T150 271Q150 228 157 201T186 165Z" />
<glyph unicode="&#xa3;" glyph-name="sterling" horiz-adv-x="456" d="M-7 0L8 108H58L83 288H21L35 389H96L112 499Q126 599 177 648T309 698Q386 698 430 660T474 545Q474 535 473 523T469 491H351Q355 516 356 524T357 538Q357 567 343 582T304 597Q277 597
259 579T235 525L216 389H335L321 288H201L166 108H409L393 0H-7Z" />
<glyph unicode="&#xa4;" glyph-name="currency" horiz-adv-x="456" d="M228 108Q193 108 161 120T103 155L61 113L0 174L50 224Q37 250 30 280T22 342Q22 374 29 403T49 458L0 508L60 570L102 528Q128 551 160 564T228 577Q263 577 295 564T353 528L395 570L455
508L406 459Q420 433 427 404T434 342Q434 309 427 279T405 223L455 174L394 113L352 155Q326 133 295 121T228 108ZM228 198Q261 198 288 217T332 269T349 342Q349 383 333 415T289 467T228 487Q195 487 167 468T123 416T106 342Q106 302 122 270T167 218T228
198Z" />
<glyph unicode="&#xa5;" glyph-name="yen" horiz-adv-x="456" d="M135 0L157 153H18L29 234H167L177 304H39L50 385H154L69 686H196L255 423H259L388 686H512L342 385H446L435 303H297L287 234H425L414 153H276L254 0H135Z" />
<glyph unicode="&#xa6;" glyph-name="brokenbar" horiz-adv-x="230" d="M70 351V723H160V351H70ZM70 -173V199H160V-173H70Z" />
<glyph unicode="&#xa7;" glyph-name="section" horiz-adv-x="456" d="M176 -182Q103 -182 56 -150T8 -59Q8 -47 10 -32T13 -16H134Q133 -20 133 -24T132 -34Q132 -59 147 -71T187 -84Q207 -84 222 -76T245 -53T253 -19Q253 11 238 31T197 68T145 99T92 135T52
185T36 259Q36 300 58 341T122 411Q106 429 97 453T87 509Q87 572 114 614T187 677T287 698Q360 698 407 666T455 576Q455 564 453 549T450 532H329Q330 537 330 541T330 549Q330 575 316 587T276 600Q256 600 241 592T218 569T210 534Q210 504 225 484T266 448T318
416T371 380T411 331T427 257Q427 214 405 174T341 105Q357 86 366 62T376 6Q376 -57 349 -98T276 -161T176 -182ZM274 156Q286 170 295 188T304 230Q304 264 287 286T243 325T188 359Q174 343 167 325T159 285Q159 252 176 230T219 191T274 156Z" />
<glyph unicode="&#xa8;" glyph-name="dieresis" horiz-adv-x="0" d="M224 614L240 723H340L324 614H224ZM49 614L65 723H165L149 614H49Z" />
<glyph unicode="&#xa9;" glyph-name="copyright" horiz-adv-x="604" d="M302 -12Q213 -12 149 32T51 155T16 343Q16 451 50 531T149 654T302 698Q391 698 455 655T553 531T588 343Q588 235 554 156T455 32T302 -12ZM304 134Q228 134 186 185T143 343Q143 450 185
501T304 553Q368 553 410 516T453 395H366Q366 437 349 457T304 478Q267 478 249 446T231 358V329Q231 273 250 241T307 209Q335 209 352 229T369 291H453Q453 212 411 173T304 134ZM303 43Q374 43 425 80T504 184T532 343Q532 435 505 502T426 606T302 643Q231
643 179 606T100 502T72 343Q72 252 99 185T179 80T303 43Z" />
<glyph unicode="&#xaa;" glyph-name="ordfeminine" horiz-adv-x="303" d="M166 362Q121 362 96 393T70 487Q70 573 89 627T140 706T204 732Q232 732 250 719T278 682L305 724H354Q354 724 351 705T343 655T333 589T323 523T315 472T312 449Q312 439 316 435T328
430H341L333 373Q326 369 317 366T293 362Q271 362 257 374T237 409Q224 384 204 373T166 362ZM186 431Q207 431 220 449T241 495T252 550T255 597Q255 629 248 646T219 663Q198 663 185 644T164 596T153 540T150 498Q150 431 186 431Z" />
<glyph unicode="&#xab;" glyph-name="guillemotleft" horiz-adv-x="456" d="M318 126L211 326L371 526H466L330 326L409 126H318ZM135 126L28 326L188 526H283L147 326L226 126H135Z" />
<glyph unicode="&#xac;" glyph-name="logicalnot" horiz-adv-x="479" d="M322 187L345 350H40L56 463H472L433 187H322Z" />
<glyph unicode="&#xad;" glyph-name="uni00AD" horiz-adv-x="273" d="M13 211L30 329H271L254 211H13Z" />
<glyph unicode="&#xae;" glyph-name="registered" horiz-adv-x="604" d="M302 -12Q213 -12 149 32T51 155T16 343Q16 451 50 531T149 654T302 698Q391 698 455 655T553 531T588 343Q588 235 554 156T455 32T302 -12ZM302 43Q374 43 425 80T504 184T532 343Q532
435 505 502T426 606T302 643Q231 643 179 606T100 502T72 343Q72 252 99 185T179 80T302 43ZM173 140V546H331Q380 546 412 512T444 421Q444 384 431 358T396 318L470 140H384L323 292H259V140H173ZM259 362H303Q330 362 343 376T356 418Q356 444 343 456T303
468H259V362Z" />
<glyph unicode="&#xaf;" glyph-name="overscore" horiz-adv-x="0" d="M47 599L59 686H314L302 599H47Z" />
<glyph unicode="&#xb0;" glyph-name="degree" horiz-adv-x="400" d="M198 414Q159 414 127 433T75 484T56 556Q56 596 75 628T126 679T198 698Q238 698 270 679T321 628T340 556Q340 517 321 485T270 433T198 414ZM198 482Q229 482 250 503T271 556Q271 587 250
608T198 629Q167 629 146 608T124 556Q124 525 145 504T198 482Z" />
<glyph unicode="&#xb1;" glyph-name="plusminus" horiz-adv-x="549" d="M200 144L224 317H70L85 421H239L263 595H366L342 421H497L482 317H327L303 144H200ZM26 0L40 103H452L438 0H26Z" />
<glyph unicode="&#xb2;" glyph-name="uni00B2" horiz-adv-x="273" d="M51 434L53 449Q59 492 89 528T155 595Q200 635 216 658T232 706Q232 719 226 726T205 734Q188 734 178 721T164 688L161 663H87Q87 663 87 666T87 674Q87 726 119 762T210 798Q257 798 282
775T308 713Q308 679 294 650T259 598T217 557Q200 542 185 527T164 499H284L275 434H51Z" />
<glyph unicode="&#xb3;" glyph-name="uni00B3" horiz-adv-x="273" d="M162 428Q102 428 76 457T58 536L60 547H135L133 534Q130 515 139 503T167 491Q189 491 204 507T219 546Q219 563 209 574T179 585H149L158 650H189Q208 650 221 667T235 707Q235 724 225 730T204
736Q188 736 176 725T162 697L159 677H85L88 702Q93 745 128 771T212 798Q256 798 283 779T311 720Q311 682 292 659T249 621Q270 611 281 593T293 549Q293 497 256 463T162 428Z" />
<glyph unicode="&#xb4;" glyph-name="acute" horiz-adv-x="0" d="M46 591L150 723H270L271 720L145 591H46Z" />
<glyph unicode="&#xb5;" glyph-name="uni00B5" horiz-adv-x="501" d="M-7 -173L91 526H211L164 190Q157 142 170 120T218 97Q254 97 282 126T318 210L362 526H479L405 0H308L305 65Q290 41 267 24T218 -3T168 -12Q138 -12 117 4T97 54H125Q129 29 128 -9T124 -90T113
-173H-7Z" />
<glyph unicode="&#xb6;" glyph-name="paragraph" horiz-adv-x="456" d="M126 -173L186 250Q122 258 83 308T44 431Q44 517 76 573T160 658T270 686H509L498 610H450L340 -173H259L369 610H316L206 -173H126Z" />
<glyph unicode="&#xb7;" glyph-name="middot" horiz-adv-x="228" d="M60 278L79 409H200L181 278H60Z" />
<glyph unicode="&#xb8;" glyph-name="cedilla" horiz-adv-x="0" d="M21 -182Q-24 -182 -61 -174L-55 -125H16Q38 -125 47 -119T56 -96Q56 -77 25 -77H-8L16 11H84L72 -33Q143 -39 143 -91Q143 -134 112 -158T21 -182Z" />
<glyph unicode="&#xb9;" glyph-name="uni00B9" horiz-adv-x="273" d="M67 433L77 502H146L173 697H100L107 746Q137 751 165 761T218 786H262L222 502H288L278 433H67Z" />
<glyph unicode="&#xba;" glyph-name="ordmasculine" horiz-adv-x="299" d="M180 363Q119 363 87 394T55 492Q55 531 62 573T87 651T137 710T219 733Q281 733 312 701T344 602Q344 563 337 521T312 443T262 385T180 363ZM183 431Q205 431 219 446T242 483T255 530T260
574T261 602Q261 665 216 665Q194 665 180 650T157 613T144 566T139 522T138 494Q138 431 183 431Z" />
<glyph unicode="&#xbb;" glyph-name="guillemotright" horiz-adv-x="456" d="M191 126L328 326L248 526H339L447 326L286 126H191ZM9 126L145 326L65 526H156L264 326L103 126H9Z" />
<glyph unicode="&#xbc;" glyph-name="onequarter" horiz-adv-x="683" d="M309 589L319 658H388L415 853H342L349 902Q379 907 407 917T460 942H504L464 658H530L520 589H309ZM82 -12L576 698H642L149 -12H82ZM537 0L548 80H400L408 135Q442 183 472 240T527 365H606Q590
321 567 277T521 197T482 140H556L568 221Q579 241 588 261T607 307H652L628 140H661L653 80H620L609 0H537Z" />
<glyph unicode="&#xbd;" glyph-name="onehalf" horiz-adv-x="683" d="M309 589L319 658H388L415 853H342L349 902Q379 907 407 917T460 942H504L464 658H530L520 589H309ZM82 -12L576 698H642L149 -12H82ZM400 0L402 15Q408 58 438 94T504 161Q549 201 565 224T581
272Q581 285 575 292T554 300Q537 300 527 287T513 254L510 229H436Q436 229 436 232T436 240Q436 292 468 328T559 364Q606 364 631 341T657 279Q657 245 643 216T608 164T566 123Q549 108 534 93T513 65H633L624 0H400Z" />
<glyph unicode="&#xbe;" glyph-name="threequarters" horiz-adv-x="683" d="M404 584Q344 584 318 613T300 692L302 703H377L375 690Q372 671 381 659T409 647Q431 647 446 663T461 702Q461 719 451 730T421 741H391L400 806H431Q450 806 463 823T477 863Q477
880 467 886T446 892Q430 892 418 881T404 853L401 833H327L330 858Q335 901 370 927T454 954Q498 954 525 935T553 876Q553 838 534 815T491 777Q512 767 523 749T535 705Q535 653 498 619T404 584ZM82 -12L576 698H642L149 -12H82ZM537 0L548 80H400L408 135Q442
183 472 240T527 365H606Q590 321 567 277T521 197T482 140H556L568 221Q579 241 588 261T607 307H652L628 140H661L653 80H620L609 0H537Z" />
<glyph unicode="&#xbf;" glyph-name="questiondown" horiz-adv-x="501" d="M231 -172Q145 -172 97 -131T48 -22Q48 33 63 71T102 138T149 190T191 240T215 301L219 329H344L338 286Q333 252 316 225T276 172T232 122T196 68T181 2Q181 -11 185 -26T204 -53T244
-65Q264 -65 279 -57T304 -35T321 -4T330 31T333 67H458Q458 4 432 -50T356 -138T231 -172ZM220 389L240 526H377L357 389H220Z" />
<glyph unicode="&#xc0;" glyph-name="Agrave" horiz-adv-x="592" d="M-33 0L281 686H428L551 0H421L399 135H154L95 0H-33ZM205 249H380L350 437Q346 463 344 494T340 547T338 570H334Q334 570 327 547T310 493T288 437L205 249ZM331 751L237 850L238 853H358L430
751H331Z" />
<glyph unicode="&#xc1;" glyph-name="Aacute" horiz-adv-x="592" d="M-33 0L281 686H428L551 0H421L399 135H154L95 0H-33ZM205 249H380L350 437Q346 463 344 494T340 547T338 570H334Q334 570 327 547T310 493T288 437L205 249ZM287 751L367 853H497L498 850L396
751H287Z" />
<glyph unicode="&#xc2;" glyph-name="Acircumflex" horiz-adv-x="592" d="M-33 0L281 686H428L551 0H421L399 135H154L95 0H-33ZM205 249H380L350 437Q346 463 344 494T340 547T338 570H334Q334 570 327 547T310 493T288 437L205 249ZM226 748L326 853H424L495
748H407L368 787L318 748H226Z" />
<glyph unicode="&#xc3;" glyph-name="Atilde" horiz-adv-x="592" d="M-33 0L281 686H428L551 0H421L399 135H154L95 0H-33ZM205 249H380L350 437Q346 463 344 494T340 547T338 570H334Q334 570 327 547T310 493T288 437L205 249ZM208 747Q213 783 227 807T263
844T313 857Q340 857 358 849T392 833T428 824Q442 824 452 831T469 857H528Q523 822 509 797T474 760T423 747Q396 747 378 755T345 772T308 780Q294 780 284 773T267 747H208Z" />
<glyph unicode="&#xc4;" glyph-name="Adieresis" horiz-adv-x="592" d="M-33 0L281 686H428L551 0H421L399 135H154L95 0H-33ZM205 249H380L350 437Q346 463 344 494T340 547T338 570H334Q334 570 327 547T310 493T288 437L205 249ZM401 774L417 883H517L501 774H401ZM226
774L242 883H342L326 774H226Z" />
<glyph unicode="&#xc5;" glyph-name="Aring" horiz-adv-x="592" d="M-33 0L281 686H428L551 0H421L399 135H154L95 0H-33ZM205 249H380L350 437Q346 463 344 494T340 547T338 570H334Q334 570 327 547T310 493T288 437L205 249ZM357 721Q321 721 297 744T273 803Q273
850 304 881T383 913Q419 913 443 889T467 830Q467 784 436 753T357 721ZM364 775Q384 775 398 789T412 823Q412 839 402 849T376 859Q356 859 342 845T328 811Q328 795 338 785T364 775Z" />
<glyph unicode="&#xc6;" glyph-name="AE" horiz-adv-x="820" d="M-52 0L303 686H831L815 572H468L485 408H749L733 294H496L514 114H757L741 0H397L385 135H145L78 0H-52ZM201 249H374L352 488Q351 502 350 515T348 543T345 570H341Q341 570 335 547T318 493T295
437L201 249Z" />
<glyph unicode="&#xc7;" glyph-name="Ccedilla" horiz-adv-x="592" d="M284 -12Q171 -12 108 52T45 250Q45 313 55 377T88 498T146 601T234 672T353 698Q461 698 525 635T589 444V431H459V449Q459 516 431 552T353 588Q317 588 289 573T242 531T209 470T188 398T177
324T174 255Q174 181 201 140T287 98Q332 98 363 119T413 176T441 254H566Q551 183 516 122T423 25T284 -12ZM249 -182Q204 -182 167 -174L173 -125H244Q284 -125 284 -96Q284 -86 277 -82T253 -77H220L244 11H312L300 -33Q371 -38 371 -91Q371 -134 340 -158T249
-182Z" />
<glyph unicode="&#xc8;" glyph-name="Egrave" horiz-adv-x="547" d="M28 0L124 686H556L540 572H235L212 408H474L458 294H196L170 114H482L466 0H28ZM323 751L229 850L230 853H350L422 751H323Z" />
<glyph unicode="&#xc9;" glyph-name="Eacute" horiz-adv-x="547" d="M28 0L124 686H556L540 572H235L212 408H474L458 294H196L170 114H482L466 0H28ZM279 751L359 853H489L490 850L388 751H279Z" />
<glyph unicode="&#xca;" glyph-name="Ecircumflex" horiz-adv-x="547" d="M28 0L124 686H556L540 572H235L212 408H474L458 294H196L170 114H482L466 0H28ZM218 748L318 853H416L487 748H399L360 787L310 748H218Z" />
<glyph unicode="&#xcb;" glyph-name="Edieresis" horiz-adv-x="547" d="M28 0L124 686H556L540 572H235L212 408H474L458 294H196L170 114H482L466 0H28ZM393 774L409 883H509L493 774H393ZM218 774L234 883H334L318 774H218Z" />
<glyph unicode="&#xcc;" glyph-name="Igrave" horiz-adv-x="228" d="M18 0L114 686H241L145 0H18ZM157 751L63 850L64 853H184L256 751H157Z" />
<glyph unicode="&#xcd;" glyph-name="Iacute" horiz-adv-x="228" d="M18 0L114 686H241L145 0H18ZM113 751L193 853H323L324 850L222 751H113Z" />
<glyph unicode="&#xce;" glyph-name="Icircumflex" horiz-adv-x="228" d="M18 0L114 686H241L145 0H18ZM52 748L152 853H250L321 748H233L194 787L144 748H52Z" />
<glyph unicode="&#xcf;" glyph-name="Idieresis" horiz-adv-x="228" d="M18 0L114 686H241L145 0H18ZM227 774L243 883H343L327 774H227ZM52 774L68 883H168L152 774H52Z" />
<glyph unicode="&#xd0;" glyph-name="Eth" horiz-adv-x="592" d="M28 0L71 312H23L34 397H83L124 686H335Q449 686 512 621T576 426Q576 370 566 311T532 196T472 96T384 26T264 0H28ZM171 114H253Q299 114 332 133T387 186T423 259T441 340T447 417Q447 494 413
533T317 572H235L210 397H334L322 312H198L171 114Z" />
<glyph unicode="&#xd1;" glyph-name="Ntilde" horiz-adv-x="592" d="M28 0L124 686H236L393 308Q397 300 402 285T411 257T415 244L418 247Q418 247 419 259T422 285T425 304L478 686H591L495 0H382L225 378Q222 385 217 400T207 429T203 442L199 439Q199 439
198 429T196 405T193 382L140 0H28ZM215 747Q220 783 234 807T270 844T320 857Q347 857 365 849T399 833T435 824Q449 824 459 831T476 857H535Q530 822 516 797T481 760T430 747Q403 747 385 755T352 772T315 780Q301 780 291 773T274 747H215Z" />
<glyph unicode="&#xd2;" glyph-name="Ograve" horiz-adv-x="638" d="M295 -12Q175 -12 108 52T41 250Q41 310 52 373T86 494T147 598T239 671T364 698Q484 698 551 634T619 435Q619 375 608 312T573 191T511 88T420 15T295 -12ZM290 98Q338 98 372 120T429 178T465
258T483 347T489 430Q489 505 460 546T369 588Q320 588 286 566T229 508T194 427T176 338T170 255Q170 181 199 140T290 98ZM362 751L268 850L269 853H389L461 751H362Z" />
<glyph unicode="&#xd3;" glyph-name="Oacute" horiz-adv-x="638" d="M295 -12Q175 -12 108 52T41 250Q41 310 52 373T86 494T147 598T239 671T364 698Q484 698 551 634T619 435Q619 375 608 312T573 191T511 88T420 15T295 -12ZM290 98Q338 98 372 120T429 178T465
258T483 347T489 430Q489 505 460 546T369 588Q320 588 286 566T229 508T194 427T176 338T170 255Q170 181 199 140T290 98ZM318 751L398 853H528L529 850L427 751H318Z" />
<glyph unicode="&#xd4;" glyph-name="Ocircumflex" horiz-adv-x="638" d="M295 -12Q175 -12 108 52T41 250Q41 310 52 373T86 494T147 598T239 671T364 698Q484 698 551 634T619 435Q619 375 608 312T573 191T511 88T420 15T295 -12ZM290 98Q338 98 372 120T429
178T465 258T483 347T489 430Q489 505 460 546T369 588Q320 588 286 566T229 508T194 427T176 338T170 255Q170 181 199 140T290 98ZM257 748L357 853H455L526 748H438L399 787L349 748H257Z" />
<glyph unicode="&#xd5;" glyph-name="Otilde" horiz-adv-x="638" d="M295 -12Q175 -12 108 52T41 250Q41 310 52 373T86 494T147 598T239 671T364 698Q484 698 551 634T619 435Q619 375 608 312T573 191T511 88T420 15T295 -12ZM290 98Q338 98 372 120T429 178T465
258T483 347T489 430Q489 505 460 546T369 588Q320 588 286 566T229 508T194 427T176 338T170 255Q170 181 199 140T290 98ZM239 747Q244 783 258 807T294 844T344 857Q371 857 389 849T423 833T459 824Q473 824 483 831T500 857H559Q554 822 540 797T505 760T454
747Q427 747 409 755T376 772T339 780Q325 780 315 773T298 747H239Z" />
<glyph unicode="&#xd6;" glyph-name="Odieresis" horiz-adv-x="638" d="M295 -12Q175 -12 108 52T41 250Q41 310 52 373T86 494T147 598T239 671T364 698Q484 698 551 634T619 435Q619 375 608 312T573 191T511 88T420 15T295 -12ZM290 98Q338 98 372 120T429
178T465 258T483 347T489 430Q489 505 460 546T369 588Q320 588 286 566T229 508T194 427T176 338T170 255Q170 181 199 140T290 98ZM432 774L448 883H548L532 774H432ZM257 774L273 883H373L357 774H257Z" />
<glyph unicode="&#xd7;" glyph-name="multiply" horiz-adv-x="479" d="M68 39L6 111L172 256L47 402L129 474L254 328L420 474L482 402L315 256L441 111L359 39L233 185L68 39Z" />
<glyph unicode="&#xd8;" glyph-name="Oslash" horiz-adv-x="638" d="M45 -37L539 723H623L129 -37H45ZM295 -12Q175 -12 108 52T41 250Q41 310 52 373T86 494T147 598T239 671T364 698Q484 698 551 634T619 435Q619 375 608 312T573 191T511 88T420 15T295 -12ZM290
98Q338 98 372 120T429 178T465 258T483 347T489 430Q489 505 460 546T369 588Q320 588 286 566T229 508T194 427T176 338T170 255Q170 181 199 140T290 98Z" />
<glyph unicode="&#xd9;" glyph-name="Ugrave" horiz-adv-x="592" d="M282 -12Q176 -12 118 36T59 176Q59 186 62 218T72 297T85 396T100 500T114 593T123 660T127 686H254Q254 686 251 661T241 595T228 503T214 402T200 308T191 235T187 199Q187 150 211 124T282
98Q332 98 362 131T402 227L466 686H593L528 223Q512 108 448 48T282 -12ZM338 751L244 850L245 853H365L437 751H338Z" />
<glyph unicode="&#xda;" glyph-name="Uacute" horiz-adv-x="592" d="M282 -12Q176 -12 118 36T59 176Q59 186 62 218T72 297T85 396T100 500T114 593T123 660T127 686H254Q254 686 251 661T241 595T228 503T214 402T200 308T191 235T187 199Q187 150 211 124T282
98Q332 98 362 131T402 227L466 686H593L528 223Q512 108 448 48T282 -12ZM294 751L374 853H504L505 850L403 751H294Z" />
<glyph unicode="&#xdb;" glyph-name="Ucircumflex" horiz-adv-x="592" d="M282 -12Q176 -12 118 36T59 176Q59 186 62 218T72 297T85 396T100 500T114 593T123 660T127 686H254Q254 686 251 661T241 595T228 503T214 402T200 308T191 235T187 199Q187 150 211
124T282 98Q332 98 362 131T402 227L466 686H593L528 223Q512 108 448 48T282 -12ZM233 748L333 853H431L502 748H414L375 787L325 748H233Z" />
<glyph unicode="&#xdc;" glyph-name="Udieresis" horiz-adv-x="592" d="M282 -12Q176 -12 118 36T59 176Q59 186 62 218T72 297T85 396T100 500T114 593T123 660T127 686H254Q254 686 251 661T241 595T228 503T214 402T200 308T191 235T187 199Q187 150 211 124T282
98Q332 98 362 131T402 227L466 686H593L528 223Q512 108 448 48T282 -12ZM408 774L424 883H524L508 774H408ZM233 774L249 883H349L333 774H233Z" />
<glyph unicode="&#xdd;" glyph-name="Yacute" horiz-adv-x="547" d="M179 0L215 259L67 686H197L296 385H300L479 686H608L342 259L305 0H179ZM275 751L355 853H485L486 850L384 751H275Z" />
<glyph unicode="&#xde;" glyph-name="Thorn" horiz-adv-x="547" d="M28 0L124 686H251L234 562H344Q441 562 488 512T535 385Q535 312 505 258T423 173T306 142H175L155 0H28ZM191 255H299Q345 255 374 284T404 365Q404 403 383 425T321 448H218L191 255Z" />
<glyph unicode="&#xdf;" glyph-name="germandbls" horiz-adv-x="501" d="M17 0L88 520Q99 597 132 644T214 713T319 735Q401 735 451 692T502 569Q502 533 487 498T446 435T384 395V391Q426 374 451 330T476 230Q476 188 460 147T413 73T343 20T256 0H182L196
102H247Q275 102 299 120T339 166T355 228Q355 269 334 296T278 324H226L242 437H291Q313 437 333 454T366 499T380 560Q380 593 363 613T311 634Q271 634 243 607T208 528L134 0H17Z" />
<glyph unicode="&#xe0;" glyph-name="agrave" horiz-adv-x="456" d="M164 -12Q97 -12 60 34T22 174Q22 301 51 381T126 500T221 538Q262 538 289 518T331 463L351 526H444Q444 526 441 505T432 447T420 369T407 283T395 203T386 143T382 117Q382 102 389 96T406
89H424L412 4Q403 -1 389 -6T353 -12Q320 -12 299 6T270 58Q251 21 221 5T164 -12ZM195 91Q220 91 238 109T267 156T285 218T294 284T297 338Q297 384 286 409T244 435Q219 435 202 416T172 366T154 301T144 237T141 190Q141 142 154 117T195 91ZM233 591L143 720L144
723H264L332 591H233Z" />
<glyph unicode="&#xe1;" glyph-name="aacute" horiz-adv-x="456" d="M164 -12Q97 -12 60 34T22 174Q22 301 51 381T126 500T221 538Q262 538 289 518T331 463L351 526H444Q444 526 441 505T432 447T420 369T407 283T395 203T386 143T382 117Q382 102 389 96T406
89H424L412 4Q403 -1 389 -6T353 -12Q320 -12 299 6T270 58Q251 21 221 5T164 -12ZM195 91Q220 91 238 109T267 156T285 218T294 284T297 338Q297 384 286 409T244 435Q219 435 202 416T172 366T154 301T144 237T141 190Q141 142 154 117T195 91ZM194 591L298 723H418L419
720L293 591H194Z" />
<glyph unicode="&#xe2;" glyph-name="acircumflex" horiz-adv-x="456" d="M164 -12Q97 -12 60 34T22 174Q22 301 51 381T126 500T221 538Q262 538 289 518T331 463L351 526H444Q444 526 441 505T432 447T420 369T407 283T395 203T386 143T382 117Q382 102 389
96T406 89H424L412 4Q403 -1 389 -6T353 -12Q320 -12 299 6T270 58Q251 21 221 5T164 -12ZM195 91Q220 91 238 109T267 156T285 218T294 284T297 338Q297 384 286 409T244 435Q219 435 202 416T172 366T154 301T144 237T141 190Q141 142 154 117T195 91ZM128 588L232
723H330L397 588H309L274 657L220 588H128Z" />
<glyph unicode="&#xe3;" glyph-name="atilde" horiz-adv-x="456" d="M164 -12Q97 -12 60 34T22 174Q22 301 51 381T126 500T221 538Q262 538 289 518T331 463L351 526H444Q444 526 441 505T432 447T420 369T407 283T395 203T386 143T382 117Q382 102 389 96T406
89H424L412 4Q403 -1 389 -6T353 -12Q320 -12 299 6T270 58Q251 21 221 5T164 -12ZM195 91Q220 91 238 109T267 156T285 218T294 284T297 338Q297 384 286 409T244 435Q219 435 202 416T172 366T154 301T144 237T141 190Q141 142 154 117T195 91ZM96 601Q101 636
118 663T159 707T212 723Q237 723 259 714T301 696T339 686Q354 686 367 696T384 723H450Q445 688 428 661T387 617T333 601Q304 601 282 610T243 629T207 638Q193 638 180 628T162 601H96Z" />
<glyph unicode="&#xe4;" glyph-name="adieresis" horiz-adv-x="456" d="M164 -12Q97 -12 60 34T22 174Q22 301 51 381T126 500T221 538Q262 538 289 518T331 463L351 526H444Q444 526 441 505T432 447T420 369T407 283T395 203T386 143T382 117Q382 102 389 96T406
89H424L412 4Q403 -1 389 -6T353 -12Q320 -12 299 6T270 58Q251 21 221 5T164 -12ZM195 91Q220 91 238 109T267 156T285 218T294 284T297 338Q297 384 286 409T244 435Q219 435 202 416T172 366T154 301T144 237T141 190Q141 142 154 117T195 91ZM303 614L319 723H419L403
614H303ZM128 614L144 723H244L228 614H128Z" />
<glyph unicode="&#xe5;" glyph-name="aring" horiz-adv-x="456" d="M164 -12Q97 -12 60 34T22 174Q22 301 51 381T126 500T221 538Q262 538 289 518T331 463L351 526H444Q444 526 441 505T432 447T420 369T407 283T395 203T386 143T382 117Q382 102 389 96T406
89H424L412 4Q403 -1 389 -6T353 -12Q320 -12 299 6T270 58Q251 21 221 5T164 -12ZM195 91Q220 91 238 109T267 156T285 218T294 284T297 338Q297 384 286 409T244 435Q219 435 202 416T172 366T154 301T144 237T141 190Q141 142 154 117T195 91ZM258 561Q223 561
199 584T175 643Q175 690 206 721T285 753Q321 753 345 729T369 670Q369 624 337 593T258 561ZM266 611Q288 611 303 626T318 664Q318 681 307 692T278 703Q256 703 241 688T225 650Q225 634 236 623T266 611Z" />
<glyph unicode="&#xe6;" glyph-name="ae" horiz-adv-x="729" d="M162 -12Q132 -12 99 -1T42 40T19 129Q19 184 42 221T107 279T199 310T307 320L313 375Q314 380 314 385T314 395Q314 415 305 427T268 440Q231 440 216 420T197 370H81Q81 421 105 459T175 517T279
538Q320 538 350 527T400 494Q425 514 457 526T530 538Q611 538 652 494T693 359Q693 330 691 298T682 233H419Q418 217 418 205T417 187Q417 136 429 111T472 85Q502 85 521 114T548 182H671Q659 130 635 86T570 15T467 -12Q361 -12 321 57Q290 26 252 7T162 -12ZM196
88Q224 88 243 104T274 146T290 203L294 233Q258 233 224 225T167 195T144 134Q144 112 156 100T196 88ZM432 320H570Q572 342 572 348T572 359Q572 399 561 420T523 441Q498 441 481 424T451 379T432 320Z" />
<glyph unicode="&#xe7;" glyph-name="ccedilla" horiz-adv-x="456" d="M203 -12Q120 -12 78 33T36 172Q36 234 45 298T80 416T151 504T269 538Q355 538 393 490T432 343V328H310V343Q310 389 300 413T260 437Q234 437 216 416T187 361T169 293T161 230T158 191Q158
141 169 115T212 89Q234 89 250 103T277 142T294 195H413Q401 140 377 93T312 17T203 -12ZM158 -182Q113 -182 76 -174L82 -125H153Q175 -125 184 -119T193 -96Q193 -77 162 -77H129L153 11H221L209 -33Q280 -39 280 -91Q280 -134 249 -158T158 -182Z" />
<glyph unicode="&#xe8;" glyph-name="egrave" horiz-adv-x="456" d="M203 -12Q118 -12 76 33T33 172Q33 224 39 276T61 375T102 459T169 517T266 538Q347 538 388 494T429 359Q429 330 427 298T418 233H155Q154 217 154 205T153 187Q153 136 165 111T208 85Q238
85 257 114T284 182H407Q395 130 371 86T306 15T203 -12ZM168 320H306Q308 342 308 348T308 359Q308 399 297 420T259 441Q234 441 217 424T187 379T168 320ZM244 591L154 720L155 723H275L343 591H244Z" />
<glyph unicode="&#xe9;" glyph-name="eacute" horiz-adv-x="456" d="M203 -12Q118 -12 76 33T33 172Q33 224 39 276T61 375T102 459T169 517T266 538Q347 538 388 494T429 359Q429 330 427 298T418 233H155Q154 217 154 205T153 187Q153 136 165 111T208 85Q238
85 257 114T284 182H407Q395 130 371 86T306 15T203 -12ZM168 320H306Q308 342 308 348T308 359Q308 399 297 420T259 441Q234 441 217 424T187 379T168 320ZM205 591L309 723H429L430 720L304 591H205Z" />
<glyph unicode="&#xea;" glyph-name="ecircumflex" horiz-adv-x="456" d="M203 -12Q118 -12 76 33T33 172Q33 224 39 276T61 375T102 459T169 517T266 538Q347 538 388 494T429 359Q429 330 427 298T418 233H155Q154 217 154 205T153 187Q153 136 165 111T208
85Q238 85 257 114T284 182H407Q395 130 371 86T306 15T203 -12ZM168 320H306Q308 342 308 348T308 359Q308 399 297 420T259 441Q234 441 217 424T187 379T168 320ZM139 588L243 723H341L408 588H320L285 657L231 588H139Z" />
<glyph unicode="&#xeb;" glyph-name="edieresis" horiz-adv-x="456" d="M203 -12Q118 -12 76 33T33 172Q33 224 39 276T61 375T102 459T169 517T266 538Q347 538 388 494T429 359Q429 330 427 298T418 233H155Q154 217 154 205T153 187Q153 136 165 111T208 85Q238
85 257 114T284 182H407Q395 130 371 86T306 15T203 -12ZM168 320H306Q308 342 308 348T308 359Q308 399 297 420T259 441Q234 441 217 424T187 379T168 320ZM314 614L330 723H430L414 614H314ZM139 614L155 723H255L239 614H139Z" />
<glyph unicode="&#xec;" glyph-name="igrave" horiz-adv-x="228" d="M23 0L96 526H215L142 0H23ZM389 591L299 720L300 723H420L488 591H389Z" />
<glyph unicode="&#xed;" glyph-name="iacute" horiz-adv-x="228" d="M23 0L96 526H215L142 0H23ZM94 591L198 723H318L319 720L193 591H94Z" />
<glyph unicode="&#xee;" glyph-name="icircumflex" horiz-adv-x="228" d="M23 0L96 526H215L142 0H23ZM284 588L388 723H486L553 588H465L430 657L376 588H284Z" />
<glyph unicode="&#xef;" glyph-name="idieresis" horiz-adv-x="228" d="M23 0L96 526H215L142 0H23ZM459 614L475 723H575L559 614H459ZM284 614L300 723H400L384 614H284Z" />
<glyph unicode="&#xf0;" glyph-name="eth" horiz-adv-x="501" d="M219 -12Q127 -12 80 35T33 182Q33 299 63 378T144 497T253 538Q266 538 280 536T305 530L309 534Q304 548 296 564T280 595L151 584L161 657L236 664Q223 681 212 695T192 719L194 723H318Q327
714 338 702T361 675L492 687L482 614L406 607Q429 564 446 505T463 367Q463 237 434 153T349 29T219 -12ZM223 89Q256 89 277 111T311 167T330 237T337 303T339 343Q339 389 323 413T272 437Q239 437 218 415T184 359T165 289T158 223T156 183Q156 137 172 113T223
89Z" />
<glyph unicode="&#xf1;" glyph-name="ntilde" horiz-adv-x="501" d="M23 0L96 526H193V456Q209 479 229 497T275 527T336 538Q378 538 406 522T449 476T463 403Q463 396 463 389T461 369T456 331T446 264T432 158T410 0H292Q304 87 312 147T325 246T334 308T338
342T340 357T341 363Q341 398 328 413T283 429Q249 429 221 400T185 316L142 0H23ZM134 601Q139 636 156 663T197 707T250 723Q275 723 297 714T339 696T377 686Q392 686 405 696T422 723H488Q483 688 466 661T425 617T371 601Q342 601 320 610T281 629T245 638Q231
638 218 628T200 601H134Z" />
<glyph unicode="&#xf2;" glyph-name="ograve" horiz-adv-x="501" d="M222 -12Q131 -12 84 35T36 180Q36 226 42 276T64 372T107 456T177 516T279 538Q371 538 418 490T465 343Q465 297 459 247T437 151T394 68T324 10T222 -12ZM226 89Q259 89 280 111T314 167T333
237T340 303T342 343Q342 389 326 413T275 437Q242 437 221 415T187 359T168 289T161 223T159 183Q159 137 175 113T226 89ZM266 591L176 720L177 723H297L365 591H266Z" />
<glyph unicode="&#xf3;" glyph-name="oacute" horiz-adv-x="501" d="M222 -12Q131 -12 84 35T36 180Q36 226 42 276T64 372T107 456T177 516T279 538Q371 538 418 490T465 343Q465 297 459 247T437 151T394 68T324 10T222 -12ZM226 89Q259 89 280 111T314 167T333
237T340 303T342 343Q342 389 326 413T275 437Q242 437 221 415T187 359T168 289T161 223T159 183Q159 137 175 113T226 89ZM227 591L331 723H451L452 720L326 591H227Z" />
<glyph unicode="&#xf4;" glyph-name="ocircumflex" horiz-adv-x="501" d="M222 -12Q131 -12 84 35T36 180Q36 226 42 276T64 372T107 456T177 516T279 538Q371 538 418 490T465 343Q465 297 459 247T437 151T394 68T324 10T222 -12ZM226 89Q259 89 280 111T314
167T333 237T340 303T342 343Q342 389 326 413T275 437Q242 437 221 415T187 359T168 289T161 223T159 183Q159 137 175 113T226 89ZM161 588L265 723H363L430 588H342L307 657L253 588H161Z" />
<glyph unicode="&#xf5;" glyph-name="otilde" horiz-adv-x="501" d="M222 -12Q131 -12 84 35T36 180Q36 226 42 276T64 372T107 456T177 516T279 538Q371 538 418 490T465 343Q465 297 459 247T437 151T394 68T324 10T222 -12ZM226 89Q259 89 280 111T314 167T333
237T340 303T342 343Q342 389 326 413T275 437Q242 437 221 415T187 359T168 289T161 223T159 183Q159 137 175 113T226 89ZM129 601Q134 636 151 663T192 707T245 723Q270 723 292 714T334 696T372 686Q387 686 400 696T417 723H483Q478 688 461 661T420 617T366
601Q337 601 315 610T276 629T240 638Q226 638 213 628T195 601H129Z" />
<glyph unicode="&#xf6;" glyph-name="odieresis" horiz-adv-x="501" d="M222 -12Q131 -12 84 35T36 180Q36 226 42 276T64 372T107 456T177 516T279 538Q371 538 418 490T465 343Q465 297 459 247T437 151T394 68T324 10T222 -12ZM226 89Q259 89 280 111T314 167T333
237T340 303T342 343Q342 389 326 413T275 437Q242 437 221 415T187 359T168 289T161 223T159 183Q159 137 175 113T226 89ZM336 614L352 723H452L436 614H336ZM161 614L177 723H277L261 614H161Z" />
<glyph unicode="&#xf7;" glyph-name="divide" horiz-adv-x="549" d="M25 203L40 307H522L507 203H25ZM191 41L207 151H311L295 41H191ZM236 359L252 470H356L340 359H236Z" />
<glyph unicode="&#xf8;" glyph-name="oslash" horiz-adv-x="501" d="M222 -12Q131 -12 84 35T36 180Q36 226 42 276T64 372T107 456T177 516T279 538Q371 538 418 490T465 343Q465 297 459 247T437 151T394 68T324 10T222 -12ZM226 89Q259 89 280 111T314 167T333
237T340 303T342 343Q342 389 326 413T275 437Q242 437 221 415T187 359T168 289T161 223T159 183Q159 137 175 113T226 89ZM36 -32L391 558H466L111 -32H36Z" />
<glyph unicode="&#xf9;" glyph-name="ugrave" horiz-adv-x="501" d="M165 -12Q123 -12 95 4T53 51T38 123Q38 130 38 137T40 157T45 195T55 262T70 368T91 526H209Q197 440 189 380T176 280T167 218T163 184T161 169T160 163Q160 129 173 113T218 97Q253 97 281
126T316 210L359 526H478L405 0H307V68Q291 46 271 28T224 -1T165 -12ZM262 591L172 720L173 723H293L361 591H262Z" />
<glyph unicode="&#xfa;" glyph-name="uacute" horiz-adv-x="501" d="M165 -12Q123 -12 95 4T53 51T38 123Q38 130 38 137T40 157T45 195T55 262T70 368T91 526H209Q197 440 189 380T176 280T167 218T163 184T161 169T160 163Q160 129 173 113T218 97Q253 97 281
126T316 210L359 526H478L405 0H307V68Q291 46 271 28T224 -1T165 -12ZM223 591L327 723H447L448 720L322 591H223Z" />
<glyph unicode="&#xfb;" glyph-name="ucircumflex" horiz-adv-x="501" d="M165 -12Q123 -12 95 4T53 51T38 123Q38 130 38 137T40 157T45 195T55 262T70 368T91 526H209Q197 440 189 380T176 280T167 218T163 184T161 169T160 163Q160 129 173 113T218 97Q253
97 281 126T316 210L359 526H478L405 0H307V68Q291 46 271 28T224 -1T165 -12ZM157 588L261 723H359L426 588H338L303 657L249 588H157Z" />
<glyph unicode="&#xfc;" glyph-name="udieresis" horiz-adv-x="501" d="M165 -12Q123 -12 95 4T53 51T38 123Q38 130 38 137T40 157T45 195T55 262T70 368T91 526H209Q197 440 189 380T176 280T167 218T163 184T161 169T160 163Q160 129 173 113T218 97Q253 97
281 126T316 210L359 526H478L405 0H307V68Q291 46 271 28T224 -1T165 -12ZM332 614L348 723H448L432 614H332ZM157 614L173 723H273L257 614H157Z" />
<glyph unicode="&#xfd;" glyph-name="yacute" horiz-adv-x="456" d="M68 -182Q32 -182 13 -178T-7 -173L4 -81H58Q84 -81 108 -62T149 0L49 526H169L213 279Q216 264 218 241T223 196T226 158T227 142H231Q231 142 235 156T246 193T260 238T275 278L374 526H492L281
27Q257 -30 227 -77T157 -153T68 -182ZM212 591L316 723H436L437 720L311 591H212Z" />
<glyph unicode="&#xfe;" glyph-name="thorn" horiz-adv-x="501" d="M0 -172L123 723H242L207 471Q233 506 263 522T325 538Q393 538 430 491T468 352Q468 225 438 145T361 26T262 -12Q220 -12 193 6T150 57L118 -172H0ZM237 97Q266 97 285 115T317 162T335 224T344
288T347 340Q347 384 333 406T284 429Q256 429 237 412T204 366T184 305T175 241T172 188Q172 145 187 121T237 97Z" />
<glyph unicode="&#xff;" glyph-name="ydieresis" horiz-adv-x="456" d="M68 -182Q32 -182 13 -178T-7 -173L4 -81H58Q84 -81 108 -62T149 0L49 526H169L213 279Q216 264 218 241T223 196T226 158T227 142H231Q231 142 235 156T246 193T260 238T275 278L374 526H492L281
27Q257 -30 227 -77T157 -153T68 -182ZM321 614L337 723H437L421 614H321ZM146 614L162 723H262L246 614H146Z" />
<glyph unicode="&#x2013;" glyph-name="endash" horiz-adv-x="456" d="M-1 221L11 319H467L454 221H-1Z" />
<glyph unicode="&#x2014;" glyph-name="emdash" horiz-adv-x="820" d="M-4 221L8 319H827L814 221H-4Z" />
<glyph unicode="&#x2018;" glyph-name="quoteleft" horiz-adv-x="228" d="M64 393L81 518L171 686H243L170 530H221L202 393H64Z" />
<glyph unicode="&#x2019;" glyph-name="quoteright" horiz-adv-x="228" d="M70 393L143 549H92L111 686H249L232 561L142 393H70Z" />
<glyph unicode="&#x201a;" glyph-name="quotesinglbase" horiz-adv-x="228" d="M-6 -156L67 0H16L35 137H173L156 12L66 -156H-6Z" />
<glyph unicode="&#x201c;" glyph-name="quotedblleft" horiz-adv-x="410" d="M239 393L256 518L346 686H418L345 530H396L377 393H239ZM56 393L73 518L163 686H235L162 530H213L194 393H56Z" />
<glyph unicode="&#x201d;" glyph-name="quotedblright" horiz-adv-x="410" d="M253 393L326 549H275L294 686H432L415 561L325 393H253ZM70 393L143 549H92L111 686H249L232 561L142 393H70Z" />
<glyph unicode="&#x201e;" glyph-name="quotedblbase" horiz-adv-x="410" d="M177 -156L250 0H199L218 137H356L339 12L249 -156H177ZM-6 -156L67 0H16L35 137H173L156 12L66 -156H-6Z" />
<glyph unicode="&#x2022;" glyph-name="bullet" horiz-adv-x="287" d="M154 220Q120 220 93 237T50 282T34 344Q34 378 50 405T93 450T154 467Q188 467 215 450T258 406T275 344Q275 311 259 283T215 237T154 220Z" />
<glyph unicode="&#x2039;" glyph-name="guilsinglleft" horiz-adv-x="273" d="M139 126L32 326L192 526H287L151 326L230 126H139Z" />
<glyph unicode="&#x203a;" glyph-name="guilsinglright" horiz-adv-x="273" d="M12 126L148 326L68 526H159L267 326L106 126H12Z" />
</font>
</defs>
</svg>
