<?xml version="1.0" standalone="no"?>
<!DOCTYPE svg PUBLIC "-//W3C//DTD SVG 1.1//EN" "http://www.w3.org/Graphics/SVG/1.1/DTD/svg11.dtd">
<svg xmlns="http://www.w3.org/2000/svg">
<defs >
<font id="ArchivoNarrow" horiz-adv-x="470" ><font-face
    font-family="Archivo Narrow"
    units-per-em="1000"
    panose-1="0 0 0 0 0 0 0 0 0 0"
    ascent="1035"
    descent="-312"
    alphabetic="0" />
<glyph unicode=" " glyph-name="space" horiz-adv-x="228" />
<glyph unicode="!" glyph-name="exclam" horiz-adv-x="228" d="M85 171L60 686H173L147 171H85ZM67 0V108H167V0H67Z" />
<glyph unicode="&quot;" glyph-name="quotedbl" horiz-adv-x="291" d="M191 407L170 539V686H252V539L230 407H191ZM59 407L37 539V686H119V539L98 407H59Z" />
<glyph unicode="#" glyph-name="numbersign" horiz-adv-x="456" d="M33 0L73 179H9V255H90L124 410H48V486H141L188 696H264L217 486H307L354 696H430L383 486H443V410H366L332 255H403V179H315L275 0H199L239 179H149L109 0H33ZM166 255H256L290 410H200L166 255Z" />
<glyph unicode="$" glyph-name="dollar" horiz-adv-x="456" d="M202 -49V69Q149 74 116 96T68 152T53 222Q53 233 53 238T54 244H136V234Q136 192 154 170T202 140V319Q169 331 138 346T86 390T65 468Q65 530 101 569T202 616V723H251V617Q319 612 354 571T390
474Q390 469 390 463T389 455H308V464Q308 491 296 515T251 546V388Q277 379 303 369T352 341T387 297T400 230Q400 178 381 144T329 91T251 69V-49H202ZM251 139Q280 144 299 163T318 218Q318 251 299 269T251 301V139ZM202 407V546Q168 539 158 517T147 474Q147
448 162 433T202 407Z" />
<glyph unicode="%" glyph-name="percent" horiz-adv-x="729" d="M125 0L543 686H614L195 0H125ZM173 337Q133 337 105 353T61 409T45 517Q45 587 60 626T104 681T173 698Q213 698 241 682T285 626T301 517Q301 448 286 409T242 353T173 337ZM173 396Q209 396 220
428T232 510V525Q232 575 221 607T173 639Q137 639 126 607T114 525V510Q114 460 125 428T173 396ZM565 -12Q525 -12 497 4T453 60T437 168Q437 238 452 277T496 332T565 349Q605 349 633 333T677 277T693 168Q693 99 678 60T634 4T565 -12ZM565 47Q601 47 612
79T624 161V176Q624 226 613 258T565 290Q529 290 518 258T506 176V161Q506 111 517 79T565 47Z" />
<glyph unicode="&amp;" glyph-name="ampersand" horiz-adv-x="547" d="M440 0L167 377Q140 412 127 450T114 528Q114 574 132 612T185 674T269 698Q304 698 334 682T384 634T404 553Q404 497 380 458T320 394T253 355L217 415Q246 426 270 443T310 485T326 548Q326
580 311 603T265 626Q229 626 212 598T195 532Q195 498 206 466T240 409L540 0H440ZM225 -13Q168 -13 126 12T61 80T38 182Q38 227 54 270T103 350T184 407L224 343Q173 325 147 281T121 185Q121 131 150 96T233 60Q276 60 319 89T392 182T422 344H500Q500 253
476 186T411 74T322 9T225 -13Z" />
<glyph unicode="&apos;" glyph-name="quotesingle" horiz-adv-x="157" d="M57 407L35 539V686H117V539L96 407H57Z" />
<glyph unicode="(" glyph-name="parenleft" horiz-adv-x="273" d="M204 -157Q125 -65 83 50T40 288Q40 411 82 527T204 735H258Q221 674 191 601T143 448T125 290Q125 212 142 132T190 -22T258 -157H204Z" />
<glyph unicode=")" glyph-name="parenright" horiz-adv-x="273" d="M15 -157Q53 -96 83 -22T130 132T148 290Q148 368 131 447T83 600T15 735H69Q148 643 190 527T233 288Q233 165 191 50T69 -157H15Z" />
<glyph unicode="*" glyph-name="asterisk" horiz-adv-x="319" d="M125 419L134 508L60 456L26 515L108 553L26 591L60 649L134 597L125 686H193L184 598L258 649L292 591L210 553L292 515L258 456L184 508L193 419H125Z" />
<glyph unicode="+" glyph-name="plus" horiz-adv-x="479" d="M197 0V213H43V297H197V511H280V297H435V213H280V0H197Z" />
<glyph unicode="," glyph-name="comma" horiz-adv-x="228" d="M64 -124L104 0H64V108H164V9L116 -124H64Z" />
<glyph unicode="-" glyph-name="hyphen" horiz-adv-x="273" d="M10 221V319H262V221H10Z" />
<glyph unicode="." glyph-name="period" horiz-adv-x="228" d="M64 0V108H164V0H64Z" />
<glyph unicode="/" glyph-name="slash" horiz-adv-x="228" d="M1 -49L158 735H228L72 -49H1Z" />
<glyph unicode="0" glyph-name="zero" horiz-adv-x="456" d="M228 -12Q184 -12 149 4T90 61T53 169T40 343Q40 448 52 516T89 625T149 681T228 698Q272 698 306 682T365 625T403 517T416 343Q416 238 403 170T366 61T307 5T228 -12ZM228 61Q269 61 291 93T323
180T332 308V378Q332 450 323 505T292 593T228 625Q187 625 165 593T133 506T124 378V308Q124 236 133 181T164 93T228 61Z" />
<glyph unicode="1" glyph-name="one" horiz-adv-x="456" d="M50 0V73H213V561H49V613Q77 616 115 626T192 651T263 686H295V73H445V0H50Z" />
<glyph unicode="2" glyph-name="two" horiz-adv-x="456" d="M39 0V13Q39 54 51 91T87 162Q118 207 158 249T235 334T297 423T322 521Q322 544 314 567T286 606T229 622Q176 622 155 583T133 491V450H48Q48 450 47 461T45 490Q45 564 70 609T138 676T230 698Q280
698 320 680T385 623T409 520Q409 468 391 424T343 339T280 262T213 190T158 119Q152 110 148 101T140 84H412V0H39Z" />
<glyph unicode="3" glyph-name="three" horiz-adv-x="456" d="M228 -12Q134 -12 85 44T35 194V202H119V191Q119 127 145 94T222 61Q271 61 301 92T332 190Q332 239 316 265T274 301T219 312H162V385H221Q261 385 290 414T320 505Q320 569 292 597T226 625Q185
625 158 595T131 501V492H47V510Q47 567 70 609T133 675T225 698Q305 698 354 650T404 510Q404 449 379 414T315 356V352Q359 336 387 294T416 184Q416 123 392 79T326 12T228 -12Z" />
<glyph unicode="4" glyph-name="four" horiz-adv-x="456" d="M285 0V169H20V243Q56 309 89 384T150 540T198 698H281Q267 629 242 558T189 422T136 311T97 242H285V458Q295 483 302 504T315 547T327 596H367V242H437V169H367V0H285Z" />
<glyph unicode="5" glyph-name="five" horiz-adv-x="456" d="M232 -12Q145 -12 93 48T40 213H125Q125 143 156 102T232 60Q278 60 308 100T338 224Q338 295 311 333T239 372Q206 372 179 350T137 293L59 306L82 686H394V602H153L140 393Q157 410 187 428T261 446Q306
446 343 422T401 349T423 224Q423 111 372 50T232 -12Z" />
<glyph unicode="6" glyph-name="six" horiz-adv-x="456" d="M237 -12Q176 -12 132 19T64 123T40 323Q40 466 63 548T129 664T232 698Q291 698 327 669T381 589T398 475H315Q315 546 294 585T228 625Q187 625 165 594T134 504T124 366Q146 396 177 413T245 431Q303
431 341 402T397 322T416 210Q416 142 393 92T329 15T237 -12ZM232 61Q284 61 308 105T332 210Q332 272 308 315T232 359Q180 359 156 316T131 210Q131 149 155 105T232 61Z" />
<glyph unicode="7" glyph-name="seven" horiz-adv-x="456" d="M119 0Q119 89 137 173T186 336T251 481T320 602H33V686H423V633Q388 580 351 514T282 372T231 216T211 51Q211 37 211 28T212 0H119Z" />
<glyph unicode="8" glyph-name="eight" horiz-adv-x="456" d="M228 -12Q162 -12 121 15T60 87T40 188Q40 244 61 286T128 352Q91 377 73 417T54 507Q54 560 73 603T132 672T228 698Q286 698 324 672T382 603T402 507Q402 458 384 418T327 352Q374 329 395 287T416
188Q416 133 397 88T336 15T228 -12ZM228 61Q279 61 305 95T332 188Q332 247 306 280T228 314Q177 314 151 281T124 188Q124 130 150 96T228 61ZM228 387Q270 387 295 419T321 506Q321 562 296 593T228 625Q186 625 161 594T136 506Q136 451 161 419T228 387Z"
/>
<glyph unicode="9" glyph-name="nine" horiz-adv-x="456" d="M228 -12Q168 -12 131 17T76 97T58 211H141Q141 140 163 101T232 61Q272 61 293 92T323 182T332 319Q310 289 280 272T211 255Q153 255 115 284T59 364T40 476Q40 545 63 594T127 671T219 698Q281 698
325 667T392 563T416 363Q416 220 394 138T329 22T228 -12ZM224 327Q276 327 300 371T325 476Q325 538 301 581T224 625Q172 625 148 582T124 476Q124 415 148 371T224 327Z" />
<glyph unicode=":" glyph-name="colon" horiz-adv-x="228" d="M64 418V526H164V418H64ZM64 0V108H164V0H64Z" />
<glyph unicode=";" glyph-name="semicolon" horiz-adv-x="228" d="M64 -124L104 0H64V108H164V9L116 -124H64ZM64 418V526H164V418H64Z" />
<glyph unicode="&lt;" glyph-name="less" horiz-adv-x="479" d="M436 4L44 200V307L436 504V414L125 254L436 94V4Z" />
<glyph unicode="=" glyph-name="equal" horiz-adv-x="479" d="M43 318V402H435V318H43ZM43 106V189H435V106H43Z" />
<glyph unicode="&gt;" glyph-name="greater" horiz-adv-x="479" d="M44 4V94L355 254L44 414V504L436 307V200L44 4Z" />
<glyph unicode="?" glyph-name="question" horiz-adv-x="456" d="M192 180V236Q192 276 204 303T236 352T274 395T305 443T318 509Q318 520 315 538T304 575T277 608T229 621Q197 621 178 607T150 571T137 526T134 486Q134 474 134 467T135 459H46Q46 459 45 472T43
494Q43 550 64 596T129 670T236 698Q286 698 325 676T386 613T409 520Q409 462 396 426T364 366T325 323T292 280T279 221V180H192ZM185 0V108H285V0H185Z" />
<glyph unicode="@" glyph-name="at" horiz-adv-x="832" d="M395 -153Q287 -153 209 -110T88 26T45 262Q45 382 75 465T159 599T281 674T427 698Q530 698 611 660T739 538T786 321Q786 236 768 179T721 87T660 37T597 22Q554 22 535 39T508 84H504Q485 55 455 38T387
21Q370 21 349 26T308 45T275 85T262 155Q262 221 293 255T380 302T504 315V377Q504 412 489 433T428 455Q386 455 371 431T355 379V368H281Q280 373 280 377T280 388Q280 454 323 487T434 521Q506 521 542 486T578 387V125Q578 87 612 87Q638 87 665 107T710 178T728
322Q728 436 690 506T583 610T426 643Q277 643 190 549T103 261Q103 82 174 -8T395 -98Q416 -98 445 -94T501 -82T545 -66V-126Q526 -134 498 -140T443 -149T395 -153ZM405 87Q429 87 451 100T489 139T504 205V249Q456 249 419 243T361 217T340 160Q340 119 357
103T405 87Z" />
<glyph unicode="A" glyph-name="A" horiz-adv-x="547" d="M-1 0L217 686H330L548 0H453L406 153H134L87 0H-1ZM158 233H381L288 538Q285 550 281 568T275 600T272 614H268Q268 614 266 600T260 567T252 538L158 233Z" />
<glyph unicode="B" glyph-name="B" horiz-adv-x="547" d="M65 0V686H325Q376 686 416 665T479 607T502 518Q502 459 472 418T397 360V356Q448 340 483 294T518 182Q518 124 492 84T422 22T325 0H65ZM153 80H313Q362 80 394 109T426 194Q426 241 394 276T307 311H153V80ZM153
391H299Q349 391 379 423T410 499Q410 553 381 579T305 606H153V391Z" />
<glyph unicode="C" glyph-name="C" horiz-adv-x="592" d="M312 -12Q179 -12 111 76T42 343Q42 522 110 610T312 698Q382 698 436 670T520 584T551 438H461Q461 528 421 572T312 617Q222 617 178 555T134 368V318Q134 193 178 131T312 69Q381 69 422 113T464 246H551Q551
158 521 101T436 16T312 -12Z" />
<glyph unicode="D" glyph-name="D" horiz-adv-x="592" d="M70 0V686H283Q405 686 474 603T543 353Q543 177 474 89T283 0H70ZM158 80H275Q356 80 403 141T451 328V378Q451 493 404 549T275 606H158V80Z" />
<glyph unicode="E" glyph-name="E" horiz-adv-x="547" d="M70 0V686H493V606H158V391H449V311H158V80H499V0H70Z" />
<glyph unicode="F" glyph-name="F" horiz-adv-x="501" d="M70 0V686H466V606H158V384H430V304H158V0H70Z" />
<glyph unicode="G" glyph-name="G" horiz-adv-x="638" d="M319 -12Q189 -12 119 76T49 343Q49 522 122 610T324 698Q396 698 452 671T540 590T573 452H483Q483 538 439 577T324 617Q239 617 190 555T141 368V318Q141 193 187 131T319 69Q405 69 444 117T483 264V317L520
280H305V357H573V0H515L496 76Q465 30 420 9T319 -12Z" />
<glyph unicode="H" glyph-name="H" horiz-adv-x="592" d="M70 0V686H158V391H434V686H522V0H434V311H158V0H70Z" />
<glyph unicode="I" glyph-name="I" horiz-adv-x="228" d="M70 0V686H158V0H70Z" />
<glyph unicode="J" glyph-name="J" horiz-adv-x="410" d="M179 -12Q100 -12 57 33T13 163V208H101V158Q101 69 179 69Q257 69 257 158V686H345V163Q345 78 302 33T179 -12Z" />
<glyph unicode="K" glyph-name="K" horiz-adv-x="547" d="M70 0V686H158V323L430 686H528L322 409L535 0H435L268 335L158 213V0H70Z" />
<glyph unicode="L" glyph-name="L" horiz-adv-x="456" d="M70 0V686H158V80H438V0H70Z" />
<glyph unicode="M" glyph-name="M" horiz-adv-x="683" d="M62 0V686H196L317 236Q322 217 326 191T333 140T338 99T340 82H344Q344 82 345 99T350 141T357 192T366 236L488 686H621V0H533V498Q533 507 534 524T536 560T539 591T540 604H536Q536 604 534 591T527
560T520 525T513 498L376 0H297L160 498Q158 505 155 522T148 558T142 590T139 604H135Q135 604 136 591T138 559T140 523T141 498V0H62Z" />
<glyph unicode="N" glyph-name="N" horiz-adv-x="592" d="M70 0V686H146L401 255Q409 242 418 220T435 181T443 163L446 164Q446 164 446 182T444 222T443 255V686H522V0H449L192 437Q184 452 174 473T156 512T148 529L145 528Q145 528 146 511T148 473T149 437V0H70Z" />
<glyph unicode="O" glyph-name="O" horiz-adv-x="638" d="M319 -12Q193 -12 121 76T49 343Q49 522 121 610T319 698Q445 698 517 610T589 343Q589 165 517 77T319 -12ZM319 69Q402 69 449 131T497 318V368Q497 493 450 555T319 617Q237 617 189 555T141 368V318Q141
193 189 131T319 69Z" />
<glyph unicode="P" glyph-name="P" horiz-adv-x="547" d="M70 0V686H315Q383 686 428 661T497 591T520 486Q520 426 495 380T425 309T315 283H158V0H70ZM158 363H312Q365 363 396 397T428 486Q428 542 398 574T312 606H158V363Z" />
<glyph unicode="Q" glyph-name="Q" horiz-adv-x="638" d="M450 -124L331 -12H319Q193 -12 121 76T49 343Q49 522 121 610T319 698Q445 698 517 610T589 343Q589 207 546 123T426 7L568 -124H450ZM319 69Q402 69 449 131T497 318V368Q497 493 450 555T319 617Q237
617 189 555T141 368V318Q141 193 189 131T319 69Z" />
<glyph unicode="R" glyph-name="R" horiz-adv-x="592" d="M70 0V686H346Q447 686 499 634T551 496Q551 432 519 386T429 319L567 0H469L342 303H158V0H70ZM158 383H343Q396 383 427 414T459 496Q459 547 429 576T343 606H158V383Z" />
<glyph unicode="S" glyph-name="S" horiz-adv-x="547" d="M272 -12Q210 -12 157 8T73 73T41 194Q41 199 41 205T42 214H133Q133 213 133 206T132 193Q132 130 171 100T268 69Q337 69 374 98T412 183Q412 220 393 243T342 281T272 308T196 334T126 370T75 426T55
514Q55 577 84 618T163 678T273 698Q333 698 381 679T459 617T488 505V493H397V508Q397 561 362 589T275 617Q221 617 185 594T148 521Q148 486 167 464T218 428T288 401T364 375T433 339T484 284T504 198Q504 121 474 75T391 9T272 -12Z" />
<glyph unicode="T" glyph-name="T" horiz-adv-x="501" d="M206 0V606H19V686H481V606H294V0H206Z" />
<glyph unicode="U" glyph-name="U" horiz-adv-x="592" d="M296 -12Q190 -12 130 48T70 223V686H158V218Q158 145 195 107T296 69Q361 69 397 107T434 218V686H522V223Q522 108 462 48T296 -12Z" />
<glyph unicode="V" glyph-name="V" horiz-adv-x="547" d="M217 0L8 686H105L275 97H279L454 686H539L330 0H217Z" />
<glyph unicode="W" glyph-name="W" horiz-adv-x="774" d="M169 0L10 686H103L208 212Q213 192 217 163T225 112T229 90H233Q233 90 235 108T241 154T250 212L329 686H451L536 212Q541 187 545 159T551 110T554 90H558Q558 90 561 111T569 161T579 212L684 686H764L605
0H491L407 465Q404 482 401 505T395 551T390 588T388 603H384Q384 603 382 589T378 552T372 506T365 465L283 0H169Z" />
<glyph unicode="X" glyph-name="X" horiz-adv-x="547" d="M4 0L223 356L24 686H128L275 441H276L427 686H521L322 364L543 0H439L271 280H270L98 0H4Z" />
<glyph unicode="Y" glyph-name="Y" horiz-adv-x="547" d="M230 0V284L8 686H105L279 368H283L454 686H539L318 284V0H230Z" />
<glyph unicode="Z" glyph-name="Z" horiz-adv-x="501" d="M20 0V38L346 606H41V686H472V648L145 80H479V0H20Z" />
<glyph unicode="[" glyph-name="bracketleft" horiz-adv-x="228" d="M49 -161V735H208V670H125V-96H208V-161H49Z" />
<glyph unicode="\" glyph-name="backslash" horiz-adv-x="228" d="M157 -49L1 735H71L228 -49H157Z" />
<glyph unicode="]" glyph-name="bracketright" horiz-adv-x="228" d="M20 -161V-96H103V670H20V735H179V-161H20Z" />
<glyph unicode="^" glyph-name="asciicircum" horiz-adv-x="385" d="M4 294L140 686H247L384 294H294L193 609L94 294H4Z" />
<glyph unicode="_" glyph-name="underscore" horiz-adv-x="456" d="M0 -124V-71H455V-124H0Z" />
<glyph unicode="`" glyph-name="grave" horiz-adv-x="0" d="M108 591L0 720L1 723H91L177 591H108Z" />
<glyph unicode="a" glyph-name="a" horiz-adv-x="456" d="M172 -12Q153 -12 129 -7T84 14T48 59T34 136Q34 209 68 246T163 298T300 312V380Q300 418 284 441T217 465Q171 465 154 439T136 382V370H55Q54 375 54 380T54 392Q54 464 101 501T223 538Q303 538 342
500T382 391V96Q382 77 391 69T410 61H442V4Q435 0 422 -4T388 -8Q356 -8 335 10T305 57H300Q280 25 247 7T172 -12ZM191 61Q217 61 242 75T283 119T300 191V239Q246 239 206 232T143 203T120 141Q120 96 138 79T191 61Z" />
<glyph unicode="b" glyph-name="b" horiz-adv-x="456" d="M253 -12Q217 -12 187 6T138 61H133L122 0H60V723H142V476H147Q161 505 191 521T259 538Q303 538 338 510T395 421T416 264Q416 119 372 54T253 -12ZM236 61Q283 61 306 103T330 244V282Q330 380 307 422T236
465Q189 465 166 418T142 278V244Q142 153 165 107T236 61Z" />
<glyph unicode="c" glyph-name="c" horiz-adv-x="410" d="M216 -12Q123 -12 80 54T36 263Q36 405 80 471T216 538Q302 538 339 485T377 331H292Q292 399 276 432T216 465Q167 465 145 419T122 282V244Q122 153 144 107T216 61Q260 61 278 95T296 195H377Q377 140
361 93T310 17T216 -12Z" />
<glyph unicode="d" glyph-name="d" horiz-adv-x="456" d="M203 -12Q128 -12 84 53T40 264Q40 360 61 420T118 509T197 538Q235 538 265 522T309 476H314V723H396V0H334L323 61H318Q299 25 269 7T203 -12ZM220 61Q267 61 290 107T314 244V278Q314 371 291 418T220
465Q173 465 150 423T126 282V244Q126 146 149 104T220 61Z" />
<glyph unicode="e" glyph-name="e" horiz-adv-x="456" d="M241 -12Q143 -12 93 52T42 263Q42 405 91 471T240 538Q326 538 369 481T413 291V239H128Q129 147 157 104T243 61Q282 61 307 92T332 179H413Q413 91 366 40T241 -12ZM129 312H327Q327 387 305 426T240
465Q185 465 160 427T129 312Z" />
<glyph unicode="f" glyph-name="f" horiz-adv-x="228" d="M55 0V453H9V526H55V610Q55 640 64 668T96 713T159 731Q177 731 196 728T228 719V662H184Q137 662 137 614V526H228V453H137V0H55Z" />
<glyph unicode="g" glyph-name="g" horiz-adv-x="456" d="M143 -182Q79 -182 46 -146T13 -57Q13 -19 31 12T81 55Q61 68 50 89T38 134Q38 166 58 189T112 225Q84 248 68 282T51 361Q51 444 97 491T223 538Q264 538 299 519Q334 538 347 562T364 611H436Q436 564
413 530T348 485Q370 463 382 432T395 361Q395 279 350 232T227 184H172Q152 184 138 171T124 137Q124 118 138 104T172 90H322Q379 90 412 54T446 -33Q446 -74 429 -108T377 -162T292 -182H143ZM156 -111H301Q327 -111 345 -93T363 -49Q363 -23 348 -6T301 12H156Q125
12 110 -5T95 -49Q95 -74 110 -92T156 -111ZM222 252Q266 252 289 281T312 361Q312 414 289 442T222 470Q179 470 156 441T133 361Q133 309 156 281T222 252Z" />
<glyph unicode="h" glyph-name="h" horiz-adv-x="456" d="M60 0V723H142V471H148Q168 506 197 522T266 538Q325 538 360 503T396 379V0H314V373Q314 428 294 446T240 465Q201 465 172 427T142 321V0H60Z" />
<glyph unicode="i" glyph-name="i" horiz-adv-x="228" d="M73 0V526H155V0H73ZM71 628V723H156V628H71Z" />
<glyph unicode="j" glyph-name="j" horiz-adv-x="182" d="M28 -182Q10 -182 -9 -178T-41 -170V-113H3Q50 -113 50 -65V526H132V-61Q132 -91 123 -118T91 -164T28 -182ZM48 628V723H133V628H48Z" />
<glyph unicode="k" glyph-name="k" horiz-adv-x="410" d="M60 0V723H142V282L312 526H403L248 310L411 0H318L198 240L142 179V0H60Z" />
<glyph unicode="l" glyph-name="l" horiz-adv-x="182" d="M50 0V723H132V0H50Z" />
<glyph unicode="m" glyph-name="m" horiz-adv-x="683" d="M60 0V526H122L133 465H139Q160 504 191 521T259 538Q298 538 327 521T371 462Q392 500 427 519T499 538Q536 538 564 523T607 473T623 379V0H541V373Q541 428 522 446T473 465Q436 465 410 427T383 321V0H301V373Q301
428 282 446T233 465Q196 465 169 427T142 321V0H60Z" />
<glyph unicode="n" glyph-name="n" horiz-adv-x="456" d="M60 0V526H122L133 465H139Q161 504 194 521T266 538Q325 538 360 503T396 379V0H314V373Q314 428 294 446T240 465Q201 465 172 427T142 321V0H60Z" />
<glyph unicode="o" glyph-name="o" horiz-adv-x="456" d="M228 -12Q136 -12 88 54T40 263Q40 405 88 471T228 538Q320 538 368 472T416 263Q416 121 368 55T228 -12ZM228 61Q279 61 304 107T330 244V282Q330 373 305 419T228 465Q177 465 152 419T126 282V244Q126
153 151 107T228 61Z" />
<glyph unicode="p" glyph-name="p" horiz-adv-x="456" d="M60 -173V526H122L133 465H138Q157 501 187 519T253 538Q328 538 372 473T416 262Q416 167 395 106T339 17T259 -12Q221 -12 191 3T147 46H142V-173H60ZM236 61Q283 61 306 103T330 244V282Q330 380 307
422T236 465Q189 465 166 419T142 282V244Q142 153 165 107T236 61Z" />
<glyph unicode="q" glyph-name="q" horiz-adv-x="456" d="M314 -173V46H309Q296 19 266 4T197 -12Q154 -12 118 16T61 106T40 262Q40 407 84 472T203 538Q239 538 269 520T318 465H323L334 526H396V-173H314ZM220 61Q267 61 290 107T314 244V282Q314 373 291 419T220
465Q173 465 150 423T126 282V244Q126 146 149 104T220 61Z" />
<glyph unicode="r" glyph-name="r" horiz-adv-x="273" d="M60 0V526H122L133 457H139Q149 487 170 512T228 538Q245 538 256 534T267 530V445H240Q214 445 192 434T156 395T142 321V0H60Z" />
<glyph unicode="s" glyph-name="s" horiz-adv-x="410" d="M202 -12Q142 -12 105 10T50 68T33 142Q33 153 33 158T34 164H120V154Q120 105 145 83T206 60Q238 60 261 80T285 138Q285 171 268 189T223 219T165 241T107 268T63 312T45 388Q45 435 65 468T122 520T209
538Q258 538 291 519T342 466T360 394Q360 389 360 383T359 375H274V384Q274 415 259 440T201 466Q172 466 157 454T136 426T130 394Q130 365 147 349T192 323T250 303T308 275T352 229T370 150Q370 94 348 58T289 5T202 -12Z" />
<glyph unicode="t" glyph-name="t" horiz-adv-x="228" d="M153 -10Q117 -10 97 8T68 53T59 111V453H14V526H59L77 672H141V526H212V453H141V109Q141 61 188 61H212V4Q202 -2 185 -6T153 -10Z" />
<glyph unicode="u" glyph-name="u" horiz-adv-x="456" d="M190 -12Q131 -12 96 23T60 147V526H142V153Q142 98 162 80T216 61Q255 61 284 99T314 205V526H396V0H334L323 61H317Q295 22 262 5T190 -12Z" />
<glyph unicode="v" glyph-name="v" horiz-adv-x="410" d="M161 0L10 526H100L171 259Q176 243 180 226T189 193T198 160T207 126H211Q216 143 220 160T229 194T238 228T247 262L318 526H401L250 0H161Z" />
<glyph unicode="w" glyph-name="w" horiz-adv-x="592" d="M132 0L1 526H91L157 230Q162 209 167 180T175 128T178 105H182Q182 105 184 125T190 174T198 230L251 526H346L400 230Q403 210 406 189T411 148T415 117T416 105H420Q420 105 421 116T425 145T432 185T441
230L507 526H590L459 0H368L313 300Q308 327 305 355T299 402T297 421H293Q293 421 291 402T286 356T277 300L223 0H132Z" />
<glyph unicode="x" glyph-name="x" horiz-adv-x="410" d="M6 0L159 266L13 526H112L206 346H207L305 526H397L250 273L404 0H305L203 192H202L96 0H6Z" />
<glyph unicode="y" glyph-name="y" horiz-adv-x="410" d="M97 -182Q80 -182 66 -180T38 -174V-117H67Q100 -117 128 -92T171 0L10 526H100L189 212Q192 200 195 189T202 165T209 142T216 118H220Q223 130 226 142T231 166T237 190T243 214L318 526H401L267 27Q252
-30 230 -77T175 -153T97 -182Z" />
<glyph unicode="z" glyph-name="z" horiz-adv-x="410" d="M26 0V39L257 453H42V526H370V488L138 73H383V0H26Z" />
<glyph unicode="{" glyph-name="braceleft" horiz-adv-x="274" d="M254 -159Q213 -159 177 -148T119 -106T97 -11V186Q97 220 72 233T20 246V330Q47 330 72 343T97 390V587Q97 650 119 682T177 724T254 735V678Q236 678 218 673T188 652T175 607Q175 555 173 505T168
401Q167 350 148 322T80 293V283Q128 283 147 255T168 175Q170 123 172 72T175 -31Q175 -60 187 -75T218 -96T254 -102V-159Z" />
<glyph unicode="|" glyph-name="bar" horiz-adv-x="213" d="M67 -173V723H146V-173H67Z" />
<glyph unicode="}" glyph-name="braceright" horiz-adv-x="274" d="M20 -159V-102Q38 -102 56 -97T87 -76T99 -31Q99 21 101 72T106 175Q108 226 127 254T194 283V293Q146 293 127 321T106 401Q104 454 102 504T99 607Q99 637 87 652T57 672T20 678V735Q62 735
97 725T155 682T177 587V390Q177 356 202 343T254 330V246Q227 246 202 233T177 186V-11Q177 -74 155 -105T98 -148T20 -159Z" />
<glyph unicode="~" glyph-name="asciitilde" horiz-adv-x="479" d="M35 211V303Q35 303 42 314T64 339T101 365T153 376Q184 376 211 361T266 331T326 315Q352 315 373 326T411 351T435 377T444 388V296Q444 296 437 285T415 260T378 234T326 223Q295 223 268
238T213 269T153 284Q127 284 106 273T68 248T44 222T35 211Z" />
<glyph unicode="&#xa0;" glyph-name="uni00A0" horiz-adv-x="228" />
<glyph unicode="&#xa1;" glyph-name="exclamdown" horiz-adv-x="273" d="M100 -160L125 355H187L213 -160H100ZM107 418V526H207V418H107Z" />
<glyph unicode="&#xa2;" glyph-name="cent" horiz-adv-x="456" d="M210 -49V69Q127 78 88 144T48 343Q48 474 87 541T210 616V723H259V617Q338 610 372 558T407 411H322Q322 471 309 503T259 543V143Q296 151 311 184T326 275H407Q407 224 392 179T345 105T259
69V-49H210ZM210 144V541Q170 531 152 486T134 362V324Q134 245 152 200T210 144Z" />
<glyph unicode="&#xa3;" glyph-name="sterling" horiz-adv-x="456" d="M30 0V79H91V304H19V376H91V499Q91 599 133 648T252 698Q326 698 369 655T413 504V491H331V507Q331 568 311 596T252 625Q214 625 194 599T174 515V376H307V304H173L164 79H413V0H30Z" />
<glyph unicode="&#xa4;" glyph-name="currency" horiz-adv-x="456" d="M228 96Q188 96 153 111T88 154L45 111L-3 159L46 208Q30 237 21 271T11 342Q11 379 20 413T46 476L-3 525L45 573L87 530Q116 558 152 573T228 589Q268 589 304 574T368 530L411 573L459
525L410 476Q427 447 436 413T445 342Q445 305 436 271T410 208L459 159L411 111L368 154Q340 127 304 112T228 96ZM228 165Q269 165 302 189T356 253T376 342Q376 392 356 432T303 496T228 520Q187 520 153 496T99 432T79 342Q79 293 99 253T153 189T228 165Z"
/>
<glyph unicode="&#xa5;" glyph-name="yen" horiz-adv-x="456" d="M184 0V169H25V234H184V304H25V369H153L2 686H97L233 393H237L370 686H453L303 369H431V304H272V234H431V169H272V0H184Z" />
<glyph unicode="&#xa6;" glyph-name="brokenbar" horiz-adv-x="213" d="M67 343V723H146V343H67ZM67 -173V207H146V-173H67Z" />
<glyph unicode="&#xa7;" glyph-name="section" horiz-adv-x="456" d="M229 -182Q180 -182 147 -162T96 -110T78 -38Q78 -33 78 -27T79 -19H164Q164 -65 182 -87T237 -110Q266 -110 281 -98T302 -69T308 -38Q308 -1 291 23T246 65T188 99T130 138T86 193T68 277Q68
326 90 359T138 411Q112 434 95 466T78 548Q78 595 97 628T153 680T242 698Q291 698 324 679T375 626T393 554Q393 549 393 543T392 535H307Q307 581 290 603T234 626Q206 626 191 614T169 586T163 554Q163 517 180 493T225 451T283 417T341 378T385 323T403 239Q403
190 381 157T333 104Q359 82 376 50T393 -32Q393 -78 374 -112T318 -164T229 -182ZM288 136Q304 149 313 169T323 218Q323 264 302 291T248 339T182 379Q166 367 157 347T148 298Q148 253 169 225T223 177T288 136Z" />
<glyph unicode="&#xa8;" glyph-name="dieresis" horiz-adv-x="0" d="M150 628V723H237V628H150ZM0 628V723H87V628H0Z" />
<glyph unicode="&#xa9;" glyph-name="copyright" horiz-adv-x="604" d="M302 -12Q215 -12 152 32T55 155T21 343Q21 451 55 531T152 654T302 698Q390 698 452 655T549 531T583 343Q583 235 549 156T453 32T302 -12ZM304 139Q225 139 185 191T145 348Q145 454 185
506T304 558Q366 558 405 520T445 405H387Q387 456 365 481T304 506Q253 506 229 471T204 364V334Q204 263 228 227T304 191Q342 191 365 216T389 291H445Q445 213 406 176T304 139ZM302 35Q375 35 427 73T508 180T537 343Q537 437 509 506T428 613T302 651Q229
651 177 613T96 506T67 343Q67 250 95 181T176 73T302 35Z" />
<glyph unicode="&#xaa;" glyph-name="ordfeminine" horiz-adv-x="303" d="M115 362Q97 362 75 369T36 398T20 463Q20 513 43 539T107 574T199 584V627Q199 652 189 667T146 683Q116 683 105 666T93 628V618H34Q34 623 34 627T34 635Q34 685 66 710T149 735Q204
735 231 709T258 635V437Q258 425 263 420T275 415H298V374Q293 370 283 368T260 365Q239 365 225 376T204 408H202Q188 386 166 374T115 362ZM128 415Q153 415 176 436T199 500V531Q147 531 115 519T82 466Q82 438 94 427T128 415Z" />
<glyph unicode="&#xab;" glyph-name="guillemotleft" horiz-adv-x="456" d="M347 126L205 326L347 526H417L305 326L417 126H347ZM195 126L54 326L195 526H266L153 326L266 126H195Z" />
<glyph unicode="&#xac;" glyph-name="logicalnot" horiz-adv-x="479" d="M351 197V360H39V453H435V197H351Z" />
<glyph unicode="&#xad;" glyph-name="uni00AD" horiz-adv-x="273" d="M10 221V319H262V221H10Z" />
<glyph unicode="&#xae;" glyph-name="registered" horiz-adv-x="604" d="M302 -12Q215 -12 152 32T55 155T21 343Q21 451 55 531T152 654T302 698Q390 698 452 655T549 531T583 343Q583 235 549 156T453 32T302 -12ZM302 35Q375 35 427 73T508 180T537 343Q537
437 509 506T428 613T302 651Q229 651 177 613T96 506T67 343Q67 250 95 181T176 73T302 35ZM177 148V550H328Q379 550 410 519T441 435Q441 395 424 365T383 324L466 148H406L332 303H234V148H177ZM234 356H310Q348 356 365 375T382 428Q382 461 365 479T310 497H234V356Z"
/>
<glyph unicode="&#xaf;" glyph-name="overscore" horiz-adv-x="410" d="M86 600V672H336V600H86Z" />
<glyph unicode="&#xb0;" glyph-name="degree" horiz-adv-x="400" d="M198 428Q161 428 130 446T81 495T63 563Q63 601 81 631T130 680T198 698Q236 698 266 680T315 632T333 563Q333 526 315 495T267 446T198 428ZM198 481Q232 481 255 505T279 563Q279 597 256
620T198 644Q164 644 140 621T116 563Q116 529 140 505T198 481Z" />
<glyph unicode="&#xb1;" glyph-name="plusminus" horiz-adv-x="549" d="M232 127V310H78V394H232V578H315V394H470V310H315V127H232ZM78 0V83H470V0H78Z" />
<glyph unicode="&#xb2;" glyph-name="uni00B2" horiz-adv-x="273" d="M35 435V451Q35 494 61 526T116 588Q142 614 162 638T182 690Q182 707 174 724T139 741Q115 741 106 722T97 682L98 653H38Q38 653 36 662T34 681Q34 742 65 770T141 799Q182 799 213 774T244
690Q244 647 218 615T165 556Q148 539 134 524T114 491H247V435H35Z" />
<glyph unicode="&#xb3;" glyph-name="uni00B3" horiz-adv-x="273" d="M140 428Q84 428 56 455T27 536V547H92V534Q92 512 104 499T136 485Q158 485 171 496T185 538Q185 567 170 578T135 590H110V643H136Q153 643 166 658T179 699Q179 724 167 733T139 742Q120
742 109 730T98 697V677H34V702Q34 746 63 772T138 799Q185 799 214 776T243 702Q243 675 232 655T200 621Q221 609 235 586T249 535Q249 482 219 455T140 428Z" />
<glyph unicode="&#xb4;" glyph-name="acute" horiz-adv-x="0" d="M0 591L86 723H176L177 720L69 591H0Z" />
<glyph unicode="&#xb5;" glyph-name="uni00B5" horiz-adv-x="456" d="M60 -173V526H142V142Q142 94 163 78T216 61Q255 61 284 99T314 205V526H396V0H334L323 61H317Q295 22 262 5T190 -12Q162 -12 142 -5V-173H60Z" />
<glyph unicode="&#xb6;" glyph-name="paragraph" horiz-adv-x="440" d="M187 -173V250Q139 257 101 287T41 364T18 467Q18 528 43 577T113 656T210 686H419V625H371V-173H305V625H252V-173H187Z" />
<glyph unicode="&#xb7;" glyph-name="middot" horiz-adv-x="228" d="M63 288V399H164V288H63Z" />
<glyph unicode="&#xb8;" glyph-name="cedilla" horiz-adv-x="0" d="M84 -182Q38 -182 0 -174V-125H76Q93 -125 102 -120T112 -101Q112 -89 105 -83T78 -77H45L59 11H114L107 -36Q139 -38 163 -52T188 -101Q188 -134 171 -151T129 -175T84 -182Z" />
<glyph unicode="&#xb9;" glyph-name="uni00B9" horiz-adv-x="273" d="M42 435V491H116V709H41V747Q64 750 95 760T149 786H179V491H246V435H42Z" />
<glyph unicode="&#xba;" glyph-name="ordmasculine" horiz-adv-x="299" d="M149 361Q87 361 54 406T21 548Q21 644 54 689T149 735Q212 735 244 690T277 548Q277 452 245 407T149 361ZM149 414Q183 414 199 444T216 535V561Q216 621 200 651T149 682Q115 682 99
652T83 561V535Q83 475 99 445T149 414Z" />
<glyph unicode="&#xbb;" glyph-name="guillemotright" horiz-adv-x="456" d="M190 126L303 326L190 526H261L402 326L261 126H190ZM39 126L151 326L39 526H109L251 326L109 126H39Z" />
<glyph unicode="&#xbc;" glyph-name="onequarter" horiz-adv-x="683" d="M42 591V647H116V865H41V903Q64 906 95 916T149 942H179V647H246V591H42ZM102 -12L518 698H580L165 -12H102ZM566 0V79H429V128Q459 177 481 236T516 365H586Q576 322 559 278T524 197T493
139H566V199Q574 217 582 249T596 306H630V139H664V79H630V0H566Z" />
<glyph unicode="&#xbd;" glyph-name="onehalf" horiz-adv-x="683" d="M42 591V647H116V865H41V903Q64 906 95 916T149 942H179V647H246V591H42ZM102 -12L518 698H580L165 -12H102ZM445 0V16Q445 59 471 91T526 153Q552 179 572 203T592 255Q592 272 584 289T549
306Q525 306 516 287T507 247L508 218H448Q448 218 446 227T444 246Q444 307 475 335T551 364Q592 364 623 339T654 255Q654 212 628 180T575 121Q558 104 544 89T524 56H657V0H445Z" />
<glyph unicode="&#xbe;" glyph-name="threequarters" horiz-adv-x="683" d="M140 584Q84 584 56 611T27 692V703H92V690Q92 668 104 655T136 641Q158 641 171 652T185 694Q185 723 170 734T135 746H110V799H136Q153 799 166 814T179 855Q179 880 167 889T139 898Q120
898 109 886T98 853V833H34V858Q34 902 63 928T138 955Q185 955 214 932T243 858Q243 831 232 811T200 777Q221 765 235 742T249 691Q249 638 219 611T140 584ZM102 -12L518 698H580L165 -12H102ZM566 0V79H429V128Q459 177 481 236T516 365H586Q576 322 559 278T524
197T493 139H566V199Q574 217 582 249T596 306H630V139H664V79H630V0H566Z" />
<glyph unicode="&#xbf;" glyph-name="questiondown" horiz-adv-x="501" d="M248 -172Q197 -172 157 -150T93 -89T70 2Q70 57 83 93T115 153T154 199T187 244T200 305V346H287V290Q287 249 275 222T243 172T205 129T174 81T161 13Q161 3 164 -15T176 -51T205 -82T255
-95Q285 -95 303 -81T330 -46T342 -1T345 40Q345 52 345 59T344 67H433Q433 67 434 54T436 32Q436 -27 416 -73T353 -145T248 -172ZM194 418V526H294V418H194Z" />
<glyph unicode="&#xc0;" glyph-name="Agrave" horiz-adv-x="547" d="M-1 0L217 686H330L548 0H453L406 153H134L87 0H-1ZM158 233H381L288 538Q285 550 281 568T275 600T272 614H268Q268 614 266 600T260 567T252 538L158 233ZM257 751L149 850L150 853H240L326 751H257Z" />
<glyph unicode="&#xc1;" glyph-name="Aacute" horiz-adv-x="547" d="M-1 0L217 686H330L548 0H453L406 153H134L87 0H-1ZM158 233H381L288 538Q285 550 281 568T275 600T272 614H268Q268 614 266 600T260 567T252 538L158 233ZM205 751L281 853H381L382 850L284 751H205Z" />
<glyph unicode="&#xc2;" glyph-name="Acircumflex" horiz-adv-x="547" d="M-1 0L217 686H330L548 0H453L406 153H134L87 0H-1ZM158 233H381L288 538Q285 550 281 568T275 600T272 614H268Q268 614 266 600T260 567T252 538L158 233ZM148 747L234 852H312L397 747H317L273
796L228 747H148Z" />
<glyph unicode="&#xc3;" glyph-name="Atilde" horiz-adv-x="547" d="M-1 0L217 686H330L548 0H453L406 153H134L87 0H-1ZM158 233H381L288 538Q285 550 281 568T275 600T272 614H268Q268 614 266 600T260 567T252 538L158 233ZM141 754Q141 775 149 797T174 833T218
848Q238 848 255 841T288 827T322 820Q334 820 342 826T353 848H405Q405 827 397 805T373 769T328 754Q309 754 292 761T258 775T224 782Q212 782 204 776T193 754H141Z" />
<glyph unicode="&#xc4;" glyph-name="Adieresis" horiz-adv-x="547" d="M-1 0L217 686H330L548 0H453L406 153H134L87 0H-1ZM158 233H381L288 538Q285 550 281 568T275 600T272 614H268Q268 614 266 600T260 567T252 538L158 233ZM304 788V883H391V788H304ZM154
788V883H241V788H154Z" />
<glyph unicode="&#xc5;" glyph-name="Aring" horiz-adv-x="547" d="M-1 0L217 686H330L548 0H453L406 153H134L87 0H-1ZM158 233H381L288 538Q285 550 281 568T275 600T272 614H268Q268 614 266 600T260 567T252 538L158 233ZM273 722Q234 722 206 750T177 819Q177
859 205 886T273 914Q314 914 341 886T369 819Q369 779 341 751T273 722ZM273 772Q291 772 305 786T319 819Q319 838 305 851T273 864Q254 864 241 851T227 819Q227 800 240 786T273 772Z" />
<glyph unicode="&#xc6;" glyph-name="AE" horiz-adv-x="820" d="M-1 0L279 686H777V606H410L459 391H733V311H477L529 80H783V0H453L419 153H146L87 0H-1ZM177 233H402L334 543Q331 555 329 569T325 594T323 605H319Q319 605 316 594T307 569T298 543L177 233Z" />
<glyph unicode="&#xc7;" glyph-name="Ccedilla" horiz-adv-x="592" d="M312 -12Q179 -12 111 76T42 343Q42 522 110 610T312 698Q382 698 436 670T520 584T551 438H461Q461 528 421 572T312 617Q222 617 178 555T134 368V318Q134 193 178 131T312 69Q381 69 422
113T464 246H551Q551 158 521 101T436 16T312 -12ZM294 -182Q248 -182 210 -174V-125H286Q303 -125 312 -120T322 -101Q322 -89 315 -83T288 -77H255L269 11H324L317 -36Q349 -38 373 -52T398 -101Q398 -134 381 -151T339 -175T294 -182Z" />
<glyph unicode="&#xc8;" glyph-name="Egrave" horiz-adv-x="547" d="M70 0V686H493V606H158V391H449V311H158V80H499V0H70ZM267 751L159 850L160 853H250L336 751H267Z" />
<glyph unicode="&#xc9;" glyph-name="Eacute" horiz-adv-x="547" d="M70 0V686H493V606H158V391H449V311H158V80H499V0H70ZM215 751L291 853H391L392 850L294 751H215Z" />
<glyph unicode="&#xca;" glyph-name="Ecircumflex" horiz-adv-x="547" d="M70 0V686H493V606H158V391H449V311H158V80H499V0H70ZM158 747L244 852H322L407 747H327L283 796L238 747H158Z" />
<glyph unicode="&#xcb;" glyph-name="Edieresis" horiz-adv-x="547" d="M70 0V686H493V606H158V391H449V311H158V80H499V0H70ZM314 788V883H401V788H314ZM164 788V883H251V788H164Z" />
<glyph unicode="&#xcc;" glyph-name="Igrave" horiz-adv-x="228" d="M70 0V686H158V0H70ZM98 751L-10 850L-9 853H81L167 751H98Z" />
<glyph unicode="&#xcd;" glyph-name="Iacute" horiz-adv-x="228" d="M70 0V686H158V0H70ZM46 751L122 853H222L223 850L125 751H46Z" />
<glyph unicode="&#xce;" glyph-name="Icircumflex" horiz-adv-x="228" d="M70 0V686H158V0H70ZM-11 747L75 852H153L238 747H158L114 796L69 747H-11Z" />
<glyph unicode="&#xcf;" glyph-name="Idieresis" horiz-adv-x="228" d="M70 0V686H158V0H70ZM145 788V883H232V788H145ZM-5 788V883H82V788H-5Z" />
<glyph unicode="&#xd0;" glyph-name="Eth" horiz-adv-x="592" d="M70 0V323H5V387H70V686H283Q405 686 474 603T543 353Q543 177 474 89T283 0H70ZM158 80H275Q356 80 403 141T451 328V378Q451 493 404 549T275 606H158V387H315V323H158V80Z" />
<glyph unicode="&#xd1;" glyph-name="Ntilde" horiz-adv-x="592" d="M70 0V686H146L401 255Q409 242 418 220T435 181T443 163L446 164Q446 164 446 182T444 222T443 255V686H522V0H449L192 437Q184 452 174 473T156 512T148 529L145 528Q145 528 146 511T148
473T149 437V0H70ZM164 754Q164 775 172 797T197 833T241 848Q261 848 278 841T311 827T345 820Q357 820 365 826T376 848H428Q428 827 420 805T396 769T351 754Q332 754 315 761T281 775T247 782Q235 782 227 776T216 754H164Z" />
<glyph unicode="&#xd2;" glyph-name="Ograve" horiz-adv-x="638" d="M319 -12Q193 -12 121 76T49 343Q49 522 121 610T319 698Q445 698 517 610T589 343Q589 165 517 77T319 -12ZM319 69Q402 69 449 131T497 318V368Q497 493 450 555T319 617Q237 617 189 555T141
368V318Q141 193 189 131T319 69ZM303 751L195 850L196 853H286L372 751H303Z" />
<glyph unicode="&#xd3;" glyph-name="Oacute" horiz-adv-x="638" d="M319 -12Q193 -12 121 76T49 343Q49 522 121 610T319 698Q445 698 517 610T589 343Q589 165 517 77T319 -12ZM319 69Q402 69 449 131T497 318V368Q497 493 450 555T319 617Q237 617 189 555T141
368V318Q141 193 189 131T319 69ZM251 751L327 853H427L428 850L330 751H251Z" />
<glyph unicode="&#xd4;" glyph-name="Ocircumflex" horiz-adv-x="638" d="M319 -12Q193 -12 121 76T49 343Q49 522 121 610T319 698Q445 698 517 610T589 343Q589 165 517 77T319 -12ZM319 69Q402 69 449 131T497 318V368Q497 493 450 555T319 617Q237 617 189
555T141 368V318Q141 193 189 131T319 69ZM194 747L280 852H358L443 747H363L319 796L274 747H194Z" />
<glyph unicode="&#xd5;" glyph-name="Otilde" horiz-adv-x="638" d="M319 -12Q193 -12 121 76T49 343Q49 522 121 610T319 698Q445 698 517 610T589 343Q589 165 517 77T319 -12ZM319 69Q402 69 449 131T497 318V368Q497 493 450 555T319 617Q237 617 189 555T141
368V318Q141 193 189 131T319 69ZM187 754Q187 775 195 797T220 833T264 848Q284 848 301 841T334 827T368 820Q380 820 388 826T399 848H451Q451 827 443 805T419 769T374 754Q355 754 338 761T304 775T270 782Q258 782 250 776T239 754H187Z" />
<glyph unicode="&#xd6;" glyph-name="Odieresis" horiz-adv-x="638" d="M319 -12Q193 -12 121 76T49 343Q49 522 121 610T319 698Q445 698 517 610T589 343Q589 165 517 77T319 -12ZM319 69Q402 69 449 131T497 318V368Q497 493 450 555T319 617Q237 617 189 555T141
368V318Q141 193 189 131T319 69ZM350 788V883H437V788H350ZM200 788V883H287V788H200Z" />
<glyph unicode="&#xd7;" glyph-name="multiply" horiz-adv-x="479" d="M93 45L38 104L191 255L38 407L93 466L247 314L400 466L455 407L302 255L455 104L400 45L247 195L93 45Z" />
<glyph unicode="&#xd8;" glyph-name="Oslash" horiz-adv-x="638" d="M50 -37L525 723H589L114 -37H50ZM319 -12Q193 -12 121 76T49 343Q49 522 121 610T319 698Q445 698 517 610T589 343Q589 165 517 77T319 -12ZM319 69Q402 69 449 131T497 318V368Q497 493 450
555T319 617Q237 617 189 555T141 368V318Q141 193 189 131T319 69Z" />
<glyph unicode="&#xd9;" glyph-name="Ugrave" horiz-adv-x="592" d="M296 -12Q190 -12 130 48T70 223V686H158V218Q158 145 195 107T296 69Q361 69 397 107T434 218V686H522V223Q522 108 462 48T296 -12ZM280 751L172 850L173 853H263L349 751H280Z" />
<glyph unicode="&#xda;" glyph-name="Uacute" horiz-adv-x="592" d="M296 -12Q190 -12 130 48T70 223V686H158V218Q158 145 195 107T296 69Q361 69 397 107T434 218V686H522V223Q522 108 462 48T296 -12ZM228 751L304 853H404L405 850L307 751H228Z" />
<glyph unicode="&#xdb;" glyph-name="Ucircumflex" horiz-adv-x="592" d="M296 -12Q190 -12 130 48T70 223V686H158V218Q158 145 195 107T296 69Q361 69 397 107T434 218V686H522V223Q522 108 462 48T296 -12ZM171 747L257 852H335L420 747H340L296 796L251 747H171Z" />
<glyph unicode="&#xdc;" glyph-name="Udieresis" horiz-adv-x="592" d="M296 -12Q190 -12 130 48T70 223V686H158V218Q158 145 195 107T296 69Q361 69 397 107T434 218V686H522V223Q522 108 462 48T296 -12ZM327 788V883H414V788H327ZM177 788V883H264V788H177Z" />
<glyph unicode="&#xdd;" glyph-name="Yacute" horiz-adv-x="547" d="M230 0V284L8 686H105L279 368H283L454 686H539L318 284V0H230ZM205 751L281 853H381L382 850L284 751H205Z" />
<glyph unicode="&#xde;" glyph-name="Thorn" horiz-adv-x="547" d="M70 0V686H158V550H315Q383 550 428 525T497 455T520 350Q520 290 495 244T425 173T315 147H158V0H70ZM158 227H312Q365 227 396 261T428 350Q428 406 398 438T312 470H158V227Z" />
<glyph unicode="&#xdf;" glyph-name="germandbls" horiz-adv-x="501" d="M50 0V516Q50 594 77 642T150 713T254 735Q308 735 350 713T417 649T442 548Q442 499 416 456T347 395V391Q381 379 407 352T448 289T463 214Q463 150 437 102T365 27T263 0H188V74H255Q290
74 318 93T362 144T379 215Q379 252 363 282T318 331T255 350H188V423H247Q278 423 303 440T343 484T358 545Q358 598 330 630T249 662Q196 662 164 626T132 518V0H50Z" />
<glyph unicode="&#xe0;" glyph-name="agrave" horiz-adv-x="456" d="M172 -12Q153 -12 129 -7T84 14T48 59T34 136Q34 209 68 246T163 298T300 312V380Q300 418 284 441T217 465Q171 465 154 439T136 382V370H55Q54 375 54 380T54 392Q54 464 101 501T223 538Q303
538 342 500T382 391V96Q382 77 391 69T410 61H442V4Q435 0 422 -4T388 -8Q356 -8 335 10T305 57H300Q280 25 247 7T172 -12ZM191 61Q217 61 242 75T283 119T300 191V239Q246 239 206 232T143 203T120 141Q120 96 138 79T191 61ZM212 591L104 720L105 723H195L281
591H212Z" />
<glyph unicode="&#xe1;" glyph-name="aacute" horiz-adv-x="456" d="M172 -12Q153 -12 129 -7T84 14T48 59T34 136Q34 209 68 246T163 298T300 312V380Q300 418 284 441T217 465Q171 465 154 439T136 382V370H55Q54 375 54 380T54 392Q54 464 101 501T223 538Q303
538 342 500T382 391V96Q382 77 391 69T410 61H442V4Q435 0 422 -4T388 -8Q356 -8 335 10T305 57H300Q280 25 247 7T172 -12ZM191 61Q217 61 242 75T283 119T300 191V239Q246 239 206 232T143 203T120 141Q120 96 138 79T191 61ZM170 591L256 723H346L347 720L239
591H170Z" />
<glyph unicode="&#xe2;" glyph-name="acircumflex" horiz-adv-x="456" d="M172 -12Q153 -12 129 -7T84 14T48 59T34 136Q34 209 68 246T163 298T300 312V380Q300 418 284 441T217 465Q171 465 154 439T136 382V370H55Q54 375 54 380T54 392Q54 464 101 501T223
538Q303 538 342 500T382 391V96Q382 77 391 69T410 61H442V4Q435 0 422 -4T388 -8Q356 -8 335 10T305 57H300Q280 25 247 7T172 -12ZM191 61Q217 61 242 75T283 119T300 191V239Q246 239 206 232T143 203T120 141Q120 96 138 79T191 61ZM103 587L189 722H267L352
587H272L228 666L183 587H103Z" />
<glyph unicode="&#xe3;" glyph-name="atilde" horiz-adv-x="456" d="M172 -12Q153 -12 129 -7T84 14T48 59T34 136Q34 209 68 246T163 298T300 312V380Q300 418 284 441T217 465Q171 465 154 439T136 382V370H55Q54 375 54 380T54 392Q54 464 101 501T223 538Q303
538 342 500T382 391V96Q382 77 391 69T410 61H442V4Q435 0 422 -4T388 -8Q356 -8 335 10T305 57H300Q280 25 247 7T172 -12ZM191 61Q217 61 242 75T283 119T300 191V239Q246 239 206 232T143 203T120 141Q120 96 138 79T191 61ZM82 619Q82 642 91 666T118 706T167
723Q189 723 207 716T244 700T282 692Q296 692 305 699T316 723H374Q374 700 366 676T338 636T289 619Q268 619 249 627T212 642T174 650Q161 650 152 643T140 619H82Z" />
<glyph unicode="&#xe4;" glyph-name="adieresis" horiz-adv-x="456" d="M172 -12Q153 -12 129 -7T84 14T48 59T34 136Q34 209 68 246T163 298T300 312V380Q300 418 284 441T217 465Q171 465 154 439T136 382V370H55Q54 375 54 380T54 392Q54 464 101 501T223 538Q303
538 342 500T382 391V96Q382 77 391 69T410 61H442V4Q435 0 422 -4T388 -8Q356 -8 335 10T305 57H300Q280 25 247 7T172 -12ZM191 61Q217 61 242 75T283 119T300 191V239Q246 239 206 232T143 203T120 141Q120 96 138 79T191 61ZM259 628V723H346V628H259ZM109
628V723H196V628H109Z" />
<glyph unicode="&#xe5;" glyph-name="aring" horiz-adv-x="456" d="M172 -12Q153 -12 129 -7T84 14T48 59T34 136Q34 209 68 246T163 298T300 312V380Q300 418 284 441T217 465Q171 465 154 439T136 382V370H55Q54 375 54 380T54 392Q54 464 101 501T223 538Q303
538 342 500T382 391V96Q382 77 391 69T410 61H442V4Q435 0 422 -4T388 -8Q356 -8 335 10T305 57H300Q280 25 247 7T172 -12ZM191 61Q217 61 242 75T283 119T300 191V239Q246 239 206 232T143 203T120 141Q120 96 138 79T191 61ZM228 562Q189 562 161 590T132 659Q132
699 160 726T228 754Q269 754 296 726T324 659Q324 619 296 591T228 562ZM228 607Q248 607 263 622T279 659Q279 680 264 694T228 709Q207 709 192 695T177 659Q177 638 192 623T228 607Z" />
<glyph unicode="&#xe6;" glyph-name="ae" horiz-adv-x="729" d="M193 -12Q169 -12 142 -7T92 14T55 59T40 136Q40 209 74 246T169 298T306 312V380Q306 418 290 441T223 465Q177 465 160 439T142 382V370H61Q60 375 60 380T60 392Q60 464 107 501T229 538Q277
538 311 523T364 478Q412 538 504 538Q590 538 633 481T677 291V239H392Q393 147 421 104T507 61Q546 61 571 92T596 179H677Q677 91 630 40T505 -12Q450 -12 410 7T345 68Q317 31 278 10T193 -12ZM197 61Q223 61 248 74T289 115T306 183V239Q252 239 212 232T149
203T126 141Q126 96 144 79T197 61ZM393 312H591Q591 387 569 426T504 465Q449 465 424 427T393 312Z" />
<glyph unicode="&#xe7;" glyph-name="ccedilla" horiz-adv-x="410" d="M216 -12Q123 -12 80 54T36 263Q36 405 80 471T216 538Q302 538 339 485T377 331H292Q292 399 276 432T216 465Q167 465 145 419T122 282V244Q122 153 144 107T216 61Q260 61 278 95T296 195H377Q377
140 361 93T310 17T216 -12ZM201 -182Q155 -182 117 -174V-125H193Q210 -125 219 -120T229 -101Q229 -89 222 -83T195 -77H162L176 11H231L224 -36Q256 -38 280 -52T305 -101Q305 -134 288 -151T246 -175T201 -182Z" />
<glyph unicode="&#xe8;" glyph-name="egrave" horiz-adv-x="456" d="M241 -12Q143 -12 93 52T42 263Q42 405 91 471T240 538Q326 538 369 481T413 291V239H128Q129 147 157 104T243 61Q282 61 307 92T332 179H413Q413 91 366 40T241 -12ZM129 312H327Q327 387
305 426T240 465Q185 465 160 427T129 312ZM212 591L104 720L105 723H195L281 591H212Z" />
<glyph unicode="&#xe9;" glyph-name="eacute" horiz-adv-x="456" d="M241 -12Q143 -12 93 52T42 263Q42 405 91 471T240 538Q326 538 369 481T413 291V239H128Q129 147 157 104T243 61Q282 61 307 92T332 179H413Q413 91 366 40T241 -12ZM129 312H327Q327 387
305 426T240 465Q185 465 160 427T129 312ZM170 591L256 723H346L347 720L239 591H170Z" />
<glyph unicode="&#xea;" glyph-name="ecircumflex" horiz-adv-x="456" d="M241 -12Q143 -12 93 52T42 263Q42 405 91 471T240 538Q326 538 369 481T413 291V239H128Q129 147 157 104T243 61Q282 61 307 92T332 179H413Q413 91 366 40T241 -12ZM129 312H327Q327
387 305 426T240 465Q185 465 160 427T129 312ZM103 587L189 722H267L352 587H272L228 666L183 587H103Z" />
<glyph unicode="&#xeb;" glyph-name="edieresis" horiz-adv-x="456" d="M241 -12Q143 -12 93 52T42 263Q42 405 91 471T240 538Q326 538 369 481T413 291V239H128Q129 147 157 104T243 61Q282 61 307 92T332 179H413Q413 91 366 40T241 -12ZM129 312H327Q327 387
305 426T240 465Q185 465 160 427T129 312ZM259 628V723H346V628H259ZM109 628V723H196V628H109Z" />
<glyph unicode="&#xec;" glyph-name="igrave" horiz-adv-x="228" d="M73 0V526H155V0H73ZM354 591L246 720L247 723H337L423 591H354Z" />
<glyph unicode="&#xed;" glyph-name="iacute" horiz-adv-x="228" d="M73 0V526H155V0H73ZM56 591L142 723H232L233 720L125 591H56Z" />
<glyph unicode="&#xee;" glyph-name="icircumflex" horiz-adv-x="228" d="M73 0V526H155V0H73ZM245 587L331 722H409L494 587H414L370 666L325 587H245Z" />
<glyph unicode="&#xef;" glyph-name="idieresis" horiz-adv-x="228" d="M73 0V526H155V0H73ZM401 628V723H488V628H401ZM251 628V723H338V628H251Z" />
<glyph unicode="&#xf0;" glyph-name="eth" horiz-adv-x="456" d="M228 -12Q136 -12 88 54T40 263Q40 360 63 420T126 509T217 538Q231 538 243 535T267 526V527Q256 549 242 569T211 610L93 600V660L164 666Q153 679 142 692T117 719L119 723H207Q218 711 230
699T252 674L369 685V625L298 618Q351 545 383 459T416 263Q416 121 368 55T228 -12ZM228 61Q279 61 304 107T330 244V282Q330 373 304 419T228 465Q177 465 152 419T126 282V244Q126 153 151 107T228 61Z" />
<glyph unicode="&#xf1;" glyph-name="ntilde" horiz-adv-x="456" d="M60 0V526H122L133 465H139Q161 504 194 521T266 538Q325 538 360 503T396 379V0H314V373Q314 428 294 446T240 465Q201 465 172 427T142 321V0H60ZM82 619Q82 642 91 666T118 706T167 723Q189
723 207 716T244 700T282 692Q296 692 305 699T316 723H374Q374 700 366 676T338 636T289 619Q268 619 249 627T212 642T174 650Q161 650 152 643T140 619H82Z" />
<glyph unicode="&#xf2;" glyph-name="ograve" horiz-adv-x="456" d="M228 -12Q136 -12 88 54T40 263Q40 405 88 471T228 538Q320 538 368 472T416 263Q416 121 368 55T228 -12ZM228 61Q279 61 304 107T330 244V282Q330 373 305 419T228 465Q177 465 152 419T126
282V244Q126 153 151 107T228 61ZM212 591L104 720L105 723H195L281 591H212Z" />
<glyph unicode="&#xf3;" glyph-name="oacute" horiz-adv-x="456" d="M228 -12Q136 -12 88 54T40 263Q40 405 88 471T228 538Q320 538 368 472T416 263Q416 121 368 55T228 -12ZM228 61Q279 61 304 107T330 244V282Q330 373 305 419T228 465Q177 465 152 419T126
282V244Q126 153 151 107T228 61ZM170 591L256 723H346L347 720L239 591H170Z" />
<glyph unicode="&#xf4;" glyph-name="ocircumflex" horiz-adv-x="456" d="M228 -12Q136 -12 88 54T40 263Q40 405 88 471T228 538Q320 538 368 472T416 263Q416 121 368 55T228 -12ZM228 61Q279 61 304 107T330 244V282Q330 373 305 419T228 465Q177 465 152 419T126
282V244Q126 153 151 107T228 61ZM103 587L189 722H267L352 587H272L228 666L183 587H103Z" />
<glyph unicode="&#xf5;" glyph-name="otilde" horiz-adv-x="456" d="M228 -12Q136 -12 88 54T40 263Q40 405 88 471T228 538Q320 538 368 472T416 263Q416 121 368 55T228 -12ZM228 61Q279 61 304 107T330 244V282Q330 373 305 419T228 465Q177 465 152 419T126
282V244Q126 153 151 107T228 61ZM82 619Q82 642 91 666T118 706T167 723Q189 723 207 716T244 700T282 692Q296 692 305 699T316 723H374Q374 700 366 676T338 636T289 619Q268 619 249 627T212 642T174 650Q161 650 152 643T140 619H82Z" />
<glyph unicode="&#xf6;" glyph-name="odieresis" horiz-adv-x="456" d="M228 -12Q136 -12 88 54T40 263Q40 405 88 471T228 538Q320 538 368 472T416 263Q416 121 368 55T228 -12ZM228 61Q279 61 304 107T330 244V282Q330 373 305 419T228 465Q177 465 152 419T126
282V244Q126 153 151 107T228 61ZM259 628V723H346V628H259ZM109 628V723H196V628H109Z" />
<glyph unicode="&#xf7;" glyph-name="divide" horiz-adv-x="549" d="M43 213V297H505V213H43ZM232 51V141H316V51H232ZM232 369V460H316V369H232Z" />
<glyph unicode="&#xf8;" glyph-name="oslash" horiz-adv-x="456" d="M228 -12Q136 -12 88 54T40 263Q40 405 88 471T228 538Q320 538 368 472T416 263Q416 121 368 55T228 -12ZM228 61Q279 61 304 107T330 244V282Q330 373 305 419T228 465Q177 465 152 419T126
282V244Q126 153 151 107T228 61ZM40 -32L361 558H416L95 -32H40Z" />
<glyph unicode="&#xf9;" glyph-name="ugrave" horiz-adv-x="456" d="M190 -12Q131 -12 96 23T60 147V526H142V153Q142 98 162 80T216 61Q255 61 284 99T314 205V526H396V0H334L323 61H317Q295 22 262 5T190 -12ZM212 591L104 720L105 723H195L281 591H212Z" />
<glyph unicode="&#xfa;" glyph-name="uacute" horiz-adv-x="456" d="M190 -12Q131 -12 96 23T60 147V526H142V153Q142 98 162 80T216 61Q255 61 284 99T314 205V526H396V0H334L323 61H317Q295 22 262 5T190 -12ZM170 591L256 723H346L347 720L239 591H170Z" />
<glyph unicode="&#xfb;" glyph-name="ucircumflex" horiz-adv-x="456" d="M190 -12Q131 -12 96 23T60 147V526H142V153Q142 98 162 80T216 61Q255 61 284 99T314 205V526H396V0H334L323 61H317Q295 22 262 5T190 -12ZM103 587L189 722H267L352 587H272L228 666L183
587H103Z" />
<glyph unicode="&#xfc;" glyph-name="udieresis" horiz-adv-x="456" d="M190 -12Q131 -12 96 23T60 147V526H142V153Q142 98 162 80T216 61Q255 61 284 99T314 205V526H396V0H334L323 61H317Q295 22 262 5T190 -12ZM259 628V723H346V628H259ZM109 628V723H196V628H109Z" />
<glyph unicode="&#xfd;" glyph-name="yacute" horiz-adv-x="410" d="M97 -182Q80 -182 66 -180T38 -174V-117H67Q100 -117 128 -92T171 0L10 526H100L189 212Q192 200 195 189T202 165T209 142T216 118H220Q223 130 226 142T231 166T237 190T243 214L318 526H401L267
27Q252 -30 230 -77T175 -153T97 -182ZM147 591L233 723H323L324 720L216 591H147Z" />
<glyph unicode="&#xfe;" glyph-name="thorn" horiz-adv-x="456" d="M60 -173V723H142V480L146 479Q162 506 190 522T253 538Q328 538 372 473T416 262Q416 167 395 106T339 17T259 -12Q221 -12 191 3T147 46H142V-173H60ZM236 61Q283 61 306 103T330 244V282Q330
380 307 422T236 465Q189 465 166 419T142 282V244Q142 153 165 107T236 61Z" />
<glyph unicode="&#xff;" glyph-name="ydieresis" horiz-adv-x="410" d="M97 -182Q80 -182 66 -180T38 -174V-117H67Q100 -117 128 -92T171 0L10 526H100L189 212Q192 200 195 189T202 165T209 142T216 118H220Q223 130 226 142T231 166T237 190T243 214L318 526H401L267
27Q252 -30 230 -77T175 -153T97 -182ZM236 628V723H323V628H236ZM86 628V723H173V628H86Z" />
<glyph unicode="&#x2013;" glyph-name="endash" horiz-adv-x="456" d="M0 233V308H455V233H0Z" />
<glyph unicode="&#x2014;" glyph-name="emdash" horiz-adv-x="820" d="M0 233V308H820V233H0Z" />
<glyph unicode="&#x2018;" glyph-name="quoteleft" horiz-adv-x="182" d="M41 454V553L89 686H141L101 562H141V454H41Z" />
<glyph unicode="&#x2019;" glyph-name="quoteright" horiz-adv-x="182" d="M41 454L81 578H41V686H141V587L93 454H41Z" />
<glyph unicode="&#x201a;" glyph-name="quotesinglbase" horiz-adv-x="182" d="M37 -124L77 0H37V108H137V9L89 -124H37Z" />
<glyph unicode="&#x201c;" glyph-name="quotedblleft" horiz-adv-x="273" d="M149 454V553L197 686H249L209 562H249V454H149ZM22 454V553L70 686H122L82 562H122V454H22Z" />
<glyph unicode="&#x201d;" glyph-name="quotedblright" horiz-adv-x="273" d="M151 454L191 578H151V686H251V587L203 454H151ZM24 454L64 578H24V686H124V587L76 454H24Z" />
<glyph unicode="&#x201e;" glyph-name="quotedblbase" horiz-adv-x="273" d="M151 -124L191 0H151V108H251V9L203 -124H151ZM24 -124L64 0H24V108H124V9L76 -124H24Z" />
<glyph unicode="&#x2022;" glyph-name="bullet" horiz-adv-x="287" d="M143 232Q113 232 89 247T49 288T34 344Q34 375 49 400T88 440T143 455Q174 455 198 440T238 400T253 344Q253 314 238 289T199 248T143 232Z" />
<glyph unicode="&#x2039;" glyph-name="guilsinglleft" horiz-adv-x="273" d="M170 126L29 326L170 526H241L128 326L241 126H170Z" />
<glyph unicode="&#x203a;" glyph-name="guilsinglright" horiz-adv-x="273" d="M32 126L145 326L32 526H103L244 326L103 126H32Z" />
</font>
</defs>
</svg>
