<?xml version="1.0" standalone="no"?>
<!DOCTYPE svg PUBLIC "-//W3C//DTD SVG 1.1//EN" "http://www.w3.org/Graphics/SVG/1.1/DTD/svg11.dtd">
<svg xmlns="http://www.w3.org/2000/svg">
<defs >
<font id="ArchivoNarrow" horiz-adv-x="470" ><font-face
    font-family="Archivo Narrow Medium"
    units-per-em="1000"
    panose-1="0 0 0 0 0 0 0 0 0 0"
    ascent="1035"
    descent="-312"
    alphabetic="0" />
<glyph unicode=" " glyph-name="space" horiz-adv-x="228" />
<glyph unicode="!" glyph-name="exclam" horiz-adv-x="242" d="M88 179L60 686H186L156 179H88ZM67 0V117H179V0H67Z" />
<glyph unicode="&quot;" glyph-name="quotedbl" horiz-adv-x="322" d="M209 407L188 539V686H282V539L261 407H209ZM62 407L40 539V686H134V539L113 407H62Z" />
<glyph unicode="#" glyph-name="numbersign" horiz-adv-x="456" d="M30 0L71 184H8V263H89L122 413H47V492H140L186 697H266L220 492H305L351 697H431L385 492H445V413H367L334 263H406V184H316L275 0H195L236 184H151L110 0H30ZM169 263H254L287 413H202L169 263Z" />
<glyph unicode="$" glyph-name="dollar" horiz-adv-x="456" d="M201 -49V69Q148 74 114 96T64 152T47 226Q47 235 47 239T48 245H139V236Q139 196 156 175T201 147V314Q166 326 134 341T79 385T57 465Q57 530 96 569T201 616V723H252V617Q319 612 357 572T395
474Q395 468 395 462T394 454H304V463Q304 490 292 511T252 540V391Q279 382 306 372T356 345T392 300T406 233Q406 179 387 144T332 91T252 69V-49H201ZM252 145Q278 150 296 168T315 220Q315 250 297 267T252 296V145ZM201 409V540Q171 533 160 513T148 472Q148
448 163 434T201 409Z" />
<glyph unicode="%" glyph-name="percent" horiz-adv-x="729" d="M122 0L540 686H615L196 0H122ZM173 337Q132 337 103 353T58 409T42 517Q42 587 58 626T103 681T173 698Q214 698 243 682T288 626T304 517Q304 448 288 409T243 353T173 337ZM173 400Q207 400 218
431T229 510V525Q229 573 218 604T173 635Q139 635 128 604T117 525V510Q117 462 128 431T173 400ZM562 -12Q521 -12 492 4T447 60T431 168Q431 238 447 277T492 332T562 349Q603 349 632 333T678 277T694 168Q694 99 678 60T633 4T562 -12ZM562 51Q597 51 607
82T618 161V176Q618 224 608 255T562 286Q528 286 518 255T507 176V161Q507 113 517 82T562 51Z" />
<glyph unicode="&amp;" glyph-name="ampersand" horiz-adv-x="561" d="M440 0L167 376Q140 411 127 450T113 528Q113 574 132 612T187 674T275 698Q316 698 347 681T397 632T416 554Q416 502 393 462T335 393T259 348L223 418Q252 428 275 445T312 489T327 548Q327
576 313 596T271 617Q237 617 221 592T205 531Q205 499 217 466T252 409L550 0H440ZM232 -13Q171 -13 128 13T62 82T39 182Q39 227 56 271T106 352T190 410L230 336Q183 321 158 279T133 188Q133 138 160 104T239 69Q284 69 326 98T396 189T424 348H512Q512 256
487 188T421 76T331 9T232 -13Z" />
<glyph unicode="&apos;" glyph-name="quotesingle" horiz-adv-x="169" d="M58 407L36 539V686H130V539L109 407H58Z" />
<glyph unicode="(" glyph-name="parenleft" horiz-adv-x="273" d="M196 -157Q119 -65 78 50T37 288Q37 411 78 527T196 735H258Q222 674 193 601T147 448T130 290Q130 212 147 132T193 -22T258 -157H196Z" />
<glyph unicode=")" glyph-name="parenright" horiz-adv-x="273" d="M15 -157Q51 -96 80 -22T126 132T143 290Q143 368 127 447T81 600T15 735H77Q154 643 195 527T236 288Q236 165 195 50T77 -157H15Z" />
<glyph unicode="*" glyph-name="asterisk" horiz-adv-x="319" d="M124 407L133 500L56 446L20 507L106 547L20 587L56 647L133 593L124 686H195L186 594L263 647L298 587L213 547L298 507L263 446L186 500L195 407H124Z" />
<glyph unicode="+" glyph-name="plus" horiz-adv-x="479" d="M194 0V210H40V300H194V511H283V300H438V210H283V0H194Z" />
<glyph unicode="," glyph-name="comma" horiz-adv-x="228" d="M58 -134L103 0H58V117H170V10L116 -134H58Z" />
<glyph unicode="-" glyph-name="hyphen" horiz-adv-x="273" d="M12 218V322H260V218H12Z" />
<glyph unicode="." glyph-name="period" horiz-adv-x="228" d="M58 0V117H170V0H58Z" />
<glyph unicode="/" glyph-name="slash" horiz-adv-x="228" d="M1 -49L153 735H228L77 -49H1Z" />
<glyph unicode="0" glyph-name="zero" horiz-adv-x="456" d="M228 -12Q183 -12 148 4T87 61T50 169T37 343Q37 448 49 516T87 625T147 681T228 698Q273 698 308 682T368 625T406 517T419 343Q419 238 406 170T368 61T308 5T228 -12ZM228 70Q266 70 286 99T314
181T322 308V378Q322 451 314 504T286 587T228 616Q190 616 170 587T142 505T134 378V308Q134 235 142 182T170 99T228 70Z" />
<glyph unicode="1" glyph-name="one" horiz-adv-x="456" d="M47 0V82H207V551H46V612Q74 615 112 625T189 651T260 686H301V82H448V0H47Z" />
<glyph unicode="2" glyph-name="two" horiz-adv-x="456" d="M37 0V16Q37 62 52 102T93 179Q124 222 162 261T234 342T291 427T314 521Q314 542 307 563T282 599T231 613Q183 613 163 577T143 491V450H46Q46 450 45 461T43 490Q43 564 69 609T139 676T233 698Q283
698 324 680T389 623T413 520Q413 469 396 425T350 340T289 264T226 193T173 127Q166 118 162 110T154 93H416V0H37Z" />
<glyph unicode="3" glyph-name="three" horiz-adv-x="456" d="M228 -12Q133 -12 83 44T32 194V205H129V191Q129 132 153 101T223 70Q268 70 295 99T322 190Q322 237 308 262T270 298T219 308H170V389H221Q258 389 284 418T310 505Q310 564 286 590T226 616Q188
616 165 588T141 501V489H44V510Q44 567 67 609T131 675T225 698Q307 698 357 650T407 510Q407 449 382 414T318 356V352Q362 336 390 294T419 184Q419 123 395 79T327 12T228 -12Z" />
<glyph unicode="4" glyph-name="four" horiz-adv-x="456" d="M276 0V165H16V246Q52 311 85 386T145 541T193 698H287Q273 630 248 559T195 425T141 314T102 246H276V443Q286 468 295 493T311 544T325 596H370V246H440V165H370V0H276Z" />
<glyph unicode="5" glyph-name="five" horiz-adv-x="456" d="M232 -12Q144 -12 91 48T37 213H134Q134 147 162 108T232 69Q275 69 302 107T329 224Q329 292 304 328T239 364Q208 364 184 344T146 292L56 306L79 686H397V593H161L149 399Q165 414 193 430T263 446Q308
446 345 422T404 349T426 224Q426 111 374 50T232 -12Z" />
<glyph unicode="6" glyph-name="six" horiz-adv-x="456" d="M237 -12Q175 -12 130 19T61 123T37 323Q37 466 60 548T126 664T231 698Q291 698 328 669T383 589T401 475H306Q306 542 287 579T227 616Q189 616 169 586T142 501T133 369Q154 398 184 414T250 431Q307
431 344 402T400 323T419 210Q419 142 395 92T331 15T237 -12ZM232 70Q279 70 301 111T323 210Q323 270 301 310T232 351Q185 351 163 311T140 210Q140 152 162 111T232 70Z" />
<glyph unicode="7" glyph-name="seven" horiz-adv-x="456" d="M113 0Q113 87 131 170T178 330T244 473T315 593H30V686H426V624Q391 572 355 507T287 367T237 213T217 51Q217 37 217 28T218 0H113Z" />
<glyph unicode="8" glyph-name="eight" horiz-adv-x="456" d="M228 -12Q161 -12 119 15T57 87T37 188Q37 244 58 286T125 352Q88 377 70 417T51 507Q51 560 70 603T130 672T228 698Q287 698 326 672T385 603T405 507Q405 458 387 418T330 352Q377 329 398 287T419
188Q419 133 399 88T338 15T228 -12ZM228 70Q274 70 298 102T323 190Q323 247 299 278T228 310Q182 310 158 279T133 190Q133 134 157 102T228 70ZM228 391Q266 391 289 421T312 504Q312 558 289 587T228 616Q190 616 168 587T145 504Q145 451 167 421T228 391Z"
/>
<glyph unicode="9" glyph-name="nine" horiz-adv-x="456" d="M228 -12Q167 -12 129 17T73 97T55 211H150Q150 144 170 107T232 70Q269 70 288 100T315 185T323 316Q302 287 273 271T206 255Q149 255 112 284T56 364T37 476Q37 545 60 594T125 671T219 698Q282
698 326 667T395 563T419 363Q419 220 397 138T331 22T228 -12ZM224 335Q271 335 293 376T316 476Q316 535 294 575T224 616Q177 616 155 576T133 476Q133 417 155 376T224 335Z" />
<glyph unicode=":" glyph-name="colon" horiz-adv-x="242" d="M61 409V526H173V409H61ZM61 0V117H173V0H61Z" />
<glyph unicode=";" glyph-name="semicolon" horiz-adv-x="242" d="M61 -134L106 0H61V117H173V10L119 -134H61ZM61 409V526H173V409H61Z" />
<glyph unicode="&lt;" glyph-name="less" horiz-adv-x="479" d="M439 0L41 199V312L439 513V414L128 256L439 99V0Z" />
<glyph unicode="=" glyph-name="equal" horiz-adv-x="479" d="M40 315V405H438V315H40ZM40 103V192H438V103H40Z" />
<glyph unicode="&gt;" glyph-name="greater" horiz-adv-x="479" d="M41 0V99L352 256L41 414V513L439 312V199L41 0Z" />
<glyph unicode="?" glyph-name="question" d="M195 185V237Q195 276 207 303T238 351T276 394T307 443T319 509Q319 519 317 535T306 570T281 600T236 612Q206 612 189 599T162 565T150 524T147 486Q147 474 147 467T148 459H47Q47 459 46 472T44 494Q44 550 66
596T133 670T244 698Q297 698 337 676T400 613T423 520Q423 464 410 428T378 368T340 325T307 282T294 222V185H195ZM189 0V117H301V0H189Z" />
<glyph unicode="@" glyph-name="at" horiz-adv-x="822" d="M390 -153Q282 -153 203 -110T82 26T39 262Q39 382 69 465T153 599T275 674T422 698Q526 698 607 660T736 538T783 321Q783 236 765 179T717 87T654 37T591 22Q546 22 526 39T497 84H493Q473 55 445 38T375
21Q358 21 337 26T296 46T264 86T251 155Q251 221 282 256T368 304T492 318V376Q492 408 479 428T424 448Q384 448 370 426T356 380V368H272Q271 373 271 377T271 388Q271 452 314 486T427 521Q503 521 540 486T577 385V134Q577 96 610 96Q635 96 660 115T703 184T720
322Q720 434 682 504T577 606T421 639Q274 639 188 546T101 261Q101 84 172 -5T390 -94Q412 -94 441 -90T499 -78T543 -62V-126Q524 -134 496 -140T439 -149T390 -153ZM401 95Q426 95 446 108T479 147T492 209V247Q449 247 415 241T360 216T340 162Q340 126 355
111T401 95Z" />
<glyph unicode="A" glyph-name="A" horiz-adv-x="561" d="M-1 0L218 686H343L562 0H455L410 147H144L99 0H-1ZM171 238H382L296 519Q293 533 289 552T282 585T279 600H275Q275 600 273 585T266 551T258 519L171 238Z" />
<glyph unicode="B" glyph-name="B" horiz-adv-x="561" d="M63 0V686H334Q386 686 427 665T491 606T515 517Q515 458 485 417T410 360V356Q461 340 496 295T531 183Q531 125 504 84T433 22T334 0H63ZM164 91H320Q366 91 396 118T426 196Q426 241 397 273T314 306H164V91ZM164
396H306Q354 396 382 426T410 497Q410 546 383 570T312 595H164V396Z" />
<glyph unicode="C" glyph-name="C" horiz-adv-x="592" d="M310 -12Q179 -12 109 76T39 343Q39 523 109 610T310 698Q381 698 436 670T522 583T554 436H451Q451 523 413 565T310 608Q226 608 185 547T144 368V318Q144 200 185 139T312 78Q377 78 416 120T455 249H554Q554
160 523 102T436 16T310 -12Z" />
<glyph unicode="D" glyph-name="D" horiz-adv-x="592" d="M67 0V686H283Q407 686 477 603T548 353Q548 177 478 89T283 0H67ZM167 91H274Q352 91 397 150T443 328V378Q443 487 398 541T274 595H167V91Z" />
<glyph unicode="E" glyph-name="E" horiz-adv-x="547" d="M67 0V686H494V595H167V396H450V306H167V91H500V0H67Z" />
<glyph unicode="F" glyph-name="F" horiz-adv-x="501" d="M67 0V686H465V595H167V389H428V298H167V0H67Z" />
<glyph unicode="G" glyph-name="G" horiz-adv-x="638" d="M313 -12Q184 -12 114 75T44 343Q44 523 118 610T324 698Q395 698 452 671T543 588T577 450H474Q474 531 432 569T323 608Q240 608 195 547T149 368V318Q149 199 192 139T320 78Q397 78 435 125T474 264V315L517
275H304V362H577V0H512L492 76Q460 31 414 10T313 -12Z" />
<glyph unicode="H" glyph-name="H" horiz-adv-x="592" d="M67 0V686H167V396H425V686H525V0H425V306H167V0H67Z" />
<glyph unicode="I" glyph-name="I" horiz-adv-x="228" d="M64 0V686H164V0H64Z" />
<glyph unicode="J" glyph-name="J" horiz-adv-x="425" d="M187 -12Q103 -12 58 33T12 163V211H112V163Q112 78 187 78Q260 78 260 163V686H361V163Q361 78 316 33T187 -12Z" />
<glyph unicode="K" glyph-name="K" horiz-adv-x="561" d="M67 0V686H168V327L433 686H545L340 408L552 0H438L277 326L168 201V0H67Z" />
<glyph unicode="L" glyph-name="L" d="M67 0V686H167V93H451V0H67Z" />
<glyph unicode="M" glyph-name="M" horiz-adv-x="683" d="M59 0V686H208L317 259Q322 240 326 214T334 163T340 121T342 104H346Q346 104 347 121T352 164T360 216T368 259L478 686H624V0H526V479Q526 489 527 506T529 542T532 573T533 586H529Q528 582 525 569T519
539T512 506T505 479L381 0H292L168 480Q166 489 163 505T156 538T150 568T146 586H142Q142 586 143 573T145 541T147 505T148 479V0H59Z" />
<glyph unicode="N" glyph-name="N" horiz-adv-x="592" d="M67 0V686H155L396 272Q403 260 412 240T427 205T434 189L437 190Q437 190 437 206T436 241T435 270V686H525V0H439L196 418Q190 431 181 450T164 486T157 502L153 500Q153 500 154 485T156 451T157 420V0H67Z" />
<glyph unicode="O" glyph-name="O" horiz-adv-x="638" d="M319 -12Q191 -12 118 76T44 343Q44 523 117 610T319 698Q447 698 520 611T594 343Q594 164 521 76T319 -12ZM319 78Q400 78 444 139T489 318V368Q489 486 445 547T319 608Q239 608 194 547T149 368V318Q149
200 194 139T319 78Z" />
<glyph unicode="P" glyph-name="P" horiz-adv-x="547" d="M67 0V686H312Q381 686 427 661T496 590T520 484Q520 423 495 376T423 304T312 278H167V0H67ZM167 368H306Q357 368 386 400T415 484Q415 536 387 565T306 595H167V368Z" />
<glyph unicode="Q" glyph-name="Q" horiz-adv-x="638" d="M444 -124L331 -12H319Q191 -12 118 76T44 343Q44 523 117 610T319 698Q447 698 520 611T594 343Q594 209 552 126T435 10L574 -124H444ZM319 78Q400 78 444 139T489 318V368Q489 486 445 547T319 608Q239
608 194 547T149 368V318Q149 200 194 139T319 78Z" />
<glyph unicode="R" glyph-name="R" horiz-adv-x="592" d="M67 0V686H346Q448 686 500 633T553 494Q553 431 522 385T433 317L569 0H458L335 298H167V0H67ZM167 388H339Q390 388 418 417T446 494Q446 541 419 568T340 595H167V388Z" />
<glyph unicode="S" glyph-name="S" horiz-adv-x="547" d="M270 -12Q208 -12 155 9T70 76T38 196Q38 202 38 208T39 217H143Q143 216 143 209T142 197Q142 139 177 109T270 78Q335 78 368 106T401 182Q401 218 382 240T332 277T264 303T189 329T121 365T71 423T52
511Q52 575 82 616T162 678T273 698Q333 698 382 678T461 615T491 502V490H387V503Q387 553 356 580T274 608Q223 608 190 586T157 519Q157 486 176 465T226 431T294 406T368 380T437 344T487 287T506 201Q506 123 475 77T392 9T270 -12Z" />
<glyph unicode="T" glyph-name="T" horiz-adv-x="501" d="M200 0V595H18V686H482V595H301V0H200Z" />
<glyph unicode="U" glyph-name="U" horiz-adv-x="592" d="M296 -12Q189 -12 128 47T67 220V686H168V218Q168 150 202 114T296 78Q357 78 391 114T425 218V686H525V220Q525 106 464 47T296 -12Z" />
<glyph unicode="V" glyph-name="V" horiz-adv-x="547" d="M214 0L5 686H114L275 128H279L444 686H542L333 0H214Z" />
<glyph unicode="W" glyph-name="W" horiz-adv-x="774" d="M163 0L7 686H111L208 228Q213 210 217 183T224 136T227 115H231Q231 115 233 133T238 177T247 228L327 686H456L540 228Q544 207 548 181T554 135T557 115H561Q561 115 563 134T570 181T579 228L677 686H767L611
0H492L405 456Q402 472 399 493T394 534T390 568T388 581H384Q384 581 382 568T378 534T373 493T367 456L281 0H163Z" />
<glyph unicode="X" glyph-name="X" horiz-adv-x="547" d="M3 0L214 357L22 686H138L275 448H277L417 686H523L331 363L544 0H428L271 273H269L109 0H3Z" />
<glyph unicode="Y" glyph-name="Y" horiz-adv-x="547" d="M224 0V276L5 686H114L278 373H282L443 686H542L324 276V0H224Z" />
<glyph unicode="Z" glyph-name="Z" horiz-adv-x="501" d="M19 0V41L331 595H40V686H472V644L160 91H479V0H19Z" />
<glyph unicode="[" glyph-name="bracketleft" horiz-adv-x="242" d="M49 -161V735H221V661H138V-87H221V-161H49Z" />
<glyph unicode="\" glyph-name="backslash" horiz-adv-x="228" d="M152 -49L1 735H76L228 -49H152Z" />
<glyph unicode="]" glyph-name="bracketright" horiz-adv-x="242" d="M22 -161V-87H105V661H22V735H193V-161H22Z" />
<glyph unicode="^" glyph-name="asciicircum" horiz-adv-x="415" d="M13 294L155 686H262L405 294H309L208 595L109 294H13Z" />
<glyph unicode="_" glyph-name="underscore" horiz-adv-x="456" d="M0 -127V-68H455V-127H0Z" />
<glyph unicode="`" glyph-name="grave" horiz-adv-x="0" d="M115 591L7 720L8 723H107L193 591H115Z" />
<glyph unicode="a" glyph-name="a" horiz-adv-x="456" d="M164 -12Q145 -12 122 -7T77 15T42 60T28 136Q28 208 62 246T156 300T292 315V378Q292 413 278 435T218 457Q175 457 159 433T143 383V370H50Q49 375 49 380T49 392Q49 462 97 500T221 538Q305 538 345
499T386 388V105Q386 86 395 78T414 70H444V4Q436 0 422 -4T385 -9Q351 -9 329 9T298 57H293Q273 25 241 7T164 -12ZM193 70Q220 70 242 84T278 127T292 195V237Q244 237 207 230T147 202T125 143Q125 104 142 87T193 70Z" />
<glyph unicode="b" glyph-name="b" d="M265 -12Q229 -12 199 7T149 62H144L132 0H58V723H152V475H157Q171 505 201 521T271 538Q316 538 352 510T409 421T430 264Q430 120 386 54T265 -12ZM242 72Q288 72 310 113T332 244V282Q332 371 310 412T242 454Q196 454
174 410T152 279V244Q152 159 174 116T242 72Z" />
<glyph unicode="c" glyph-name="c" horiz-adv-x="425" d="M224 -12Q127 -12 83 54T38 263Q38 405 83 471T222 538Q308 538 349 486T391 330H294Q294 394 278 425T222 456Q177 456 157 412T136 282V244Q136 158 156 114T224 70Q264 70 281 102T298 196H391Q391
135 373 89T318 15T224 -12Z" />
<glyph unicode="d" glyph-name="d" d="M205 -12Q129 -12 85 54T40 264Q40 360 61 420T119 509T199 538Q238 538 268 522T313 475H318V723H412V0H338L326 62H321Q302 26 272 7T205 -12ZM228 72Q274 72 296 115T318 244V279Q318 365 296 409T228 454Q182 454 161
413T139 282V244Q139 155 160 114T228 72Z" />
<glyph unicode="e" glyph-name="e" horiz-adv-x="456" d="M240 -12Q141 -12 90 53T39 263Q39 405 89 471T238 538Q327 538 371 478T416 282V237H137Q138 152 163 111T241 69Q278 69 300 99T323 181H416Q416 89 367 39T240 -12ZM138 315H318Q318 384 298 420T238
457Q188 457 165 421T138 315Z" />
<glyph unicode="f" glyph-name="f" horiz-adv-x="242" d="M57 0V444H9V526H57V604Q57 635 67 664T101 712T167 731Q186 731 207 728T242 719V652H197Q151 652 151 605V526H242V444H151V0H57Z" />
<glyph unicode="g" glyph-name="g" d="M140 -182Q81 -182 48 -147T14 -58Q14 -20 33 9T82 52Q62 65 51 86T39 131Q39 164 60 187T114 222Q85 245 69 280T52 360Q52 443 99 490T231 538Q275 538 311 520Q344 540 356 565T371 612H452Q452 562 429 529T365 483Q386
461 398 430T410 360Q410 279 363 231T234 183H180Q161 183 149 171T136 140Q136 123 149 111T179 99H339Q394 99 427 62T461 -29Q461 -72 442 -107T387 -162T302 -182H140ZM165 -105H307Q332 -105 349 -88T366 -47Q366 -22 352 -6T309 10H165Q138 10 123 -6T108
-47Q108 -71 123 -88T165 -105ZM230 257Q272 257 293 285T315 360Q315 410 294 436T230 463Q189 463 168 436T146 360Q146 312 167 285T230 257Z" />
<glyph unicode="h" glyph-name="h" d="M58 0V723H152V471H158Q177 503 207 520T279 538Q338 538 375 502T412 376V0H318V361Q318 415 298 434T245 454Q208 454 180 418T152 322V0H58Z" />
<glyph unicode="i" glyph-name="i" horiz-adv-x="228" d="M67 0V526H161V0H67ZM65 622V723H161V622H65Z" />
<glyph unicode="j" glyph-name="j" horiz-adv-x="197" d="M36 -182Q16 -182 -5 -178T-40 -170V-103H4Q51 -103 51 -55V526H145V-55Q145 -86 136 -115T102 -163T36 -182ZM50 622V723H146V622H50Z" />
<glyph unicode="k" glyph-name="k" horiz-adv-x="425" d="M58 0V723H152V293L315 526H418L262 311L426 0H320L204 233L152 174V0H58Z" />
<glyph unicode="l" glyph-name="l" horiz-adv-x="197" d="M51 0V723H145V0H51Z" />
<glyph unicode="m" glyph-name="m" horiz-adv-x="698" d="M58 0V526H132L144 464H150Q170 500 201 519T271 538Q310 538 339 521T384 462Q404 497 439 517T514 538Q551 538 579 523T624 472T640 376V0H546V361Q546 415 528 434T481 454Q446 454 421 420T396 324V0H303V361Q303
415 285 434T237 454Q202 454 177 419T152 322V0H58Z" />
<glyph unicode="n" glyph-name="n" d="M58 0V526H132L144 464H150Q171 500 204 519T279 538Q338 538 375 502T412 376V0H318V361Q318 415 298 434T245 454Q208 454 180 418T152 322V0H58Z" />
<glyph unicode="o" glyph-name="o" d="M235 -12Q139 -12 90 54T40 263Q40 405 89 471T235 538Q331 538 380 472T430 263Q430 121 381 55T235 -12ZM235 70Q285 70 308 114T332 244V282Q332 368 309 412T235 456Q186 456 163 412T139 282V244Q139 158 162 114T235 70Z" />
<glyph unicode="p" glyph-name="p" d="M58 -173V526H132L144 464H149Q168 500 198 519T265 538Q341 538 385 472T430 262Q430 167 409 106T352 17T271 -12Q232 -12 202 4T157 49H152V-173H58ZM242 72Q288 72 310 113T332 244V282Q332 371 310 412T242 454Q196
454 174 411T152 282V245Q152 160 174 116T242 72Z" />
<glyph unicode="q" glyph-name="q" d="M318 -173V49H313Q299 20 269 4T199 -12Q155 -12 119 16T62 106T40 262Q40 406 84 472T205 538Q242 538 272 519T321 464H326L338 526H412V-173H318ZM228 72Q274 72 296 116T318 245V282Q318 367 296 410T228 454Q182 454
161 413T139 282V244Q139 155 160 114T228 72Z" />
<glyph unicode="r" glyph-name="r" horiz-adv-x="288" d="M58 0V526H132L144 454H150Q161 485 181 511T240 538Q259 538 270 534T282 530V435H250Q224 435 202 424T166 386T152 312V0H58Z" />
<glyph unicode="s" glyph-name="s" horiz-adv-x="425" d="M209 -12Q149 -12 110 10T52 68T33 146Q33 155 33 159T34 165H131V156Q132 109 156 89T213 68Q242 68 265 85T289 140Q289 171 271 188T226 216T167 237T107 263T62 308T44 385Q44 434 65 468T126 520T215
538Q265 538 300 520T355 468T375 394Q375 388 375 382T374 374H277V381Q277 413 262 435T209 458Q183 458 168 448T147 422T140 392Q140 364 158 349T204 325T263 306T322 279T368 232T386 153Q386 94 363 58T300 5T209 -12Z" />
<glyph unicode="t" glyph-name="t" horiz-adv-x="242" d="M163 -11Q124 -11 102 8T70 56T60 117V444H12V526H60L78 673H154V526H227V444H154V116Q154 70 199 70H227V3Q216 -3 198 -7T163 -11Z" />
<glyph unicode="u" glyph-name="u" d="M192 -12Q132 -12 95 24T58 150V526H152V165Q152 111 172 92T225 72Q263 72 290 107T318 203V526H412V0H338L326 62H320Q299 26 266 7T192 -12Z" />
<glyph unicode="v" glyph-name="v" horiz-adv-x="425" d="M163 0L8 526H109L180 272Q185 256 189 237T198 197T207 160T215 131H219Q222 143 226 160T234 197T243 237T253 274L322 526H417L262 0H163Z" />
<glyph unicode="w" glyph-name="w" horiz-adv-x="607" d="M131 0L1 526H100L161 255Q167 230 172 198T179 142T182 118H186Q186 118 188 139T195 193T204 255L255 526H358L409 255Q412 235 415 212T421 167T425 132T427 118H431Q431 118 432 130T437 163T444 208T453
255L513 526H605L475 0H375L321 285Q316 312 313 340T307 388T305 408H300Q300 408 299 389T294 341T285 285L232 0H131Z" />
<glyph unicode="x" glyph-name="x" horiz-adv-x="425" d="M6 0L158 268L14 526H125L214 355H216L308 526H412L266 274L419 0H308L211 186H208L108 0H6Z" />
<glyph unicode="y" glyph-name="y" horiz-adv-x="425" d="M105 -182Q82 -182 66 -180T40 -174V-106H77Q108 -106 134 -83T174 0L8 526H110L196 233Q199 220 203 205T211 175T218 147T223 126H227Q229 134 231 146T237 174T243 205T251 234L322 526H417L280 27Q265
-30 242 -77T185 -153T105 -182Z" />
<glyph unicode="z" glyph-name="z" horiz-adv-x="410" d="M23 0V43L246 444H38V526H375V484L151 82H386V0H23Z" />
<glyph unicode="{" glyph-name="braceleft" horiz-adv-x="288" d="M268 -159Q224 -159 185 -148T122 -106T98 -11V185Q98 219 73 232T21 245V331Q48 331 73 344T98 391V587Q98 650 122 682T185 724T268 735V672Q250 672 232 667T202 647T189 604Q189 553 187 503T182
401Q181 350 160 322T88 293V283Q139 283 160 255T182 175Q184 124 186 74T189 -28Q189 -56 201 -70T232 -90T268 -96V-159Z" />
<glyph unicode="|" glyph-name="bar" horiz-adv-x="218" d="M68 -173V723H150V-173H68Z" />
<glyph unicode="}" glyph-name="braceright" horiz-adv-x="288" d="M20 -159V-96Q38 -96 56 -91T87 -71T99 -28Q99 24 102 74T106 175Q108 226 128 254T201 283V293Q149 293 129 321T106 401Q105 453 102 503T99 604Q99 633 87 647T57 666T20 672V735Q66 735 104
725T166 682T190 587V391Q190 357 215 344T267 331V245Q240 245 215 232T190 185V-11Q190 -74 166 -105T104 -148T20 -159Z" />
<glyph unicode="~" glyph-name="asciitilde" horiz-adv-x="479" d="M32 207V307Q32 307 39 318T62 343T99 369T152 380Q183 380 211 365T267 335T327 319Q353 319 375 330T413 355T438 381T447 392V292Q447 292 440 281T417 256T380 230T327 219Q296 219 268 234T212
265T152 280Q126 280 104 269T66 244T41 218T32 207Z" />
<glyph unicode="&#xa0;" glyph-name="uni00A0" horiz-adv-x="228" />
<glyph unicode="&#xa1;" glyph-name="exclamdown" horiz-adv-x="273" d="M87 -160L116 347H184L213 -160H87ZM95 409V526H207V409H95Z" />
<glyph unicode="&#xa2;" glyph-name="cent" horiz-adv-x="456" d="M209 -49V69Q125 79 86 145T46 343Q46 474 86 541T209 616V723H260V617Q337 610 374 558T411 410H318Q318 466 305 496T260 534V151Q293 159 307 190T322 276H411Q411 220 395 175T345 102T260
69V-49H209ZM209 153V533Q173 522 157 479T140 362V324Q140 250 156 207T209 153Z" />
<glyph unicode="&#xa3;" glyph-name="sterling" horiz-adv-x="456" d="M27 0V88H85V299H16V380H85V499Q85 599 129 648T252 698Q329 698 374 653T419 504V491H326V510Q326 565 307 590T252 616Q217 616 199 593T180 518V380H309V299H179L169 88H417V0H27Z" />
<glyph unicode="&#xa4;" glyph-name="currency" horiz-adv-x="456" d="M228 100Q190 100 156 114T93 154L50 112L-2 164L47 213Q32 241 23 274T14 342Q14 377 23 409T47 470L-2 520L50 572L92 529Q120 556 154 570T228 585Q267 585 301 571T363 529L406 572L458
520L409 471Q425 443 433 410T442 342Q442 306 434 274T408 213L458 164L406 112L363 154Q336 129 301 115T228 100ZM228 175Q266 175 298 198T348 258T367 342Q367 389 349 426T298 487T228 510Q190 510 158 487T107 427T88 342Q88 296 106 259T157 198T228 175Z"
/>
<glyph unicode="&#xa5;" glyph-name="yen" horiz-adv-x="456" d="M179 0V164H26V234H179V304H26V374H147L3 686H109L232 402H236L356 686H452L309 374H430V304H277V234H430V164H277V0H179Z" />
<glyph unicode="&#xa6;" glyph-name="brokenbar" horiz-adv-x="218" d="M68 346V723H150V346H68ZM68 -173V204H150V-173H68Z" />
<glyph unicode="&#xa7;" glyph-name="section" horiz-adv-x="456" d="M229 -182Q180 -182 144 -163T89 -112T69 -38Q69 -32 69 -26T70 -18H167Q167 -61 184 -81T236 -102Q262 -102 276 -92T297 -66T304 -36Q304 0 286 23T241 64T181 97T122 135T76 190T58 274Q58
320 78 355T127 411Q102 434 86 465T69 545Q69 594 90 628T150 680T241 698Q290 698 326 680T381 628T401 554Q401 548 401 542T400 534H303Q303 577 286 597T234 618Q209 618 194 608T173 582T166 552Q166 516 184 493T229 452T289 419T348 381T394 326T412 242Q412
196 392 161T343 104Q368 82 384 51T401 -29Q401 -77 380 -111T320 -164T229 -182ZM289 142Q303 155 311 173T320 216Q320 261 299 287T246 333T180 373Q166 361 158 342T150 300Q150 256 171 229T224 183T289 142Z" />
<glyph unicode="&#xa8;" glyph-name="dieresis" horiz-adv-x="0" d="M158 624V723H249V624H158ZM0 624V723H91V624H0Z" />
<glyph unicode="&#xa9;" glyph-name="copyright" horiz-adv-x="604" d="M302 -12Q214 -12 151 32T54 155T19 343Q19 451 53 531T151 654T302 698Q390 698 453 655T550 531T585 343Q585 235 551 156T453 32T302 -12ZM304 137Q226 137 185 189T144 346Q144 453 185
504T304 556Q367 556 407 519T448 402H380Q380 450 360 473T304 497Q257 497 235 463T213 362V332Q213 266 235 232T305 197Q340 197 361 220T383 291H448Q448 213 408 175T304 137ZM302 38Q375 38 427 75T507 182T535 343Q535 436 507 504T427 610T302 648Q230
648 178 611T97 505T69 343Q69 251 97 182T177 76T302 38Z" />
<glyph unicode="&#xaa;" glyph-name="ordfeminine" horiz-adv-x="303" d="M111 362Q94 362 72 369T34 399T18 463Q18 512 41 538T104 575T195 585V626Q195 649 186 663T148 677Q121 677 111 662T100 629V619H33Q33 623 33 627T33 635Q33 683 65 709T150 735Q207
735 234 708T262 633V444Q262 432 268 427T280 421H301V374Q295 370 285 367T260 364Q238 364 223 376T202 408H199Q185 387 163 375T111 362ZM131 421Q156 421 175 442T195 503V530Q149 530 119 518T88 467Q88 443 99 432T131 421Z" />
<glyph unicode="&#xab;" glyph-name="guillemotleft" horiz-adv-x="456" d="M344 126L204 326L344 526H421L310 326L421 126H344ZM182 126L43 326L182 526H260L148 326L260 126H182Z" />
<glyph unicode="&#xac;" glyph-name="logicalnot" horiz-adv-x="479" d="M348 194V357H36V456H438V194H348Z" />
<glyph unicode="&#xad;" glyph-name="uni00AD" horiz-adv-x="273" d="M12 218V322H260V218H12Z" />
<glyph unicode="&#xae;" glyph-name="registered" horiz-adv-x="604" d="M302 -12Q214 -12 151 32T54 155T19 343Q19 451 53 531T151 654T302 698Q390 698 453 655T550 531T585 343Q585 235 551 156T453 32T302 -12ZM302 38Q375 38 427 75T507 182T535 343Q535
436 507 504T427 610T302 648Q230 648 178 611T97 505T69 343Q69 251 97 182T177 76T302 38ZM176 145V549H329Q379 549 410 517T442 431Q442 392 426 363T387 322L467 145H399L329 300H242V145H176ZM242 358H308Q342 358 358 375T374 425Q374 456 358 472T308 488H242V358Z"
/>
<glyph unicode="&#xaf;" glyph-name="overscore" horiz-adv-x="425" d="M92 600V677H343V600H92Z" />
<glyph unicode="&#xb0;" glyph-name="degree" horiz-adv-x="400" d="M198 424Q160 424 129 442T79 491T61 561Q61 599 79 630T128 679T198 698Q237 698 268 680T317 630T335 561Q335 523 317 492T268 442T198 424ZM198 481Q231 481 253 504T276 561Q276 594 254
616T198 639Q165 639 142 617T119 561Q119 528 142 505T198 481Z" />
<glyph unicode="&#xb1;" glyph-name="plusminus" horiz-adv-x="549" d="M229 132V312H75V403H229V583H318V403H473V312H318V132H229ZM75 0V89H473V0H75Z" />
<glyph unicode="&#xb2;" glyph-name="uni00B2" horiz-adv-x="273" d="M32 435V450Q32 493 58 526T113 590Q139 616 158 640T178 691Q178 709 170 724T138 739Q116 739 107 722T98 684L99 656H35Q35 656 33 664T31 683Q31 740 62 769T139 799Q183 799 213 773T244
693Q244 649 218 616T165 556Q149 540 136 525T117 494H247V435H32Z" />
<glyph unicode="&#xb3;" glyph-name="uni00B3" horiz-adv-x="273" d="M140 428Q84 428 55 455T25 536V547H94V534Q94 513 105 500T136 487Q158 487 171 499T184 538Q184 564 170 576T135 588H109V645H136Q153 645 165 659T178 699Q178 723 167 731T139 740Q121
740 111 728T100 697V677H32V702Q32 746 61 772T138 799Q186 799 215 776T245 702Q245 675 233 655T200 621Q223 609 237 586T251 534Q251 483 221 456T140 428Z" />
<glyph unicode="&#xb4;" glyph-name="acute" horiz-adv-x="0" d="M0 591L86 723H185L186 720L78 591H0Z" />
<glyph unicode="&#xb5;" glyph-name="uni00B5" d="M58 -173V526H152V157Q152 108 172 90T225 72Q263 72 290 107T318 203V526H412V0H338L326 62H320Q300 26 269 7T198 -12Q172 -12 152 -5V-173H58Z" />
<glyph unicode="&#xb6;" glyph-name="paragraph" horiz-adv-x="445" d="M187 -173V250Q139 257 101 287T41 364T18 467Q18 528 43 577T113 656T210 686H428V620H380V-173H310V620H257V-173H187Z" />
<glyph unicode="&#xb7;" glyph-name="middot" horiz-adv-x="228" d="M60 285V402H167V285H60Z" />
<glyph unicode="&#xb8;" glyph-name="cedilla" horiz-adv-x="0" d="M84 -182Q38 -182 0 -174V-125H74Q91 -125 100 -120T110 -101Q110 -89 103 -83T76 -77H43L56 11H116L109 -35Q141 -37 165 -51T190 -101Q190 -134 172 -151T130 -175T84 -182Z" />
<glyph unicode="&#xb9;" glyph-name="uni00B9" horiz-adv-x="273" d="M35 434V494H109V705H34V747Q57 750 88 760T142 786H176V494H243V434H35Z" />
<glyph unicode="&#xba;" glyph-name="ordmasculine" horiz-adv-x="299" d="M150 361Q85 361 52 406T18 548Q18 644 51 689T150 735Q215 735 248 690T282 548Q282 452 249 407T150 361ZM150 421Q182 421 197 449T213 535V561Q213 618 198 646T150 675Q118 675 103
647T88 561V535Q88 478 103 450T150 421Z" />
<glyph unicode="&#xbb;" glyph-name="guillemotright" horiz-adv-x="456" d="M196 126L308 326L196 526H274L413 326L274 126H196ZM35 126L146 326L35 526H112L252 326L112 126H35Z" />
<glyph unicode="&#xbc;" glyph-name="onequarter" horiz-adv-x="683" d="M35 590V650H109V861H34V903Q57 906 88 916T142 942H176V650H243V590H35ZM108 -12L517 698H581L172 -12H108ZM565 0V79H426V128Q456 176 478 235T513 365H586Q576 322 560 279T526 199T493
139H565V202Q573 220 582 251T597 306H633V139H664V79H633V0H565Z" />
<glyph unicode="&#xbd;" glyph-name="onehalf" horiz-adv-x="683" d="M35 590V650H109V861H34V903Q57 906 88 916T142 942H176V650H243V590H35ZM108 -12L517 698H581L172 -12H108ZM442 0V15Q442 58 468 91T523 155Q549 181 568 205T588 256Q588 274 580 289T548
304Q526 304 517 287T508 249L509 221H445Q445 221 443 229T441 248Q441 305 472 334T549 364Q593 364 623 338T654 258Q654 214 628 181T575 121Q559 105 546 90T527 59H657V0H442Z" />
<glyph unicode="&#xbe;" glyph-name="threequarters" horiz-adv-x="683" d="M140 584Q84 584 55 611T25 692V703H94V690Q94 669 105 656T136 643Q158 643 171 655T184 694Q184 720 170 732T135 744H109V801H136Q153 801 165 815T178 855Q178 879 167 887T139 896Q121
896 111 884T100 853V833H32V858Q32 902 61 928T138 955Q186 955 215 932T245 858Q245 831 233 811T200 777Q223 765 237 742T251 690Q251 639 221 612T140 584ZM108 -12L517 698H581L172 -12H108ZM565 0V79H426V128Q456 176 478 235T513 365H586Q576 322 560 279T526
199T493 139H565V202Q573 220 582 251T597 306H633V139H664V79H633V0H565Z" />
<glyph unicode="&#xbf;" glyph-name="questiondown" horiz-adv-x="501" d="M246 -172Q192 -172 151 -150T86 -88T63 3Q63 58 76 93T108 153T146 198T178 243T191 304V341H291V289Q291 249 279 222T248 174T210 131T179 82T167 14Q167 5 169 -11T181 -45T207 -74T253
-86Q282 -86 299 -73T324 -39T336 2T339 40Q339 52 339 59T338 67H439Q439 67 440 54T442 32Q442 -26 421 -72T356 -145T246 -172ZM185 409V526H297V409H185Z" />
<glyph unicode="&#xc0;" glyph-name="Agrave" horiz-adv-x="561" d="M-1 0L218 686H343L562 0H455L410 147H144L99 0H-1ZM171 238H382L296 519Q293 533 289 552T282 585T279 600H275Q275 600 273 585T266 551T258 519L171 238ZM260 751L152 850L153 853H252L338 751H260Z" />
<glyph unicode="&#xc1;" glyph-name="Aacute" horiz-adv-x="561" d="M-1 0L218 686H343L562 0H455L410 147H144L99 0H-1ZM171 238H382L296 519Q293 533 289 552T282 585T279 600H275Q275 600 273 585T266 551T258 519L171 238ZM210 751L283 853H392L393 850L298 751H210Z" />
<glyph unicode="&#xc2;" glyph-name="Acircumflex" horiz-adv-x="561" d="M-1 0L218 686H343L562 0H455L410 147H144L99 0H-1ZM171 238H382L296 519Q293 533 289 552T282 585T279 600H275Q275 600 273 585T266 551T258 519L171 238ZM152 747L238 852H322L407 747H324L280
793L235 747H152Z" />
<glyph unicode="&#xc3;" glyph-name="Atilde" horiz-adv-x="561" d="M-1 0L218 686H343L562 0H455L410 147H144L99 0H-1ZM171 238H382L296 519Q293 533 289 552T282 585T279 600H275Q275 600 273 585T266 551T258 519L171 238ZM142 752Q142 774 150 797T176 835T223
851Q243 851 261 844T296 829T332 821Q344 821 353 827T364 851H419Q419 829 411 806T385 767T338 752Q318 752 300 759T265 774T229 781Q216 781 208 775T196 752H142Z" />
<glyph unicode="&#xc4;" glyph-name="Adieresis" horiz-adv-x="561" d="M-1 0L218 686H343L562 0H455L410 147H144L99 0H-1ZM171 238H382L296 519Q293 533 289 552T282 585T279 600H275Q275 600 273 585T266 551T258 519L171 238ZM313 784V883H404V784H313ZM155
784V883H246V784H155Z" />
<glyph unicode="&#xc5;" glyph-name="Aring" horiz-adv-x="561" d="M-1 0L218 686H343L562 0H455L410 147H144L99 0H-1ZM171 238H382L296 519Q293 533 289 552T282 585T279 600H275Q275 600 273 585T266 551T258 519L171 238ZM280 722Q241 722 213 750T184 819Q184
858 212 886T280 914Q321 914 348 886T376 818Q376 778 348 750T280 722ZM280 773Q298 773 311 786T325 818Q325 837 312 849T280 862Q261 862 248 850T235 818Q235 800 248 787T280 773Z" />
<glyph unicode="&#xc6;" glyph-name="AE" horiz-adv-x="820" d="M-3 0L271 686H775V595H419L465 396H731V306H486L536 91H781V0H451L417 147H151L95 0H-3ZM185 238H397L332 529Q329 540 327 552T324 574T321 586H317Q316 584 313 574T305 552T297 529L185 238Z" />
<glyph unicode="&#xc7;" glyph-name="Ccedilla" horiz-adv-x="592" d="M310 -12Q179 -12 109 76T39 343Q39 523 109 610T310 698Q381 698 436 670T522 583T554 436H451Q451 523 413 565T310 608Q226 608 185 547T144 368V318Q144 200 185 139T312 78Q377 78 416
120T455 249H554Q554 160 523 102T436 16T310 -12ZM298 -182Q252 -182 214 -174V-125H288Q305 -125 314 -120T324 -101Q324 -89 317 -83T290 -77H257L270 11H330L323 -35Q355 -37 379 -51T404 -101Q404 -134 386 -151T344 -175T298 -182Z" />
<glyph unicode="&#xc8;" glyph-name="Egrave" horiz-adv-x="547" d="M67 0V686H494V595H167V396H450V306H167V91H500V0H67ZM261 751L153 850L154 853H253L339 751H261Z" />
<glyph unicode="&#xc9;" glyph-name="Eacute" horiz-adv-x="547" d="M67 0V686H494V595H167V396H450V306H167V91H500V0H67ZM212 751L285 853H394L395 850L300 751H212Z" />
<glyph unicode="&#xca;" glyph-name="Ecircumflex" horiz-adv-x="547" d="M67 0V686H494V595H167V396H450V306H167V91H500V0H67ZM154 747L240 852H324L409 747H326L282 793L237 747H154Z" />
<glyph unicode="&#xcb;" glyph-name="Edieresis" horiz-adv-x="547" d="M67 0V686H494V595H167V396H450V306H167V91H500V0H67ZM315 784V883H406V784H315ZM157 784V883H248V784H157Z" />
<glyph unicode="&#xcc;" glyph-name="Igrave" horiz-adv-x="228" d="M64 0V686H164V0H64ZM94 751L-14 850L-13 853H86L172 751H94Z" />
<glyph unicode="&#xcd;" glyph-name="Iacute" horiz-adv-x="228" d="M64 0V686H164V0H64ZM44 751L117 853H226L227 850L132 751H44Z" />
<glyph unicode="&#xce;" glyph-name="Icircumflex" horiz-adv-x="228" d="M64 0V686H164V0H64ZM-14 747L72 852H156L241 747H158L114 793L69 747H-14Z" />
<glyph unicode="&#xcf;" glyph-name="Idieresis" horiz-adv-x="228" d="M64 0V686H164V0H64ZM147 784V883H238V784H147ZM-11 784V883H80V784H-11Z" />
<glyph unicode="&#xd0;" glyph-name="Eth" horiz-adv-x="592" d="M67 0V320H7V390H67V686H283Q407 686 477 603T548 353Q548 177 478 89T283 0H67ZM167 91H274Q352 91 397 150T443 328V378Q443 487 398 541T274 595H167V390H314V320H167V91Z" />
<glyph unicode="&#xd1;" glyph-name="Ntilde" horiz-adv-x="592" d="M67 0V686H155L396 272Q403 260 412 240T427 205T434 189L437 190Q437 190 437 206T436 241T435 270V686H525V0H439L196 418Q190 431 181 450T164 486T157 502L153 500Q153 500 154 485T156
451T157 420V0H67ZM158 752Q158 774 166 797T192 835T239 851Q259 851 277 844T312 829T348 821Q360 821 369 827T380 851H435Q435 829 427 806T401 767T354 752Q334 752 316 759T281 774T245 781Q232 781 224 775T212 752H158Z" />
<glyph unicode="&#xd2;" glyph-name="Ograve" horiz-adv-x="638" d="M319 -12Q191 -12 118 76T44 343Q44 523 117 610T319 698Q447 698 520 611T594 343Q594 164 521 76T319 -12ZM319 78Q400 78 444 139T489 318V368Q489 486 445 547T319 608Q239 608 194 547T149
368V318Q149 200 194 139T319 78ZM299 751L191 850L192 853H291L377 751H299Z" />
<glyph unicode="&#xd3;" glyph-name="Oacute" horiz-adv-x="638" d="M319 -12Q191 -12 118 76T44 343Q44 523 117 610T319 698Q447 698 520 611T594 343Q594 164 521 76T319 -12ZM319 78Q400 78 444 139T489 318V368Q489 486 445 547T319 608Q239 608 194 547T149
368V318Q149 200 194 139T319 78ZM249 751L322 853H431L432 850L337 751H249Z" />
<glyph unicode="&#xd4;" glyph-name="Ocircumflex" horiz-adv-x="638" d="M319 -12Q191 -12 118 76T44 343Q44 523 117 610T319 698Q447 698 520 611T594 343Q594 164 521 76T319 -12ZM319 78Q400 78 444 139T489 318V368Q489 486 445 547T319 608Q239 608 194
547T149 368V318Q149 200 194 139T319 78ZM191 747L277 852H361L446 747H363L319 793L274 747H191Z" />
<glyph unicode="&#xd5;" glyph-name="Otilde" horiz-adv-x="638" d="M319 -12Q191 -12 118 76T44 343Q44 523 117 610T319 698Q447 698 520 611T594 343Q594 164 521 76T319 -12ZM319 78Q400 78 444 139T489 318V368Q489 486 445 547T319 608Q239 608 194 547T149
368V318Q149 200 194 139T319 78ZM181 752Q181 774 189 797T215 835T262 851Q282 851 300 844T335 829T371 821Q383 821 392 827T403 851H458Q458 829 450 806T424 767T377 752Q357 752 339 759T304 774T268 781Q255 781 247 775T235 752H181Z" />
<glyph unicode="&#xd6;" glyph-name="Odieresis" horiz-adv-x="638" d="M319 -12Q191 -12 118 76T44 343Q44 523 117 610T319 698Q447 698 520 611T594 343Q594 164 521 76T319 -12ZM319 78Q400 78 444 139T489 318V368Q489 486 445 547T319 608Q239 608 194 547T149
368V318Q149 200 194 139T319 78ZM352 784V883H443V784H352ZM194 784V883H285V784H194Z" />
<glyph unicode="&#xd7;" glyph-name="multiply" horiz-adv-x="479" d="M96 43L35 106L186 255L35 405L96 469L247 318L397 469L458 405L307 255L458 106L397 43L247 192L96 43Z" />
<glyph unicode="&#xd8;" glyph-name="Oslash" horiz-adv-x="638" d="M47 -37L522 723H592L117 -37H47ZM319 -12Q191 -12 118 76T44 343Q44 523 117 610T319 698Q447 698 520 611T594 343Q594 164 521 76T319 -12ZM319 78Q400 78 444 139T489 318V368Q489 486 445
547T319 608Q239 608 194 547T149 368V318Q149 200 194 139T319 78Z" />
<glyph unicode="&#xd9;" glyph-name="Ugrave" horiz-adv-x="592" d="M296 -12Q189 -12 128 47T67 220V686H168V218Q168 150 202 114T296 78Q357 78 391 114T425 218V686H525V220Q525 106 464 47T296 -12ZM276 751L168 850L169 853H268L354 751H276Z" />
<glyph unicode="&#xda;" glyph-name="Uacute" horiz-adv-x="592" d="M296 -12Q189 -12 128 47T67 220V686H168V218Q168 150 202 114T296 78Q357 78 391 114T425 218V686H525V220Q525 106 464 47T296 -12ZM226 751L299 853H408L409 850L314 751H226Z" />
<glyph unicode="&#xdb;" glyph-name="Ucircumflex" horiz-adv-x="592" d="M296 -12Q189 -12 128 47T67 220V686H168V218Q168 150 202 114T296 78Q357 78 391 114T425 218V686H525V220Q525 106 464 47T296 -12ZM168 747L254 852H338L423 747H340L296 793L251 747H168Z" />
<glyph unicode="&#xdc;" glyph-name="Udieresis" horiz-adv-x="592" d="M296 -12Q189 -12 128 47T67 220V686H168V218Q168 150 202 114T296 78Q357 78 391 114T425 218V686H525V220Q525 106 464 47T296 -12ZM329 784V883H420V784H329ZM171 784V883H262V784H171Z" />
<glyph unicode="&#xdd;" glyph-name="Yacute" horiz-adv-x="547" d="M224 0V276L5 686H114L278 373H282L443 686H542L324 276V0H224ZM203 751L276 853H385L386 850L291 751H203Z" />
<glyph unicode="&#xde;" glyph-name="Thorn" horiz-adv-x="547" d="M67 0V686H167V554H312Q381 554 427 529T496 458T520 353Q520 291 495 245T423 172T312 146H167V0H67ZM167 236H306Q357 236 386 268T415 353Q415 404 387 434T306 464H167V236Z" />
<glyph unicode="&#xdf;" glyph-name="germandbls" horiz-adv-x="501" d="M47 0V517Q47 595 74 643T149 713T254 735Q309 735 352 713T420 649T445 548Q445 499 419 456T350 395V391Q384 379 410 352T451 289T466 214Q466 150 440 102T368 27T266 0H194V83H257Q289
83 314 101T355 149T370 215Q370 250 355 278T315 324T257 342H194V427H250Q278 427 300 443T336 486T349 545Q349 594 324 623T249 653Q200 653 171 620T141 521V0H47Z" />
<glyph unicode="&#xe0;" glyph-name="agrave" horiz-adv-x="456" d="M164 -12Q145 -12 122 -7T77 15T42 60T28 136Q28 208 62 246T156 300T292 315V378Q292 413 278 435T218 457Q175 457 159 433T143 383V370H50Q49 375 49 380T49 392Q49 462 97 500T221 538Q305
538 345 499T386 388V105Q386 86 395 78T414 70H444V4Q436 0 422 -4T385 -9Q351 -9 329 9T298 57H293Q273 25 241 7T164 -12ZM193 70Q220 70 242 84T278 127T292 195V237Q244 237 207 230T147 202T125 143Q125 104 142 87T193 70ZM204 591L96 720L97 723H196L282
591H204Z" />
<glyph unicode="&#xe1;" glyph-name="aacute" horiz-adv-x="456" d="M164 -12Q145 -12 122 -7T77 15T42 60T28 136Q28 208 62 246T156 300T292 315V378Q292 413 278 435T218 457Q175 457 159 433T143 383V370H50Q49 375 49 380T49 392Q49 462 97 500T221 538Q305
538 345 499T386 388V105Q386 86 395 78T414 70H444V4Q436 0 422 -4T385 -9Q351 -9 329 9T298 57H293Q273 25 241 7T164 -12ZM193 70Q220 70 242 84T278 127T292 195V237Q244 237 207 230T147 202T125 143Q125 104 142 87T193 70ZM163 591L249 723H348L349 720L241
591H163Z" />
<glyph unicode="&#xe2;" glyph-name="acircumflex" horiz-adv-x="456" d="M164 -12Q145 -12 122 -7T77 15T42 60T28 136Q28 208 62 246T156 300T292 315V378Q292 413 278 435T218 457Q175 457 159 433T143 383V370H50Q49 375 49 380T49 392Q49 462 97 500T221
538Q305 538 345 499T386 388V105Q386 86 395 78T414 70H444V4Q436 0 422 -4T385 -9Q351 -9 329 9T298 57H293Q273 25 241 7T164 -12ZM193 70Q220 70 242 84T278 127T292 195V237Q244 237 207 230T147 202T125 143Q125 104 142 87T193 70ZM96 587L182 722H266L351
587H268L224 663L179 587H96Z" />
<glyph unicode="&#xe3;" glyph-name="atilde" horiz-adv-x="456" d="M164 -12Q145 -12 122 -7T77 15T42 60T28 136Q28 208 62 246T156 300T292 315V378Q292 413 278 435T218 457Q175 457 159 433T143 383V370H50Q49 375 49 380T49 392Q49 462 97 500T221 538Q305
538 345 499T386 388V105Q386 86 395 78T414 70H444V4Q436 0 422 -4T385 -9Q351 -9 329 9T298 57H293Q273 25 241 7T164 -12ZM193 70Q220 70 242 84T278 127T292 195V237Q244 237 207 230T147 202T125 143Q125 104 142 87T193 70ZM72 613Q72 638 81 663T110 705T161
723Q184 723 203 715T242 699T282 690Q296 690 305 697T317 723H378Q378 699 369 674T340 631T288 613Q267 613 247 621T208 638T168 646Q154 646 145 639T133 613H72Z" />
<glyph unicode="&#xe4;" glyph-name="adieresis" horiz-adv-x="456" d="M164 -12Q145 -12 122 -7T77 15T42 60T28 136Q28 208 62 246T156 300T292 315V378Q292 413 278 435T218 457Q175 457 159 433T143 383V370H50Q49 375 49 380T49 392Q49 462 97 500T221 538Q305
538 345 499T386 388V105Q386 86 395 78T414 70H444V4Q436 0 422 -4T385 -9Q351 -9 329 9T298 57H293Q273 25 241 7T164 -12ZM193 70Q220 70 242 84T278 127T292 195V237Q244 237 207 230T147 202T125 143Q125 104 142 87T193 70ZM258 624V723H349V624H258ZM100
624V723H191V624H100Z" />
<glyph unicode="&#xe5;" glyph-name="aring" horiz-adv-x="456" d="M164 -12Q145 -12 122 -7T77 15T42 60T28 136Q28 208 62 246T156 300T292 315V378Q292 413 278 435T218 457Q175 457 159 433T143 383V370H50Q49 375 49 380T49 392Q49 462 97 500T221 538Q305
538 345 499T386 388V105Q386 86 395 78T414 70H444V4Q436 0 422 -4T385 -9Q351 -9 329 9T298 57H293Q273 25 241 7T164 -12ZM193 70Q220 70 242 84T278 127T292 195V237Q244 237 207 230T147 202T125 143Q125 104 142 87T193 70ZM225 562Q186 562 158 590T129
659Q129 698 157 726T225 754Q266 754 293 726T321 658Q321 618 293 590T225 562ZM225 608Q245 608 259 623T274 658Q274 679 260 693T225 707Q205 707 191 693T176 659Q176 638 190 623T225 608Z" />
<glyph unicode="&#xe6;" glyph-name="ae" horiz-adv-x="729" d="M192 -12Q169 -12 142 -7T92 15T54 60T39 136Q39 208 73 246T167 300T303 315V378Q303 413 289 435T229 457Q186 457 170 433T154 383V370H62Q61 375 61 380T61 392Q61 462 108 500T232 538Q280
538 314 524T367 481Q415 538 503 538Q592 538 636 478T681 282V237H402Q403 152 427 111T506 69Q543 69 565 99T588 181H681Q681 89 632 39T505 -12Q451 -12 411 6T346 65Q318 30 280 9T192 -12ZM204 70Q231 70 253 84T289 124T303 189V237Q255 237 218 230T159
202T137 143Q137 104 154 87T204 70ZM403 315H582Q582 384 563 420T503 457Q453 457 430 421T403 315Z" />
<glyph unicode="&#xe7;" glyph-name="ccedilla" horiz-adv-x="425" d="M224 -12Q127 -12 83 54T38 263Q38 405 83 471T222 538Q308 538 349 486T391 330H294Q294 394 278 425T222 456Q177 456 157 412T136 282V244Q136 158 156 114T224 70Q264 70 281 102T298
196H391Q391 135 373 89T318 15T224 -12ZM210 -182Q164 -182 126 -174V-125H200Q217 -125 226 -120T236 -101Q236 -89 229 -83T202 -77H169L182 11H242L235 -35Q267 -37 291 -51T316 -101Q316 -134 298 -151T256 -175T210 -182Z" />
<glyph unicode="&#xe8;" glyph-name="egrave" horiz-adv-x="456" d="M240 -12Q141 -12 90 53T39 263Q39 405 89 471T238 538Q327 538 371 478T416 282V237H137Q138 152 163 111T241 69Q278 69 300 99T323 181H416Q416 89 367 39T240 -12ZM138 315H318Q318 384
298 420T238 457Q188 457 165 421T138 315ZM208 591L100 720L101 723H200L286 591H208Z" />
<glyph unicode="&#xe9;" glyph-name="eacute" horiz-adv-x="456" d="M240 -12Q141 -12 90 53T39 263Q39 405 89 471T238 538Q327 538 371 478T416 282V237H137Q138 152 163 111T241 69Q278 69 300 99T323 181H416Q416 89 367 39T240 -12ZM138 315H318Q318 384
298 420T238 457Q188 457 165 421T138 315ZM167 591L253 723H352L353 720L245 591H167Z" />
<glyph unicode="&#xea;" glyph-name="ecircumflex" horiz-adv-x="456" d="M240 -12Q141 -12 90 53T39 263Q39 405 89 471T238 538Q327 538 371 478T416 282V237H137Q138 152 163 111T241 69Q278 69 300 99T323 181H416Q416 89 367 39T240 -12ZM138 315H318Q318
384 298 420T238 457Q188 457 165 421T138 315ZM100 587L186 722H270L355 587H272L228 663L183 587H100Z" />
<glyph unicode="&#xeb;" glyph-name="edieresis" horiz-adv-x="456" d="M240 -12Q141 -12 90 53T39 263Q39 405 89 471T238 538Q327 538 371 478T416 282V237H137Q138 152 163 111T241 69Q278 69 300 99T323 181H416Q416 89 367 39T240 -12ZM138 315H318Q318 384
298 420T238 457Q188 457 165 421T138 315ZM261 624V723H352V624H261ZM103 624V723H194V624H103Z" />
<glyph unicode="&#xec;" glyph-name="igrave" horiz-adv-x="228" d="M67 0V526H161V0H67ZM350 591L242 720L243 723H342L428 591H350Z" />
<glyph unicode="&#xed;" glyph-name="iacute" horiz-adv-x="228" d="M67 0V526H161V0H67ZM53 591L139 723H238L239 720L131 591H53Z" />
<glyph unicode="&#xee;" glyph-name="icircumflex" horiz-adv-x="228" d="M67 0V526H161V0H67ZM242 587L328 722H412L497 587H414L370 663L325 587H242Z" />
<glyph unicode="&#xef;" glyph-name="idieresis" horiz-adv-x="228" d="M67 0V526H161V0H67ZM403 624V723H494V624H403ZM245 624V723H336V624H245Z" />
<glyph unicode="&#xf0;" glyph-name="eth" d="M235 -12Q139 -12 90 54T40 263Q40 358 63 418T126 508T219 538Q232 538 245 535T269 527L270 529Q260 549 247 567T219 605L98 595V659L170 665Q158 680 146 693T121 719L123 723H223Q234 712 246 700T270 674L391
686V622L319 615Q367 547 398 461T430 263Q430 121 381 55T235 -12ZM235 70Q285 70 308 114T332 244V282Q332 368 308 412T235 456Q186 456 163 412T139 282V244Q139 158 162 114T235 70Z" />
<glyph unicode="&#xf1;" glyph-name="ntilde" d="M58 0V526H132L144 464H150Q171 500 204 519T279 538Q338 538 375 502T412 376V0H318V361Q318 415 298 434T245 454Q208 454 180 418T152 322V0H58ZM82 613Q82 638 91 663T120 705T171 723Q194 723 213 715T252
699T292 690Q306 690 315 697T327 723H388Q388 699 379 674T350 631T298 613Q277 613 257 621T218 638T178 646Q164 646 155 639T143 613H82Z" />
<glyph unicode="&#xf2;" glyph-name="ograve" d="M235 -12Q139 -12 90 54T40 263Q40 405 89 471T235 538Q331 538 380 472T430 263Q430 121 381 55T235 -12ZM235 70Q285 70 308 114T332 244V282Q332 368 309 412T235 456Q186 456 163 412T139 282V244Q139 158
162 114T235 70ZM215 591L107 720L108 723H207L293 591H215Z" />
<glyph unicode="&#xf3;" glyph-name="oacute" d="M235 -12Q139 -12 90 54T40 263Q40 405 89 471T235 538Q331 538 380 472T430 263Q430 121 381 55T235 -12ZM235 70Q285 70 308 114T332 244V282Q332 368 309 412T235 456Q186 456 163 412T139 282V244Q139 158
162 114T235 70ZM173 591L259 723H358L359 720L251 591H173Z" />
<glyph unicode="&#xf4;" glyph-name="ocircumflex" d="M235 -12Q139 -12 90 54T40 263Q40 405 89 471T235 538Q331 538 380 472T430 263Q430 121 381 55T235 -12ZM235 70Q285 70 308 114T332 244V282Q332 368 309 412T235 456Q186 456 163 412T139 282V244Q139
158 162 114T235 70ZM107 587L193 722H277L362 587H279L235 663L190 587H107Z" />
<glyph unicode="&#xf5;" glyph-name="otilde" d="M235 -12Q139 -12 90 54T40 263Q40 405 89 471T235 538Q331 538 380 472T430 263Q430 121 381 55T235 -12ZM235 70Q285 70 308 114T332 244V282Q332 368 309 412T235 456Q186 456 163 412T139 282V244Q139 158
162 114T235 70ZM82 613Q82 638 91 663T120 705T171 723Q194 723 213 715T252 699T292 690Q306 690 315 697T327 723H388Q388 699 379 674T350 631T298 613Q277 613 257 621T218 638T178 646Q164 646 155 639T143 613H82Z" />
<glyph unicode="&#xf6;" glyph-name="odieresis" d="M235 -12Q139 -12 90 54T40 263Q40 405 89 471T235 538Q331 538 380 472T430 263Q430 121 381 55T235 -12ZM235 70Q285 70 308 114T332 244V282Q332 368 309 412T235 456Q186 456 163 412T139 282V244Q139 158
162 114T235 70ZM268 624V723H359V624H268ZM110 624V723H201V624H110Z" />
<glyph unicode="&#xf7;" glyph-name="divide" horiz-adv-x="549" d="M40 210V300H508V210H40ZM229 48V144H319V48H229ZM229 366V463H319V366H229Z" />
<glyph unicode="&#xf8;" glyph-name="oslash" d="M235 -12Q139 -12 90 54T40 263Q40 405 89 471T235 538Q331 538 380 472T430 263Q430 121 381 55T235 -12ZM235 70Q285 70 308 114T332 244V282Q332 368 309 412T235 456Q186 456 163 412T139 282V244Q139 158
162 114T235 70ZM44 -32L365 558H426L105 -32H44Z" />
<glyph unicode="&#xf9;" glyph-name="ugrave" d="M192 -12Q132 -12 95 24T58 150V526H152V165Q152 111 172 92T225 72Q263 72 290 107T318 203V526H412V0H338L326 62H320Q299 26 266 7T192 -12ZM215 591L107 720L108 723H207L293 591H215Z" />
<glyph unicode="&#xfa;" glyph-name="uacute" d="M192 -12Q132 -12 95 24T58 150V526H152V165Q152 111 172 92T225 72Q263 72 290 107T318 203V526H412V0H338L326 62H320Q299 26 266 7T192 -12ZM173 591L259 723H358L359 720L251 591H173Z" />
<glyph unicode="&#xfb;" glyph-name="ucircumflex" d="M192 -12Q132 -12 95 24T58 150V526H152V165Q152 111 172 92T225 72Q263 72 290 107T318 203V526H412V0H338L326 62H320Q299 26 266 7T192 -12ZM107 587L193 722H277L362 587H279L235 663L190 587H107Z" />
<glyph unicode="&#xfc;" glyph-name="udieresis" d="M192 -12Q132 -12 95 24T58 150V526H152V165Q152 111 172 92T225 72Q263 72 290 107T318 203V526H412V0H338L326 62H320Q299 26 266 7T192 -12ZM268 624V723H359V624H268ZM110 624V723H201V624H110Z" />
<glyph unicode="&#xfd;" glyph-name="yacute" horiz-adv-x="425" d="M105 -182Q82 -182 66 -180T40 -174V-106H77Q108 -106 134 -83T174 0L8 526H110L196 233Q199 220 203 205T211 175T218 147T223 126H227Q229 134 231 146T237 174T243 205T251 234L322 526H417L280
27Q265 -30 242 -77T185 -153T105 -182ZM151 591L237 723H336L337 720L229 591H151Z" />
<glyph unicode="&#xfe;" glyph-name="thorn" d="M58 -173V723H152V476L155 475Q173 505 202 521T265 538Q341 538 385 472T430 262Q430 167 409 106T352 17T271 -12Q232 -12 202 4T157 49H152V-173H58ZM242 72Q288 72 310 113T332 244V282Q332 371 310 412T242
454Q196 454 174 411T152 282V245Q152 160 174 116T242 72Z" />
<glyph unicode="&#xff;" glyph-name="ydieresis" horiz-adv-x="425" d="M105 -182Q82 -182 66 -180T40 -174V-106H77Q108 -106 134 -83T174 0L8 526H110L196 233Q199 220 203 205T211 175T218 147T223 126H227Q229 134 231 146T237 174T243 205T251 234L322 526H417L280
27Q265 -30 242 -77T185 -153T105 -182ZM245 624V723H336V624H245ZM87 624V723H178V624H87Z" />
<glyph unicode="&#x2013;" glyph-name="endash" horiz-adv-x="456" d="M0 229V311H455V229H0Z" />
<glyph unicode="&#x2014;" glyph-name="emdash" horiz-adv-x="820" d="M0 229V311H820V229H0Z" />
<glyph unicode="&#x2018;" glyph-name="quoteleft" horiz-adv-x="197" d="M42 435V542L96 686H154L110 552H154V435H42Z" />
<glyph unicode="&#x2019;" glyph-name="quoteright" horiz-adv-x="197" d="M42 435L87 569H42V686H154V579L101 435H42Z" />
<glyph unicode="&#x201a;" glyph-name="quotesinglbase" horiz-adv-x="197" d="M40 -134L84 0H40V117H152V10L98 -134H40Z" />
<glyph unicode="&#x201c;" glyph-name="quotedblleft" horiz-adv-x="316" d="M174 435V542L227 686H286L241 552H286V435H174ZM29 435V542L83 686H141L96 552H141V435H29Z" />
<glyph unicode="&#x201d;" glyph-name="quotedblright" horiz-adv-x="316" d="M175 435L220 569H175V686H287V579L234 435H175ZM31 435L75 569H31V686H143V579L89 435H31Z" />
<glyph unicode="&#x201e;" glyph-name="quotedblbase" horiz-adv-x="316" d="M175 -134L220 0H175V117H287V10L234 -134H175ZM31 -134L75 0H31V117H143V10L89 -134H31Z" />
<glyph unicode="&#x2022;" glyph-name="bullet" horiz-adv-x="287" d="M143 228Q112 228 87 244T46 286T31 344Q31 376 46 402T86 443T143 459Q175 459 200 444T241 402T256 344Q256 313 241 287T201 244T143 228Z" />
<glyph unicode="&#x2039;" glyph-name="guilsinglleft" horiz-adv-x="273" d="M165 126L26 326L165 526H243L131 326L243 126H165Z" />
<glyph unicode="&#x203a;" glyph-name="guilsinglright" horiz-adv-x="273" d="M30 126L142 326L30 526H108L247 326L108 126H30Z" />
</font>
</defs>
</svg>
