<?xml version="1.0" standalone="no"?>
<!DOCTYPE svg PUBLIC "-//W3C//DTD SVG 1.1//EN" "http://www.w3.org/Graphics/SVG/1.1/DTD/svg11.dtd">
<svg xmlns="http://www.w3.org/2000/svg">
<defs >
<font id="Archivo" horiz-adv-x="575" ><font-face
    font-family="Archivo Light"
    units-per-em="1000"
    panose-1="0 0 0 0 0 0 0 0 0 0"
    ascent="878"
    descent="-210"
    alphabetic="0" />
<glyph unicode=" " glyph-name="space" horiz-adv-x="214" />
<glyph unicode="!" glyph-name="exclam" horiz-adv-x="264" d="M108 177L89 686H175L156 177H108ZM90 0V94H174V0H90Z" />
<glyph unicode="&quot;" glyph-name="quotedbl" horiz-adv-x="341" d="M66 412L53 539V686H130V539L115 412H66ZM215 412L202 539V686H279V539L264 412H215Z" />
<glyph unicode="#" glyph-name="numbersign" horiz-adv-x="581" d="M67 -12L111 185H25V249H125L162 416H69V480H177L226 698H295L246 480H406L455 698H524L475 480H556V416H461L424 249H512V185H410L366 -12H296L340 185H180L136 -12H67ZM194 249H354L392 416H232L194
249Z" />
<glyph unicode="$" glyph-name="dollar" horiz-adv-x="495" d="M226 -49V723H275V-49H226ZM245 67Q193 67 153 77T87 108T47 158T33 225Q33 229 33 234T34 242H105Q104 237 104 234T104 227Q105 189 123 167T174 137T250 128Q287 128 316 138T363 168T381 217Q381
254 359 273T300 303T225 325Q193 334 162 344T106 371T65 412T50 475Q50 508 63 534T102 579T165 607T249 617Q301 617 338 606T398 574T432 528T443 474Q443 469 443 464T442 456H371V469Q371 489 361 509T324 543T245 557Q214 557 192 552T154 536T131 512T123
478Q123 449 141 434T190 410T254 389Q288 378 323 367T389 340T437 298T455 228Q455 188 439 158T395 108T329 77T245 67Z" />
<glyph unicode="%" glyph-name="percent" horiz-adv-x="943" d="M190 0L682 686H754L262 0H190ZM240 337Q195 337 162 353T111 409T93 517Q93 587 110 626T161 681T240 698Q286 698 318 682T368 626T386 517Q386 448 369 409T319 353T240 337ZM240 389Q288 389
303 421T319 513V521Q319 561 313 589T289 631T240 646Q194 646 178 614T161 521V513Q161 453 177 421T240 389ZM705 -12Q659 -12 626 4T576 60T558 168Q558 238 575 277T626 332T705 349Q751 349 783 333T833 277T850 168Q850 99 833 60T784 4T705 -12ZM705 40Q752
40 768 72T784 164V172Q784 212 778 240T754 282T705 297Q658 297 642 265T626 172V164Q626 104 642 72T705 40Z" />
<glyph unicode="&amp;" glyph-name="ampersand" horiz-adv-x="675" d="M299 -12Q225 -12 169 11T80 79T48 184Q48 252 81 294T164 352V356Q121 378 92 414T63 510Q63 571 93 613T179 676T309 698Q382 698 437 675T525 610T557 510V496H485V505Q483 551 460 579T397
621T307 635Q276 635 246 629T191 608T152 569T137 509Q137 465 158 436T215 393T291 379H351V319H293Q250 319 211 308T148 269T123 188Q123 139 146 109T212 65T308 51Q368 51 407 66T465 111T485 188V379H639V317H557V191Q557 124 528 79T442 11T299 -12Z" />
<glyph unicode="&apos;" glyph-name="quotesingle" horiz-adv-x="192" d="M66 412L53 539V686H130V539L115 412H66Z" />
<glyph unicode="(" glyph-name="parenleft" horiz-adv-x="354" d="M255 -157Q169 -65 122 51T75 290Q75 412 122 528T255 735H302Q260 675 226 603T171 451T150 290Q150 208 170 129T225 -23T302 -157H255Z" />
<glyph unicode=")" glyph-name="parenright" horiz-adv-x="354" d="M99 735Q186 643 232 527T279 288Q279 166 233 51T99 -157H53Q95 -96 129 -24T184 127T204 288Q204 370 184 449T130 602T53 735H99Z" />
<glyph unicode="*" glyph-name="asterisk" horiz-adv-x="407" d="M172 334L183 474L76 395L44 451L162 510L44 570L76 626L183 546L172 686H236L225 546L331 626L363 570L245 510L363 451L331 395L225 474L236 334H172Z" />
<glyph unicode="+" glyph-name="plus" horiz-adv-x="620" d="M277 0V222H74V288H277V511H342V288H546V222H342V0H277Z" />
<glyph unicode="," glyph-name="comma" horiz-adv-x="266" d="M78 -139V-103Q96 -99 107 -85T123 -49T128 0H90V94H174V11Q174 -46 159 -77T121 -121T78 -139Z" />
<glyph unicode="-" glyph-name="hyphen" horiz-adv-x="333" d="M40 232V310H293V232H40Z" />
<glyph unicode="." glyph-name="period" horiz-adv-x="266" d="M91 0V94H175V0H91Z" />
<glyph unicode="/" glyph-name="slash" horiz-adv-x="292" d="M0 -49L230 735H292L62 -49H0Z" />
<glyph unicode="0" glyph-name="zero" horiz-adv-x="572" d="M286 -12Q231 -12 187 5T112 62T65 170T48 343Q48 447 64 515T111 624T186 681T286 698Q342 698 386 681T460 624T507 516T524 343Q524 239 508 171T461 62T386 5T286 -12ZM286 49Q349 49 383 80T433
171T448 321V364Q448 454 433 514T384 606T286 637Q224 637 189 606T139 515T124 365V322Q124 233 138 172T188 80T286 49Z" />
<glyph unicode="1" glyph-name="one" horiz-adv-x="496" d="M52 0V63H230V559H52V606Q92 608 131 615T206 639T272 689H302V63H470V0H52Z" />
<glyph unicode="2" glyph-name="two" horiz-adv-x="563" d="M49 0V27Q49 68 65 102T110 166T174 222T246 275Q299 311 342 346T412 422T439 513Q439 550 422 577T373 620T292 636Q232 636 197 615T147 561T131 491V450H60Q59 455 58 465T57 490Q57 564 90 609T178
676T297 698Q348 698 388 685T456 647T499 587T514 511Q514 463 498 425T451 353T381 289T295 227Q259 203 224 176T164 122T134 68H518V0H49Z" />
<glyph unicode="3" glyph-name="three" horiz-adv-x="572" d="M287 -12Q206 -12 152 12T69 80T41 187V199H113V188Q113 121 156 85T277 49Q356 49 403 82T451 189Q451 240 426 268T360 307T275 318H197V379H278Q320 379 355 392T413 434T435 513Q435 555 415 582T362
623T289 637Q246 637 210 622T152 577T131 503V490H57V505Q57 562 86 605T168 673T287 698Q352 698 402 677T481 616T510 515Q510 471 494 440T451 388T394 356V352Q451 336 488 294T526 184Q526 123 496 79T411 12T287 -12Z" />
<glyph unicode="4" glyph-name="four" horiz-adv-x="545" d="M354 0V175H27V237Q70 312 105 386T167 537T211 698H288Q275 642 257 584T216 471T171 369T130 288T99 237H354V476Q359 490 364 506T373 538T382 569T389 596H426V237H520V175H426V0H354Z" />
<glyph unicode="5" glyph-name="five" horiz-adv-x="570" d="M292 -12Q220 -12 166 15T81 92T51 213H124Q124 162 147 125T208 69T292 49Q339 49 375 68T432 125T453 224Q453 277 435 312T382 365T301 382Q269 382 239 372T184 343T144 294L76 306L105 686H492V618H169L151
383Q169 400 192 414T245 436T312 445Q373 445 421 422T499 352T528 228Q528 153 500 99T419 17T292 -12Z" />
<glyph unicode="6" glyph-name="six" horiz-adv-x="572" d="M299 -12Q240 -12 194 4T115 59T65 162T48 323Q48 428 65 499T114 615T192 678T299 698Q371 698 416 671T482 596T503 487H429Q429 538 414 571T368 620T294 637Q227 637 190 603T139 504T123 348Q141
378 169 399T234 432T308 443Q384 443 432 414T504 333T528 219Q528 150 498 98T417 17T299 -12ZM292 49Q347 49 382 72T435 135T453 220Q453 264 436 300T385 359T295 382Q241 382 205 359T150 298T132 214Q132 170 149 132T202 72T292 49Z" />
<glyph unicode="7" glyph-name="seven" horiz-adv-x="542" d="M144 0Q144 98 169 186T235 353T323 498T415 618H35V686H515V642Q476 598 436 545T358 431T290 306T243 176T225 46V0H144Z" />
<glyph unicode="8" glyph-name="eight" horiz-adv-x="573" d="M287 -12Q203 -12 150 14T73 86T49 187Q49 243 77 286T167 352Q119 377 93 418T67 510Q67 563 92 605T166 673T287 698Q359 698 407 673T480 606T505 510Q505 460 480 419T405 352Q467 329 495 286T524
187Q524 132 500 87T424 15T287 -12ZM287 49Q367 49 407 85T448 185Q448 247 408 284T287 321Q206 321 165 284T124 185Q124 122 165 86T287 49ZM287 381Q354 381 392 415T431 510Q431 571 393 604T287 637Q219 637 181 604T142 510Q142 449 180 415T287 381Z"
/>
<glyph unicode="9" glyph-name="nine" horiz-adv-x="572" d="M273 -12Q201 -12 156 15T90 91T69 199H143Q143 148 158 115T204 66T278 49Q345 49 381 83T433 182T449 338Q432 308 403 287T339 254T264 243Q189 243 141 272T68 353T44 467Q44 537 74 588T156 669T273
698Q332 698 378 682T457 627T507 524T524 363Q524 259 507 187T458 71T380 8T273 -12ZM277 304Q331 304 367 327T421 388T440 472Q440 517 423 554T370 614T280 637Q225 637 190 614T137 551T119 466Q119 422 136 386T187 327T277 304Z" />
<glyph unicode=":" glyph-name="colon" horiz-adv-x="277" d="M96 432V526H180V432H96ZM96 0V94H180V0H96Z" />
<glyph unicode=";" glyph-name="semicolon" horiz-adv-x="277" d="M85 -139V-103Q103 -99 114 -85T130 -49T135 0H97V94H181V11Q181 -46 165 -77T127 -121T85 -139ZM97 432V526H181V432H97Z" />
<glyph unicode="&lt;" glyph-name="less" horiz-adv-x="620" d="M536 6L62 210V293L536 498V426L124 252L536 78V6Z" />
<glyph unicode="=" glyph-name="equal" horiz-adv-x="620" d="M73 327V392H547V327H73ZM73 117V182H547V117H73Z" />
<glyph unicode="&gt;" glyph-name="greater" horiz-adv-x="620" d="M84 6V78L496 252L84 426V498L558 293V210L84 6Z" />
<glyph unicode="?" glyph-name="question" horiz-adv-x="562" d="M238 170V231Q238 268 250 293T282 336T324 371T365 407T397 451T410 513Q410 527 406 547T388 586T348 619T277 633Q228 633 199 617T155 576T136 529T131 492Q131 485 131 478T131 464H59Q58
467 57 475T56 497Q56 514 61 539T81 592T122 644T187 683T283 698Q335 698 371 685T430 650T465 604T482 557T487 520Q487 471 474 438T441 382T398 342T355 309T322 273T309 223V170H238ZM231 0V94H315V0H231Z" />
<glyph unicode="@" glyph-name="at" horiz-adv-x="1008" d="M477 -153Q347 -153 252 -110T106 26T54 262Q54 381 91 464T191 598T338 673T514 697Q609 697 689 676T828 609T921 493T954 320Q954 253 940 203T903 119T850 63T791 33T733 23Q694 23 672 33T641 60T630
99H624Q606 74 580 57T520 30T451 21Q422 21 395 28T346 50T312 90T299 152Q299 202 323 233T392 282T496 306T626 313V374Q626 403 616 423T579 455T504 466Q458 466 433 455T396 425T385 383V368H322Q321 373 321 377T321 389Q321 434 345 463T412 506T513 521Q571
521 611 505T672 458T693 383V120Q693 98 703 88T740 77Q778 77 814 100T873 177T897 321Q897 436 848 507T713 612T513 646Q390 646 300 604T160 477T110 261Q110 81 199 -10T477 -101Q503 -101 537 -97T605 -87T657 -71V-126Q635 -134 602 -140T535 -149T477
-153ZM464 76Q495 76 523 86T575 113T612 156T626 212V260Q541 260 484 251T397 219T368 155Q368 128 380 111T415 85T464 76Z" />
<glyph unicode="A" glyph-name="A" horiz-adv-x="669" d="M8 0L281 686H387L661 0H576L504 181H160L89 0H8ZM187 249H477L387 478Q384 486 378 502T365 538T350 580T335 618H328Q322 599 313 573T294 522T277 478L187 249Z" />
<glyph unicode="B" glyph-name="B" horiz-adv-x="695" d="M91 0V686H436Q496 686 538 666T604 609T627 521Q627 482 614 449T576 394T518 360V356Q553 348 582 328T628 274T646 186Q646 118 619 77T544 18T436 0H91ZM170 68H441Q497 68 531 96T566 193Q566 236
551 264T507 305T434 318H170V68ZM170 386H424Q460 386 487 400T531 442T547 504Q547 562 516 590T432 618H170V386Z" />
<glyph unicode="C" glyph-name="C" horiz-adv-x="732" d="M379 -12Q274 -12 202 27T92 145T54 343Q54 521 140 609T381 698Q470 698 537 670T643 585T682 441H602Q602 506 575 547T499 609T380 630Q306 630 251 601T166 511T136 350V329Q136 232 166 172T251 84T381
56Q450 56 500 76T577 138T604 245H682Q682 157 643 100T535 16T379 -12Z" />
<glyph unicode="D" glyph-name="D" horiz-adv-x="737" d="M91 0V686H338Q448 686 524 651T641 540T682 343Q682 224 642 148T525 36T338 0H91ZM170 68H335Q396 68 445 82T529 128T582 210T600 331V352Q600 425 582 475T530 557T446 603T335 618H170V68Z" />
<glyph unicode="E" glyph-name="E" horiz-adv-x="679" d="M91 0V686H616V618H170V386H572V317H170V68H622V0H91Z" />
<glyph unicode="F" glyph-name="F" horiz-adv-x="614" d="M91 0V686H574V618H170V381H538V313H170V0H91Z" />
<glyph unicode="G" glyph-name="G" horiz-adv-x="797" d="M398 -12Q229 -12 143 75T57 343Q57 460 96 539T213 658T405 698Q476 698 532 683T629 637T691 560T713 452H633Q633 501 616 535T568 590T495 621T405 630Q343 630 294 615T210 566T157 480T139 353V332Q139
233 170 172T258 84T396 56Q481 56 533 79T610 151T634 275V290H381V357H713V0H652L642 92Q617 55 579 32T494 -1T398 -12Z" />
<glyph unicode="H" glyph-name="H" horiz-adv-x="737" d="M91 0V686H170V385H568V686H647V0H568V316H170V0H91Z" />
<glyph unicode="I" glyph-name="I" horiz-adv-x="260" d="M91 0V686H170V0H91Z" />
<glyph unicode="J" glyph-name="J" horiz-adv-x="547" d="M244 -12Q178 -12 131 10T59 76T34 184V210H113V177Q113 119 147 88T244 56Q309 56 344 97T379 221V686H458V228Q458 147 433 94T359 14T244 -12Z" />
<glyph unicode="K" glyph-name="K" horiz-adv-x="646" d="M91 0V686H170V302L539 686H639L379 414L650 0H555L323 357L170 208V0H91Z" />
<glyph unicode="L" glyph-name="L" horiz-adv-x="520" d="M91 0V686H170V69H509V0H91Z" />
<glyph unicode="M" glyph-name="M" horiz-adv-x="849" d="M91 0V686H211L390 211Q396 194 402 175T413 138T422 108H428Q432 122 438 141T449 178T460 211L639 686H758V0H679V427Q679 452 680 483T681 545T682 591H675Q671 576 665 556T652 514T639 475L455 0H391L208
475Q202 491 196 510T184 550T172 591H165Q166 571 166 541T167 481T168 427V0H91Z" />
<glyph unicode="N" glyph-name="N" horiz-adv-x="737" d="M91 0V686H168L519 212Q525 205 533 193T550 169T565 146H570Q570 163 570 179T570 212V686H647V0H578L220 484Q213 494 198 515T172 552H168Q168 535 168 519T168 484V0H91Z" />
<glyph unicode="O" glyph-name="O" horiz-adv-x="791" d="M395 -12Q289 -12 213 27T95 146T54 343Q54 462 95 540T212 658T395 698Q502 698 578 659T695 541T736 343Q736 225 696 146T579 28T395 -12ZM395 56Q454 56 502 71T584 121T636 207T655 332V353Q655 427
637 479T584 565T502 614T395 630Q336 630 289 615T207 565T155 479T136 353V332Q136 259 154 207T207 121T288 72T395 56Z" />
<glyph unicode="P" glyph-name="P" horiz-adv-x="663" d="M91 0V686H427Q497 686 542 660T610 587T633 482Q633 421 607 373T535 299T429 272H170V0H91ZM170 340H423Q481 340 517 377T553 481Q553 524 539 554T495 601T423 618H170V340Z" />
<glyph unicode="Q" glyph-name="Q" horiz-adv-x="791" d="M583 -130L456 -8Q442 -10 427 -11T395 -12Q289 -12 213 27T95 146T54 343Q54 462 95 540T212 658T395 698Q502 698 578 659T695 541T736 343Q736 211 685 129T541 11L686 -130H583ZM395 56Q454 56 502
71T584 121T636 207T655 332V353Q655 427 637 479T584 565T502 614T395 630Q336 630 289 615T207 565T155 479T136 353V332Q136 259 154 207T207 121T288 72T395 56Z" />
<glyph unicode="R" glyph-name="R" horiz-adv-x="732" d="M91 0V686H451Q519 686 563 661T630 591T653 491Q653 418 620 368T531 296L677 0H590L453 282H170V0H91ZM170 350H443Q504 350 539 387T574 491Q574 531 559 559T515 602T443 618H170V350Z" />
<glyph unicode="S" glyph-name="S" horiz-adv-x="675" d="M341 -12Q286 -12 234 -2T142 32T79 95T56 192Q56 197 56 201T57 211H136Q136 207 136 200T135 188Q135 144 161 115T233 71T336 56Q355 56 381 58T435 68T486 89T523 124T538 178Q538 215 518 239T466
278T391 306T305 329T220 354T145 389T93 441T73 519Q73 559 89 592T138 648T222 685T343 698Q396 698 442 687T523 653T577 594T597 508V496H519V513Q519 550 496 575T435 615T347 630Q280 630 237 617T173 580T152 527Q152 493 172 471T225 434T299 408T385 385T470
360T545 324T598 270T618 191Q618 120 583 75T485 9T341 -12Z" />
<glyph unicode="T" glyph-name="T" horiz-adv-x="599" d="M259 0V617H16V686H583V617H338V0H259Z" />
<glyph unicode="U" glyph-name="U" horiz-adv-x="735" d="M365 -12Q279 -12 218 15T123 104T90 262V686H169V246Q169 151 220 104T365 57Q460 57 513 104T567 246V686H645V262Q645 165 612 104T516 16T365 -12Z" />
<glyph unicode="V" glyph-name="V" horiz-adv-x="637" d="M269 0L10 686H95L278 194Q284 178 291 158T305 118T317 82H324Q329 97 336 116T350 156T363 193L544 686H627L367 0H269Z" />
<glyph unicode="W" glyph-name="W" horiz-adv-x="909" d="M206 0L13 686H97L225 213Q228 201 233 179T244 134T254 92H262Q265 106 268 123T275 157T282 189T288 213L406 686H509L627 213Q631 201 636 179T646 134T655 92H663Q666 106 670 123T678 156T685 188T692
213L820 686H896L703 0H605L483 473Q479 488 475 510T466 555T458 597H451Q448 579 444 556T434 510T425 473L306 0H206Z" />
<glyph unicode="X" glyph-name="X" horiz-adv-x="677" d="M12 0L289 359L37 686H134L338 419H343L543 686H636L389 360L666 0H569L340 300H335L106 0H12Z" />
<glyph unicode="Y" glyph-name="Y" horiz-adv-x="645" d="M283 0V287L10 686H99L322 357H326L548 686H635L362 287V0H283Z" />
<glyph unicode="Z" glyph-name="Z" horiz-adv-x="636" d="M34 0V43L473 618H60V686H590V644L148 68H599V0H34Z" />
<glyph unicode="[" glyph-name="bracketleft" horiz-adv-x="275" d="M85 -161V735H265V680H153V-106H265V-161H85Z" />
<glyph unicode="\" glyph-name="backslash" horiz-adv-x="292" d="M292 -49H230L0 735H62L292 -49Z" />
<glyph unicode="]" glyph-name="bracketright" horiz-adv-x="275" d="M190 735V-161H11V-106H123V680H11V735H190Z" />
<glyph unicode="^" glyph-name="asciicircum" horiz-adv-x="620" d="M107 294L271 686H348L513 294H443L309 619L176 294H107Z" />
<glyph unicode="_" glyph-name="underscore" horiz-adv-x="475" d="M0 -125V-65H475V-125H0Z" />
<glyph unicode="`" glyph-name="grave" horiz-adv-x="177" d="M177 591H111L0 720L1 723H87L177 591Z" />
<glyph unicode="a" glyph-name="a" horiz-adv-x="539" d="M201 -12Q170 -12 140 -5T87 19T49 64T35 133Q35 187 61 221T136 275T249 302T392 309V376Q392 408 381 430T341 465T260 478Q210 478 181 465T141 432T129 386V370H60Q59 375 59 380T59 392Q59 442 85
474T159 522T269 538Q332 538 375 520T441 467T464 385V83Q464 64 471 57T492 49H534V3Q519 -3 503 -7T468 -11Q442 -11 427 0T405 31T396 75H389Q370 48 341 29T276 -1T201 -12ZM216 49Q249 49 280 60T336 90T376 137T392 197V251Q299 251 237 241T143 206T111
136Q111 106 124 87T162 58T216 49Z" />
<glyph unicode="b" glyph-name="b" horiz-adv-x="555" d="M307 -12Q253 -12 212 10T142 77H135L127 0H70V723H142V458H149Q167 487 192 504T247 530T309 538Q372 538 418 509T490 421T515 268Q515 169 491 108T420 17T307 -12ZM295 51Q339 51 371 70T422 132T440
250V275Q440 346 424 390T374 454T290 475Q263 475 237 467T189 436T155 374T142 272V254Q142 189 157 144T207 75T295 51Z" />
<glyph unicode="c" glyph-name="c" horiz-adv-x="505" d="M262 -12Q189 -12 139 18T62 109T36 263Q36 355 62 416T139 507T266 538Q321 538 359 524T422 482T458 417T469 332H398Q398 383 385 414T342 461T264 477Q219 477 185 457T131 394T111 275V251Q111 180
129 136T181 70T264 49Q314 49 343 66T386 116T399 194H469Q469 152 458 115T423 49T359 5T262 -12Z" />
<glyph unicode="d" glyph-name="d" horiz-adv-x="555" d="M248 -12Q183 -12 136 17T65 107T40 268Q40 361 65 420T136 509T246 538Q280 538 310 530T364 505T406 458H412V723H484V0H428L420 77H413Q385 32 342 10T248 -12ZM260 51Q314 51 347 75T396 144T412 254V272Q412
334 400 374T366 436T318 466T265 475Q215 475 182 455T132 390T115 275V250Q115 176 133 133T183 70T260 51Z" />
<glyph unicode="e" glyph-name="e" horiz-adv-x="541" d="M273 -12Q198 -12 146 17T67 108T40 263Q40 358 67 418T147 508T279 538Q352 538 401 509T476 425T502 290V244H115Q115 175 134 131T188 68T276 48Q314 48 342 58T389 85T418 127T428 177H498Q498 138
484 104T442 43T372 3T273 -12ZM115 301H427Q427 351 416 384T384 438T337 468T275 477Q226 477 191 459T138 401T115 301Z" />
<glyph unicode="f" glyph-name="f" horiz-adv-x="268" d="M89 0V465H11V526H89V618Q89 646 97 672T129 714T194 731Q207 731 220 730T244 727T265 721V670H212Q186 670 174 657T161 619V526H265V465H161V0H89Z" />
<glyph unicode="g" glyph-name="g" horiz-adv-x="540" d="M160 -182Q122 -182 90 -166T38 -120T19 -51Q19 -7 42 24T102 70Q76 81 62 103T48 151Q48 185 73 209T134 242Q101 264 82 298T62 371Q62 420 85 457T154 516T271 538Q304 538 332 533T384 518Q419 531
438 555T463 610H535Q534 582 521 556T485 512T430 489Q456 465 468 435T480 371Q480 324 458 287T390 227T273 205H190Q160 205 141 194T122 155Q122 132 142 119T192 106H398Q456 106 492 67T529 -31Q529 -73 508 -107T451 -162T365 -182H160ZM176 -125H363Q389
-125 410 -114T443 -84T456 -42Q456 -4 434 19T379 42H176Q142 42 117 18T92 -42Q92 -80 116 -102T176 -125ZM271 262Q341 262 374 291T408 371Q408 422 375 451T271 481Q203 481 169 452T135 371Q135 340 150 315T195 276T271 262Z" />
<glyph unicode="h" glyph-name="h" horiz-adv-x="553" d="M70 0V723H142V458H149Q171 487 197 504T254 530T321 538Q371 538 408 522T467 468T488 367V0H416V360Q416 395 407 417T382 451T345 469T297 474Q257 474 222 456T164 402T142 311V0H70Z" />
<glyph unicode="i" glyph-name="i" horiz-adv-x="213" d="M70 634V723H142V634H70ZM70 0V526H142V0H70Z" />
<glyph unicode="j" glyph-name="j" horiz-adv-x="210" d="M70 634V723H142V634H70ZM41 -182Q31 -182 20 -181T-2 -177T-20 -172V-122H23Q47 -122 58 -110T70 -73V526H142V-73Q142 -101 134 -126T103 -166T41 -182Z" />
<glyph unicode="k" glyph-name="k" horiz-adv-x="500" d="M70 0V723H142V257L381 526H468L286 321L478 0H394L239 268L142 169V0H70Z" />
<glyph unicode="l" glyph-name="l" horiz-adv-x="213" d="M70 0V723H142V0H70Z" />
<glyph unicode="m" glyph-name="m" horiz-adv-x="859" d="M70 0V526H127L134 443H141Q163 479 189 499T246 529T312 538Q365 538 403 517T457 443H463Q484 478 510 498T567 528T634 538Q681 538 717 522T773 469T794 369V0H722V361Q722 395 714 417T690 452T655
469T612 474Q574 474 542 455T489 399T468 311V0H396V361Q396 395 388 417T365 452T331 469T289 474Q251 474 218 455T163 399T142 311V0H70Z" />
<glyph unicode="n" glyph-name="n" horiz-adv-x="553" d="M70 0V526H127L134 443H141Q163 479 191 499T251 529T321 538Q371 538 408 522T467 468T488 367V0H416V360Q416 395 407 417T382 451T345 469T297 474Q257 474 222 455T164 399T142 311V0H70Z" />
<glyph unicode="o" glyph-name="o" horiz-adv-x="556" d="M278 -12Q202 -12 149 17T68 108T40 263Q40 358 67 418T148 508T278 538Q356 538 408 509T488 419T516 263Q516 169 489 108T409 18T278 -12ZM278 49Q331 49 367 70T422 135T441 251V275Q441 346 422 390T367
456T278 477Q225 477 189 456T134 391T115 275V251Q115 180 134 136T189 70T278 49Z" />
<glyph unicode="p" glyph-name="p" horiz-adv-x="555" d="M70 -173V526H127L135 449H142Q170 494 212 516T307 538Q373 538 419 509T490 419T515 258Q515 166 490 106T419 17T309 -12Q277 -12 247 -4T192 22T149 68H142V-173H70ZM290 51Q340 51 373 71T423 136T440
250V275Q440 350 422 393T372 456T295 475Q241 475 207 452T158 383T142 271V254Q142 192 155 152T189 90T236 60T290 51Z" />
<glyph unicode="q" glyph-name="q" horiz-adv-x="555" d="M412 -173V68H406Q388 40 363 22T308 -4T246 -12Q183 -12 137 17T65 106T40 258Q40 357 64 418T136 509T248 538Q302 538 343 516T413 449H420L428 526H484V-173H412ZM265 51Q292 51 318 59T366 90T399
152T412 254V271Q412 337 397 382T348 451T260 475Q216 475 184 456T133 394T115 275V250Q115 180 131 136T181 72T265 51Z" />
<glyph unicode="r" glyph-name="r" horiz-adv-x="317" d="M70 0V526H128L134 438H141Q148 462 162 485T200 523T261 538Q275 538 287 536T305 531V465H274Q239 465 214 453T173 417T150 365T142 303V0H70Z" />
<glyph unicode="s" glyph-name="s" horiz-adv-x="495" d="M245 -12Q193 -12 153 -2T87 29T47 79T33 146Q33 150 33 154T34 163H105Q104 158 104 155T104 148Q105 109 123 88T174 57T250 48Q287 48 316 58T363 89T381 138Q381 175 359 194T300 223T225 246Q193
255 162 265T106 292T65 333T50 396Q50 429 63 455T102 499T165 528T249 538Q301 538 338 526T398 494T432 448T443 394Q443 390 443 385T442 376H371V389Q371 410 361 430T324 464T245 478Q214 478 192 473T154 457T131 433T123 399Q123 370 141 355T190 330T254
309Q288 299 323 288T389 261T437 219T455 149Q455 109 439 79T395 28T329 -2T245 -12Z" />
<glyph unicode="t" glyph-name="t" horiz-adv-x="289" d="M186 -11Q150 -11 129 2T99 38T90 89V465H19V526H90L104 672H162V526H263V465H162V102Q162 75 169 62T203 49H263V3Q253 -1 240 -4T212 -9T186 -11Z" />
<glyph unicode="u" glyph-name="u" horiz-adv-x="553" d="M232 -12Q157 -12 111 26T65 159V526H137V166Q137 131 146 109T171 75T208 57T255 52Q295 52 330 71T388 127T410 215V526H482V0H426L418 83H411Q389 47 362 27T302 -3T232 -12Z" />
<glyph unicode="v" glyph-name="v" horiz-adv-x="493" d="M211 0L16 526H92L193 251Q200 231 209 203T228 145T245 94H250Q257 116 266 144T286 202T303 251L403 526H476L281 0H211Z" />
<glyph unicode="w" glyph-name="w" horiz-adv-x="707" d="M174 0L14 526H89L173 235Q179 215 185 190T198 141T207 103H213Q217 122 223 147T234 197T244 236L316 526H395L469 236Q474 218 479 194T490 145T499 103H505Q509 120 515 144T528 192T540 235L624 526H692L533
0H462L390 282Q386 300 380 326T367 381T357 430H351Q347 412 342 386T331 333T318 281L246 0H174Z" />
<glyph unicode="x" glyph-name="x" horiz-adv-x="498" d="M15 0L205 268L22 526H110L248 326H253L391 526H473L292 271L483 0H397L249 213H245L98 0H15Z" />
<glyph unicode="y" glyph-name="y" horiz-adv-x="493" d="M105 -182Q86 -182 72 -180T48 -176V-122H87Q113 -122 137 -113T182 -78T220 0L16 526H92L200 246Q208 227 217 199T237 141T255 88H261Q265 104 271 125T285 168T298 210T310 245L403 526H476L296 9Q281
-35 264 -70T226 -130T175 -168T105 -182Z" />
<glyph unicode="z" glyph-name="z" horiz-adv-x="492" d="M34 0V43L339 465H57V526H441V485L135 61H459V0H34Z" />
<glyph unicode="{" glyph-name="braceleft" horiz-adv-x="333" d="M283 -159Q253 -159 226 -154T176 -134T141 -96T128 -35V188Q128 209 116 222T84 240T46 246V328Q65 328 84 334T115 353T128 386V611Q128 648 140 672T175 710T225 729T283 735V686Q266 686 247
681T214 663T198 626L188 396Q186 347 168 320T94 292V282Q131 282 150 270T178 235T188 178L198 -50Q199 -74 213 -87T246 -105T283 -110V-159Z" />
<glyph unicode="|" glyph-name="bar" horiz-adv-x="246" d="M91 -179V723H155V-179H91Z" />
<glyph unicode="}" glyph-name="braceright" horiz-adv-x="333" d="M51 735Q80 735 107 730T157 710T193 672T206 611V388Q206 368 218 355T250 336T287 330V248Q269 248 250 242T219 224T206 190V-35Q206 -72 193 -96T158 -134T108 -153T51 -159V-110Q67 -110
86 -105T119 -87T135 -50L145 180Q147 229 166 256T239 284V294Q203 294 183 306T155 342T145 398L135 626Q134 650 120 663T87 681T51 686V735Z" />
<glyph unicode="~" glyph-name="asciitilde" horiz-adv-x="620" d="M59 221V295Q70 311 90 327T140 356T204 368Q233 368 258 359T309 338T360 316T416 307Q447 307 475 319T525 348T561 380V305Q551 290 530 273T481 245T416 233Q388 233 362 242T311 263T260
284T204 293Q173 293 145 282T95 254T59 221Z" />
<glyph unicode="&#xa0;" glyph-name="uni00A0" horiz-adv-x="214" />
<glyph unicode="&#xa1;" glyph-name="exclamdown" horiz-adv-x="264" d="M89 -160L108 349H156L175 -160H89ZM90 432V526H174V432H90Z" />
<glyph unicode="&#xa2;" glyph-name="cent" horiz-adv-x="563" d="M256 -49V723H305V-49H256ZM280 67Q207 67 157 97T80 188T54 342Q54 434 80 495T157 586T284 617Q339 617 377 603T440 562T476 496T488 412H416Q416 462 403 494T360 541T282 556Q237 556 203
537T149 473T129 354V330Q129 259 147 215T199 149T282 128Q332 128 361 145T404 195T418 273H488Q488 231 477 194T441 129T377 84T280 67Z" />
<glyph unicode="&#xa3;" glyph-name="sterling" horiz-adv-x="564" d="M42 0V66H122V308H29V373H122V515Q122 575 147 616T217 677T318 698Q375 698 418 678T485 617T510 516V499H438V517Q438 559 423 585T380 624T318 637Q283 637 255 625T211 586T194 519V373H362V308H194L187
66H513V0H42Z" />
<glyph unicode="&#xa4;" glyph-name="currency" horiz-adv-x="564" d="M75 99L32 142L86 197Q59 229 47 268T34 350Q34 391 46 431T86 502L31 556L75 600L132 544Q163 571 201 584T281 597Q323 597 362 584T431 544L487 600L531 556L476 502Q504 472 516 432T528
350Q528 308 516 269T476 197L531 142L488 99L432 156Q402 128 363 115T281 101Q240 101 201 114T130 156L75 99ZM281 159Q333 159 375 185T443 254T469 350Q469 401 444 444T375 513T281 539Q230 539 188 513T119 444T93 350Q93 298 119 255T187 185T281 159Z"
/>
<glyph unicode="&#xa5;" glyph-name="yen" horiz-adv-x="557" d="M241 0V163H41V220H241V291H41V348H213Q202 365 187 388T164 423L10 686H96L224 458Q231 447 240 430T260 395T279 362H283Q291 376 300 393T319 429T336 458L463 686H547L395 426Q387 413 372
389T345 348H516V291H317V220H516V163H317V0H241Z" />
<glyph unicode="&#xa6;" glyph-name="brokenbar" horiz-adv-x="246" d="M91 353V723H155V353H91ZM91 -179V191H155V-179H91Z" />
<glyph unicode="&#xa7;" glyph-name="section" horiz-adv-x="563" d="M280 -182Q220 -182 179 -170T112 -138T75 -91T63 -36Q63 -32 63 -27T64 -18H141V-30Q141 -45 146 -61T167 -91T210 -113T284 -121Q329 -121 360 -110T408 -76T425 -23Q425 8 405 29T351 63T277
88T197 113T123 146T69 196T49 271Q49 303 60 329T93 376T144 411Q109 431 86 461T62 540Q62 577 77 605T120 655T189 687T284 698Q343 698 384 686T452 654T489 607T501 552Q501 548 501 543T500 534H423V546Q423 561 418 577T397 606T353 628T280 637Q236 637
204 626T156 592T139 539Q139 508 159 487T213 453T287 428T367 403T440 370T494 320T515 245Q515 213 504 187T471 140T419 105Q455 85 478 55T502 -24Q502 -60 487 -89T444 -139T374 -171T280 -182ZM359 132Q396 145 418 170T440 230Q440 268 419 291T362 330T285
357T203 383Q168 371 146 346T124 285Q124 248 145 224T201 185T277 158T359 132Z" />
<glyph unicode="&#xa8;" glyph-name="dieresis" horiz-adv-x="264" d="M0 638V720H79V638H0ZM185 638V720H264V638H185Z" />
<glyph unicode="&#xa9;" glyph-name="copyright" horiz-adv-x="746" d="M373 -12Q296 -12 231 14T119 88T45 201T18 343Q18 420 44 485T118 597T231 671T373 698Q450 698 515 672T627 598T701 485T728 343Q728 266 702 201T628 89T515 15T373 -12ZM369 131Q319
131 281 151T223 218T202 342Q202 419 222 465T280 532T369 553Q415 553 450 538T505 486T525 390H472Q472 435 459 460T423 496T369 507Q317 507 286 471T254 355V329Q254 276 268 243T308 193T369 177Q399 177 423 188T460 225T474 294H525Q525 238 505 202T450
149T369 131ZM373 29Q463 29 533 69T644 181T684 343Q684 434 644 504T534 615T373 656Q282 656 212 616T101 505T61 343Q61 252 101 181T211 70T373 29Z" />
<glyph unicode="&#xaa;" glyph-name="ordfeminine" horiz-adv-x="379" d="M134 330Q106 330 81 339T40 370T24 427Q24 464 41 487T90 524T163 542T255 547V591Q255 610 248 623T223 645T172 653Q141 653 124 645T99 625T92 596V585H41Q40 588 40 592T40 600Q40
650 78 674T178 698Q219 698 248 686T292 651T307 596V399Q307 386 312 381T326 376H354V341Q343 338 333 336T310 334Q282 334 271 349T257 388H252Q234 360 203 345T134 330ZM143 375Q170 375 196 388T238 423T255 475V503Q198 504 159 498T100 475T80 429Q80
410 88 399T111 381T143 375Z" />
<glyph unicode="&#xab;" glyph-name="guillemotleft" horiz-adv-x="540" d="M224 126L59 326L224 526H285L150 326L285 126H224ZM409 126L245 326L409 526H471L335 326L471 126H409Z" />
<glyph unicode="&#xac;" glyph-name="logicalnot" horiz-adv-x="620" d="M470 199V374H72V438H537V199H470Z" />
<glyph unicode="&#xad;" glyph-name="uni00AD" horiz-adv-x="333" d="M40 232V310H293V232H40Z" />
<glyph unicode="&#xae;" glyph-name="registered" horiz-adv-x="746" d="M373 -12Q296 -12 231 14T119 88T45 201T18 343Q18 420 44 485T118 597T231 671T373 698Q450 698 515 672T627 598T701 485T728 343Q728 266 702 201T628 89T515 15T373 -12ZM373 29Q463
29 533 69T644 181T684 343Q684 434 644 504T534 615T373 656Q282 656 212 616T101 505T61 343Q61 252 101 181T211 70T373 29ZM237 136V548H413Q475 548 506 516T537 425Q537 384 519 353T464 307L551 136H494L413 298H289V136H237ZM289 344H414Q445 344 464 365T483
426Q483 462 465 482T414 502H289V344Z" />
<glyph unicode="&#xaf;" glyph-name="overscore" horiz-adv-x="298" d="M0 644V700H298V644H0Z" />
<glyph unicode="&#xb0;" glyph-name="degree" horiz-adv-x="400" d="M201 442Q166 442 137 459T90 505T72 570Q72 606 89 635T136 681T201 698Q237 698 266 681T312 635T329 570Q329 535 312 506T266 459T201 442ZM201 485Q236 485 260 510T284 570Q284 604 260
629T201 654Q166 654 141 629T116 570Q116 536 141 511T201 485Z" />
<glyph unicode="&#xb1;" glyph-name="plusminus" horiz-adv-x="620" d="M277 120V342H74V407H277V631H342V407H546V342H342V120H277ZM74 0V66H546V0H74Z" />
<glyph unicode="&#xb2;" glyph-name="uni00B2" horiz-adv-x="341" d="M42 440V462Q42 492 57 514T97 555T146 590Q183 615 212 640T241 698Q241 721 224 735T174 750Q146 750 130 741T107 717T100 685V660H49Q48 665 47 672T46 688Q46 727 64 751T111 786T176
797Q213 797 239 785T280 751T295 697Q295 672 285 651T257 613T218 580T176 552Q152 536 132 521T105 490H297V440H42Z" />
<glyph unicode="&#xb3;" glyph-name="uni00B3" horiz-adv-x="341" d="M172 428Q106 428 73 456T39 536V547H92V536Q92 506 111 491T167 475Q191 475 209 481T238 501T248 536Q248 558 236 570T206 587T166 592H119V639H168Q187 639 203 644T229 663T239 697Q239
715 230 726T206 744T173 750Q153 750 137 744T111 724T101 692V679H46V693Q46 724 62 747T107 784T172 797Q208 797 235 786T278 753T294 698Q294 670 280 651T245 621V619Q271 608 287 587T303 534Q303 501 286 478T240 441T172 428Z" />
<glyph unicode="&#xb4;" glyph-name="acute" horiz-adv-x="177" d="M0 591L89 723H176L177 720L65 591H0Z" />
<glyph unicode="&#xb5;" glyph-name="uni00B5" horiz-adv-x="558" d="M70 -177V526H142V166Q142 131 151 109T176 75T213 57T261 52Q300 52 335 71T393 127T416 215V526H488V0H431L424 83H417Q396 47 370 26T313 -3T247 -12Q214 -12 186 -4T138 22Q140 9 141 -10T142
-44V-177H70Z" />
<glyph unicode="&#xb6;" glyph-name="paragraph" horiz-adv-x="554" d="M251 -171V250Q197 256 153 284T81 359T54 467Q54 539 84 587T167 661T282 686H507V633H443V-171H383V633H310V-171H251Z" />
<glyph unicode="&#xb7;" glyph-name="middot" horiz-adv-x="333" d="M123 308V405H210V308H123Z" />
<glyph unicode="&#xb8;" glyph-name="cedilla" horiz-adv-x="198" d="M87 -173Q65 -173 43 -171T0 -165V-130H99Q117 -130 126 -123T136 -102Q136 -90 128 -83T98 -76H44L61 11H112L104 -41Q130 -40 151 -46T185 -65T198 -101Q198 -122 189 -136T164 -158T128
-169T87 -173Z" />
<glyph unicode="&#xb9;" glyph-name="uni00B9" horiz-adv-x="341" d="M57 440V489H148V714H57V752Q80 753 100 757T140 770T174 793H202V489H286V440H57Z" />
<glyph unicode="&#xba;" glyph-name="ordmasculine" horiz-adv-x="373" d="M186 329Q136 329 102 349T49 410T31 514Q31 577 49 617T103 678T189 698Q239 698 273 678T325 618T343 514Q343 451 325 410T271 349T186 329ZM187 375Q238 375 262 406T287 505V521Q287
589 262 620T187 651Q138 651 113 620T88 522V505Q88 439 112 407T187 375Z" />
<glyph unicode="&#xbb;" glyph-name="guillemotright" horiz-adv-x="540" d="M316 526L481 326L316 126H254L390 326L254 526H316ZM130 526L295 326L130 126H69L204 326L69 526H130Z" />
<glyph unicode="&#xbc;" glyph-name="onequarter" horiz-adv-x="841" d="M120 -12L666 698H728L182 -12H120ZM57 340V389H148V614H57V652Q80 653 100 657T140 670T174 693H202V389H286V340H57ZM673 0V81H506V123Q537 177 560 234T598 356H657Q649 322 637 288T612
222T587 167T564 128H673V233Q677 243 680 254T686 276T692 298H725V128H773V81H725V0H673Z" />
<glyph unicode="&#xbd;" glyph-name="onehalf" horiz-adv-x="841" d="M120 -12L666 698H728L182 -12H120ZM529 0V22Q529 52 544 74T584 115T633 150Q670 175 699 200T728 258Q728 281 711 295T661 310Q633 310 617 301T594 277T587 245V220H536Q535 225 534 232T533
248Q533 287 551 311T598 346T663 357Q700 357 727 345T768 311T782 257Q782 232 772 211T744 173T705 140T663 112Q639 96 619 81T592 50H784V0H529ZM57 340V389H148V614H57V652Q80 653 100 657T140 670T174 693H202V389H286V340H57Z" />
<glyph unicode="&#xbe;" glyph-name="threequarters" horiz-adv-x="841" d="M120 -12L666 698H728L182 -12H120ZM172 328Q106 328 73 356T39 436V447H92V436Q92 406 111 391T167 375Q191 375 209 381T238 401T248 436Q248 458 236 470T206 487T166 492H119V539H168Q187
539 203 544T229 563T239 597Q239 615 230 626T206 644T173 650Q153 650 137 644T111 624T101 592V579H46V593Q46 624 62 647T107 684T172 697Q208 697 235 686T278 653T294 598Q294 570 280 551T245 521V519Q271 508 287 487T303 434Q303 401 286 378T240 341T172
328ZM673 0V81H506V123Q537 177 560 234T598 356H657Q649 322 637 288T612 222T587 167T564 128H673V233Q677 243 680 254T686 276T692 298H725V128H773V81H725V0H673Z" />
<glyph unicode="&#xbf;" glyph-name="questiondown" horiz-adv-x="562" d="M280 -173Q227 -173 191 -160T132 -124T97 -78T80 -32T75 5Q75 55 88 88T121 143T164 183T207 216T241 252T254 303V355H324V294Q324 258 312 233T280 189T239 154T197 119T165 75T152
12Q152 -2 156 -22T174 -61T214 -94T285 -107Q334 -107 363 -91T407 -51T427 -4T432 33Q432 42 432 49T431 62H503Q505 58 506 49T507 28Q507 11 501 -14T481 -67T441 -118T376 -157T280 -173ZM247 432V525H331V432H247Z" />
<glyph unicode="&#xc0;" glyph-name="Agrave" horiz-adv-x="669" d="M8 0L281 686H387L661 0H576L504 181H160L89 0H8ZM187 249H477L387 478Q384 486 378 502T365 538T350 580T335 618H328Q322 599 313 573T294 522T277 478L187 249ZM376 736H308L196 865L197
868H287L376 736Z" />
<glyph unicode="&#xc1;" glyph-name="Aacute" horiz-adv-x="669" d="M8 0L281 686H387L661 0H576L504 181H160L89 0H8ZM187 249H477L387 478Q384 486 378 502T365 538T350 580T335 618H328Q322 599 313 573T294 522T277 478L187 249ZM300 736L389 868H479L480
865L369 736H300Z" />
<glyph unicode="&#xc2;" glyph-name="Acircumflex" horiz-adv-x="669" d="M8 0L281 686H387L661 0H576L504 181H160L89 0H8ZM187 249H477L387 478Q384 486 378 502T365 538T350 580T335 618H328Q322 599 313 573T294 522T277 478L187 249ZM192 736L297 868H372L478
736H405L316 847H354L265 736H192Z" />
<glyph unicode="&#xc3;" glyph-name="Atilde" horiz-adv-x="669" d="M8 0L281 686H387L661 0H576L504 181H160L89 0H8ZM187 249H477L387 478Q384 486 378 502T365 538T350 580T335 618H328Q322 599 313 573T294 522T277 478L187 249ZM179 772Q181 797 189 817T216
850T262 862Q288 862 312 854T360 838T405 829Q421 829 428 838T438 862H489Q489 837 480 817T452 784T405 772Q381 772 357 781T309 798T264 806Q247 806 239 797T229 772H179Z" />
<glyph unicode="&#xc4;" glyph-name="Adieresis" horiz-adv-x="669" d="M8 0L281 686H387L661 0H576L504 181H160L89 0H8ZM187 249H477L387 478Q384 486 378 502T365 538T350 580T335 618H328Q322 599 313 573T294 522T277 478L187 249ZM202 783V865H282V783H202ZM387
783V865H466V783H387Z" />
<glyph unicode="&#xc5;" glyph-name="Aring" horiz-adv-x="669" d="M8 0L281 686H387L661 0H576L504 181H160L89 0H8ZM187 249H477L387 478Q384 486 378 502T365 538T350 580T335 618H328Q322 599 313 573T294 522T277 478L187 249ZM335 730Q293 730 266 756T239
821Q239 861 266 886T335 911Q377 911 403 886T430 821Q430 782 404 756T335 730ZM335 772Q357 772 370 786T384 821Q384 842 371 855T335 869Q313 869 299 856T285 821Q285 800 299 786T335 772Z" />
<glyph unicode="&#xc6;" glyph-name="AE" horiz-adv-x="1000" d="M-2 0L350 686H937V618H473L531 386H893V317H548L611 68H943V0H547L500 185H176L82 0H-2ZM210 253H483L416 526Q414 536 411 546T406 568T401 589T396 609H389Q384 599 379 589T368 568T357 547T347
526L210 253Z" />
<glyph unicode="&#xc7;" glyph-name="Ccedilla" horiz-adv-x="732" d="M379 -12Q274 -12 202 27T92 145T54 343Q54 521 140 609T381 698Q470 698 537 670T643 585T682 441H602Q602 506 575 547T499 609T380 630Q306 630 251 601T166 511T136 350V329Q136 232 166
172T251 84T381 56Q450 56 500 76T577 138T604 245H682Q682 157 643 100T535 16T379 -12ZM382 -173Q361 -173 339 -171T296 -165V-130H394Q412 -130 422 -123T432 -102Q432 -90 424 -83T394 -76H340L357 11H407L400 -41Q426 -40 447 -46T480 -65T493 -101Q493 -122
484 -136T459 -158T424 -169T382 -173Z" />
<glyph unicode="&#xc8;" glyph-name="Egrave" horiz-adv-x="679" d="M91 0V686H616V618H170V386H572V317H170V68H622V0H91ZM403 736H334L222 865L223 868H313L403 736Z" />
<glyph unicode="&#xc9;" glyph-name="Eacute" horiz-adv-x="679" d="M91 0V686H616V618H170V386H572V317H170V68H622V0H91ZM326 736L415 868H505L506 865L395 736H326Z" />
<glyph unicode="&#xca;" glyph-name="Ecircumflex" horiz-adv-x="679" d="M91 0V686H616V618H170V386H572V317H170V68H622V0H91ZM218 736L323 868H399L504 736H431L342 847H380L291 736H218Z" />
<glyph unicode="&#xcb;" glyph-name="Edieresis" horiz-adv-x="679" d="M91 0V686H616V618H170V386H572V317H170V68H622V0H91ZM229 783V865H308V783H229ZM413 783V865H493V783H413Z" />
<glyph unicode="&#xcc;" glyph-name="Igrave" horiz-adv-x="260" d="M91 0V686H170V0H91ZM173 736H104L-8 865L-7 868H83L173 736Z" />
<glyph unicode="&#xcd;" glyph-name="Iacute" horiz-adv-x="260" d="M91 0V686H170V0H91ZM96 736L185 868H275L276 865L165 736H96Z" />
<glyph unicode="&#xce;" glyph-name="Icircumflex" horiz-adv-x="260" d="M91 0V686H170V0H91ZM-12 736L93 868H169L274 736H201L112 847H150L61 736H-12Z" />
<glyph unicode="&#xcf;" glyph-name="Idieresis" horiz-adv-x="260" d="M91 0V686H170V0H91ZM-1 783V865H78V783H-1ZM183 783V865H263V783H183Z" />
<glyph unicode="&#xd0;" glyph-name="Eth" horiz-adv-x="737" d="M0 316V380H377V316H0ZM91 0V686H338Q448 686 524 651T641 540T682 343Q682 224 642 148T525 36T338 0H91ZM170 68H335Q396 68 445 82T529 128T582 210T600 331V352Q600 425 582 475T530 557T446
603T335 618H170V68Z" />
<glyph unicode="&#xd1;" glyph-name="Ntilde" horiz-adv-x="737" d="M91 0V686H168L519 212Q525 205 533 193T550 169T565 146H570Q570 163 570 179T570 212V686H647V0H578L220 484Q213 494 198 515T172 552H168Q168 535 168 519T168 484V0H91ZM217 772Q218 797
227 817T253 850T299 862Q325 862 349 854T397 838T442 829Q459 829 466 838T475 862H527Q526 837 517 817T489 784T443 772Q418 772 394 781T346 798T301 806Q284 806 277 797T267 772H217Z" />
<glyph unicode="&#xd2;" glyph-name="Ograve" horiz-adv-x="791" d="M395 -12Q289 -12 213 27T95 146T54 343Q54 462 95 540T212 658T395 698Q502 698 578 659T695 541T736 343Q736 225 696 146T579 28T395 -12ZM395 56Q454 56 502 71T584 121T636 207T655 332V353Q655
427 637 479T584 565T502 614T395 630Q336 630 289 615T207 565T155 479T136 353V332Q136 259 154 207T207 121T288 72T395 56ZM436 736H367L256 865L257 868H347L436 736Z" />
<glyph unicode="&#xd3;" glyph-name="Oacute" horiz-adv-x="791" d="M395 -12Q289 -12 213 27T95 146T54 343Q54 462 95 540T212 658T395 698Q502 698 578 659T695 541T736 343Q736 225 696 146T579 28T395 -12ZM395 56Q454 56 502 71T584 121T636 207T655 332V353Q655
427 637 479T584 565T502 614T395 630Q336 630 289 615T207 565T155 479T136 353V332Q136 259 154 207T207 121T288 72T395 56ZM359 736L448 868H539L540 865L428 736H359Z" />
<glyph unicode="&#xd4;" glyph-name="Ocircumflex" horiz-adv-x="791" d="M395 -12Q289 -12 213 27T95 146T54 343Q54 462 95 540T212 658T395 698Q502 698 578 659T695 541T736 343Q736 225 696 146T579 28T395 -12ZM395 56Q454 56 502 71T584 121T636 207T655
332V353Q655 427 637 479T584 565T502 614T395 630Q336 630 289 615T207 565T155 479T136 353V332Q136 259 154 207T207 121T288 72T395 56ZM251 736L357 868H432L538 736H465L375 847H414L325 736H251Z" />
<glyph unicode="&#xd5;" glyph-name="Otilde" horiz-adv-x="791" d="M395 -12Q289 -12 213 27T95 146T54 343Q54 462 95 540T212 658T395 698Q502 698 578 659T695 541T736 343Q736 225 696 146T579 28T395 -12ZM395 56Q454 56 502 71T584 121T636 207T655 332V353Q655
427 637 479T584 565T502 614T395 630Q336 630 289 615T207 565T155 479T136 353V332Q136 259 154 207T207 121T288 72T395 56ZM239 772Q240 797 249 817T276 850T321 862Q347 862 371 854T419 838T465 829Q481 829 488 838T498 862H549Q548 837 539 817T511 784T465
772Q441 772 416 781T368 798T323 806Q306 806 299 797T289 772H239Z" />
<glyph unicode="&#xd6;" glyph-name="Odieresis" horiz-adv-x="791" d="M395 -12Q289 -12 213 27T95 146T54 343Q54 462 95 540T212 658T395 698Q502 698 578 659T695 541T736 343Q736 225 696 146T579 28T395 -12ZM395 56Q454 56 502 71T584 121T636 207T655
332V353Q655 427 637 479T584 565T502 614T395 630Q336 630 289 615T207 565T155 479T136 353V332Q136 259 154 207T207 121T288 72T395 56ZM262 783V865H341V783H262ZM447 783V865H526V783H447Z" />
<glyph unicode="&#xd7;" glyph-name="multiply" horiz-adv-x="620" d="M152 50L106 98L264 255L106 412L152 459L310 302L468 460L514 412L356 255L513 98L467 51L310 209L152 50Z" />
<glyph unicode="&#xd8;" glyph-name="Oslash" horiz-adv-x="791" d="M395 -12Q289 -12 213 27T95 146T54 343Q54 462 95 540T212 658T395 698Q502 698 578 659T695 541T736 343Q736 225 696 146T579 28T395 -12ZM395 56Q454 56 502 71T584 121T636 207T655 332V353Q655
427 637 479T584 565T502 614T395 630Q336 630 289 615T207 565T155 479T136 353V332Q136 259 154 207T207 121T288 72T395 56ZM62 -49L657 735H726L131 -49H62Z" />
<glyph unicode="&#xd9;" glyph-name="Ugrave" horiz-adv-x="735" d="M365 -12Q279 -12 218 15T123 104T90 262V686H169V246Q169 151 220 104T365 57Q460 57 513 104T567 246V686H645V262Q645 165 612 104T516 16T365 -12ZM409 736H340L229 865L230 868H320L409 736Z" />
<glyph unicode="&#xda;" glyph-name="Uacute" horiz-adv-x="735" d="M365 -12Q279 -12 218 15T123 104T90 262V686H169V246Q169 151 220 104T365 57Q460 57 513 104T567 246V686H645V262Q645 165 612 104T516 16T365 -12ZM332 736L421 868H512L513 865L401 736H332Z" />
<glyph unicode="&#xdb;" glyph-name="Ucircumflex" horiz-adv-x="735" d="M365 -12Q279 -12 218 15T123 104T90 262V686H169V246Q169 151 220 104T365 57Q460 57 513 104T567 246V686H645V262Q645 165 612 104T516 16T365 -12ZM224 736L330 868H405L511 736H438L348
847H387L298 736H224Z" />
<glyph unicode="&#xdc;" glyph-name="Udieresis" horiz-adv-x="735" d="M365 -12Q279 -12 218 15T123 104T90 262V686H169V246Q169 151 220 104T365 57Q460 57 513 104T567 246V686H645V262Q645 165 612 104T516 16T365 -12ZM235 783V865H314V783H235ZM420 783V865H499V783H420Z"
/>
<glyph unicode="&#xdd;" glyph-name="Yacute" horiz-adv-x="645" d="M283 0V287L10 686H99L322 357H326L548 686H635L362 287V0H283ZM290 736L380 868H470L471 865L359 736H290Z" />
<glyph unicode="&#xde;" glyph-name="Thorn" horiz-adv-x="674" d="M86 0V686H165V564H422Q491 564 537 537T607 464T630 359Q630 297 604 250T533 176T427 149H165V0H86ZM165 217H420Q479 217 515 255T551 359Q551 401 537 431T493 478T420 495H165V217Z" />
<glyph unicode="&#xdf;" glyph-name="germandbls" horiz-adv-x="616" d="M81 0V518Q81 576 100 617T152 685T227 723T318 735Q373 735 414 722T484 686T526 630T541 560Q541 502 509 458T419 395V391Q488 376 528 328T568 206Q568 138 540 92T464 23T355 0H251V62H346Q389
62 422 77T474 126T493 212Q493 259 473 290T420 338T346 354H251V417H335Q371 417 400 435T447 484T465 553Q465 607 427 640T318 674Q267 674 231 657T174 605T154 518V0H81Z" />
<glyph unicode="&#xe0;" glyph-name="agrave" horiz-adv-x="539" d="M201 -12Q170 -12 140 -5T87 19T49 64T35 133Q35 187 61 221T136 275T249 302T392 309V376Q392 408 381 430T341 465T260 478Q210 478 181 465T141 432T129 386V370H60Q59 375 59 380T59 392Q59
442 85 474T159 522T269 538Q332 538 375 520T441 467T464 385V83Q464 64 471 57T492 49H534V3Q519 -3 503 -7T468 -11Q442 -11 427 0T405 31T396 75H389Q370 48 341 29T276 -1T201 -12ZM216 49Q249 49 280 60T336 90T376 137T392 197V251Q299 251 237 241T143
206T111 136Q111 106 124 87T162 58T216 49ZM311 591H246L135 720L136 723H222L311 591Z" />
<glyph unicode="&#xe1;" glyph-name="aacute" horiz-adv-x="539" d="M201 -12Q170 -12 140 -5T87 19T49 64T35 133Q35 187 61 221T136 275T249 302T392 309V376Q392 408 381 430T341 465T260 478Q210 478 181 465T141 432T129 386V370H60Q59 375 59 380T59 392Q59
442 85 474T159 522T269 538Q332 538 375 520T441 467T464 385V83Q464 64 471 57T492 49H534V3Q519 -3 503 -7T468 -11Q442 -11 427 0T405 31T396 75H389Q370 48 341 29T276 -1T201 -12ZM216 49Q249 49 280 60T336 90T376 137T392 197V251Q299 251 237 241T143
206T111 136Q111 106 124 87T162 58T216 49ZM217 591L307 723H393L394 720L283 591H217Z" />
<glyph unicode="&#xe2;" glyph-name="acircumflex" horiz-adv-x="539" d="M201 -12Q170 -12 140 -5T87 19T49 64T35 133Q35 187 61 221T136 275T249 302T392 309V376Q392 408 381 430T341 465T260 478Q210 478 181 465T141 432T129 386V370H60Q59 375 59 380T59
392Q59 442 85 474T159 522T269 538Q332 538 375 520T441 467T464 385V83Q464 64 471 57T492 49H534V3Q519 -3 503 -7T468 -11Q442 -11 427 0T405 31T396 75H389Q370 48 341 29T276 -1T201 -12ZM216 49Q249 49 280 60T336 90T376 137T392 197V251Q299 251 237 241T143
206T111 136Q111 106 124 87T162 58T216 49ZM124 591L229 723H298L404 591H334L244 702H283L194 591H124Z" />
<glyph unicode="&#xe3;" glyph-name="atilde" horiz-adv-x="539" d="M201 -12Q170 -12 140 -5T87 19T49 64T35 133Q35 187 61 221T136 275T249 302T392 309V376Q392 408 381 430T341 465T260 478Q210 478 181 465T141 432T129 386V370H60Q59 375 59 380T59 392Q59
442 85 474T159 522T269 538Q332 538 375 520T441 467T464 385V83Q464 64 471 57T492 49H534V3Q519 -3 503 -7T468 -11Q442 -11 427 0T405 31T396 75H389Q370 48 341 29T276 -1T201 -12ZM216 49Q249 49 280 60T336 90T376 137T392 197V251Q299 251 237 241T143
206T111 136Q111 106 124 87T162 58T216 49ZM108 629Q109 654 118 674T145 707T191 719Q217 719 241 711T289 694T334 685Q350 685 357 695T367 719H418Q417 694 408 674T380 641T334 629Q310 629 285 637T237 654T192 663Q175 663 168 654T158 629H108Z" />
<glyph unicode="&#xe4;" glyph-name="adieresis" horiz-adv-x="539" d="M201 -12Q170 -12 140 -5T87 19T49 64T35 133Q35 187 61 221T136 275T249 302T392 309V376Q392 408 381 430T341 465T260 478Q210 478 181 465T141 432T129 386V370H60Q59 375 59 380T59
392Q59 442 85 474T159 522T269 538Q332 538 375 520T441 467T464 385V83Q464 64 471 57T492 49H534V3Q519 -3 503 -7T468 -11Q442 -11 427 0T405 31T396 75H389Q370 48 341 29T276 -1T201 -12ZM216 49Q249 49 280 60T336 90T376 137T392 197V251Q299 251 237 241T143
206T111 136Q111 106 124 87T162 58T216 49ZM131 638V720H210V638H131ZM316 638V720H395V638H316Z" />
<glyph unicode="&#xe5;" glyph-name="aring" horiz-adv-x="539" d="M201 -12Q170 -12 140 -5T87 19T49 64T35 133Q35 187 61 221T136 275T249 302T392 309V376Q392 408 381 430T341 465T260 478Q210 478 181 465T141 432T129 386V370H60Q59 375 59 380T59 392Q59
442 85 474T159 522T269 538Q332 538 375 520T441 467T464 385V83Q464 64 471 57T492 49H534V3Q519 -3 503 -7T468 -11Q442 -11 427 0T405 31T396 75H389Q370 48 341 29T276 -1T201 -12ZM216 49Q249 49 280 60T336 90T376 137T392 197V251Q299 251 237 241T143
206T111 136Q111 106 124 87T162 58T216 49ZM264 580Q224 580 198 606T172 671Q172 711 198 736T264 761Q303 761 329 736T355 671Q355 632 329 606T264 580ZM264 620Q286 620 299 634T313 671Q313 693 300 707T264 722Q242 722 228 708T214 671Q214 649 228 635T264
620Z" />
<glyph unicode="&#xe6;" glyph-name="ae" horiz-adv-x="893" d="M211 -12Q179 -12 148 -5T91 19T50 64T35 133Q35 187 62 220T138 273T254 299T400 306V376Q400 408 388 430T347 465T262 478Q211 478 182 465T141 432T129 386V370H60Q59 375 59 380T59 392Q59
442 85 474T160 522T271 538Q339 538 385 516T451 454Q481 497 527 517T634 538Q705 538 754 510T828 428T853 293V248H474Q475 177 493 133T546 69T631 48Q669 48 696 58T742 85T770 127T780 177H850Q849 138 836 104T795 43T726 3T629 -12Q559 -12 510 15T433
97Q405 53 367 30T289 -3T211 -12ZM218 49Q253 49 285 59T343 89T384 136T400 197V248Q305 248 241 239T144 205T111 136Q111 105 125 86T163 58T218 49ZM475 305H778Q778 354 767 387T737 440T690 468T631 477Q582 477 549 460T497 404T475 305Z" />
<glyph unicode="&#xe7;" glyph-name="ccedilla" horiz-adv-x="505" d="M262 -12Q189 -12 139 18T62 109T36 263Q36 355 62 416T139 507T266 538Q321 538 359 524T422 482T458 417T469 332H398Q398 383 385 414T342 461T264 477Q219 477 185 457T131 394T111 275V251Q111
180 129 136T181 70T264 49Q314 49 343 66T386 116T399 194H469Q469 152 458 115T423 49T359 5T262 -12ZM253 -173Q232 -173 210 -171T167 -165V-130H265Q283 -130 293 -123T303 -102Q303 -90 295 -83T265 -76H211L228 11H278L271 -41Q297 -40 318 -46T351 -65T364
-101Q364 -122 355 -136T330 -158T295 -169T253 -173Z" />
<glyph unicode="&#xe8;" glyph-name="egrave" horiz-adv-x="541" d="M273 -12Q198 -12 146 17T67 108T40 263Q40 358 67 418T147 508T279 538Q352 538 401 509T476 425T502 290V244H115Q115 175 134 131T188 68T276 48Q314 48 342 58T389 85T418 127T428 177H498Q498
138 484 104T442 43T372 3T273 -12ZM115 301H427Q427 351 416 384T384 438T337 468T275 477Q226 477 191 459T138 401T115 301ZM323 591H258L146 720L147 723H234L323 591Z" />
<glyph unicode="&#xe9;" glyph-name="eacute" horiz-adv-x="541" d="M273 -12Q198 -12 146 17T67 108T40 263Q40 358 67 418T147 508T279 538Q352 538 401 509T476 425T502 290V244H115Q115 175 134 131T188 68T276 48Q314 48 342 58T389 85T418 127T428 177H498Q498
138 484 104T442 43T372 3T273 -12ZM115 301H427Q427 351 416 384T384 438T337 468T275 477Q226 477 191 459T138 401T115 301ZM229 591L318 723H405L406 720L294 591H229Z" />
<glyph unicode="&#xea;" glyph-name="ecircumflex" horiz-adv-x="541" d="M273 -12Q198 -12 146 17T67 108T40 263Q40 358 67 418T147 508T279 538Q352 538 401 509T476 425T502 290V244H115Q115 175 134 131T188 68T276 48Q314 48 342 58T389 85T418 127T428
177H498Q498 138 484 104T442 43T372 3T273 -12ZM115 301H427Q427 351 416 384T384 438T337 468T275 477Q226 477 191 459T138 401T115 301ZM135 591L240 723H310L416 591H345L256 702H294L205 591H135Z" />
<glyph unicode="&#xeb;" glyph-name="edieresis" horiz-adv-x="541" d="M273 -12Q198 -12 146 17T67 108T40 263Q40 358 67 418T147 508T279 538Q352 538 401 509T476 425T502 290V244H115Q115 175 134 131T188 68T276 48Q314 48 342 58T389 85T418 127T428 177H498Q498
138 484 104T442 43T372 3T273 -12ZM115 301H427Q427 351 416 384T384 438T337 468T275 477Q226 477 191 459T138 401T115 301ZM142 638V720H222V638H142ZM327 638V720H407V638H327Z" />
<glyph unicode="&#xec;" glyph-name="igrave" horiz-adv-x="213" d="M70 0V526H142V0H70ZM154 591H89L-22 720L-21 723H65L154 591Z" />
<glyph unicode="&#xed;" glyph-name="iacute" horiz-adv-x="213" d="M70 0V526H142V0H70ZM61 591L150 723H236L237 720L126 591H61Z" />
<glyph unicode="&#xee;" glyph-name="icircumflex" horiz-adv-x="213" d="M70 0V526H142V0H70ZM-33 591L72 723H141L247 591H177L88 702H126L37 591H-33Z" />
<glyph unicode="&#xef;" glyph-name="idieresis" horiz-adv-x="213" d="M70 0V526H142V0H70ZM-26 638V720H53V638H-26ZM159 638V720H238V638H159Z" />
<glyph unicode="&#xf0;" glyph-name="eth" horiz-adv-x="545" d="M271 -12Q195 -12 143 17T65 107T38 262Q38 354 64 414T141 505T262 536Q285 536 305 532T345 521L347 523Q328 549 307 574T262 622L122 611V662L212 669Q195 683 178 695T144 720L147 723H237Q248
716 258 708T279 692T299 675L436 686V635L350 628Q399 578 434 521T488 399T508 262Q508 166 480 106T400 17T271 -12ZM273 49Q325 49 360 70T414 134T432 250V274Q432 346 414 390T361 454T273 474Q221 474 185 454T131 390T113 274V250Q113 179 131 135T185
70T273 49Z" />
<glyph unicode="&#xf1;" glyph-name="ntilde" horiz-adv-x="553" d="M70 0V526H127L134 443H141Q163 479 191 499T251 529T321 538Q371 538 408 522T467 468T488 367V0H416V360Q416 395 407 417T382 451T345 469T297 474Q257 474 222 455T164 399T142 311V0H70ZM122
629Q124 654 132 674T159 707T205 719Q231 719 255 711T303 694T348 685Q364 685 371 695T381 719H432Q432 694 423 674T395 641T348 629Q324 629 300 637T252 654T207 663Q190 663 182 654T172 629H122Z" />
<glyph unicode="&#xf2;" glyph-name="ograve" horiz-adv-x="556" d="M278 -12Q202 -12 149 17T68 108T40 263Q40 358 67 418T148 508T278 538Q356 538 408 509T488 419T516 263Q516 169 489 108T409 18T278 -12ZM278 49Q331 49 367 70T422 135T441 251V275Q441
346 422 390T367 456T278 477Q225 477 189 456T134 391T115 275V251Q115 180 134 136T189 70T278 49ZM326 591H261L149 720L150 723H237L326 591Z" />
<glyph unicode="&#xf3;" glyph-name="oacute" horiz-adv-x="556" d="M278 -12Q202 -12 149 17T68 108T40 263Q40 358 67 418T148 508T278 538Q356 538 408 509T488 419T516 263Q516 169 489 108T409 18T278 -12ZM278 49Q331 49 367 70T422 135T441 251V275Q441
346 422 390T367 456T278 477Q225 477 189 456T134 391T115 275V251Q115 180 134 136T189 70T278 49ZM232 591L321 723H408L409 720L297 591H232Z" />
<glyph unicode="&#xf4;" glyph-name="ocircumflex" horiz-adv-x="556" d="M278 -12Q202 -12 149 17T68 108T40 263Q40 358 67 418T148 508T278 538Q356 538 408 509T488 419T516 263Q516 169 489 108T409 18T278 -12ZM278 49Q331 49 367 70T422 135T441 251V275Q441
346 422 390T367 456T278 477Q225 477 189 456T134 391T115 275V251Q115 180 134 136T189 70T278 49ZM138 591L243 723H313L418 591H348L259 702H297L208 591H138Z" />
<glyph unicode="&#xf5;" glyph-name="otilde" horiz-adv-x="556" d="M278 -12Q202 -12 149 17T68 108T40 263Q40 358 67 418T148 508T278 538Q356 538 408 509T488 419T516 263Q516 169 489 108T409 18T278 -12ZM278 49Q331 49 367 70T422 135T441 251V275Q441
346 422 390T367 456T278 477Q225 477 189 456T134 391T115 275V251Q115 180 134 136T189 70T278 49ZM123 629Q124 654 133 674T159 707T205 719Q231 719 255 711T303 694T348 685Q364 685 371 695T381 719H433Q432 694 423 674T395 641T349 629Q324 629 300 637T252
654T207 663Q190 663 183 654T173 629H123Z" />
<glyph unicode="&#xf6;" glyph-name="odieresis" horiz-adv-x="556" d="M278 -12Q202 -12 149 17T68 108T40 263Q40 358 67 418T148 508T278 538Q356 538 408 509T488 419T516 263Q516 169 489 108T409 18T278 -12ZM278 49Q331 49 367 70T422 135T441 251V275Q441
346 422 390T367 456T278 477Q225 477 189 456T134 391T115 275V251Q115 180 134 136T189 70T278 49ZM145 638V720H225V638H145ZM330 638V720H410V638H330Z" />
<glyph unicode="&#xf7;" glyph-name="divide" horiz-adv-x="620" d="M74 222V288H546V222H74ZM269 35V116H350V35H269ZM269 395V476H350V395H269Z" />
<glyph unicode="&#xf8;" glyph-name="oslash" horiz-adv-x="556" d="M278 -12Q202 -12 149 17T68 108T40 263Q40 358 67 418T148 508T278 538Q356 538 408 509T488 419T516 263Q516 169 489 108T409 18T278 -12ZM278 49Q331 49 367 70T422 135T441 251V275Q441
346 422 390T367 456T278 477Q225 477 189 456T134 391T115 275V251Q115 180 134 136T189 70T278 49ZM22 -49L474 575H533L84 -49H22Z" />
<glyph unicode="&#xf9;" glyph-name="ugrave" horiz-adv-x="553" d="M232 -12Q157 -12 111 26T65 159V526H137V166Q137 131 146 109T171 75T208 57T255 52Q295 52 330 71T388 127T410 215V526H482V0H426L418 83H411Q389 47 362 27T302 -3T232 -12ZM324 591H259L148
720L149 723H235L324 591Z" />
<glyph unicode="&#xfa;" glyph-name="uacute" horiz-adv-x="553" d="M232 -12Q157 -12 111 26T65 159V526H137V166Q137 131 146 109T171 75T208 57T255 52Q295 52 330 71T388 127T410 215V526H482V0H426L418 83H411Q389 47 362 27T302 -3T232 -12ZM230 591L319
723H406L407 720L296 591H230Z" />
<glyph unicode="&#xfb;" glyph-name="ucircumflex" horiz-adv-x="553" d="M232 -12Q157 -12 111 26T65 159V526H137V166Q137 131 146 109T171 75T208 57T255 52Q295 52 330 71T388 127T410 215V526H482V0H426L418 83H411Q389 47 362 27T302 -3T232 -12ZM136 591L242
723H311L417 591H347L257 702H296L207 591H136Z" />
<glyph unicode="&#xfc;" glyph-name="udieresis" horiz-adv-x="553" d="M232 -12Q157 -12 111 26T65 159V526H137V166Q137 131 146 109T171 75T208 57T255 52Q295 52 330 71T388 127T410 215V526H482V0H426L418 83H411Q389 47 362 27T302 -3T232 -12ZM144 638V720H223V638H144ZM329
638V720H408V638H329Z" />
<glyph unicode="&#xfd;" glyph-name="yacute" horiz-adv-x="493" d="M105 -182Q86 -182 72 -180T48 -176V-122H87Q113 -122 137 -113T182 -78T220 0L16 526H92L200 246Q208 227 217 199T237 141T255 88H261Q265 104 271 125T285 168T298 210T310 245L403 526H476L296
9Q281 -35 264 -70T226 -130T175 -168T105 -182ZM209 591L298 723H385L386 720L275 591H209Z" />
<glyph unicode="&#xfe;" glyph-name="thorn" horiz-adv-x="548" d="M70 -173V726H142V458H149Q168 487 193 504T249 530T311 538Q372 538 416 509T484 421T508 267Q508 169 484 108T415 17T306 -12Q273 -12 244 -4T191 23T148 68H142V-173H70ZM291 51Q335 51 366
70T415 132T433 250V275Q433 346 418 390T371 454T292 475Q265 475 239 467T191 437T156 376T142 275V255Q142 189 157 144T206 75T291 51Z" />
<glyph unicode="&#xff;" glyph-name="ydieresis" horiz-adv-x="493" d="M105 -182Q86 -182 72 -180T48 -176V-122H87Q113 -122 137 -113T182 -78T220 0L16 526H92L200 246Q208 227 217 199T237 141T255 88H261Q265 104 271 125T285 168T298 210T310 245L403 526H476L296
9Q281 -35 264 -70T226 -130T175 -168T105 -182ZM123 638V720H202V638H123ZM307 638V720H387V638H307Z" />
<glyph unicode="&#x2013;" glyph-name="endash" horiz-adv-x="500" d="M0 240V302H500V240H0Z" />
<glyph unicode="&#x2014;" glyph-name="emdash" horiz-adv-x="1000" d="M0 240V301H1000V240H0Z" />
<glyph unicode="&#x2018;" glyph-name="quoteleft" horiz-adv-x="219" d="M162 686V650Q144 645 134 631T118 595T112 547H151V453H66V536Q66 593 82 624T120 669T162 686Z" />
<glyph unicode="&#x2019;" glyph-name="quoteright" horiz-adv-x="219" d="M57 453V489Q75 494 86 508T102 544T107 592H69V686H153V603Q153 547 137 516T99 471T57 453Z" />
<glyph unicode="&#x201a;" glyph-name="quotesinglbase" horiz-adv-x="219" d="M57 -139V-103Q75 -99 86 -85T102 -49T107 0H69V94H153V11Q153 -46 137 -77T99 -121T57 -139Z" />
<glyph unicode="&#x201c;" glyph-name="quotedblleft" horiz-adv-x="352" d="M295 686V650Q278 645 267 631T251 595T245 547H284V453H199V536Q199 593 215 624T253 669T295 686ZM162 686V650Q144 645 134 631T118 595T112 547H151V453H66V536Q66 593 82 624T120
669T162 686Z" />
<glyph unicode="&#x201d;" glyph-name="quotedblright" horiz-adv-x="352" d="M57 453V489Q75 494 86 508T102 544T107 592H69V686H153V603Q153 547 137 516T99 471T57 453ZM191 453V489Q208 494 219 508T235 544T240 592H202V686H286V603Q286 547 271 516T233
471T191 453Z" />
<glyph unicode="&#x201e;" glyph-name="quotedblbase" horiz-adv-x="352" d="M57 -139V-103Q75 -99 86 -85T102 -49T107 0H69V94H153V11Q153 -46 137 -77T99 -121T57 -139ZM191 -139V-103Q208 -99 219 -85T235 -49T240 0H202V94H286V11Q286 -46 271 -77T233 -121T191
-139Z" />
<glyph unicode="&#x2022;" glyph-name="bullet" horiz-adv-x="374" d="M187 224Q152 224 126 239T84 281T68 343Q68 378 83 405T125 447T187 463Q222 463 249 448T291 405T307 343Q307 308 292 282T249 240T187 224Z" />
<glyph unicode="&#x2039;" glyph-name="guilsinglleft" horiz-adv-x="354" d="M224 126L59 326L224 526H285L150 326L285 126H224Z" />
<glyph unicode="&#x203a;" glyph-name="guilsinglright" horiz-adv-x="354" d="M130 526L295 326L130 126H69L204 326L69 526H130Z" />
</font>
</defs>
</svg>
