<?xml version="1.0" standalone="no"?>
<!DOCTYPE svg PUBLIC "-//W3C//DTD SVG 1.1//EN" "http://www.w3.org/Graphics/SVG/1.1/DTD/svg11.dtd">
<svg xmlns="http://www.w3.org/2000/svg">
<defs >
<font id="Archivo" horiz-adv-x="575" ><font-face
    font-family="Archivo"
    units-per-em="1000"
    panose-1="0 0 0 0 0 0 0 0 0 0"
    ascent="878"
    descent="-210"
    alphabetic="0" />
<glyph unicode=" " glyph-name="space" horiz-adv-x="196" />
<glyph unicode="!" glyph-name="exclam" horiz-adv-x="301" d="M107 201L73 686H229L194 201H107ZM80 0V140H222V0H80Z" />
<glyph unicode="&quot;" glyph-name="quotedbl" horiz-adv-x="456" d="M84 405L61 539V686H197V539L168 405H84ZM286 405L263 539V686H399V539L371 405H286Z" />
<glyph unicode="#" glyph-name="numbersign" horiz-adv-x="600" d="M62 -12L98 166H23V266H120L148 397H69V498H169L212 698H317L274 498H392L435 698H540L497 498H577V397H477L449 266H533V166H428L390 -12H285L323 166H203L167 -12H62ZM225 266H344L372 397H252L225
266Z" />
<glyph unicode="$" glyph-name="dollar" horiz-adv-x="556" d="M251 -53V730H308V-53H251ZM277 68Q222 68 178 80T103 113T56 165T39 233Q39 237 39 241T40 247H174Q174 245 174 243T174 239Q175 214 190 199T229 176T281 169Q305 169 327 173T365 190T381 221Q381
245 362 258T311 279T242 297Q208 305 174 315T113 343T68 387T51 457Q51 498 69 528T118 579T192 608T284 618Q330 618 370 609T440 581T487 535T504 473Q504 466 504 460T503 452H370V460Q370 478 359 490T328 510T278 517Q258 517 242 514T213 505T195 491T188
470Q188 453 202 443T241 425T294 410Q330 400 369 391T443 365T498 320T519 240Q519 192 501 159T449 106T372 77T277 68Z" />
<glyph unicode="%" glyph-name="percent" horiz-adv-x="973" d="M197 0L681 686H780L295 0H197ZM248 338Q195 338 158 356T101 413T81 518Q81 584 100 623T157 680T248 698Q302 698 339 681T395 624T415 518Q415 452 396 413T339 356T248 338ZM248 413Q288 413
301 439T314 510V527Q314 556 309 577T289 611T248 624Q210 624 197 597T183 527V510Q183 466 196 440T248 413ZM727 -12Q674 -12 637 6T580 63T560 168Q560 234 579 273T636 330T727 348Q781 348 818 331T875 274T894 168Q894 102 875 63T819 6T727 -12ZM727 62Q766
62 779 89T792 160V177Q792 206 787 227T768 261T727 274Q689 274 676 247T662 177V160Q662 116 675 89T727 62Z" />
<glyph unicode="&amp;" glyph-name="ampersand" horiz-adv-x="764" d="M347 -12Q258 -12 193 12T93 81T58 186Q58 255 95 296T190 353V357Q140 378 108 413T75 508Q75 568 109 610T206 675T354 698Q437 698 499 675T595 609T629 510V485H495V501Q495 531 479 550T432
580T356 590Q323 590 297 583T253 564T226 533T217 491Q217 462 232 442T271 411T325 401H400V296H322Q291 296 263 288T218 259T201 200Q201 165 218 143T268 109T349 97Q400 97 432 109T480 146T495 202V401H731V296H630V206Q630 140 599 91T505 15T347 -12Z"
/>
<glyph unicode="&apos;" glyph-name="quotesingle" horiz-adv-x="253" d="M84 405L61 539V686H197V539L168 405H84Z" />
<glyph unicode="(" glyph-name="parenleft" horiz-adv-x="364" d="M234 -158Q151 -65 107 51T62 290Q62 413 106 529T234 736H322Q284 675 253 601T205 447T188 290Q188 214 205 134T253 -21T322 -158H234Z" />
<glyph unicode=")" glyph-name="parenright" horiz-adv-x="364" d="M130 736Q213 643 257 527T302 288Q302 165 258 50T130 -158H42Q81 -97 111 -23T159 131T176 288Q176 365 159 445T112 600T42 736H130Z" />
<glyph unicode="*" glyph-name="asterisk" horiz-adv-x="407" d="M164 327L175 458L72 383L32 452L146 507L32 563L72 632L175 557L164 687H243L232 557L335 632L375 563L260 507L375 452L335 383L232 458L243 327H164Z" />
<glyph unicode="+" glyph-name="plus" horiz-adv-x="641" d="M268 0V204H79V310H268V515H373V310H563V204H373V0H268Z" />
<glyph unicode="," glyph-name="comma" horiz-adv-x="307" d="M75 -169V-111Q100 -107 117 -92T143 -52T152 0H81V143H226V14Q226 -47 205 -85T150 -143T75 -169Z" />
<glyph unicode="-" glyph-name="hyphen" horiz-adv-x="333" d="M40 210V332H293V210H40Z" />
<glyph unicode="." glyph-name="period" horiz-adv-x="307" d="M81 0V143H226V0H81Z" />
<glyph unicode="/" glyph-name="slash" horiz-adv-x="300" d="M0 -49L205 735H300L95 -49H0Z" />
<glyph unicode="0" glyph-name="zero" horiz-adv-x="595" d="M298 -12Q236 -12 189 6T111 66T64 176T48 343Q48 443 63 510T110 620T189 680T298 698Q361 698 407 680T484 620T531 511T547 343Q547 244 532 176T485 67T407 7T298 -12ZM298 96Q342 96 365 119T397
191T406 311V373Q406 446 397 494T365 567T298 591Q254 591 231 567T198 496T189 375V313Q189 240 198 192T230 120T298 96Z" />
<glyph unicode="1" glyph-name="one" horiz-adv-x="596" d="M100 0V112H264V517H99V601Q132 604 175 616T263 647T342 687H404V112H557V0H100Z" />
<glyph unicode="2" glyph-name="two" horiz-adv-x="596" d="M51 0V36Q51 81 67 118T111 186T173 245T243 299Q284 330 320 360T380 424T403 501Q403 521 393 541T362 574T304 588Q267 588 243 576T207 541T194 485V449H60Q59 454 58 463T57 485Q57 558 90 605T181
675T312 698Q378 698 422 680T494 631T532 565T544 496Q544 449 527 410T481 337T412 272T327 209Q304 193 284 178T249 150T226 123H549V0H51Z" />
<glyph unicode="3" glyph-name="three" horiz-adv-x="596" d="M300 -12Q216 -12 159 14T73 86T44 192V209H179V190Q179 146 208 121T294 96Q348 96 378 121T408 198Q408 237 392 258T351 288T295 297H234V402H294Q322 402 344 412T380 444T394 498Q394 529 382
549T347 580T295 590Q266 590 243 580T206 550T193 500V485H60V510Q60 566 89 608T173 674T298 698Q369 698 422 676T505 612T535 511Q535 472 521 442T482 392T427 357V353Q481 337 515 295T550 185Q549 125 519 81T432 13T300 -12Z" />
<glyph unicode="4" glyph-name="four" horiz-adv-x="597" d="M338 0V150H29V261Q68 323 102 392T165 538T215 698H358Q347 650 328 597T283 492T233 395T184 314T145 261H338V427Q348 446 358 468T379 514T397 561T411 604H475V261H563V150H475V0H338Z" />
<glyph unicode="5" glyph-name="five" horiz-adv-x="595" d="M299 -12Q221 -12 164 15T75 94T44 215H181Q181 180 194 153T234 111T295 96Q329 96 353 111T392 154T406 225Q406 264 393 290T355 330T297 344Q271 344 252 336T218 315T194 289L69 305L97 686H509V563H213L202
408Q213 416 231 425T275 441T337 449Q397 449 444 424T520 350T548 224Q548 151 518 98T432 17T299 -12Z" />
<glyph unicode="6" glyph-name="six" horiz-adv-x="596" d="M311 -12Q248 -12 200 6T117 63T66 166T49 324Q49 429 66 501T115 616T196 679T307 698Q383 698 433 670T508 594T533 481H398Q398 516 388 540T357 578T304 591Q257 591 233 567T200 495T190 381Q200
391 220 405T272 429T339 440Q410 440 458 412T531 333T555 217Q555 146 524 95T438 16T311 -12ZM306 96Q343 96 367 111T403 154T415 216Q415 252 403 279T367 321T306 337Q270 337 246 322T209 279T197 216Q197 181 209 154T245 111T306 96Z" />
<glyph unicode="7" glyph-name="seven" horiz-adv-x="596" d="M149 0Q149 81 168 159T222 309T298 445T386 562H46V686H555V604Q520 562 484 513T416 410T357 297T316 177T301 53V0H149Z" />
<glyph unicode="8" glyph-name="eight" horiz-adv-x="596" d="M298 -12Q211 -12 155 14T71 85T43 188Q43 246 70 286T154 351Q106 380 85 418T63 505Q63 561 90 604T170 673T298 698Q372 698 424 673T505 605T533 505Q533 457 511 418T441 351Q498 327 525 287T552
188Q552 131 525 86T441 14T298 -12ZM298 95Q351 95 380 122T410 196Q410 245 380 271T298 298Q245 298 215 272T185 196Q185 149 214 122T298 95ZM298 403Q343 403 371 427T399 497Q399 543 372 567T298 592Q251 592 224 568T197 497Q197 451 224 427T298 403Z"
/>
<glyph unicode="9" glyph-name="nine" horiz-adv-x="595" d="M289 -12Q213 -12 163 16T87 93T62 206H198Q198 171 208 146T239 109T292 96Q339 96 363 120T395 192T405 306Q396 296 376 282T325 258T257 247Q186 247 138 275T66 354T41 469Q41 541 72 592T158
670T284 698Q347 698 396 681T478 624T529 521T547 363Q547 258 530 186T481 71T400 8T289 -12ZM289 349Q326 349 350 364T386 407T398 470Q398 506 387 533T351 575T289 591Q253 591 229 575T193 532T181 470Q181 434 193 407T229 365T289 349Z" />
<glyph unicode=":" glyph-name="colon" horiz-adv-x="335" d="M95 383V526H240V383H95ZM95 0V143H240V0H95Z" />
<glyph unicode=";" glyph-name="semicolon" horiz-adv-x="335" d="M91 -169V-111Q115 -107 132 -92T158 -52T168 0H97V143H242V14Q242 -47 221 -85T166 -143T91 -169ZM97 383V526H242V383H97Z" />
<glyph unicode="&lt;" glyph-name="less" horiz-adv-x="641" d="M553 0L68 197V323L553 521V404L178 260L553 116V0Z" />
<glyph unicode="=" glyph-name="equal" horiz-adv-x="641" d="M79 311V416H563V311H79ZM79 96V201H563V96H79Z" />
<glyph unicode="&gt;" glyph-name="greater" horiz-adv-x="641" d="M88 0V116L463 260L88 404V521L573 323V197L88 0Z" />
<glyph unicode="?" glyph-name="question" horiz-adv-x="613" d="M240 204V251Q240 287 251 312T280 357T318 392T355 423T384 458T396 501Q396 512 393 526T381 553T352 575T302 584Q268 584 248 574T217 549T203 516T199 484Q199 477 199 471T200 457H63Q62
463 61 472T59 493Q59 528 69 559T100 615T152 659T223 688T312 698Q354 698 390 691T455 668T504 630T535 579T546 515Q546 471 533 441T500 388T456 348T413 315T379 279T366 233V204H240ZM232 0V140H374V0H232Z" />
<glyph unicode="@" glyph-name="at" horiz-adv-x="1001" d="M473 -154Q341 -154 245 -111T97 25T45 262Q45 382 82 465T184 600T334 675T514 699Q609 699 689 678T829 611T922 494T956 321Q956 253 941 203T902 118T847 62T783 32T720 22Q678 22 653 34T615 61T600
84H595Q579 65 559 51T510 29T444 21Q423 21 397 27T348 47T310 88T295 157Q295 205 316 237T376 288T469 316T587 324V361Q587 380 581 396T560 422T513 431Q482 431 464 423T440 403T434 380V366H320Q319 371 319 375T319 386Q319 427 343 457T411 504T512 521Q578
521 620 504T683 452T704 370V150Q704 127 715 118T746 109Q776 109 803 128T849 194T867 322Q867 428 822 493T697 590T513 621Q396 621 311 582T179 463T133 261Q133 93 216 9T475 -76Q503 -76 539 -72T610 -60T666 -44V-126Q642 -134 607 -140T535 -150T473
-154ZM481 111Q509 111 529 119T562 142T581 178T587 226V242Q539 242 500 237T438 215T414 167Q414 150 421 138T443 118T481 111Z" />
<glyph unicode="A" glyph-name="A" horiz-adv-x="724" d="M6 0L270 686H454L718 0H557L508 135H209L160 0H6ZM252 255H465L404 424Q400 435 395 450T383 485T372 522T361 556H355Q350 537 342 512T326 463T313 424L252 255Z" />
<glyph unicode="B" glyph-name="B" horiz-adv-x="722" d="M76 0V686H468Q522 686 565 665T634 606T659 517Q659 476 644 444T604 391T546 360V356Q584 348 613 326T660 270T678 188Q678 126 650 84T574 21T469 0H76ZM225 122H440Q477 122 500 143T524 208Q524
234 514 253T484 282T433 293H225V122ZM225 409H423Q450 409 468 419T496 447T506 488Q506 527 485 547T428 567H225V409Z" />
<glyph unicode="C" glyph-name="C" horiz-adv-x="733" d="M383 -12Q276 -12 200 25T85 142T45 343Q45 523 133 610T383 698Q471 698 541 668T651 578T692 427H542Q542 475 523 508T468 558T385 576Q321 576 280 551T219 478T199 359V328Q199 256 219 208T279 135T384
110Q434 110 471 127T528 177T548 258H692Q692 167 653 107T543 18T383 -12Z" />
<glyph unicode="D" glyph-name="D" horiz-adv-x="739" d="M76 0V686H356Q463 686 538 649T653 537T694 343Q694 226 654 150T538 37T356 0H76ZM225 123H355Q400 123 435 136T493 174T528 238T540 328V358Q540 409 528 447T493 511T435 550T355 564H225V123Z" />
<glyph unicode="E" glyph-name="E" horiz-adv-x="683" d="M76 0V686H624V564H226V411H578V290H226V123H630V0H76Z" />
<glyph unicode="F" glyph-name="F" horiz-adv-x="622" d="M76 0V686H582V564H225V394H544V273H225V0H76Z" />
<glyph unicode="G" glyph-name="G" horiz-adv-x="802" d="M388 -12Q226 -12 139 74T51 343Q51 464 93 542T215 659T407 698Q474 698 533 683T637 637T708 560T734 449H583Q583 480 570 504T532 544T477 568T412 576Q360 576 321 563T257 522T218 453T205 358V328Q205
253 227 205T293 134T402 110Q456 110 497 126T562 174T586 250V257H381V371H734V0H636L623 74Q593 45 559 26T482 -2T388 -12Z" />
<glyph unicode="H" glyph-name="H" horiz-adv-x="754" d="M76 0V686H225V414H529V686H678V0H529V288H225V0H76Z" />
<glyph unicode="I" glyph-name="I" horiz-adv-x="301" d="M76 0V686H225V0H76Z" />
<glyph unicode="J" glyph-name="J" horiz-adv-x="603" d="M282 -12Q203 -12 148 11T63 82T33 201V232H179V201Q179 155 204 133T281 110Q330 110 355 142T380 236V686H530V236Q530 153 501 98T417 15T282 -12Z" />
<glyph unicode="K" glyph-name="K" horiz-adv-x="725" d="M76 0V686H225V374L517 686H701L439 407L706 0H528L336 304L225 204V0H76Z" />
<glyph unicode="L" glyph-name="L" horiz-adv-x="591" d="M76 0V686H225V127H571V0H76Z" />
<glyph unicode="M" glyph-name="M" horiz-adv-x="872" d="M76 0V686H303L401 335Q407 316 413 290T425 239T436 193H444Q446 210 451 233T462 284T475 336L573 686H796V0H649V325Q649 370 649 415T651 495T653 539H645Q643 528 636 499T620 436T604 379L497 0H367L259
378Q253 399 246 427T232 486T219 539H211Q212 512 213 475T215 398T216 325V0H76Z" />
<glyph unicode="N" glyph-name="N" horiz-adv-x="754" d="M76 0V686H213L489 316Q495 309 504 297T521 272T532 253H537Q537 270 537 286T537 316V686H678V0H541L259 379Q249 393 238 410T222 436H217Q217 421 217 407T217 379V0H76Z" />
<glyph unicode="O" glyph-name="O" horiz-adv-x="793" d="M396 -12Q287 -12 208 27T87 145T45 343Q45 464 87 542T208 659T396 698Q507 698 585 660T706 543T748 343Q748 224 706 145T586 27T396 -12ZM396 110Q445 110 482 124T544 166T582 234T595 327V358Q595
411 582 452T544 520T482 562T396 576Q348 576 311 562T249 521T212 452T199 358V327Q199 275 211 235T249 166T311 124T396 110Z" />
<glyph unicode="P" glyph-name="P" horiz-adv-x="681" d="M76 0V686H433Q507 686 556 659T631 582T657 464Q657 396 631 346T553 267T428 239H225V0H76ZM225 361H408Q455 361 480 388T506 463Q506 496 495 518T463 552T408 564H225V361Z" />
<glyph unicode="Q" glyph-name="Q" horiz-adv-x="793" d="M532 -130L420 -10Q413 -11 405 -11T390 -12Q283 -12 206 27T87 146T45 343Q45 464 87 542T208 659T396 698Q507 698 585 660T706 543T748 343Q748 218 702 138T572 20L726 -130H532ZM396 110Q445 110
482 124T544 166T582 234T595 327V358Q595 411 582 452T544 520T482 562T396 576Q348 576 311 562T249 521T212 452T199 358V327Q199 275 211 235T249 166T311 124T396 110Z" />
<glyph unicode="R" glyph-name="R" horiz-adv-x="730" d="M76 0V686H452Q528 686 578 659T654 584T679 472Q679 405 649 354T562 275L702 0H537L416 250H225V0H76ZM225 368H432Q477 368 502 395T527 470Q527 500 516 521T484 554T432 565H225V368Z" />
<glyph unicode="S" glyph-name="S" horiz-adv-x="679" d="M343 -12Q283 -12 229 0T134 38T69 105T45 204Q45 209 45 214T46 223H194Q193 220 193 215T193 206Q193 174 210 152T262 119T341 108Q370 108 392 111T432 121T461 137T478 158T484 185Q484 212 467 229T419
258T350 280T272 300T194 326T126 364T78 420T60 502Q60 553 81 590T142 651T232 686T343 698Q399 698 449 687T537 650T596 587T618 497V485H473V493Q473 520 457 539T412 569T344 580Q302 580 273 572T228 549T212 512Q212 488 229 473T277 446T346 425T424 405T502
379T570 342T618 286T636 207Q636 128 598 80T494 10T343 -12Z" />
<glyph unicode="T" glyph-name="T" horiz-adv-x="641" d="M245 0V561H25V686H616V561H395V0H245Z" />
<glyph unicode="U" glyph-name="U" horiz-adv-x="748" d="M373 -12Q279 -12 212 18T108 108T72 259V686H222V263Q222 189 261 150T373 110Q446 110 485 149T525 263V686H675V259Q675 169 639 109T536 18T373 -12Z" />
<glyph unicode="V" glyph-name="V" horiz-adv-x="694" d="M260 0L12 686H173L321 248Q325 237 330 222T340 191T348 164H354Q358 175 362 189T371 219T380 247L528 686H683L434 0H260Z" />
<glyph unicode="W" glyph-name="W" horiz-adv-x="964" d="M189 0L9 686H167L267 277Q270 268 273 251T279 214T284 180H289Q291 191 292 205T296 232T301 258T305 277L398 686H576L671 277Q674 267 677 250T683 214T688 180H693Q695 191 697 204T702 230T708 256T713
277L812 686H955L774 0H604L503 422Q500 436 497 454T490 491T485 523H481Q479 509 477 490T471 453T464 422L364 0H189Z" />
<glyph unicode="X" glyph-name="X" horiz-adv-x="706" d="M9 0L256 361L33 686H215L357 469H362L503 686H674L450 361L697 0H515L350 254H345L181 0H9Z" />
<glyph unicode="Y" glyph-name="Y" horiz-adv-x="699" d="M275 0V276L9 686H182L352 410H357L526 686H689L425 276V0H275Z" />
<glyph unicode="Z" glyph-name="Z" horiz-adv-x="653" d="M28 0V64L384 564H53V686H609V622L253 123H617V0H28Z" />
<glyph unicode="[" glyph-name="bracketleft" horiz-adv-x="350" d="M102 -161V735H323V646H218V-71H323V-161H102Z" />
<glyph unicode="\" glyph-name="backslash" horiz-adv-x="300" d="M300 -49H205L0 735H95L300 -49Z" />
<glyph unicode="]" glyph-name="bracketright" horiz-adv-x="350" d="M248 735V-161H27V-72H132V645H27V735H248Z" />
<glyph unicode="^" glyph-name="asciicircum" horiz-adv-x="641" d="M103 303L263 686H378L538 303H426L320 572L216 303H103Z" />
<glyph unicode="_" glyph-name="underscore" horiz-adv-x="518" d="M0 -156V-64H518V-156H0Z" />
<glyph unicode="`" glyph-name="grave" horiz-adv-x="228" d="M228 591H119L0 720L1 723H145L228 591Z" />
<glyph unicode="a" glyph-name="a" horiz-adv-x="580" d="M203 -12Q177 -12 148 -6T92 15T50 60T33 136Q33 191 57 227T125 283T232 312T369 320V359Q369 382 362 399T336 426T284 436Q251 436 231 428T202 408T193 380V368H58Q57 373 57 377T57 389Q57 435 85
468T164 520T283 538Q356 538 405 519T481 463T508 370V131Q508 113 518 105T542 96H575V5Q565 0 544 -5T493 -11Q464 -11 442 -3T404 21T383 59H376Q359 38 335 22T278 -3T203 -12ZM250 93Q278 93 300 101T337 124T360 160T369 205V234Q313 234 269 227T200 201T174
151Q174 133 183 120T209 100T250 93Z" />
<glyph unicode="b" glyph-name="b" horiz-adv-x="608" d="M358 -12Q307 -12 265 8T196 71H189L178 0H64V723H203V468H209Q225 491 248 507T300 530T363 538Q425 538 471 509T544 420T570 264Q570 169 545 108T472 18T358 -12ZM315 102Q357 102 381 118T417 168T428
251V274Q428 324 417 357T382 407T315 424Q285 424 264 414T230 384T209 335T202 271V253Q202 206 214 172T251 120T315 102Z" />
<glyph unicode="c" glyph-name="c" horiz-adv-x="573" d="M295 -12Q211 -12 154 17T68 108T38 263Q38 358 67 418T154 509T295 539Q349 539 392 526T468 486T516 420T533 326H394Q394 362 383 385T350 420T293 432Q253 432 228 414T191 361T179 274V251Q179 200
191 165T230 113T298 95Q332 95 354 107T389 143T401 201H533Q533 150 517 110T469 43T393 2T295 -12Z" />
<glyph unicode="d" glyph-name="d" horiz-adv-x="608" d="M250 -12Q185 -12 138 17T64 108T38 264Q38 359 64 419T137 509T245 538Q279 538 308 531T360 507T399 468H405V723H544V0H430L419 71H412Q386 29 344 9T250 -12ZM294 102Q333 102 357 120T394 172T406
253V271Q406 306 400 335T379 383T344 413T294 424Q252 424 227 408T191 358T180 274V251Q180 201 191 168T227 119T294 102Z" />
<glyph unicode="e" glyph-name="e" horiz-adv-x="584" d="M303 -12Q216 -12 157 17T68 108T38 263Q38 358 68 418T156 508T300 538Q380 538 435 510T518 422T546 268V232H179Q181 186 193 154T232 107T303 91Q327 91 346 97T380 115T402 145T410 186H546Q546 136
528 99T478 38T402 1T303 -12ZM181 320H403Q403 350 396 372T375 408T344 428T302 435Q264 435 239 423T200 385T181 320Z" />
<glyph unicode="f" glyph-name="f" horiz-adv-x="325" d="M88 0V419H13V526H88V584Q88 627 102 660T149 713T234 732Q249 732 265 730T297 725T324 717V625H274Q250 625 239 613T227 578V526H324V419H227V0H88Z" />
<glyph unicode="g" glyph-name="g" horiz-adv-x="607" d="M150 -188Q115 -188 84 -174T34 -131T15 -64Q15 -20 40 6T98 46Q75 59 61 80T46 129Q46 168 74 192T140 224Q103 247 83 282T62 362Q62 419 90 458T172 517T299 538Q328 538 353 535T400 525Q437 547 450
573T465 616H594Q594 579 581 552T542 508T482 482Q508 460 522 429T536 362Q536 306 509 267T433 206T314 185H234Q210 185 198 177T186 152Q186 139 196 130T231 120H450Q516 120 555 80T595 -24Q595 -72 570 -109T501 -167T400 -188H150ZM208 -95H393Q411 -95
425 -89T447 -71T455 -44Q455 -18 439 -5T399 8H208Q184 8 169 -6T153 -43Q153 -66 168 -80T208 -95ZM299 275Q348 275 373 297T399 362Q399 404 374 426T299 449Q251 449 226 427T200 362Q200 335 211 315T244 285T299 275Z" />
<glyph unicode="h" glyph-name="h" horiz-adv-x="602" d="M64 0V723H203V468H210Q227 489 250 504T303 529T368 538Q420 538 459 519T519 459T541 352V0H402V330Q402 355 396 372T379 401T350 418T312 423Q281 423 256 408T217 367T203 307V0H64Z" />
<glyph unicode="i" glyph-name="i" horiz-adv-x="267" d="M64 603V723H203V603H64ZM64 0V526H203V0H64Z" />
<glyph unicode="j" glyph-name="j" horiz-adv-x="264" d="M64 603V723H203V603H64ZM61 -188Q47 -188 30 -186T-5 -181T-33 -172V-81H17Q40 -81 52 -69T64 -32V526H203V-43Q203 -83 190 -116T146 -168T61 -188Z" />
<glyph unicode="k" glyph-name="k" horiz-adv-x="570" d="M64 0V724H203V307L387 526H550L370 320L559 0H400L279 222L203 148V0H64Z" />
<glyph unicode="l" glyph-name="l" horiz-adv-x="267" d="M64 0V723H203V0H64Z" />
<glyph unicode="m" glyph-name="m" horiz-adv-x="891" d="M64 0V526H179L190 454H197Q214 480 237 499T290 528T354 538Q404 538 440 518T497 454H504Q521 480 545 499T600 528T666 538Q716 538 752 520T810 462T831 357V0H692V332Q692 357 687 374T671 402T646
418T614 423Q586 423 564 408T530 367T517 307V0H378V332Q378 357 373 374T357 402T333 418T300 423Q273 423 251 408T216 367T203 307V0H64Z" />
<glyph unicode="n" glyph-name="n" horiz-adv-x="602" d="M64 0V526H179L190 454H197Q215 480 240 499T298 528T368 538Q420 538 459 519T519 459T541 352V0H402V330Q402 355 396 372T379 401T350 418T312 423Q281 423 256 408T217 367T203 307V0H64Z" />
<glyph unicode="o" glyph-name="o" horiz-adv-x="613" d="M306 -12Q220 -12 160 17T69 108T38 263Q38 358 69 418T160 508T306 538Q394 538 453 509T544 419T575 263Q575 170 544 109T454 18T306 -12ZM306 96Q352 96 379 113T420 165T433 251V275Q433 326 420
361T380 413T306 431Q261 431 234 414T193 361T180 275V251Q180 200 193 165T233 113T306 96Z" />
<glyph unicode="p" glyph-name="p" horiz-adv-x="608" d="M64 -178V526H178L190 455H197Q223 498 265 518T358 538Q424 538 471 509T544 419T570 262Q570 169 544 108T472 18T363 -12Q329 -12 300 -5T248 19T209 58H203V-178H64ZM315 102Q357 102 381 118T417
168T428 251V274Q428 324 417 357T382 407T315 424Q276 424 251 406T214 354T202 272V255Q202 220 209 192T229 143T264 113T315 102Z" />
<glyph unicode="q" glyph-name="q" horiz-adv-x="608" d="M405 -178V58H399Q383 35 360 20T308 -4T245 -12Q184 -12 138 17T65 108T38 262Q38 358 64 419T137 509T250 538Q301 538 343 518T411 455H418L430 526H544V-178H405ZM294 102Q324 102 345 112T379 143T399
191T406 255V272Q406 320 394 354T358 406T294 424Q252 424 227 408T191 358T180 274V251Q180 202 191 169T227 119T294 102Z" />
<glyph unicode="r" glyph-name="r" horiz-adv-x="380" d="M64 0V526H179L190 444H197Q207 470 223 491T263 526T319 539Q336 539 350 536T371 529V403H328Q297 403 274 395T234 368T211 324T203 263V0H64Z" />
<glyph unicode="s" glyph-name="s" horiz-adv-x="556" d="M277 -12Q222 -12 178 0T103 33T56 85T39 153Q39 157 39 161T40 167H174Q174 165 174 163T174 159Q175 134 190 119T229 96T281 89Q305 89 327 93T365 110T381 141Q381 165 362 178T311 199T242 217Q208
225 174 235T113 263T68 307T51 377Q51 418 69 448T118 499T192 528T284 538Q330 538 370 529T440 501T487 455T504 393Q504 386 504 380T503 372H370V380Q370 398 359 410T328 430T278 437Q258 437 242 434T213 425T195 411T188 390Q188 373 202 363T241 345T294
330Q330 320 369 311T443 285T498 240T519 160Q519 112 501 79T449 26T372 -3T277 -12Z" />
<glyph unicode="t" glyph-name="t" horiz-adv-x="342" d="M221 -12Q171 -12 140 6T95 54T81 122V419H16V526H86L112 676H220V526H316V419H220V145Q220 121 231 109T267 96H316V4Q304 0 288 -3T254 -9T221 -12Z" />
<glyph unicode="u" glyph-name="u" horiz-adv-x="601" d="M234 -12Q154 -12 107 32T60 174V526H199V197Q199 171 205 154T222 125T251 109T289 104Q320 104 345 119T384 160T398 220V526H537V0H423L413 72H406Q387 47 362 28T304 -1T234 -12Z" />
<glyph unicode="v" glyph-name="v" horiz-adv-x="547" d="M200 0L4 526H151L228 304Q234 287 242 259T260 200T275 144H280Q287 167 295 197T311 256T326 304L403 526H543L346 0H200Z" />
<glyph unicode="w" glyph-name="w" horiz-adv-x="798" d="M167 0L2 526H148L214 268Q219 248 223 225T232 184T238 158H245Q249 178 253 199T262 240T269 270L332 526H477L542 269Q546 255 550 235T559 194T567 158H573Q575 172 579 191T588 230T597 266L662 526H796L632
0H489L431 235Q427 254 421 277T411 324T403 364H397Q397 355 393 337T384 293T370 235L310 0H167Z" />
<glyph unicode="x" glyph-name="x" horiz-adv-x="572" d="M9 0L200 273L23 526H190L290 368H295L396 526H553L375 274L563 0H399L285 179H280L166 0H9Z" />
<glyph unicode="y" glyph-name="y" horiz-adv-x="547" d="M140 -188Q103 -188 79 -183T47 -175V-81H108Q133 -81 153 -70T188 -40T210 0L4 526H151L241 283Q247 266 254 241T270 188T283 139H288Q292 153 297 172T307 211T318 249T328 282L403 526H543L364 25Q349
-19 330 -57T284 -125T223 -171T140 -188Z" />
<glyph unicode="z" glyph-name="z" horiz-adv-x="519" d="M23 0V59L280 419H39V526H481V469L223 108H491V0H23Z" />
<glyph unicode="{" glyph-name="braceleft" horiz-adv-x="393" d="M340 -159Q291 -159 252 -154T186 -134T145 -91T131 -19V186Q131 208 118 221T83 239T40 245V332Q62 332 82 337T117 356T131 391V595Q131 640 145 667T186 710T253 730T340 735V659Q321 659 300
655T264 638T248 600L240 400Q239 350 214 322T128 293V283Q168 283 192 271T227 234T240 177L248 -23Q249 -48 263 -60T299 -77T340 -82V-159Z" />
<glyph unicode="|" glyph-name="bar" horiz-adv-x="253" d="M76 -196V724H177V-196H76Z" />
<glyph unicode="}" glyph-name="braceright" horiz-adv-x="393" d="M53 735Q101 735 140 730T206 710T248 667T262 595V390Q262 369 275 356T310 337T353 331V244Q332 244 311 239T276 220T262 185V-19Q262 -63 248 -91T206 -134T140 -154T53 -159V-83Q72 -83
93 -79T129 -61T145 -24L153 176Q155 226 180 254T265 283V293Q225 293 201 305T166 342T153 399L145 599Q144 624 130 636T95 653T53 658V735Z" />
<glyph unicode="~" glyph-name="asciitilde" horiz-adv-x="641" d="M61 200V315Q73 331 94 348T146 376T211 388Q241 388 267 379T319 358T372 336T430 327Q462 327 491 338T544 367T580 400V285Q569 270 547 253T496 224T430 212Q401 212 374 221T322 242T269
264T211 273Q179 273 150 262T98 233T61 200Z" />
<glyph unicode="&#xa0;" glyph-name="uni00A0" horiz-adv-x="196" />
<glyph unicode="&#xa1;" glyph-name="exclamdown" horiz-adv-x="301" d="M72 -161L107 324H193L228 -161H72ZM80 385V526H222V385H80Z" />
<glyph unicode="&#xa2;" glyph-name="cent" horiz-adv-x="597" d="M275 -53V730H332V-53H275ZM304 68Q220 68 163 98T77 189T48 343Q48 438 77 498T164 589T304 619Q359 619 402 606T477 567T526 500T543 406H404Q404 442 393 465T359 500T302 512Q263 512 238
494T201 441T189 354V332Q189 280 201 245T239 193T307 175Q341 175 363 187T398 223T410 281H543Q543 230 526 190T478 123T403 82T304 68Z" />
<glyph unicode="&#xa3;" glyph-name="sterling" horiz-adv-x="599" d="M42 0V112H108V286H26V392H108V498Q108 563 133 607T209 675T331 698Q400 698 449 676T526 610T553 502V486H415V505Q415 531 405 549T376 578T331 588Q305 588 286 579T257 551T247 509V392H397V286H246L232
112H541V0H42Z" />
<glyph unicode="&#xa4;" glyph-name="currency" horiz-adv-x="597" d="M94 95L46 143L100 200Q76 230 64 268T51 348Q51 389 63 429T100 496L45 551L96 602L153 546Q181 570 219 583T297 596Q337 596 375 583T440 547L497 603L550 551L494 496Q519 469 531 430T543
348Q543 308 531 269T494 199L548 143L500 95L444 153Q416 126 377 113T297 100Q256 100 217 113T149 153L94 95ZM297 185Q341 185 376 207T431 267T452 348Q452 392 432 428T376 487T297 510Q254 510 219 488T163 429T142 348Q142 305 162 268T218 208T297 185Z"
/>
<glyph unicode="&#xa5;" glyph-name="yen" horiz-adv-x="595" d="M230 0V148H35V229H230V293H35V373H187Q180 386 168 406T145 445L9 686H169L263 500Q271 485 278 470T292 443T302 421H306Q311 430 317 443T330 471T344 500L435 686H585L457 453Q444 430 431
408T412 373H561V293H369V229H561V148H369V0H230Z" />
<glyph unicode="&#xa6;" glyph-name="brokenbar" horiz-adv-x="253" d="M76 343V724H177V343H76ZM76 -196V185H177V-196H76Z" />
<glyph unicode="&#xa7;" glyph-name="section" horiz-adv-x="598" d="M295 -182Q249 -182 209 -173T138 -145T90 -99T72 -37Q72 -31 72 -25T72 -18H209V-22Q209 -36 215 -47T232 -66T260 -78T298 -82Q329 -82 348 -74T378 -52T389 -24Q389 -1 371 16T323 47T257
75T186 105T120 144T72 198T54 271Q54 302 66 328T98 374T142 409Q110 432 90 463T70 538Q70 580 88 609T138 659T213 688T304 698Q350 698 390 689T461 661T509 615T527 553Q527 547 527 541T527 534H389V539Q389 552 383 562T366 581T338 593T301 597Q270 597
250 589T220 568T210 540Q210 517 228 500T276 469T342 441T413 411T478 372T526 318T545 245Q545 214 533 188T501 142T457 107Q489 84 509 53T529 -22Q529 -64 511 -93T461 -143T386 -172T295 -182ZM372 153Q390 165 402 180T415 214Q415 244 399 265T355 303T294
333T225 362Q208 351 196 336T184 301Q184 272 200 250T243 211T304 181T372 153Z" />
<glyph unicode="&#xa8;" glyph-name="dieresis" horiz-adv-x="326" d="M0 606V723H118V606H0ZM207 606V723H326V606H207Z" />
<glyph unicode="&#xa9;" glyph-name="copyright" horiz-adv-x="772" d="M386 -12Q309 -12 244 14T131 88T57 201T30 343Q30 420 57 485T131 597T244 671T386 698Q463 698 528 672T640 598T714 485T741 343Q741 266 715 201T641 89T528 15T386 -12ZM387 132Q324
132 283 154T221 224T201 343Q201 414 221 461T282 530T387 553Q444 553 481 534T536 478T554 387H468Q468 420 461 441T436 472T387 482Q336 482 313 450T290 352V334Q290 288 300 259T331 216T386 202Q417 202 436 213T463 245T472 297H554Q554 251 537 214T483
154T387 132ZM386 47Q471 47 536 85T640 191T678 344Q678 429 640 496T537 601T386 639Q301 639 235 601T131 496T93 344Q93 258 131 191T235 86T386 47Z" />
<glyph unicode="&#xaa;" glyph-name="ordfeminine" horiz-adv-x="398" d="M141 330Q118 330 93 338T50 367T32 429Q32 465 47 489T91 527T158 546T244 552V582Q244 596 240 607T224 625T192 632Q171 632 159 626T141 612T136 593V583H48Q47 585 47 590T47 598Q47
644 86 671T191 698Q237 698 268 686T316 648T333 588V424Q333 411 340 405T355 399H377V342Q371 339 358 336T324 332Q299 332 280 343T252 376H248Q230 355 205 343T141 330ZM171 396Q193 396 209 406T235 434T244 474V494Q210 495 183 490T140 473T124 438Q124
425 129 416T145 401T171 396Z" />
<glyph unicode="&#xab;" glyph-name="guillemotleft" horiz-adv-x="576" d="M205 124L58 326L205 526H308L188 326L308 124H205ZM425 124L278 326L425 526H527L407 326L527 124H425Z" />
<glyph unicode="&#xac;" glyph-name="logicalnot" horiz-adv-x="641" d="M461 185V353H63V462H568V185H461Z" />
<glyph unicode="&#xad;" glyph-name="uni00AD" horiz-adv-x="333" d="M40 210V332H293V210H40Z" />
<glyph unicode="&#xae;" glyph-name="registered" horiz-adv-x="772" d="M386 -12Q309 -12 244 14T131 88T57 201T30 343Q30 420 57 485T131 597T244 671T386 698Q463 698 528 672T640 598T714 485T741 343Q741 266 715 201T641 89T528 15T386 -12ZM386 47Q471
47 536 85T640 191T678 344Q678 429 640 496T537 601T386 639Q301 639 235 601T131 496T93 344Q93 258 131 191T235 86T386 47ZM234 138V550H430Q494 550 527 516T560 425Q560 385 543 355T492 308L577 138H483L409 293H322V138H234ZM322 363H414Q439 363 455 379T471
423Q471 451 456 465T414 480H322V363Z" />
<glyph unicode="&#xaf;" glyph-name="overscore" horiz-adv-x="307" d="M0 613V700H307V613H0Z" />
<glyph unicode="&#xb0;" glyph-name="degree" horiz-adv-x="400" d="M200 399Q159 399 125 419T71 473T51 548Q51 590 71 624T125 678T200 698Q242 698 276 678T330 624T350 548Q350 507 330 473T276 419T200 399ZM200 475Q230 475 251 496T273 548Q273 579 252
600T200 621Q170 621 149 600T127 548Q127 519 148 497T200 475Z" />
<glyph unicode="&#xb1;" glyph-name="plusminus" horiz-adv-x="641" d="M268 149V350H79V456H268V657H373V456H563V350H373V149H268ZM79 0V105H563V0H79Z" />
<glyph unicode="&#xb2;" glyph-name="uni00B2" horiz-adv-x="371" d="M51 440V465Q51 495 65 518T102 559T149 596Q181 620 207 643T233 694Q233 709 223 721T187 734Q170 734 159 729T142 713T136 686V668H56Q55 672 54 678T53 692Q53 729 71 753T121 789T192
801Q239 801 266 784T305 742T317 693Q317 667 308 646T283 609T248 578T210 550Q197 541 184 532T160 513H319V440H51Z" />
<glyph unicode="&#xb3;" glyph-name="uni00B3" horiz-adv-x="371" d="M185 428Q118 428 83 458T47 538V546H129V536Q129 516 142 505T182 494Q199 494 211 499T229 515T235 541Q235 558 228 567T209 581T183 585H150V651H183Q196 651 206 655T222 669T228 693Q228
707 223 716T207 730T183 735Q170 735 159 731T142 717T136 695V686H55V700Q55 730 71 753T117 788T184 801Q223 801 252 789T297 754T313 700Q313 672 298 653T259 623V619Q288 609 304 587T321 533Q320 502 304 478T257 441T185 428Z" />
<glyph unicode="&#xb4;" glyph-name="acute" horiz-adv-x="228" d="M0 591L83 723H227L228 720L109 591H0Z" />
<glyph unicode="&#xb5;" glyph-name="uni00B5" horiz-adv-x="605" d="M64 -188V526H203V197Q203 171 209 154T226 125T255 109T292 104Q324 104 348 119T387 160T402 220V526H541V0H425L415 72H408Q395 46 375 28T331 0T276 -9Q254 -9 234 -3T196 15Q200 -3 201
-26T203 -70V-188H64Z" />
<glyph unicode="&#xb6;" glyph-name="paragraph" horiz-adv-x="616" d="M258 -166V253Q203 254 154 278T75 351T45 469Q45 544 76 592T162 663T283 686H582V612H520V-166H427V612H352V-166H258Z" />
<glyph unicode="&#xb7;" glyph-name="middot" horiz-adv-x="333" d="M96 280V420H237V280H96Z" />
<glyph unicode="&#xb8;" glyph-name="cedilla" horiz-adv-x="237" d="M108 -188Q81 -188 52 -186T0 -179V-128H95Q114 -128 125 -124T137 -104Q137 -92 129 -86T97 -80H54L69 17H151L144 -33Q168 -34 189 -42T224 -65T237 -105Q237 -130 224 -146T192 -172T150
-184T108 -188Z" />
<glyph unicode="&#xb9;" glyph-name="uni00B9" horiz-adv-x="371" d="M61 440V512H151V698H64V751Q83 753 106 759T154 774T196 794H236V512H318V440H61Z" />
<glyph unicode="&#xba;" glyph-name="ordmasculine" horiz-adv-x="393" d="M197 330Q143 330 105 350T48 411T28 515Q28 578 47 618T105 678T197 698Q252 698 289 679T346 619T366 515Q366 452 347 411T290 350T197 330ZM197 399Q243 399 258 429T274 507V520Q274
570 258 599T197 628Q153 628 137 599T120 521V507Q120 461 136 430T197 399Z" />
<glyph unicode="&#xbb;" glyph-name="guillemotright" horiz-adv-x="576" d="M371 526L518 325L371 124H268L388 325L268 526H371ZM151 526L299 325L151 124H49L169 325L49 526H151Z" />
<glyph unicode="&#xbc;" glyph-name="onequarter" horiz-adv-x="887" d="M144 -12L661 698H747L231 -12H144ZM61 340V412H151V598H64V651Q83 653 106 659T154 674T196 694H236V412H318V340H61ZM681 0V74H521V138Q550 183 573 240T613 361H702Q695 331 682 299T654
237T623 182T595 142H681V203Q688 216 695 232T709 265T720 298H764V142H808V74H764V0H681Z" />
<glyph unicode="&#xbd;" glyph-name="onehalf" horiz-adv-x="887" d="M144 -12L661 698H747L231 -12H144ZM553 0V25Q553 55 567 78T604 119T651 156Q683 180 709 203T735 254Q735 269 725 281T689 294Q672 294 661 289T644 273T638 246V228H558Q557 232 556 238T555
252Q555 289 573 313T623 349T694 361Q741 361 768 344T807 302T819 253Q819 227 810 206T785 169T750 138T712 110Q699 101 686 92T662 73H821V0H553ZM61 340V412H151V598H64V651Q83 653 106 659T154 674T196 694H236V412H318V340H61Z" />
<glyph unicode="&#xbe;" glyph-name="threequarters" horiz-adv-x="887" d="M144 -12L661 698H747L231 -12H144ZM185 328Q118 328 83 358T47 438V446H129V436Q129 416 142 405T182 394Q199 394 211 399T229 415T235 441Q235 458 228 467T209 481T183 485H150V551H183Q196
551 206 555T222 569T228 593Q228 607 223 616T207 630T183 635Q170 635 159 631T142 617T136 595V586H55V600Q55 630 71 653T117 688T184 701Q223 701 252 689T297 654T313 600Q313 572 298 553T259 523V519Q288 509 304 487T321 433Q320 402 304 378T257 341T185
328ZM681 0V74H521V138Q550 183 573 240T613 361H702Q695 331 682 299T654 237T623 182T595 142H681V203Q688 216 695 232T709 265T720 298H764V142H808V74H764V0H681Z" />
<glyph unicode="&#xbf;" glyph-name="questiondown" horiz-adv-x="613" d="M302 -172Q260 -172 224 -164T159 -141T110 -104T80 -52T69 12Q69 55 81 86T115 139T158 178T202 212T235 247T248 293V323H375V275Q375 240 364 214T335 169T297 135T259 103T230 69T218
25Q218 14 221 0T234 -27T262 -48T313 -57Q346 -57 367 -47T398 -22T412 11T416 42Q416 51 416 58T415 69H552Q553 62 554 53T555 34Q555 -2 545 -33T514 -89T462 -133T391 -161T302 -172ZM240 386V526H382V386H240Z" />
<glyph unicode="&#xc0;" glyph-name="Agrave" horiz-adv-x="724" d="M6 0L270 686H454L718 0H557L508 135H209L160 0H6ZM252 255H465L404 424Q400 435 395 450T383 485T372 522T361 556H355Q350 537 342 512T326 463T313 424L252 255ZM437 739H323L204 868L205
872H353L437 739Z" />
<glyph unicode="&#xc1;" glyph-name="Aacute" horiz-adv-x="724" d="M6 0L270 686H454L718 0H557L508 135H209L160 0H6ZM252 255H465L404 424Q400 435 395 450T383 485T372 522T361 556H355Q350 537 342 512T326 463T313 424L252 255ZM297 739L380 872H528L530
868L410 739H297Z" />
<glyph unicode="&#xc2;" glyph-name="Acircumflex" horiz-adv-x="724" d="M6 0L270 686H454L718 0H557L508 135H209L160 0H6ZM252 255H465L404 424Q400 435 395 450T383 485T372 522T361 556H355Q350 537 342 512T326 463T313 424L252 255ZM183 739L295 872H430L542
739H422L334 841L391 840L302 739H183Z" />
<glyph unicode="&#xc3;" glyph-name="Atilde" horiz-adv-x="724" d="M6 0L270 686H454L718 0H557L508 135H209L160 0H6ZM252 255H465L404 424Q400 435 395 450T383 485T372 522T361 556H355Q350 537 342 512T326 463T313 424L252 255ZM183 753Q183 786 194 814T229
859T287 876Q315 876 339 867T386 849T433 840Q448 840 457 848T470 876H541Q541 844 530 816T495 771T437 753Q410 753 386 762T339 780T292 790Q277 790 268 781T255 753H183Z" />
<glyph unicode="&#xc4;" glyph-name="Adieresis" horiz-adv-x="724" d="M6 0L270 686H454L718 0H557L508 135H209L160 0H6ZM252 255H465L404 424Q400 435 395 450T383 485T372 522T361 556H355Q350 537 342 512T326 463T313 424L252 255ZM200 755V872H318V755H200ZM407
755V872H525V755H407Z" />
<glyph unicode="&#xc5;" glyph-name="Aring" horiz-adv-x="724" d="M6 0L270 686H454L718 0H557L508 135H209L160 0H6ZM252 255H465L404 424Q400 435 395 450T383 485T372 522T361 556H355Q350 537 342 512T326 463T313 424L252 255ZM362 729Q316 729 286 757T255
830Q255 874 285 902T362 931Q409 931 439 903T470 830Q470 786 440 758T362 729ZM362 788Q382 788 394 799T407 830Q407 848 395 860T362 872Q343 872 331 860T318 829Q318 811 330 800T362 788Z" />
<glyph unicode="&#xc6;" glyph-name="AE" horiz-adv-x="1004" d="M-4 0L322 686H945V564H549L590 411H898V290H622L666 123H951V0H548L513 136H211L150 0H-4ZM263 255H483L417 511Q416 517 415 523T412 535T409 546T405 558H400Q398 552 395 547T390 535T385 523T380
511L263 255Z" />
<glyph unicode="&#xc7;" glyph-name="Ccedilla" horiz-adv-x="733" d="M383 -12Q276 -12 200 25T85 142T45 343Q45 523 133 610T383 698Q471 698 541 668T651 578T692 427H542Q542 475 523 508T468 558T385 576Q321 576 280 551T219 478T199 359V328Q199 256 219
208T279 135T384 110Q434 110 471 127T528 177T548 258H692Q692 167 653 107T543 18T383 -12ZM381 -188Q354 -188 325 -186T273 -179V-128H368Q388 -128 399 -124T410 -104Q410 -92 402 -86T370 -80H327L342 17H424L417 -33Q441 -34 462 -42T497 -65T510 -105Q510
-130 497 -146T465 -172T423 -184T381 -188Z" />
<glyph unicode="&#xc8;" glyph-name="Egrave" horiz-adv-x="683" d="M76 0V686H624V564H226V411H578V290H226V123H630V0H76ZM427 739H314L194 868L195 872H344L427 739Z" />
<glyph unicode="&#xc9;" glyph-name="Eacute" horiz-adv-x="683" d="M76 0V686H624V564H226V411H578V290H226V123H630V0H76ZM287 739L371 872H519L520 868L401 739H287Z" />
<glyph unicode="&#xca;" glyph-name="Ecircumflex" horiz-adv-x="683" d="M76 0V686H624V564H226V411H578V290H226V123H630V0H76ZM173 739L285 872H421L532 739H412L325 841L381 840L293 739H173Z" />
<glyph unicode="&#xcb;" glyph-name="Edieresis" horiz-adv-x="683" d="M76 0V686H624V564H226V411H578V290H226V123H630V0H76ZM190 755V872H309V755H190ZM397 755V872H515V755H397Z" />
<glyph unicode="&#xcc;" glyph-name="Igrave" horiz-adv-x="301" d="M76 0V686H225V0H76ZM225 739H111L-8 868L-7 872H142L225 739Z" />
<glyph unicode="&#xcd;" glyph-name="Iacute" horiz-adv-x="301" d="M76 0V686H225V0H76ZM85 739L168 872H317L318 868L199 739H85Z" />
<glyph unicode="&#xce;" glyph-name="Icircumflex" horiz-adv-x="301" d="M76 0V686H225V0H76ZM-29 739L83 872H219L330 739H210L122 841L179 840L90 739H-29Z" />
<glyph unicode="&#xcf;" glyph-name="Idieresis" horiz-adv-x="301" d="M76 0V686H225V0H76ZM-12 755V872H106V755H-12ZM195 755V872H313V755H195Z" />
<glyph unicode="&#xd0;" glyph-name="Eth" horiz-adv-x="739" d="M0 294V402H378V294H0ZM76 0V686H356Q463 686 538 649T653 537T694 343Q694 226 654 150T538 37T356 0H76ZM225 123H355Q400 123 435 136T493 174T528 238T540 328V358Q540 409 528 447T493 511T435
550T355 564H225V123Z" />
<glyph unicode="&#xd1;" glyph-name="Ntilde" horiz-adv-x="754" d="M76 0V686H213L489 316Q495 309 504 297T521 272T532 253H537Q537 270 537 286T537 316V686H678V0H541L259 379Q249 393 238 410T222 436H217Q217 421 217 407T217 379V0H76ZM198 753Q198 786
209 814T244 859T302 876Q329 876 353 867T400 849T448 840Q463 840 472 848T484 876H555Q555 844 544 816T510 771T451 753Q425 753 401 762T353 780T306 790Q292 790 282 781T270 753H198Z" />
<glyph unicode="&#xd2;" glyph-name="Ograve" horiz-adv-x="793" d="M396 -12Q287 -12 208 27T87 145T45 343Q45 464 87 542T208 659T396 698Q507 698 585 660T706 543T748 343Q748 224 706 145T586 27T396 -12ZM396 110Q445 110 482 124T544 166T582 234T595
327V358Q595 411 582 452T544 520T482 562T396 576Q348 576 311 562T249 521T212 452T199 358V327Q199 275 211 235T249 166T311 124T396 110ZM471 739H357L238 868L239 872H387L471 739Z" />
<glyph unicode="&#xd3;" glyph-name="Oacute" horiz-adv-x="793" d="M396 -12Q287 -12 208 27T87 145T45 343Q45 464 87 542T208 659T396 698Q507 698 585 660T706 543T748 343Q748 224 706 145T586 27T396 -12ZM396 110Q445 110 482 124T544 166T582 234T595
327V358Q595 411 582 452T544 520T482 562T396 576Q348 576 311 562T249 521T212 452T199 358V327Q199 275 211 235T249 166T311 124T396 110ZM331 739L414 872H563L564 868L444 739H331Z" />
<glyph unicode="&#xd4;" glyph-name="Ocircumflex" horiz-adv-x="793" d="M396 -12Q287 -12 208 27T87 145T45 343Q45 464 87 542T208 659T396 698Q507 698 585 660T706 543T748 343Q748 224 706 145T586 27T396 -12ZM396 110Q445 110 482 124T544 166T582 234T595
327V358Q595 411 582 452T544 520T482 562T396 576Q348 576 311 562T249 521T212 452T199 358V327Q199 275 211 235T249 166T311 124T396 110ZM217 739L329 872H465L576 739H456L368 841L425 840L336 739H217Z" />
<glyph unicode="&#xd5;" glyph-name="Otilde" horiz-adv-x="793" d="M396 -12Q287 -12 208 27T87 145T45 343Q45 464 87 542T208 659T396 698Q507 698 585 660T706 543T748 343Q748 224 706 145T586 27T396 -12ZM396 110Q445 110 482 124T544 166T582 234T595
327V358Q595 411 582 452T544 520T482 562T396 576Q348 576 311 562T249 521T212 452T199 358V327Q199 275 211 235T249 166T311 124T396 110ZM217 753Q217 786 228 814T263 859T321 876Q349 876 373 867T420 849T467 840Q482 840 491 848T504 876H575Q575 844
564 816T529 771T471 753Q444 753 420 762T373 780T326 790Q311 790 302 781T289 753H217Z" />
<glyph unicode="&#xd6;" glyph-name="Odieresis" horiz-adv-x="793" d="M396 -12Q287 -12 208 27T87 145T45 343Q45 464 87 542T208 659T396 698Q507 698 585 660T706 543T748 343Q748 224 706 145T586 27T396 -12ZM396 110Q445 110 482 124T544 166T582 234T595
327V358Q595 411 582 452T544 520T482 562T396 576Q348 576 311 562T249 521T212 452T199 358V327Q199 275 211 235T249 166T311 124T396 110ZM234 755V872H352V755H234ZM441 755V872H559V755H441Z" />
<glyph unicode="&#xd7;" glyph-name="multiply" horiz-adv-x="641" d="M170 31L95 106L246 257L95 408L169 482L321 331L472 483L547 408L394 256L546 106L471 32L321 183L170 31Z" />
<glyph unicode="&#xd8;" glyph-name="Oslash" horiz-adv-x="793" d="M396 -12Q287 -12 208 27T87 145T45 343Q45 464 87 542T208 659T396 698Q507 698 585 660T706 543T748 343Q748 224 706 145T586 27T396 -12ZM396 110Q445 110 482 124T544 166T582 234T595
327V358Q595 411 582 452T544 520T482 562T396 576Q348 576 311 562T249 521T212 452T199 358V327Q199 275 211 235T249 166T311 124T396 110ZM49 -46L639 733H743L153 -46H49Z" />
<glyph unicode="&#xd9;" glyph-name="Ugrave" horiz-adv-x="748" d="M373 -12Q279 -12 212 18T108 108T72 259V686H222V263Q222 189 261 150T373 110Q446 110 485 149T525 263V686H675V259Q675 169 639 109T536 18T373 -12ZM449 739H335L215 868L217 872H365L449 739Z" />
<glyph unicode="&#xda;" glyph-name="Uacute" horiz-adv-x="748" d="M373 -12Q279 -12 212 18T108 108T72 259V686H222V263Q222 189 261 150T373 110Q446 110 485 149T525 263V686H675V259Q675 169 639 109T536 18T373 -12ZM308 739L392 872H540L541 868L422 739H308Z" />
<glyph unicode="&#xdb;" glyph-name="Ucircumflex" horiz-adv-x="748" d="M373 -12Q279 -12 212 18T108 108T72 259V686H222V263Q222 189 261 150T373 110Q446 110 485 149T525 263V686H675V259Q675 169 639 109T536 18T373 -12ZM194 739L307 872H442L554 739H434L346
841L402 840L314 739H194Z" />
<glyph unicode="&#xdc;" glyph-name="Udieresis" horiz-adv-x="748" d="M373 -12Q279 -12 212 18T108 108T72 259V686H222V263Q222 189 261 150T373 110Q446 110 485 149T525 263V686H675V259Q675 169 639 109T536 18T373 -12ZM212 755V872H330V755H212ZM418 755V872H537V755H418Z"
/>
<glyph unicode="&#xdd;" glyph-name="Yacute" horiz-adv-x="699" d="M275 0V276L9 686H182L352 410H357L526 686H689L425 276V0H275ZM286 739L369 872H518L519 868L400 739H286Z" />
<glyph unicode="&#xde;" glyph-name="Thorn" horiz-adv-x="697" d="M79 0V686H229V578H421Q494 578 543 551T619 473T645 356Q645 287 619 237T541 159T415 131H229V0H79ZM229 252H396Q443 252 468 279T494 356Q494 387 483 409T451 444T396 456H229V252Z" />
<glyph unicode="&#xdf;" glyph-name="germandbls" horiz-adv-x="634" d="M73 0V513Q73 573 93 615T149 684T230 723T327 735Q381 735 425 723T501 688T550 631T567 553Q567 498 537 456T458 397V393Q522 374 557 324T593 209Q593 147 565 100T485 26T365 0H275V108H348Q380
108 403 123T439 163T452 218Q452 249 439 274T402 314T346 329H275V443H342Q368 443 387 455T417 489T429 536Q429 576 403 602T325 629Q291 629 266 617T226 580T212 522V0H73Z" />
<glyph unicode="&#xe0;" glyph-name="agrave" horiz-adv-x="580" d="M203 -12Q177 -12 148 -6T92 15T50 60T33 136Q33 191 57 227T125 283T232 312T369 320V359Q369 382 362 399T336 426T284 436Q251 436 231 428T202 408T193 380V368H58Q57 373 57 377T57 389Q57
435 85 468T164 520T283 538Q356 538 405 519T481 463T508 370V131Q508 113 518 105T542 96H575V5Q565 0 544 -5T493 -11Q464 -11 442 -3T404 21T383 59H376Q359 38 335 22T278 -3T203 -12ZM250 93Q278 93 300 101T337 124T360 160T369 205V234Q313 234 269 227T200
201T174 151Q174 133 183 120T209 100T250 93ZM358 591H249L130 720L131 723H275L358 591Z" />
<glyph unicode="&#xe1;" glyph-name="aacute" horiz-adv-x="580" d="M203 -12Q177 -12 148 -6T92 15T50 60T33 136Q33 191 57 227T125 283T232 312T369 320V359Q369 382 362 399T336 426T284 436Q251 436 231 428T202 408T193 380V368H58Q57 373 57 377T57 389Q57
435 85 468T164 520T283 538Q356 538 405 519T481 463T508 370V131Q508 113 518 105T542 96H575V5Q565 0 544 -5T493 -11Q464 -11 442 -3T404 21T383 59H376Q359 38 335 22T278 -3T203 -12ZM250 93Q278 93 300 101T337 124T360 160T369 205V234Q313 234 269 227T200
201T174 151Q174 133 183 120T209 100T250 93ZM211 591L294 723H438L439 720L319 591H211Z" />
<glyph unicode="&#xe2;" glyph-name="acircumflex" horiz-adv-x="580" d="M203 -12Q177 -12 148 -6T92 15T50 60T33 136Q33 191 57 227T125 283T232 312T369 320V359Q369 382 362 399T336 426T284 436Q251 436 231 428T202 408T193 380V368H58Q57 373 57 377T57
389Q57 435 85 468T164 520T283 538Q356 538 405 519T481 463T508 370V131Q508 113 518 105T542 96H575V5Q565 0 544 -5T493 -11Q464 -11 442 -3T404 21T383 59H376Q359 38 335 22T278 -3T203 -12ZM250 93Q278 93 300 101T337 124T360 160T369 205V234Q313 234
269 227T200 201T174 151Q174 133 183 120T209 100T250 93ZM108 591L221 723H346L458 591H343L255 692H311L223 591H108Z" />
<glyph unicode="&#xe3;" glyph-name="atilde" horiz-adv-x="580" d="M203 -12Q177 -12 148 -6T92 15T50 60T33 136Q33 191 57 227T125 283T232 312T369 320V359Q369 382 362 399T336 426T284 436Q251 436 231 428T202 408T193 380V368H58Q57 373 57 377T57 389Q57
435 85 468T164 520T283 538Q356 538 405 519T481 463T508 370V131Q508 113 518 105T542 96H575V5Q565 0 544 -5T493 -11Q464 -11 442 -3T404 21T383 59H376Q359 38 335 22T278 -3T203 -12ZM250 93Q278 93 300 101T337 124T360 160T369 205V234Q313 234 269 227T200
201T174 151Q174 133 183 120T209 100T250 93ZM104 600Q104 633 115 661T150 706T208 723Q236 723 260 714T307 696T354 687Q369 687 378 695T391 723H461Q461 691 450 663T416 618T357 600Q331 600 307 609T259 628T213 637Q198 637 189 629T176 600H104Z" />
<glyph unicode="&#xe4;" glyph-name="adieresis" horiz-adv-x="580" d="M203 -12Q177 -12 148 -6T92 15T50 60T33 136Q33 191 57 227T125 283T232 312T369 320V359Q369 382 362 399T336 426T284 436Q251 436 231 428T202 408T193 380V368H58Q57 373 57 377T57
389Q57 435 85 468T164 520T283 538Q356 538 405 519T481 463T508 370V131Q508 113 518 105T542 96H575V5Q565 0 544 -5T493 -11Q464 -11 442 -3T404 21T383 59H376Q359 38 335 22T278 -3T203 -12ZM250 93Q278 93 300 101T337 124T360 160T369 205V234Q313 234
269 227T200 201T174 151Q174 133 183 120T209 100T250 93ZM120 606V723H238V606H120ZM327 606V723H446V606H327Z" />
<glyph unicode="&#xe5;" glyph-name="aring" horiz-adv-x="580" d="M203 -12Q177 -12 148 -6T92 15T50 60T33 136Q33 191 57 227T125 283T232 312T369 320V359Q369 382 362 399T336 426T284 436Q251 436 231 428T202 408T193 380V368H58Q57 373 57 377T57 389Q57
435 85 468T164 520T283 538Q356 538 405 519T481 463T508 370V131Q508 113 518 105T542 96H575V5Q565 0 544 -5T493 -11Q464 -11 442 -3T404 21T383 59H376Q359 38 335 22T278 -3T203 -12ZM250 93Q278 93 300 101T337 124T360 160T369 205V234Q313 234 269 227T200
201T174 151Q174 133 183 120T209 100T250 93ZM283 578Q239 578 210 606T181 679Q181 724 210 752T283 781Q328 781 356 753T385 679Q385 635 357 607T283 578ZM283 634Q303 634 315 647T328 679Q328 699 316 712T283 725Q264 725 252 712T239 679Q239 659 251
647T283 634Z" />
<glyph unicode="&#xe6;" glyph-name="ae" horiz-adv-x="920" d="M236 -12Q205 -12 170 -6T103 15T53 61T33 138Q33 193 58 228T129 283T239 312T382 320V359Q382 382 375 399T347 426T290 436Q255 436 233 428T202 408T193 380V368H58Q57 373 57 377T57 389Q57
435 85 468T165 520T289 538Q350 538 395 524T469 483Q501 511 544 524T641 538Q720 538 773 510T853 422T881 268V232H522Q524 186 536 154T574 107T642 91Q665 91 684 97T717 115T738 145T745 186H881Q881 136 864 99T815 38T740 1T643 -12Q575 -12 525 6T442
62Q420 40 390 24T321 -2T236 -12ZM256 91Q285 91 308 99T348 122T373 158T382 205V232Q323 232 276 225T202 201T174 151Q174 131 183 118T211 98T256 91ZM524 320H738Q738 350 731 372T711 408T680 428T639 435Q603 435 579 423T541 385T524 320Z" />
<glyph unicode="&#xe7;" glyph-name="ccedilla" horiz-adv-x="573" d="M295 -12Q211 -12 154 17T68 108T38 263Q38 358 67 418T154 509T295 539Q349 539 392 526T468 486T516 420T533 326H394Q394 362 383 385T350 420T293 432Q253 432 228 414T191 361T179 274V251Q179
200 191 165T230 113T298 95Q332 95 354 107T389 143T401 201H533Q533 150 517 110T469 43T393 2T295 -12ZM287 -188Q260 -188 231 -186T179 -179V-128H274Q294 -128 305 -124T316 -104Q316 -92 308 -86T276 -80H233L248 17H330L323 -33Q347 -34 368 -42T403 -65T416
-105Q416 -130 403 -146T371 -172T329 -184T287 -188Z" />
<glyph unicode="&#xe8;" glyph-name="egrave" horiz-adv-x="584" d="M303 -12Q216 -12 157 17T68 108T38 263Q38 358 68 418T156 508T300 538Q380 538 435 510T518 422T546 268V232H179Q181 186 193 154T232 107T303 91Q327 91 346 97T380 115T402 145T410 186H546Q546
136 528 99T478 38T402 1T303 -12ZM181 320H403Q403 350 396 372T375 408T344 428T302 435Q264 435 239 423T200 385T181 320ZM374 591H265L146 720L147 723H290L374 591Z" />
<glyph unicode="&#xe9;" glyph-name="eacute" horiz-adv-x="584" d="M303 -12Q216 -12 157 17T68 108T38 263Q38 358 68 418T156 508T300 538Q380 538 435 510T518 422T546 268V232H179Q181 186 193 154T232 107T303 91Q327 91 346 97T380 115T402 145T410 186H546Q546
136 528 99T478 38T402 1T303 -12ZM181 320H403Q403 350 396 372T375 408T344 428T302 435Q264 435 239 423T200 385T181 320ZM227 591L310 723H453L455 720L335 591H227Z" />
<glyph unicode="&#xea;" glyph-name="ecircumflex" horiz-adv-x="584" d="M303 -12Q216 -12 157 17T68 108T38 263Q38 358 68 418T156 508T300 538Q380 538 435 510T518 422T546 268V232H179Q181 186 193 154T232 107T303 91Q327 91 346 97T380 115T402 145T410
186H546Q546 136 528 99T478 38T402 1T303 -12ZM181 320H403Q403 350 396 372T375 408T344 428T302 435Q264 435 239 423T200 385T181 320ZM124 591L236 723H362L474 591H359L271 693L327 692L239 591H124Z" />
<glyph unicode="&#xeb;" glyph-name="edieresis" horiz-adv-x="584" d="M303 -12Q216 -12 157 17T68 108T38 263Q38 358 68 418T156 508T300 538Q380 538 435 510T518 422T546 268V232H179Q181 186 193 154T232 107T303 91Q327 91 346 97T380 115T402 145T410
186H546Q546 136 528 99T478 38T402 1T303 -12ZM181 320H403Q403 350 396 372T375 408T344 428T302 435Q264 435 239 423T200 385T181 320ZM136 606V723H254V606H136ZM343 606V723H462V606H343Z" />
<glyph unicode="&#xec;" glyph-name="igrave" horiz-adv-x="267" d="M64 0V526H203V0H64ZM207 591H99L-21 720L-20 723H124L207 591Z" />
<glyph unicode="&#xed;" glyph-name="iacute" horiz-adv-x="267" d="M64 0V526H203V0H64ZM60 591L143 723H287L288 720L169 591H60Z" />
<glyph unicode="&#xee;" glyph-name="icircumflex" horiz-adv-x="267" d="M64 0V526H203V0H64ZM-42 591L70 723H196L307 591H192L104 693L161 692L72 591H-42Z" />
<glyph unicode="&#xef;" glyph-name="idieresis" horiz-adv-x="267" d="M64 0V526H203V0H64ZM-31 606V723H88V606H-31ZM176 606V723H295V606H176Z" />
<glyph unicode="&#xf0;" glyph-name="eth" horiz-adv-x="626" d="M313 -12Q226 -12 166 17T76 107T45 261Q45 346 72 406T150 497T275 529Q296 529 317 525T356 513L360 517Q346 538 331 557T298 597L136 583V654L235 662Q218 678 201 692T166 719L170 723H324Q334
717 344 709T364 693T385 675L538 688V617L450 610Q491 563 520 509T565 394T581 261Q581 168 550 108T460 18T313 -12ZM313 96Q358 96 386 113T426 164T439 249V272Q439 323 427 357T386 408T313 425Q267 425 240 408T199 357T186 272V251Q186 199 199 165T239
113T313 96Z" />
<glyph unicode="&#xf1;" glyph-name="ntilde" horiz-adv-x="602" d="M64 0V526H179L190 454H197Q215 480 240 499T298 528T368 538Q420 538 459 519T519 459T541 352V0H402V330Q402 355 396 372T379 401T350 418T312 423Q281 423 256 408T217 367T203 307V0H64ZM124
601Q124 634 135 661T169 706T228 723Q255 723 279 715T326 697T374 687Q389 687 398 695T410 723H481Q481 691 470 664T436 619T377 601Q351 601 327 610T279 628T232 638Q218 638 208 629T196 601H124Z" />
<glyph unicode="&#xf2;" glyph-name="ograve" horiz-adv-x="613" d="M306 -12Q220 -12 160 17T69 108T38 263Q38 358 69 418T160 508T306 538Q394 538 453 509T544 419T575 263Q575 170 544 109T454 18T306 -12ZM306 96Q352 96 379 113T420 165T433 251V275Q433
326 420 361T380 413T306 431Q261 431 234 414T193 361T180 275V251Q180 200 193 165T233 113T306 96ZM381 591H273L153 720L154 723H298L381 591Z" />
<glyph unicode="&#xf3;" glyph-name="oacute" horiz-adv-x="613" d="M306 -12Q220 -12 160 17T69 108T38 263Q38 358 69 418T160 508T306 538Q394 538 453 509T544 419T575 263Q575 170 544 109T454 18T306 -12ZM306 96Q352 96 379 113T420 165T433 251V275Q433
326 420 361T380 413T306 431Q261 431 234 414T193 361T180 275V251Q180 200 193 165T233 113T306 96ZM234 591L317 723H461L462 720L343 591H234Z" />
<glyph unicode="&#xf4;" glyph-name="ocircumflex" horiz-adv-x="613" d="M306 -12Q220 -12 160 17T69 108T38 263Q38 358 69 418T160 508T306 538Q394 538 453 509T544 419T575 263Q575 170 544 109T454 18T306 -12ZM306 96Q352 96 379 113T420 165T433 251V275Q433
326 420 361T380 413T306 431Q261 431 234 414T193 361T180 275V251Q180 200 193 165T233 113T306 96ZM132 591L244 723H370L481 591H366L278 693L335 692L246 591H132Z" />
<glyph unicode="&#xf5;" glyph-name="otilde" horiz-adv-x="613" d="M306 -12Q220 -12 160 17T69 108T38 263Q38 358 69 418T160 508T306 538Q394 538 453 509T544 419T575 263Q575 170 544 109T454 18T306 -12ZM306 96Q352 96 379 113T420 165T433 251V275Q433
326 420 361T380 413T306 431Q261 431 234 414T193 361T180 275V251Q180 200 193 165T233 113T306 96ZM128 601Q128 634 139 661T173 706T232 723Q259 723 283 715T330 697T377 687Q392 687 401 695T414 723H485Q485 691 474 664T440 619T381 601Q354 601 330 610T283
628T236 638Q222 638 212 629T199 601H128Z" />
<glyph unicode="&#xf6;" glyph-name="odieresis" horiz-adv-x="613" d="M306 -12Q220 -12 160 17T69 108T38 263Q38 358 69 418T160 508T306 538Q394 538 453 509T544 419T575 263Q575 170 544 109T454 18T306 -12ZM306 96Q352 96 379 113T420 165T433 251V275Q433
326 420 361T380 413T306 431Q261 431 234 414T193 361T180 275V251Q180 200 193 165T233 113T306 96ZM143 606V723H262V606H143ZM350 606V723H469V606H350Z" />
<glyph unicode="&#xf7;" glyph-name="divide" horiz-adv-x="641" d="M79 204V310H563V204H79ZM261 4V116H379V4H261ZM261 399V511H379V399H261Z" />
<glyph unicode="&#xf8;" glyph-name="oslash" horiz-adv-x="613" d="M306 -12Q220 -12 160 17T69 108T38 263Q38 358 69 418T160 508T306 538Q394 538 453 509T544 419T575 263Q575 170 544 109T454 18T306 -12ZM306 96Q352 96 379 113T420 165T433 251V275Q433
326 420 361T380 413T306 431Q261 431 234 414T193 361T180 275V251Q180 200 193 165T233 113T306 96ZM40 -46L489 574H573L124 -46H40Z" />
<glyph unicode="&#xf9;" glyph-name="ugrave" horiz-adv-x="601" d="M234 -12Q154 -12 107 32T60 174V526H199V197Q199 171 205 154T222 125T251 109T289 104Q320 104 345 119T384 160T398 220V526H537V0H423L413 72H406Q387 47 362 28T304 -1T234 -12ZM376 591H267L148
720L149 723H292L376 591Z" />
<glyph unicode="&#xfa;" glyph-name="uacute" horiz-adv-x="601" d="M234 -12Q154 -12 107 32T60 174V526H199V197Q199 171 205 154T222 125T251 109T289 104Q320 104 345 119T384 160T398 220V526H537V0H423L413 72H406Q387 47 362 28T304 -1T234 -12ZM229 591L312
723H455L457 720L337 591H229Z" />
<glyph unicode="&#xfb;" glyph-name="ucircumflex" horiz-adv-x="601" d="M234 -12Q154 -12 107 32T60 174V526H199V197Q199 171 205 154T222 125T251 109T289 104Q320 104 345 119T384 160T398 220V526H537V0H423L413 72H406Q387 47 362 28T304 -1T234 -12ZM126
591L238 723H364L476 591H361L273 693L329 692L241 591H126Z" />
<glyph unicode="&#xfc;" glyph-name="udieresis" horiz-adv-x="601" d="M234 -12Q154 -12 107 32T60 174V526H199V197Q199 171 205 154T222 125T251 109T289 104Q320 104 345 119T384 160T398 220V526H537V0H423L413 72H406Q387 47 362 28T304 -1T234 -12ZM138
606V723H256V606H138ZM345 606V723H464V606H345Z" />
<glyph unicode="&#xfd;" glyph-name="yacute" horiz-adv-x="547" d="M140 -188Q103 -188 79 -183T47 -175V-81H108Q133 -81 153 -70T188 -40T210 0L4 526H151L241 283Q247 266 254 241T270 188T283 139H288Q292 153 297 172T307 211T318 249T328 282L403 526H543L364
25Q349 -19 330 -57T284 -125T223 -171T140 -188ZM212 591L295 723H439L440 720L321 591H212Z" />
<glyph unicode="&#xfe;" glyph-name="thorn" horiz-adv-x="608" d="M64 -178V732H203V462H209Q224 487 246 504T298 529T363 538Q425 538 471 509T544 419T570 262Q570 169 544 108T472 18T363 -12Q329 -12 300 -5T248 19T209 58H203V-178H64ZM314 102Q356 102
381 118T417 168T428 251V274Q428 324 417 357T381 407T314 424Q285 424 264 414T229 385T209 337T202 272V255Q202 208 214 174T251 121T314 102Z" />
<glyph unicode="&#xff;" glyph-name="ydieresis" horiz-adv-x="547" d="M140 -188Q103 -188 79 -183T47 -175V-81H108Q133 -81 153 -70T188 -40T210 0L4 526H151L241 283Q247 266 254 241T270 188T283 139H288Q292 153 297 172T307 211T318 249T328 282L403 526H543L364
25Q349 -19 330 -57T284 -125T223 -171T140 -188ZM121 606V723H239V606H121ZM328 606V723H447V606H328Z" />
<glyph unicode="&#x2013;" glyph-name="endash" horiz-adv-x="500" d="M0 219V320H500V219H0Z" />
<glyph unicode="&#x2014;" glyph-name="emdash" horiz-adv-x="1000" d="M0 219V320H1000V219H0Z" />
<glyph unicode="&#x2018;" glyph-name="quoteleft" horiz-adv-x="280" d="M212 686V630Q189 627 173 611T148 571T139 518H207V380H67V505Q67 565 87 603T141 661T212 686Z" />
<glyph unicode="&#x2019;" glyph-name="quoteright" horiz-adv-x="280" d="M67 380V436Q91 440 107 455T132 495T141 548H73V686H212V561Q212 502 192 464T138 406T67 380Z" />
<glyph unicode="&#x201a;" glyph-name="quotesinglbase" horiz-adv-x="280" d="M67 -168V-112Q91 -109 107 -93T132 -53T141 0H73V138H212V13Q212 -47 192 -85T138 -142T67 -168Z" />
<glyph unicode="&#x201c;" glyph-name="quotedblleft" horiz-adv-x="488" d="M421 686V630Q397 627 381 611T356 571T347 518H415V380H275V505Q275 565 295 603T349 661T421 686ZM212 686V630Q189 627 173 611T148 571T139 518H207V380H67V505Q67 565 87 603T141
661T212 686Z" />
<glyph unicode="&#x201d;" glyph-name="quotedblright" horiz-adv-x="488" d="M67 380V436Q91 440 107 455T132 495T141 548H73V686H212V561Q212 502 192 464T138 406T67 380ZM275 380V436Q299 440 315 455T340 495T349 548H281V686H421V561Q421 502 400 464T346
406T275 380Z" />
<glyph unicode="&#x201e;" glyph-name="quotedblbase" horiz-adv-x="488" d="M67 -168V-112Q91 -109 107 -93T132 -53T141 0H73V138H212V13Q212 -47 192 -85T138 -142T67 -168ZM275 -168V-112Q299 -109 315 -93T340 -53T349 0H281V138H421V13Q421 -47 400 -85T346
-142T275 -168Z" />
<glyph unicode="&#x2022;" glyph-name="bullet" horiz-adv-x="441" d="M220 206Q180 206 149 223T101 272T83 343Q83 384 100 415T149 464T220 482Q261 482 292 464T341 415T359 343Q359 303 341 272T292 224T220 206Z" />
<glyph unicode="&#x2039;" glyph-name="guilsinglleft" horiz-adv-x="357" d="M205 124L58 326L205 526H308L188 326L308 124H205Z" />
<glyph unicode="&#x203a;" glyph-name="guilsinglright" horiz-adv-x="357" d="M151 528L299 326L151 126H49L169 326L49 528H151Z" />
</font>
</defs>
</svg>
