<?xml version="1.0" standalone="no"?>
<!DOCTYPE svg PUBLIC "-//W3C//DTD SVG 1.1//EN" "http://www.w3.org/Graphics/SVG/1.1/DTD/svg11.dtd">
<svg xmlns="http://www.w3.org/2000/svg">
<defs >
<font id="Archivo" horiz-adv-x="575" ><font-face
    font-family="Archivo ExtraBold"
    units-per-em="1000"
    panose-1="0 0 0 0 0 0 0 0 0 0"
    ascent="878"
    descent="-210"
    alphabetic="0" />
<glyph unicode=" " glyph-name="space" horiz-adv-x="189" />
<glyph unicode="!" glyph-name="exclam" horiz-adv-x="314" d="M106 220L69 687H246L208 220H106ZM75 0V159H240V0H75Z" />
<glyph unicode="&quot;" glyph-name="quotedbl" horiz-adv-x="473" d="M92 402L59 540V687H206V540L170 402H92ZM302 402L269 540V687H416V540L379 402H302Z" />
<glyph unicode="#" glyph-name="numbersign" horiz-adv-x="625" d="M71 -11L108 163H22V267H131L159 394H68V500H181L224 699H336L292 500H408L451 699H562L518 500H603V394H498L471 267H564V163H447L409 -11H299L337 163H219L183 -11H71ZM242 267H359L386 394H269L242
267Z" />
<glyph unicode="$" glyph-name="dollar" horiz-adv-x="579" d="M257 -59V741H322V-59H257ZM288 68Q236 68 191 79T111 111T57 163T37 235Q37 239 37 242T38 249H193Q193 247 193 245T193 240Q194 218 207 204T243 183T291 176Q310 176 331 180T368 194T383 223Q383
244 365 255T316 273T250 288Q215 296 180 306T115 333T67 379T49 450Q49 496 68 528T122 581T200 610T295 619Q341 619 382 610T457 583T510 536T529 469Q529 464 529 459T528 451H374V459Q374 476 363 487T333 504T291 511Q276 511 262 509T235 502T216 489T208
469Q208 454 221 445T256 429T306 416Q343 408 384 400T461 376T520 330T543 246Q543 196 523 162T468 107T387 77T288 68Z" />
<glyph unicode="%" glyph-name="percent" horiz-adv-x="984" d="M213 0L670 687H774L317 0H213ZM243 340Q185 340 146 359T88 418T68 519Q68 580 87 620T146 679T243 699Q301 699 339 680T397 620T416 519Q416 458 397 419T340 360T243 340ZM243 415Q279 415 292
441T305 508V531Q305 558 300 579T281 612T243 624Q207 624 194 598T180 531V508Q180 467 193 441T243 415ZM744 -12Q686 -12 647 8T589 67T570 167Q570 228 589 268T647 327T744 347Q802 347 841 328T898 268T917 167Q917 107 899 67T841 8T744 -12ZM744 63Q780
63 793 89T806 156V179Q806 207 801 227T782 260T744 272Q708 272 695 247T681 179V156Q681 115 694 89T744 63Z" />
<glyph unicode="&amp;" glyph-name="ampersand" horiz-adv-x="816" d="M379 -12Q276 -12 207 13T101 84T65 188Q65 254 100 296T192 355V359Q146 377 115 413T83 506Q83 563 118 606T219 674T380 699Q473 699 540 675T643 608T679 511V486H527V501Q526 525 510
542T464 568T388 577Q354 577 328 570T285 551T260 522T251 485Q251 458 264 441T298 415T344 406H431V293H333Q307 293 284 285T247 259T233 207Q233 176 248 155T297 122T380 110Q434 110 466 122T513 157T527 209V406H797V293H680V212Q680 145 649 94T550 16T379
-12Z" />
<glyph unicode="&apos;" glyph-name="quotesingle" horiz-adv-x="263" d="M92 402L59 540V687H206V540L170 402H92Z" />
<glyph unicode="(" glyph-name="parenleft" horiz-adv-x="374" d="M235 -159Q150 -66 105 50T59 289Q59 412 104 528T235 737H336Q297 676 267 600T219 444T202 289Q202 215 219 135T266 -21T336 -159H235Z" />
<glyph unicode=")" glyph-name="parenright" horiz-adv-x="374" d="M140 737Q224 644 269 528T315 289Q315 166 270 50T140 -159H39Q78 -97 108 -22T155 134T172 289Q172 363 155 443T108 600T39 737H140Z" />
<glyph unicode="*" glyph-name="asterisk" horiz-adv-x="407" d="M161 325L173 452L70 379L27 453L141 506L27 561L70 634L173 561L161 688H246L234 561L337 634L380 561L266 506L380 453L337 379L234 452L246 325H161Z" />
<glyph unicode="+" glyph-name="plus" horiz-adv-x="649" d="M266 0V202H73V318H266V520H382V318H576V202H382V0H266Z" />
<glyph unicode="," glyph-name="comma" horiz-adv-x="318" d="M69 -179V-109Q94 -106 113 -91T145 -52T157 0H73V167H246V18Q246 -46 222 -87T157 -151T69 -179Z" />
<glyph unicode="-" glyph-name="hyphen" horiz-adv-x="333" d="M40 204V341H293V204H40Z" />
<glyph unicode="." glyph-name="period" horiz-adv-x="318" d="M72 0V167H246V0H72Z" />
<glyph unicode="/" glyph-name="slash" horiz-adv-x="302" d="M0 -48L196 736H302L106 -48H0Z" />
<glyph unicode="0" glyph-name="zero" horiz-adv-x="625" d="M313 -12Q241 -12 190 9T107 74T60 185T45 344Q45 435 60 502T107 612T190 677T313 699Q385 699 435 678T518 613T565 502T580 344Q580 252 565 185T518 75T436 10T313 -12ZM313 107Q353 107 375 128T406
193T415 304V382Q415 450 407 494T376 559T313 580Q273 580 251 559T219 495T210 383V306Q210 238 219 194T250 129T313 107Z" />
<glyph unicode="1" glyph-name="one" horiz-adv-x="625" d="M102 0V129H266V496H101V593Q141 596 188 610T282 644T366 688H430V129H585V0H102Z" />
<glyph unicode="2" glyph-name="two" horiz-adv-x="625" d="M50 0V41Q50 85 67 122T113 191T177 252T249 309Q290 339 326 367T384 426T407 495Q407 515 398 533T368 564T313 576Q279 576 256 564T221 529T209 477V447H57Q56 453 56 460T55 478Q55 550 88 599T181
673T326 699Q390 699 436 682T513 636T557 571T572 495Q572 448 555 410T508 339T438 275T352 213Q329 197 311 184T281 160T265 142H578V0H50Z" />
<glyph unicode="3" glyph-name="three" horiz-adv-x="625" d="M314 -12Q224 -12 164 14T73 86T43 190V208H195V189Q195 152 223 130T306 108Q361 108 388 133T415 206Q415 239 402 258T368 285T320 294H255V406H313Q338 406 357 415T388 444T400 492Q400 519 389
538T357 568T306 579Q279 579 257 569T222 541T209 499V486H62V511Q62 565 92 607T180 674T315 699Q392 699 448 676T534 610T564 512Q564 475 551 445T514 393T459 359V355Q515 338 548 295T581 186Q580 128 549 84T459 14T314 -12Z" />
<glyph unicode="4" glyph-name="four" horiz-adv-x="626" d="M347 0V146H27V273Q63 329 97 396T163 541T215 699H380Q372 657 353 609T309 511T255 416T200 333T151 272H347V429Q358 447 370 471T395 521T417 571T433 617H506V272H597V146H506V0H347Z" />
<glyph unicode="5" glyph-name="five" horiz-adv-x="625" d="M317 -12Q230 -12 169 16T75 96T42 218H195Q195 186 208 161T246 123T306 109Q341 109 365 123T402 163T415 226Q415 262 402 287T365 325T308 339Q279 339 260 330T228 309T208 286L69 304L98 687H536V544H227L218
410Q224 415 241 425T288 444T357 453Q423 453 473 427T551 350T580 225Q580 155 548 102T457 18T317 -12Z" />
<glyph unicode="6" glyph-name="six" horiz-adv-x="625" d="M323 -12Q255 -12 204 7T117 66T64 170T46 325Q46 428 63 499T115 615T201 679T320 699Q399 699 454 672T538 594T567 475H414Q414 510 403 533T371 568T320 580Q276 580 253 558T221 493T212 383Q226
397 249 410T300 431T359 439Q429 439 480 413T559 338T587 222Q587 148 554 96T461 16T323 -12ZM320 107Q355 107 378 120T412 159T424 217Q424 251 413 276T378 315T320 330Q286 330 263 316T228 278T216 218Q216 185 227 160T262 121T320 107Z" />
<glyph unicode="7" glyph-name="seven" horiz-adv-x="625" d="M153 0Q153 77 171 151T221 294T294 426T381 543H45V687H584V601Q548 557 512 508T444 405T387 294T348 177T334 55V0H153Z" />
<glyph unicode="8" glyph-name="eight" horiz-adv-x="625" d="M312 -12Q224 -12 164 13T73 83T42 189Q42 248 70 286T152 350Q104 384 84 420T64 502Q64 562 95 606T181 674T312 699Q386 699 442 675T529 606T561 502Q561 455 541 419T472 350Q526 325 554 287T583
189Q583 128 552 83T460 13T312 -12ZM312 107Q360 107 388 131T417 200Q417 246 388 269T312 293Q266 293 237 270T208 200Q208 155 236 131T312 107ZM312 408Q354 408 382 429T411 494Q411 537 384 559T312 581Q268 581 242 559T215 494Q215 450 242 429T312 408Z"
/>
<glyph unicode="9" glyph-name="nine" horiz-adv-x="625" d="M305 -12Q227 -12 172 15T88 93T58 212H212Q212 178 222 155T254 119T306 107Q350 107 373 129T404 195T413 304Q400 291 377 278T326 257T267 248Q197 248 146 274T67 350T39 465Q39 539 72 591T164
671T302 699Q370 699 422 680T509 621T562 517T580 362Q580 259 563 188T511 72T425 8T305 -12ZM305 358Q339 358 362 371T397 409T409 468Q409 502 398 527T363 566T305 580Q271 580 248 566T213 528T201 469Q201 435 212 410T247 372T305 358Z" />
<glyph unicode=":" glyph-name="colon" horiz-adv-x="334" d="M81 360V527H254V360H81ZM81 0V167H254V0H81Z" />
<glyph unicode=";" glyph-name="semicolon" horiz-adv-x="334" d="M78 -179V-109Q103 -106 123 -91T154 -52T166 0H82V167H255V18Q255 -46 231 -87T166 -151T78 -179ZM82 360V527H255V360H82Z" />
<glyph unicode="&lt;" glyph-name="less" horiz-adv-x="649" d="M565 -6L63 194V327L565 527V399L197 260L565 121V-6Z" />
<glyph unicode="=" glyph-name="equal" horiz-adv-x="649" d="M73 311V427H576V311H73ZM73 91V207H576V91H73Z" />
<glyph unicode="&gt;" glyph-name="greater" horiz-adv-x="649" d="M84 -6V121L452 260L84 399V527L586 327V194L84 -6Z" />
<glyph unicode="?" glyph-name="question" horiz-adv-x="612" d="M233 221V270Q233 298 243 319T270 358T306 391T341 422T368 456T379 497Q379 510 376 523T363 548T339 567T298 575Q269 575 252 566T225 543T213 513T209 482Q209 475 209 469T210 455H53Q52
462 51 471T50 491Q50 528 61 560T95 617T149 661T222 689T311 699Q355 699 392 691T460 666T510 627T542 573T554 507Q554 467 542 438T509 388T466 349T424 317T391 285T378 247V221H233ZM224 0V159H389V0H224Z" />
<glyph unicode="@" glyph-name="at" horiz-adv-x="1005" d="M472 -156Q339 -156 243 -112T96 24T45 262Q45 382 82 465T185 601T336 677T516 701Q611 701 691 679T832 612T926 494T960 321Q960 253 946 203T907 118T853 62T789 32T724 22Q683 22 657 33T618 59T599
84H594Q578 66 558 52T509 29T443 21Q420 21 394 28T345 50T308 93T293 159Q293 207 314 239T374 290T465 318T581 326V359Q581 378 576 393T557 418T515 427Q484 427 468 419T446 400T440 378V364H318Q317 369 317 373T317 384Q317 425 341 455T410 503T513 521Q579
521 622 503T686 451T708 368V156Q708 133 719 124T749 115Q779 115 804 134T844 199T860 322Q860 426 816 489T695 582T515 612Q400 612 317 574T189 459T143 261Q143 97 224 15T477 -67Q505 -67 541 -63T613 -51T669 -35V-127Q644 -135 609 -141T537 -152T472
-156ZM483 114Q511 114 530 122T560 144T576 179T581 224V240Q536 240 500 235T443 215T421 168Q421 153 427 141T448 122T483 114Z" />
<glyph unicode="A" glyph-name="A" horiz-adv-x="746" d="M8 0L266 687H481L739 0H548L507 119H233L192 0H8ZM276 253H463L414 398Q410 409 405 425T394 460T383 498T373 531H366Q362 512 355 488T340 440T326 398L276 253Z" />
<glyph unicode="B" glyph-name="B" horiz-adv-x="745" d="M75 0V687H495Q548 687 591 666T659 607T685 518Q685 473 670 441T629 389T571 359V355Q608 347 638 327T685 271T703 186Q703 127 675 86T601 22T498 0H75ZM254 138H449Q481 138 500 157T520 215Q520
236 512 252T487 278T446 287H254V138ZM254 414H433Q455 414 470 423T494 448T503 486Q503 518 484 536T436 554H254V414Z" />
<glyph unicode="C" glyph-name="C" horiz-adv-x="752" d="M391 -12Q280 -12 203 26T85 144T45 344Q45 522 134 610T391 699Q484 699 556 668T668 574T709 418H534Q534 462 517 493T468 542T391 559Q335 559 299 536T246 470T229 366V321Q229 260 246 217T298 151T390
128Q438 128 471 144T522 191T540 267H709Q709 174 670 112T559 19T391 -12Z" />
<glyph unicode="D" glyph-name="D" horiz-adv-x="755" d="M75 0V687H362Q474 687 551 650T669 538T710 344Q710 227 670 151T552 37T362 0H75ZM254 140H360Q402 140 433 152T485 187T516 244T526 322V364Q526 409 516 443T485 500T433 535T360 547H254V140Z" />
<glyph unicode="E" glyph-name="E" horiz-adv-x="699" d="M77 0V687H644V547H256V418H595V281H256V140H651V0H77Z" />
<glyph unicode="F" glyph-name="F" horiz-adv-x="641" d="M75 0V687H602V547H254V399H560V262H254V0H75Z" />
<glyph unicode="G" glyph-name="G" horiz-adv-x="815" d="M388 -12Q222 -12 136 76T49 344Q49 463 91 541T215 659T412 699Q481 699 542 683T650 636T723 557T749 445H573Q573 472 561 493T528 529T478 551T419 559Q373 559 338 547T279 510T245 449T233 365V321Q233
257 253 214T313 150T413 128Q459 128 495 142T553 182T575 246V251H390V377H749V0H645L628 72Q597 44 562 25T484 -3T388 -12Z" />
<glyph unicode="H" glyph-name="H" horiz-adv-x="787" d="M75 0V687H254V423H533V687H712V0H533V277H254V0H75Z" />
<glyph unicode="I" glyph-name="I" horiz-adv-x="329" d="M75 0V687H254V0H75Z" />
<glyph unicode="J" glyph-name="J" horiz-adv-x="630" d="M293 -12Q210 -12 151 12T60 87T29 217V239H200V217Q200 171 222 150T289 128Q332 128 354 155T377 238V687H556V237Q556 152 525 97T435 15T293 -12Z" />
<glyph unicode="K" glyph-name="K" horiz-adv-x="770" d="M75 0V687H254V382L526 687H748L492 406L753 0H541L368 284L254 179V0H75Z" />
<glyph unicode="L" glyph-name="L" horiz-adv-x="623" d="M75 0V687H254V147H603V0H75Z" />
<glyph unicode="M" glyph-name="M" horiz-adv-x="914" d="M75 0V687H336L419 381Q424 365 431 338T445 280T457 226H465Q469 245 475 271T488 327T501 382L585 687H839V0H665V293Q665 336 665 380T667 460T668 512H660Q657 497 651 469T637 410T623 357L523 0H379L278
357Q273 377 266 405T253 462T241 511H233Q234 485 235 448T237 370T238 293V0H75Z" />
<glyph unicode="N" glyph-name="N" horiz-adv-x="787" d="M75 0V687H234L484 368Q491 360 502 345T525 315T541 290L546 291Q546 313 546 333T546 368V687H712V0H554L289 336Q276 352 265 369T246 397L241 396Q241 380 241 364T241 336V0H75Z" />
<glyph unicode="O" glyph-name="O" horiz-adv-x="810" d="M405 -12Q292 -12 212 27T88 146T45 344Q45 463 88 541T211 659T405 699Q518 699 598 660T722 542T765 344Q765 225 722 146T599 28T405 -12ZM405 128Q448 128 481 141T536 179T570 240T581 321V365Q581
411 570 447T537 508T481 546T405 559Q361 559 328 546T273 508T240 447T229 365V321Q229 276 240 240T273 179T328 141T405 128Z" />
<glyph unicode="P" glyph-name="P" horiz-adv-x="698" d="M75 0V687H453Q523 687 572 659T648 580T675 461Q675 391 648 340T570 261T449 232H254V0H75ZM254 370H407Q449 370 471 393T493 459Q493 489 484 508T455 537T407 548H254V370Z" />
<glyph unicode="Q" glyph-name="Q" horiz-adv-x="810" d="M524 -131L414 -9Q408 -10 401 -10T388 -11Q281 -11 204 29T86 148T45 344Q45 463 88 541T211 659T405 699Q518 699 598 660T722 542T765 344Q765 222 720 143T591 23L746 -131H524ZM405 128Q448 128 481
141T536 179T570 240T581 321V365Q581 411 570 447T537 508T481 546T405 559Q361 559 328 546T273 508T240 447T229 365V321Q229 276 240 240T273 179T328 141T405 128Z" />
<glyph unicode="R" glyph-name="R" horiz-adv-x="750" d="M75 0V687H474Q550 687 601 659T677 581T703 470Q703 404 673 353T587 272L725 0H525L411 242H254V0H75ZM254 375H439Q476 375 498 399T521 465Q521 492 511 511T483 540T439 551H254V375Z" />
<glyph unicode="S" glyph-name="S" horiz-adv-x="697" d="M360 -12Q295 -12 238 -1T138 37T69 105T44 210Q44 214 44 219T45 227H218Q218 224 218 220T217 212Q217 180 233 161T280 133T350 124Q372 124 391 126T425 133T451 145T468 163T474 188Q474 211 457
226T410 251T343 270T266 289T189 314T123 352T76 409T58 493Q58 547 81 586T144 651T238 687T351 699Q410 699 461 687T553 650T615 586T639 493V481H467V488Q467 511 455 528T417 556T355 567Q318 567 293 560T254 540T240 509Q240 487 257 473T305 449T372 431T448
413T525 389T592 352T639 296T657 216Q657 134 619 84T513 11T360 -12Z" />
<glyph unicode="T" glyph-name="T" horiz-adv-x="675" d="M247 0V540H24V687H649V540H426V0H247Z" />
<glyph unicode="U" glyph-name="U" horiz-adv-x="783" d="M391 -12Q292 -12 221 19T111 112T73 266V687H253V270Q253 204 288 166T391 128Q459 128 495 166T531 270V687H710V266Q710 174 672 112T563 19T391 -12Z" />
<glyph unicode="V" glyph-name="V" horiz-adv-x="729" d="M261 0L14 687H206L332 299Q336 287 342 268T354 228T365 191H372Q377 206 382 225T394 264T404 298L530 687H715L469 0H261Z" />
<glyph unicode="W" glyph-name="W" horiz-adv-x="979" d="M180 0L7 687H195L279 326Q281 317 284 300T290 264T297 229H301Q303 239 305 252T309 279T314 305T318 326L397 687H592L673 326Q676 316 679 299T685 263T692 229H696Q698 240 700 252T705 278T710 304T715
326L796 687H972L799 0H599L511 380Q509 394 505 412T498 448T492 480H488Q486 466 483 448T477 412T470 380L383 0H180Z" />
<glyph unicode="X" glyph-name="X" horiz-adv-x="736" d="M7 0L254 362L31 687H248L374 487H379L505 687H708L484 362L731 0H513L364 237H359L210 0H7Z" />
<glyph unicode="Y" glyph-name="Y" horiz-adv-x="732" d="M277 0V272L8 687H215L369 430H374L527 687H723L457 272V0H277Z" />
<glyph unicode="Z" glyph-name="Z" horiz-adv-x="682" d="M26 0V67L367 547H51V687H640V620L299 140H648V0H26Z" />
<glyph unicode="[" glyph-name="bracketleft" horiz-adv-x="366" d="M91 -160V736H334V641H225V-65H334V-160H91Z" />
<glyph unicode="\" glyph-name="backslash" horiz-adv-x="302" d="M302 -48H196L0 736H106L302 -48Z" />
<glyph unicode="]" glyph-name="bracketright" horiz-adv-x="366" d="M275 734V-162H32V-67H141V639H32V734H275Z" />
<glyph unicode="^" glyph-name="asciicircum" horiz-adv-x="649" d="M96 317L261 687H388L554 317H429L325 562L222 317H96Z" />
<glyph unicode="_" glyph-name="underscore" horiz-adv-x="534" d="M0 -166V-63H534V-166H0Z" />
<glyph unicode="`" glyph-name="grave" horiz-adv-x="257" d="M257 592H136L0 721L2 724H170L257 592Z" />
<glyph unicode="a" glyph-name="a" horiz-adv-x="616" d="M209 -12Q176 -12 145 -6T88 17T47 63T32 136Q32 193 56 229T125 285T235 314T380 322V355Q380 378 371 393T345 417T298 426Q272 426 253 420T223 403T213 375V366H53Q52 371 52 374T52 384Q52 431 81
466T166 520T299 539Q372 539 426 521T512 466T544 369V144Q544 127 553 117T577 107H611V6Q600 1 577 -5T520 -12Q486 -12 461 -4T419 20T396 57H389Q370 37 345 21T286 -3T209 -12ZM270 101Q294 101 314 108T348 127T371 158T380 197V232Q323 232 282 224T219
199T197 156Q197 137 206 125T232 107T270 101Z" />
<glyph unicode="b" glyph-name="b" horiz-adv-x="633" d="M379 -12Q328 -12 285 9T216 73H209L197 0H63V724H227V473H233Q249 494 271 509T322 531T382 539Q447 539 495 509T569 419T595 265Q595 170 569 109T495 18T379 -12ZM328 116Q365 116 387 130T420 174T430
245V280Q430 323 420 352T388 396T328 411Q301 411 282 401T250 373T232 330T226 275V251Q226 210 236 180T269 133T328 116Z" />
<glyph unicode="c" glyph-name="c" horiz-adv-x="612" d="M311 -12Q224 -12 163 18T70 109T37 264Q37 357 70 418T164 510T311 540Q367 540 414 527T497 487T552 419T571 321H410Q410 355 399 377T365 410T310 421Q272 421 249 405T214 358T203 281V245Q203 200
214 169T250 123T314 107Q348 107 370 117T405 150T417 207H571Q571 152 552 111T498 42T415 2T311 -12Z" />
<glyph unicode="d" glyph-name="d" horiz-adv-x="633" d="M254 -12Q187 -12 138 18T63 109T37 265Q37 358 63 418T138 509T251 539Q282 539 310 532T361 510T400 473H406V724H570V0H436L424 73H417Q390 30 348 9T254 -12ZM305 116Q341 116 363 132T396 179T407
251V275Q407 305 401 330T383 373T352 401T305 411Q268 411 246 396T213 352T203 280V245Q203 203 213 174T245 131T305 116Z" />
<glyph unicode="e" glyph-name="e" horiz-adv-x="619" d="M320 -12Q230 -12 167 17T71 108T37 264Q37 357 70 418T165 509T314 539Q400 539 459 510T550 421T581 266V231H203Q203 189 215 160T252 116T319 101Q344 101 363 107T395 124T415 152T422 188H581Q581
140 564 103T512 40T430 1T320 -12ZM204 322H414Q414 348 408 367T389 400T359 419T318 426Q282 426 258 414T221 379T204 322Z" />
<glyph unicode="f" glyph-name="f" horiz-adv-x="352" d="M86 0V408H11V527H86V570Q86 625 104 661T160 716T251 734Q266 734 284 732T319 726T348 718V615H300Q272 615 261 603T249 566V527H348V408H249V0H86Z" />
<glyph unicode="g" glyph-name="g" horiz-adv-x="632" d="M147 -197Q112 -197 81 -182T32 -138T13 -71Q13 -29 38 -1T96 42Q73 57 59 79T44 130Q44 169 73 196T141 232Q105 255 83 289T60 365Q60 426 92 464T182 520T312 539Q341 539 364 537T407 529Q447 553
462 579T478 621H621Q621 581 607 554T567 509T505 483Q532 461 547 431T562 365Q562 308 534 270T455 211T340 191H262Q234 191 221 183T207 160Q207 147 219 138T260 128H463Q540 128 581 85T622 -26Q622 -77 594 -115T520 -175T416 -197H147ZM226 -97H399Q416
-97 429 -91T449 -73T457 -46Q457 -21 441 -8T402 5H226Q203 5 188 -8T172 -45Q172 -68 187 -82T226 -97ZM311 287Q354 287 377 307T401 365Q401 404 378 423T311 443Q270 443 246 424T222 365Q222 340 232 323T262 296T311 287Z" />
<glyph unicode="h" glyph-name="h" horiz-adv-x="629" d="M62 0V724H226V470H233Q250 491 274 506T329 530T391 539Q448 539 487 518T548 455T569 348V0H405V325Q405 347 400 362T384 389T359 405T325 410Q296 410 274 397T239 361T226 308V0H62Z" />
<glyph unicode="i" glyph-name="i" horiz-adv-x="288" d="M62 598V724H226V598H62ZM62 0V527H226V0H62Z" />
<glyph unicode="j" glyph-name="j" horiz-adv-x="286" d="M62 598V724H226V598H62ZM67 -197Q52 -197 33 -195T-6 -189T-39 -181V-78H12Q38 -78 50 -64T62 -22V527H226V-37Q226 -87 211 -123T160 -178T67 -197Z" />
<glyph unicode="k" glyph-name="k" horiz-adv-x="610" d="M62 0V725H226V315L404 527H596L409 318L603 0H416L299 205L226 134V0H62Z" />
<glyph unicode="l" glyph-name="l" horiz-adv-x="288" d="M62 0V724H226V0H62Z" />
<glyph unicode="m" glyph-name="m" horiz-adv-x="937" d="M62 0V527H197L209 452H216Q234 479 259 499T316 529T382 539Q436 539 474 518T532 452H539Q557 479 582 499T639 529T705 539Q760 539 798 519T856 457T877 351V0H713V326Q713 348 708 363T694 389T671
405T641 410Q615 410 595 397T563 361T552 308V0H388V326Q388 348 383 363T369 389T346 405T316 410Q290 410 270 397T238 361T226 308V0H62Z" />
<glyph unicode="n" glyph-name="n" horiz-adv-x="629" d="M62 0V527H197L209 452H216Q236 479 262 499T321 529T391 539Q448 539 487 518T548 455T569 348V0H405V325Q405 347 400 362T384 389T359 405T325 410Q296 410 274 397T239 361T226 308V0H62Z" />
<glyph unicode="o" glyph-name="o" horiz-adv-x="635" d="M317 -12Q229 -12 167 18T71 109T37 264Q37 357 70 418T166 509T317 539Q406 539 468 509T564 418T598 264Q598 171 565 110T469 18T317 -12ZM317 107Q358 107 383 123T420 169T432 245V282Q432 327 421
358T384 404T317 420Q277 420 252 405T215 358T203 282V245Q203 200 214 170T251 123T317 107Z" />
<glyph unicode="p" glyph-name="p" horiz-adv-x="633" d="M63 -186V527H197L211 454H218Q245 499 286 519T379 539Q446 539 494 509T569 418T595 263Q595 170 569 109T495 18T382 -12Q350 -12 322 -5T272 17T233 54H227V-186H63ZM328 116Q365 116 387 131T420
175T430 246V281Q430 323 420 352T388 396T328 411Q292 411 270 395T237 348T226 276V252Q226 222 231 197T249 154T281 126T328 116Z" />
<glyph unicode="q" glyph-name="q" horiz-adv-x="633" d="M406 -186V54H400Q382 33 360 18T310 -4T251 -12Q186 -12 138 18T64 109T37 263Q37 357 63 418T138 509T254 539Q305 539 347 518T415 454H422L436 527H570V-186H406ZM305 116Q332 116 351 126T383 154T401
197T407 252V276Q407 317 397 347T364 394T305 411Q268 411 246 397T213 353T203 281V246Q203 204 213 175T245 131T305 116Z" />
<glyph unicode="r" glyph-name="r" horiz-adv-x="407" d="M62 0V527H197L209 446H216Q228 473 245 494T288 528T345 540Q363 540 378 537T400 529V386H348Q317 386 294 378T255 352T233 309T226 251V0H62Z" />
<glyph unicode="s" glyph-name="s" horiz-adv-x="579" d="M288 -12Q236 -12 191 -1T111 31T57 83T37 155Q37 159 37 162T38 169H193Q193 167 193 165T193 160Q194 138 207 124T243 103T291 96Q310 96 331 100T368 114T383 143Q383 164 365 175T316 193T250 208Q215
216 180 226T115 253T67 299T49 370Q49 416 68 448T122 501T200 530T295 539Q341 539 382 530T457 503T510 456T529 389Q529 384 529 379T528 371H374V379Q374 396 363 407T333 424T291 431Q276 431 262 429T235 422T216 409T208 389Q208 374 221 365T256 349T306
336Q343 328 384 320T461 296T520 250T543 166Q543 116 523 82T468 27T387 -3T288 -12Z" />
<glyph unicode="t" glyph-name="t" horiz-adv-x="385" d="M247 -12Q196 -12 161 3T108 50T90 125V408H21V527H95L129 681H253V527H356V408H253V165Q253 137 264 122T304 107H356V5Q343 1 324 -3T284 -10T247 -12Z" />
<glyph unicode="u" glyph-name="u" horiz-adv-x="629" d="M237 -12Q152 -12 106 35T59 179V527H223V202Q223 181 228 165T244 138T269 122T303 117Q332 117 354 130T389 167T402 219V527H566V0H431L421 75H414Q396 49 369 29T308 -1T237 -12Z" />
<glyph unicode="v" glyph-name="v" horiz-adv-x="574" d="M200 0L2 527H177L244 326Q249 311 257 283T274 224T290 167H296Q303 191 311 221T328 279T342 326L408 527H571L372 0H200Z" />
<glyph unicode="w" glyph-name="w" horiz-adv-x="859" d="M178 0L1 527H176L231 309Q236 292 241 268T252 220T262 182H268Q274 204 279 227T289 272T299 310L353 527H521L576 309Q580 295 585 272T596 225T606 182H613Q616 199 621 221T633 266T643 307L699 527H858L681
0H517L462 211Q458 229 452 252T441 297T432 335H428Q426 324 422 305T412 262T398 212L342 0H178Z" />
<glyph unicode="x" glyph-name="x" horiz-adv-x="612" d="M7 0L203 276L24 527H218L311 377H316L410 527H593L412 275L604 0H412L304 173H299L190 0H7Z" />
<glyph unicode="y" glyph-name="y" horiz-adv-x="574" d="M146 -197Q110 -197 83 -192T45 -182V-78H114Q142 -78 162 -66T193 -36T210 0L2 527H177L255 296Q261 280 268 255T283 203T296 155H302Q306 169 311 187T321 225T331 263T341 295L408 527H571L389 21Q372
-25 352 -65T303 -134T237 -180T146 -197Z" />
<glyph unicode="z" glyph-name="z" horiz-adv-x="535" d="M22 0V61L264 408H36V527H500V468L256 119H509V0H22Z" />
<glyph unicode="{" glyph-name="braceleft" horiz-adv-x="391" d="M344 -160Q289 -160 248 -155T180 -136T139 -97T125 -31V190Q125 211 112 223T79 241T36 247V331Q57 331 77 336T111 355T125 389V608Q125 648 139 673T180 712T249 731T344 736V650Q327 650 308
647T274 633T258 599L250 399Q248 349 223 322T142 294V284Q180 284 203 272T237 236T250 179L258 -22Q259 -44 273 -55T306 -70T344 -74V-160Z" />
<glyph unicode="|" glyph-name="bar" horiz-adv-x="265" d="M75 -202V725H190V-202H75Z" />
<glyph unicode="}" glyph-name="braceright" horiz-adv-x="391" d="M47 736Q102 736 143 731T212 712T252 673T266 607V386Q266 366 279 353T313 335T355 329V245Q335 245 315 240T280 221T266 187V-32Q266 -72 253 -97T212 -136T143 -155T47 -160V-74Q65 -74
84 -71T118 -56T133 -23L142 177Q144 227 168 254T249 282V292Q212 292 189 304T155 340T142 397L133 598Q132 620 118 631T85 646T47 650V736Z" />
<glyph unicode="~" glyph-name="asciitilde" horiz-adv-x="649" d="M52 194V316Q65 332 88 349T143 379T209 392Q240 392 268 382T323 360T379 338T440 328Q473 328 504 340T559 370T597 404V283Q585 267 561 249T506 219T440 206Q409 206 381 216T326 238T270
261T209 271Q176 271 145 259T90 229T52 194Z" />
<glyph unicode="&#xa0;" glyph-name="uni00A0" horiz-adv-x="189" />
<glyph unicode="&#xa1;" glyph-name="exclamdown" horiz-adv-x="314" d="M68 -160L106 307H207L245 -160H68ZM74 368V527H240V368H74Z" />
<glyph unicode="&#xa2;" glyph-name="cent" horiz-adv-x="626" d="M284 -59V741H349V-59H284ZM316 69Q230 69 169 99T76 190T43 344Q43 438 75 499T169 590T316 620Q373 620 420 607T503 568T557 500T577 402H415Q415 436 404 457T370 490T315 501Q277 501 254
485T219 438T208 362V325Q208 281 219 250T255 203T320 187Q353 187 375 198T410 231T422 287H577Q577 232 558 191T503 122T421 82T316 69Z" />
<glyph unicode="&#xa3;" glyph-name="sterling" horiz-adv-x="627" d="M50 0V126H115V282H28V397H115V496Q115 558 141 603T220 674T352 699Q428 699 480 674T561 605T589 499V477H425V500Q425 522 416 538T390 564T352 573Q330 573 314 564T288 540T279 503V397H414V282H278L261
126H567V0H50Z" />
<glyph unicode="&#xa4;" glyph-name="currency" horiz-adv-x="623" d="M109 89L55 142L111 199Q88 228 76 265T64 344Q64 385 76 424T111 489L55 545L111 601L168 545Q194 567 232 579T310 592Q351 592 389 580T450 546L508 603L567 544L511 489Q534 464 545 425T557
344Q557 304 545 266T510 198L565 142L512 89L455 147Q430 122 391 109T310 96Q269 96 231 108T165 146L109 89ZM310 192Q352 192 384 213T435 269T454 344Q454 385 436 419T385 475T310 496Q270 496 237 476T185 421T166 344Q166 303 185 268T237 213T310 192Z"
/>
<glyph unicode="&#xa5;" glyph-name="yen" horiz-adv-x="630" d="M234 0V146H36V233H234V288H36V375H184Q175 392 161 416T136 458L8 687H197L283 512Q289 499 296 486T309 459T319 437H323Q328 447 334 460T346 487T358 512L442 687H621L497 462Q484 439 471
414T449 375H595V288H399V233H595V146H399V0H234Z" />
<glyph unicode="&#xa6;" glyph-name="brokenbar" horiz-adv-x="265" d="M75 340V725H190V340H75ZM75 -202V183H190V-202H75Z" />
<glyph unicode="&#xa7;" glyph-name="section" horiz-adv-x="627" d="M312 -183Q269 -183 227 -175T150 -148T95 -102T74 -35Q74 -30 74 -26T74 -19H230V-23Q230 -35 236 -45T253 -61T279 -71T311 -75Q335 -75 354 -69T384 -52T395 -26Q395 -5 377 11T328 41T261
68T188 99T122 138T73 192T54 265Q54 299 67 327T102 375T143 408Q111 431 90 461T69 534Q69 579 90 610T146 661T225 690T315 699Q359 699 401 691T477 664T532 618T553 551Q553 546 553 542T553 535H398V540Q398 552 392 561T374 577T349 587T317 591Q292 591
273 585T243 568T232 542Q232 521 250 505T299 475T366 448T439 417T506 378T554 324T573 251Q573 217 559 189T525 141T484 108Q517 85 537 55T558 -18Q558 -63 537 -94T481 -145T402 -174T312 -183ZM390 158Q405 169 416 183T428 215Q428 242 412 262T368 298T306
328T236 357Q222 347 211 333T200 301Q200 274 216 254T259 217T321 186T390 158Z" />
<glyph unicode="&#xa8;" glyph-name="dieresis" horiz-adv-x="345" d="M0 598V724H132V598H0ZM212 598V724H345V598H212Z" />
<glyph unicode="&#xa9;" glyph-name="copyright" horiz-adv-x="784" d="M392 -12Q314 -12 249 14T137 89T63 202T36 344Q36 421 62 486T136 598T249 672T392 699Q469 699 534 673T647 599T721 486T748 344Q748 267 722 202T647 89T534 15T392 -12ZM394 131Q328
131 284 154T218 225T196 343Q196 415 217 462T283 532T394 555Q453 555 493 536T554 478T575 385H471Q471 414 463 433T439 463T393 473Q345 473 325 443T304 351V337Q304 294 313 267T342 226T393 213Q422 213 440 223T466 253T475 300H575Q575 250 555 212T495
153T394 131ZM391 49Q475 49 539 87T641 192T679 344Q679 429 642 495T540 600T392 638Q308 638 243 600T141 496T104 344Q104 259 141 193T243 88T391 49Z" />
<glyph unicode="&#xaa;" glyph-name="ordfeminine" horiz-adv-x="399" d="M138 330Q110 330 84 338T41 368T24 428Q24 466 39 490T84 528T155 547T247 553V579Q247 593 242 603T225 619T196 626Q176 626 165 621T148 608T142 591V582H38Q37 584 37 588T37 596Q37
642 79 670T196 698Q242 698 277 686T333 649T353 586V431Q353 418 360 412T375 406H397V343Q391 340 377 336T338 331Q307 331 287 342T258 375H252Q232 354 205 342T138 330ZM177 402Q198 402 213 410T238 435T247 470V493Q211 494 186 489T146 471T132 440Q132
427 138 419T154 406T177 402Z" />
<glyph unicode="&#xab;" glyph-name="guillemotleft" horiz-adv-x="584" d="M199 122L43 325L199 527H318L190 325L318 122H199ZM425 122L269 325L425 527H544L417 325L544 122H425Z" />
<glyph unicode="&#xac;" glyph-name="logicalnot" horiz-adv-x="649" d="M456 172V346H57V474H582V172H456Z" />
<glyph unicode="&#xad;" glyph-name="uni00AD" horiz-adv-x="333" d="M40 204V341H293V204H40Z" />
<glyph unicode="&#xae;" glyph-name="registered" horiz-adv-x="784" d="M392 -12Q314 -12 249 14T137 89T63 202T36 344Q36 421 62 486T136 598T249 672T392 699Q469 699 534 673T647 599T721 486T748 344Q748 267 722 202T647 89T534 15T392 -12ZM391 49Q475
49 539 87T641 192T679 344Q679 429 642 495T540 600T392 638Q308 638 243 600T141 496T104 344Q104 259 141 193T243 88T391 49ZM233 138V551H435Q500 551 533 517T567 426Q567 386 549 356T502 307L586 138H470L404 289H339V138H233ZM339 368H410Q431 368 445
382T459 420Q459 444 446 457T410 471H339V368Z" />
<glyph unicode="&#xaf;" glyph-name="overscore" horiz-adv-x="311" d="M0 608V700H311V608H0Z" />
<glyph unicode="&#xb0;" glyph-name="degree" horiz-adv-x="400" d="M200 400Q159 400 125 420T71 474T50 549Q50 591 70 625T124 679T200 699Q242 699 275 679T329 625T350 549Q350 508 330 474T276 420T200 400ZM199 480Q228 480 248 500T268 549Q268 577 248
597T199 617Q172 617 152 597T131 549Q131 521 151 501T199 480Z" />
<glyph unicode="&#xb1;" glyph-name="plusminus" horiz-adv-x="649" d="M266 160V353H73V470H266V663H382V470H576V353H382V160H266ZM73 0V116H576V0H73Z" />
<glyph unicode="&#xb2;" glyph-name="uni00B2" horiz-adv-x="391" d="M50 440V465Q50 494 65 518T105 561T156 600Q190 624 215 646T241 693Q241 708 231 720T194 733Q177 733 166 727T148 710T142 684V669H54Q53 673 53 678T52 688Q52 725 70 750T122 789T202
803Q249 803 278 788T321 747T336 694Q336 669 327 649T301 612T266 582T226 555Q213 546 201 538T177 520H340V440H50Z" />
<glyph unicode="&#xb3;" glyph-name="uni00B3" horiz-adv-x="391" d="M196 428Q122 428 85 458T48 536V545H136V535Q136 518 149 508T191 497Q210 497 222 503T240 519T246 545Q246 560 240 569T224 582T200 586H163V652H196Q208 652 217 656T232 669T238 692Q238
705 233 714T217 729T192 734Q178 734 167 730T150 716T143 696V689H57V702Q57 731 74 754T122 790T197 803Q239 803 269 790T316 755T333 702Q333 675 318 655T279 624V621Q309 611 325 589T342 534Q342 503 325 479T276 442T196 428Z" />
<glyph unicode="&#xb4;" glyph-name="acute" horiz-adv-x="257" d="M0 592L87 724H255L257 721L121 592H0Z" />
<glyph unicode="&#xb5;" glyph-name="uni00B5" horiz-adv-x="632" d="M62 -192V527H226V202Q226 181 231 165T247 138T272 122T306 117Q335 117 357 130T392 167T405 219V527H569V0H434L424 75H417Q404 49 385 31T343 4T290 -5Q271 -5 253 -1T218 13Q222 -7 224
-31T226 -73V-192H62Z" />
<glyph unicode="&#xb6;" glyph-name="paragraph" horiz-adv-x="654" d="M256 -164V254Q199 255 151 282T74 357T45 470Q45 539 75 587T158 661T274 687H623V593H559V-164H451V593H364V-164H256Z" />
<glyph unicode="&#xb7;" glyph-name="middot" horiz-adv-x="333" d="M86 261V419H247V261H86Z" />
<glyph unicode="&#xb8;" glyph-name="cedilla" horiz-adv-x="244" d="M118 -198Q88 -198 55 -195T0 -185V-132H99Q118 -132 129 -128T140 -109Q140 -96 132 -91T101 -85H59L76 26H164L156 -31Q177 -33 197 -41T231 -66T244 -110Q244 -137 232 -154T200 -181T159
-194T118 -198Z" />
<glyph unicode="&#xb9;" glyph-name="uni00B9" horiz-adv-x="391" d="M57 440V516H156V691H63V747Q86 749 113 756T166 774T213 796H252V516H344V440H57Z" />
<glyph unicode="&#xba;" glyph-name="ordmasculine" horiz-adv-x="396" d="M198 329Q142 329 102 349T40 411T19 514Q19 577 40 617T101 678T198 698Q255 698 295 678T357 618T378 514Q378 452 357 411T296 350T198 329ZM198 405Q240 405 255 432T270 503V524Q270
569 255 595T198 621Q157 621 142 595T127 524V503Q127 460 142 433T198 405Z" />
<glyph unicode="&#xbb;" glyph-name="guillemotright" horiz-adv-x="584" d="M385 527L541 324L385 122H266L394 324L266 527H385ZM159 527L315 324L159 122H40L167 324L40 527H159Z" />
<glyph unicode="&#xbc;" glyph-name="onequarter" horiz-adv-x="934" d="M192 -12L665 699H755L282 -12H192ZM57 340V416H156V591H63V647Q86 649 113 656T166 674T213 696H252V416H344V340H57ZM717 0V74H546V144Q574 186 600 242T644 363H741Q736 337 723 307T692
246T655 189T621 146H717V211Q725 224 734 241T751 277T764 311H810V146H858V74H810V0H717Z" />
<glyph unicode="&#xbd;" glyph-name="onehalf" horiz-adv-x="934" d="M192 -12L665 699H755L282 -12H192ZM578 0V25Q578 54 593 78T633 121T683 160Q717 184 743 206T769 253Q769 268 758 280T722 293Q705 293 694 287T676 270T670 244V229H582Q581 233 581 238T580
248Q580 285 598 310T649 349T729 363Q776 363 805 348T849 307T863 254Q863 229 854 209T828 172T793 142T754 115Q741 106 728 98T704 80H867V0H578ZM57 340V416H156V591H63V647Q86 649 113 656T166 674T213 696H252V416H344V340H57Z" />
<glyph unicode="&#xbe;" glyph-name="threequarters" horiz-adv-x="934" d="M192 -12L665 699H755L282 -12H192ZM196 328Q122 328 85 358T48 436V445H136V435Q136 418 149 408T191 397Q210 397 222 403T240 419T246 445Q246 460 240 469T224 482T200 486H163V552H196Q208
552 217 556T232 569T238 592Q238 605 233 614T217 629T192 634Q178 634 167 630T150 616T143 596V589H57V602Q57 631 74 654T122 690T197 703Q239 703 269 690T316 655T333 602Q333 575 318 555T279 524V521Q309 511 325 489T342 434Q342 403 325 379T276 342T196
328ZM717 0V74H546V144Q574 186 600 242T644 363H741Q736 337 723 307T692 246T655 189T621 146H717V211Q725 224 734 241T751 277T764 311H810V146H858V74H810V0H717Z" />
<glyph unicode="&#xbf;" glyph-name="questiondown" horiz-adv-x="612" d="M302 -172Q258 -172 221 -164T154 -139T103 -100T71 -46T59 20Q59 60 72 89T105 139T147 178T189 210T222 242T235 280V306H380V257Q380 229 370 208T343 169T308 136T273 105T246 71T235
30Q235 17 238 4T251 -21T275 -40T315 -48Q344 -48 361 -39T388 -16T401 14T405 45Q405 53 405 60T404 72H560Q562 64 563 55T564 36Q564 -1 552 -33T518 -90T464 -134T391 -162T302 -172ZM224 368V527H389V368H224Z" />
<glyph unicode="&#xc0;" glyph-name="Agrave" horiz-adv-x="746" d="M8 0L266 687H481L739 0H548L507 119H233L192 0H8ZM276 253H463L414 398Q410 409 405 425T394 460T383 498T373 531H366Q362 512 355 488T340 440T326 398L276 253ZM464 745H338L202 874L203
877H377L464 745Z" />
<glyph unicode="&#xc1;" glyph-name="Aacute" horiz-adv-x="746" d="M8 0L266 687H481L739 0H548L507 119H233L192 0H8ZM276 253H463L414 398Q410 409 405 425T394 460T383 498T373 531H366Q362 512 355 488T340 440T326 398L276 253ZM296 745L383 877H556L558
874L421 745H296Z" />
<glyph unicode="&#xc2;" glyph-name="Acircumflex" horiz-adv-x="746" d="M8 0L266 687H481L739 0H548L507 119H233L192 0H8ZM276 253H463L414 398Q410 409 405 425T394 460T383 498T373 531H366Q362 512 355 488T340 440T326 398L276 253ZM176 745L297 877H451L571
745H438L345 841H402L308 745H176Z" />
<glyph unicode="&#xc3;" glyph-name="Atilde" horiz-adv-x="746" d="M8 0L266 687H481L739 0H548L507 119H233L192 0H8ZM276 253H463L414 398Q410 409 405 425T394 460T383 498T373 531H366Q362 512 355 488T340 440T326 398L276 253ZM177 748Q177 783 190 813T231
861T296 880Q325 880 351 871T402 852T453 842Q469 842 480 851T495 880H570Q570 846 556 816T516 767T451 748Q422 748 396 757T345 777T294 787Q278 787 267 777T252 748H177Z" />
<glyph unicode="&#xc4;" glyph-name="Adieresis" horiz-adv-x="746" d="M8 0L266 687H481L739 0H548L507 119H233L192 0H8ZM276 253H463L414 398Q410 409 405 425T394 460T383 498T373 531H366Q362 512 355 488T340 440T326 398L276 253ZM201 751V877H334V751H201ZM413
751V877H546V751H413Z" />
<glyph unicode="&#xc5;" glyph-name="Aring" horiz-adv-x="746" d="M8 0L266 687H481L739 0H548L507 119H233L192 0H8ZM276 253H463L414 398Q410 409 405 425T394 460T383 498T373 531H366Q362 512 355 488T340 440T326 398L276 253ZM373 728Q325 728 294 757T262
832Q262 877 293 907T373 937Q422 937 453 907T484 832Q484 787 453 758T373 728ZM373 792Q392 792 404 803T416 832Q416 850 404 861T373 872Q355 872 343 861T331 831Q331 814 343 803T373 792Z" />
<glyph unicode="&#xc6;" glyph-name="AE" horiz-adv-x="1010" d="M-2 0L309 687H955V547H573L606 418H905V281H639L675 140H962V0H535L505 120H232L182 0H-2ZM285 253H474L416 490Q415 495 414 500T411 510T408 521T406 532H401Q399 527 397 522T392 511T388 500T384
490L285 253Z" />
<glyph unicode="&#xc7;" glyph-name="Ccedilla" horiz-adv-x="752" d="M391 -12Q280 -12 203 26T85 144T45 344Q45 522 134 610T391 699Q484 699 556 668T668 574T709 418H534Q534 462 517 493T468 542T391 559Q335 559 299 536T246 470T229 366V321Q229 260 246
217T298 151T390 128Q438 128 471 144T522 191T540 267H709Q709 174 670 112T559 19T391 -12ZM390 -198Q360 -198 327 -195T272 -185V-132H371Q390 -132 401 -128T412 -109Q412 -96 404 -91T373 -85H331L348 26H436L427 -31Q449 -33 469 -41T503 -66T516 -110Q516
-137 504 -154T472 -181T431 -194T390 -198Z" />
<glyph unicode="&#xc8;" glyph-name="Egrave" horiz-adv-x="699" d="M77 0V687H644V547H256V418H595V281H256V140H651V0H77ZM453 745H328L192 874L193 877H366L453 745Z" />
<glyph unicode="&#xc9;" glyph-name="Eacute" horiz-adv-x="699" d="M77 0V687H644V547H256V418H595V281H256V140H651V0H77ZM286 745L373 877H546L548 874L411 745H286Z" />
<glyph unicode="&#xca;" glyph-name="Ecircumflex" horiz-adv-x="699" d="M77 0V687H644V547H256V418H595V281H256V140H651V0H77ZM166 745L287 877H441L561 745H428L335 841H392L298 745H166Z" />
<glyph unicode="&#xcb;" glyph-name="Edieresis" horiz-adv-x="699" d="M77 0V687H644V547H256V418H595V281H256V140H651V0H77ZM191 751V877H323V751H191ZM403 751V877H536V751H403Z" />
<glyph unicode="&#xcc;" glyph-name="Igrave" horiz-adv-x="329" d="M75 0V687H254V0H75ZM255 745H129L-7 874L-5 877H168L255 745Z" />
<glyph unicode="&#xcd;" glyph-name="Iacute" horiz-adv-x="329" d="M75 0V687H254V0H75ZM87 745L174 877H348L349 874L213 745H87Z" />
<glyph unicode="&#xce;" glyph-name="Icircumflex" horiz-adv-x="329" d="M75 0V687H254V0H75ZM-32 745L89 877H242L363 745H230L136 841H193L100 745H-32Z" />
<glyph unicode="&#xcf;" glyph-name="Idieresis" horiz-adv-x="329" d="M75 0V687H254V0H75ZM-7 751V877H125V751H-7ZM205 751V877H337V751H205Z" />
<glyph unicode="&#xd0;" glyph-name="Eth" horiz-adv-x="755" d="M0 288V408H387V288H0ZM75 0V687H362Q474 687 551 650T669 538T710 344Q710 227 670 151T552 37T362 0H75ZM254 140H360Q402 140 433 152T485 187T516 244T526 322V364Q526 409 516 443T485 500T433
535T360 547H254V140Z" />
<glyph unicode="&#xd1;" glyph-name="Ntilde" horiz-adv-x="787" d="M75 0V687H234L484 368Q491 360 502 345T525 315T541 290L546 291Q546 313 546 333T546 368V687H712V0H554L289 336Q276 352 265 369T246 397L241 396Q241 380 241 364T241 336V0H75ZM197 748Q197
783 211 813T251 861T316 880Q345 880 371 871T423 852T473 842Q490 842 500 851T515 880H590Q590 846 576 816T536 767T471 748Q442 748 416 757T365 777T315 787Q298 787 287 777T272 748H197Z" />
<glyph unicode="&#xd2;" glyph-name="Ograve" horiz-adv-x="810" d="M405 -12Q292 -12 212 27T88 146T45 344Q45 463 88 541T211 659T405 699Q518 699 598 660T722 542T765 344Q765 225 722 146T599 28T405 -12ZM405 128Q448 128 481 141T536 179T570 240T581
321V365Q581 411 570 447T537 508T481 546T405 559Q361 559 328 546T273 508T240 447T229 365V321Q229 276 240 240T273 179T328 141T405 128ZM495 745H369L233 874L234 877H408L495 745Z" />
<glyph unicode="&#xd3;" glyph-name="Oacute" horiz-adv-x="810" d="M405 -12Q292 -12 212 27T88 146T45 344Q45 463 88 541T211 659T405 699Q518 699 598 660T722 542T765 344Q765 225 722 146T599 28T405 -12ZM405 128Q448 128 481 141T536 179T570 240T581
321V365Q581 411 570 447T537 508T481 546T405 559Q361 559 328 546T273 508T240 447T229 365V321Q229 276 240 240T273 179T328 141T405 128ZM327 745L414 877H587L589 874L453 745H327Z" />
<glyph unicode="&#xd4;" glyph-name="Ocircumflex" horiz-adv-x="810" d="M405 -12Q292 -12 212 27T88 146T45 344Q45 463 88 541T211 659T405 699Q518 699 598 660T722 542T765 344Q765 225 722 146T599 28T405 -12ZM405 128Q448 128 481 141T536 179T570 240T581
321V365Q581 411 570 447T537 508T481 546T405 559Q361 559 328 546T273 508T240 447T229 365V321Q229 276 240 240T273 179T328 141T405 128ZM207 745L328 877H482L603 745H469L376 841H433L339 745H207Z" />
<glyph unicode="&#xd5;" glyph-name="Otilde" horiz-adv-x="810" d="M405 -12Q292 -12 212 27T88 146T45 344Q45 463 88 541T211 659T405 699Q518 699 598 660T722 542T765 344Q765 225 722 146T599 28T405 -12ZM405 128Q448 128 481 141T536 179T570 240T581
321V365Q581 411 570 447T537 508T481 546T405 559Q361 559 328 546T273 508T240 447T229 365V321Q229 276 240 240T273 179T328 141T405 128ZM208 748Q208 783 221 813T262 861T327 880Q356 880 382 871T434 852T484 842Q500 842 511 851T526 880H601Q601 846
587 816T547 767T482 748Q453 748 427 757T376 777T325 787Q309 787 298 777T283 748H208Z" />
<glyph unicode="&#xd6;" glyph-name="Odieresis" horiz-adv-x="810" d="M405 -12Q292 -12 212 27T88 146T45 344Q45 463 88 541T211 659T405 699Q518 699 598 660T722 542T765 344Q765 225 722 146T599 28T405 -12ZM405 128Q448 128 481 141T536 179T570 240T581
321V365Q581 411 570 447T537 508T481 546T405 559Q361 559 328 546T273 508T240 447T229 365V321Q229 276 240 240T273 179T328 141T405 128ZM232 751V877H365V751H232ZM445 751V877H577V751H445Z" />
<glyph unicode="&#xd7;" glyph-name="multiply" horiz-adv-x="649" d="M167 19L84 102L242 260L84 418L166 500L325 342L483 501L566 418L406 259L565 102L482 19L325 178L167 19Z" />
<glyph unicode="&#xd8;" glyph-name="Oslash" horiz-adv-x="810" d="M405 -12Q292 -12 212 27T88 146T45 344Q45 463 88 541T211 659T405 699Q518 699 598 660T722 542T765 344Q765 225 722 146T599 28T405 -12ZM405 128Q448 128 481 141T536 179T570 240T581
321V365Q581 411 570 447T537 508T481 546T405 559Q361 559 328 546T273 508T240 447T229 365V321Q229 276 240 240T273 179T328 141T405 128ZM51 -42L652 729H757L156 -42H51Z" />
<glyph unicode="&#xd9;" glyph-name="Ugrave" horiz-adv-x="783" d="M391 -12Q292 -12 221 19T111 112T73 266V687H253V270Q253 204 288 166T391 128Q459 128 495 166T531 270V687H710V266Q710 174 672 112T563 19T391 -12ZM483 745H357L221 874L222 877H396L483 745Z" />
<glyph unicode="&#xda;" glyph-name="Uacute" horiz-adv-x="783" d="M391 -12Q292 -12 221 19T111 112T73 266V687H253V270Q253 204 288 166T391 128Q459 128 495 166T531 270V687H710V266Q710 174 672 112T563 19T391 -12ZM315 745L402 877H575L577 874L440 745H315Z" />
<glyph unicode="&#xdb;" glyph-name="Ucircumflex" horiz-adv-x="783" d="M391 -12Q292 -12 221 19T111 112T73 266V687H253V270Q253 204 288 166T391 128Q459 128 495 166T531 270V687H710V266Q710 174 672 112T563 19T391 -12ZM195 745L316 877H470L590 745H457L364
841H421L327 745H195Z" />
<glyph unicode="&#xdc;" glyph-name="Udieresis" horiz-adv-x="783" d="M391 -12Q292 -12 221 19T111 112T73 266V687H253V270Q253 204 288 166T391 128Q459 128 495 166T531 270V687H710V266Q710 174 672 112T563 19T391 -12ZM220 751V877H352V751H220ZM432 751V877H565V751H432Z"
/>
<glyph unicode="&#xdd;" glyph-name="Yacute" horiz-adv-x="732" d="M277 0V272L8 687H215L369 430H374L527 687H723L457 272V0H277ZM293 745L380 877H553L555 874L419 745H293Z" />
<glyph unicode="&#xde;" glyph-name="Thorn" horiz-adv-x="707" d="M77 0V687H257V582H437Q507 582 556 554T632 475T659 356Q659 286 632 235T555 156T434 127H257V0H77ZM257 265H392Q434 265 456 288T478 355Q478 383 469 402T440 432T392 443H257V265Z" />
<glyph unicode="&#xdf;" glyph-name="germandbls" horiz-adv-x="648" d="M71 0V515Q71 574 92 616T150 685T234 724T331 736Q382 736 426 725T505 692T560 634T580 551Q580 499 552 458T477 398V394Q536 375 571 325T606 211Q606 145 576 98T493 25T371 0H291V120H346Q374
120 395 134T429 171T441 223Q441 252 429 275T395 313T344 327H291V452H341Q365 452 382 463T409 493T419 535Q419 571 397 594T330 618Q301 618 280 607T246 576T234 527V0H71Z" />
<glyph unicode="&#xe0;" glyph-name="agrave" horiz-adv-x="616" d="M209 -12Q176 -12 145 -6T88 17T47 63T32 136Q32 193 56 229T125 285T235 314T380 322V355Q380 378 371 393T345 417T298 426Q272 426 253 420T223 403T213 375V366H53Q52 371 52 374T52 384Q52
431 81 466T166 520T299 539Q372 539 426 521T512 466T544 369V144Q544 127 553 117T577 107H611V6Q600 1 577 -5T520 -12Q486 -12 461 -4T419 20T396 57H389Q370 37 345 21T286 -3T209 -12ZM270 101Q294 101 314 108T348 127T371 158T380 197V232Q323 232 282
224T219 199T197 156Q197 137 206 125T232 107T270 101ZM383 590H263L127 719L128 723H296L383 590Z" />
<glyph unicode="&#xe1;" glyph-name="aacute" horiz-adv-x="616" d="M209 -12Q176 -12 145 -6T88 17T47 63T32 136Q32 193 56 229T125 285T235 314T380 322V355Q380 378 371 393T345 417T298 426Q272 426 253 420T223 403T213 375V366H53Q52 371 52 374T52 384Q52
431 81 466T166 520T299 539Q372 539 426 521T512 466T544 369V144Q544 127 553 117T577 107H611V6Q600 1 577 -5T520 -12Q486 -12 461 -4T419 20T396 57H389Q370 37 345 21T286 -3T209 -12ZM270 101Q294 101 314 108T348 127T371 158T380 197V232Q323 232 282
224T219 199T197 156Q197 137 206 125T232 107T270 101ZM215 590L301 723H470L471 719L335 590H215Z" />
<glyph unicode="&#xe2;" glyph-name="acircumflex" horiz-adv-x="616" d="M209 -12Q176 -12 145 -6T88 17T47 63T32 136Q32 193 56 229T125 285T235 314T380 322V355Q380 378 371 393T345 417T298 426Q272 426 253 420T223 403T213 375V366H53Q52 371 52 374T52
384Q52 431 81 466T166 520T299 539Q372 539 426 521T512 466T544 369V144Q544 127 553 117T577 107H611V6Q600 1 577 -5T520 -12Q486 -12 461 -4T419 20T396 57H389Q370 37 345 21T286 -3T209 -12ZM270 101Q294 101 314 108T348 127T371 158T380 197V232Q323 232
282 224T219 199T197 156Q197 137 206 125T232 107T270 101ZM106 590L227 723H371L492 590H363L270 687L327 686L233 590H106Z" />
<glyph unicode="&#xe3;" glyph-name="atilde" horiz-adv-x="616" d="M209 -12Q176 -12 145 -6T88 17T47 63T32 136Q32 193 56 229T125 285T235 314T380 322V355Q380 378 371 393T345 417T298 426Q272 426 253 420T223 403T213 375V366H53Q52 371 52 374T52 384Q52
431 81 466T166 520T299 539Q372 539 426 521T512 466T544 369V144Q544 127 553 117T577 107H611V6Q600 1 577 -5T520 -12Q486 -12 461 -4T419 20T396 57H389Q370 37 345 21T286 -3T209 -12ZM270 101Q294 101 314 108T348 127T371 158T380 197V232Q323 232 282
224T219 199T197 156Q197 137 206 125T232 107T270 101ZM102 592Q102 626 115 656T156 704T221 723Q250 723 276 714T327 695T378 685Q394 685 405 695T420 723H495Q495 689 481 660T441 611T376 592Q347 592 321 601T270 620T219 630Q203 630 192 620T177 592H102Z"
/>
<glyph unicode="&#xe4;" glyph-name="adieresis" horiz-adv-x="616" d="M209 -12Q176 -12 145 -6T88 17T47 63T32 136Q32 193 56 229T125 285T235 314T380 322V355Q380 378 371 393T345 417T298 426Q272 426 253 420T223 403T213 375V366H53Q52 371 52 374T52
384Q52 431 81 466T166 520T299 539Q372 539 426 521T512 466T544 369V144Q544 127 553 117T577 107H611V6Q600 1 577 -5T520 -12Q486 -12 461 -4T419 20T396 57H389Q370 37 345 21T286 -3T209 -12ZM270 101Q294 101 314 108T348 127T371 158T380 197V232Q323 232
282 224T219 199T197 156Q197 137 206 125T232 107T270 101ZM126 597V723H258V597H126ZM338 597V723H471V597H338Z" />
<glyph unicode="&#xe5;" glyph-name="aring" horiz-adv-x="616" d="M209 -12Q176 -12 145 -6T88 17T47 63T32 136Q32 193 56 229T125 285T235 314T380 322V355Q380 378 371 393T345 417T298 426Q272 426 253 420T223 403T213 375V366H53Q52 371 52 374T52 384Q52
431 81 466T166 520T299 539Q372 539 426 521T512 466T544 369V144Q544 127 553 117T577 107H611V6Q600 1 577 -5T520 -12Q486 -12 461 -4T419 20T396 57H389Q370 37 345 21T286 -3T209 -12ZM270 101Q294 101 314 108T348 127T371 158T380 197V232Q323 232 282
224T219 199T197 156Q197 137 206 125T232 107T270 101ZM299 577Q253 577 224 606T194 681Q194 726 223 756T299 786Q344 786 373 756T403 681Q403 636 374 607T299 577ZM299 637Q317 637 329 649T341 681Q341 700 329 712T299 725Q280 725 268 713T256 680Q256
661 268 649T299 637Z" />
<glyph unicode="&#xe6;" glyph-name="ae" horiz-adv-x="956" d="M245 -12Q204 -12 166 -6T98 17T50 64T32 141Q32 197 56 232T127 286T240 314T388 322V355Q388 378 380 393T352 417T303 426Q275 426 255 420T224 403T213 375V366H53Q52 371 52 374T52 384Q52
431 81 466T167 520T302 539Q361 539 409 526T489 487Q523 513 566 526T663 539Q746 539 803 510T889 421T919 266V231H553Q554 189 565 160T600 116T663 101Q686 101 704 107T734 124T753 152T759 188H919Q919 140 902 103T853 40T774 1T669 -12Q599 -12 545 6T455
61Q431 41 400 25T331 -2T245 -12ZM273 100Q298 100 319 106T355 126T379 157T388 197V231Q329 231 286 224T220 199T197 156Q197 136 207 124T234 106T273 100ZM555 322H752Q752 348 746 367T727 400T698 419T660 426Q627 426 605 414T570 379T555 322Z" />
<glyph unicode="&#xe7;" glyph-name="ccedilla" horiz-adv-x="612" d="M311 -12Q224 -12 163 18T70 109T37 264Q37 357 70 418T164 510T311 540Q367 540 414 527T497 487T552 419T571 321H410Q410 355 399 377T365 410T310 421Q272 421 249 405T214 358T203 281V245Q203
200 214 169T250 123T314 107Q348 107 370 117T405 150T417 207H571Q571 152 552 111T498 42T415 2T311 -12ZM308 -198Q278 -198 245 -195T190 -185V-132H289Q308 -132 319 -128T330 -109Q330 -96 322 -91T291 -85H249L266 26H354L345 -31Q367 -33 387 -41T421
-66T434 -110Q434 -137 422 -154T390 -181T349 -194T308 -198Z" />
<glyph unicode="&#xe8;" glyph-name="egrave" horiz-adv-x="619" d="M320 -12Q230 -12 167 17T71 108T37 264Q37 357 70 418T165 509T314 539Q400 539 459 510T550 421T581 266V231H203Q203 189 215 160T252 116T319 101Q344 101 363 107T395 124T415 152T422
188H581Q581 140 564 103T512 40T430 1T320 -12ZM204 322H414Q414 348 408 367T389 400T359 419T318 426Q282 426 258 414T221 379T204 322ZM398 592H277L141 721L142 724H311L398 592Z" />
<glyph unicode="&#xe9;" glyph-name="eacute" horiz-adv-x="619" d="M320 -12Q230 -12 167 17T71 108T37 264Q37 357 70 418T165 509T314 539Q400 539 459 510T550 421T581 266V231H203Q203 189 215 160T252 116T319 101Q344 101 363 107T395 124T415 152T422
188H581Q581 140 564 103T512 40T430 1T320 -12ZM204 322H414Q414 348 408 367T389 400T359 419T318 426Q282 426 258 414T221 379T204 322ZM229 592L316 724H484L486 721L349 592H229Z" />
<glyph unicode="&#xea;" glyph-name="ecircumflex" horiz-adv-x="619" d="M320 -12Q230 -12 167 17T71 108T37 264Q37 357 70 418T165 509T314 539Q400 539 459 510T550 421T581 266V231H203Q203 189 215 160T252 116T319 101Q344 101 363 107T395 124T415 152T422
188H581Q581 140 564 103T512 40T430 1T320 -12ZM204 322H414Q414 348 408 367T389 400T359 419T318 426Q282 426 258 414T221 379T204 322ZM120 592L242 724H385L506 592H378L284 688L341 687L248 592H120Z" />
<glyph unicode="&#xeb;" glyph-name="edieresis" horiz-adv-x="619" d="M320 -12Q230 -12 167 17T71 108T37 264Q37 357 70 418T165 509T314 539Q400 539 459 510T550 421T581 266V231H203Q203 189 215 160T252 116T319 101Q344 101 363 107T395 124T415 152T422
188H581Q581 140 564 103T512 40T430 1T320 -12ZM204 322H414Q414 348 408 367T389 400T359 419T318 426Q282 426 258 414T221 379T204 322ZM140 598V724H272V598H140ZM352 598V724H485V598H352Z" />
<glyph unicode="&#xec;" glyph-name="igrave" horiz-adv-x="288" d="M62 0V527H226V0H62ZM229 592H108L-28 721L-26 724H142L229 592Z" />
<glyph unicode="&#xed;" glyph-name="iacute" horiz-adv-x="288" d="M62 0V527H226V0H62ZM60 592L147 724H315L317 721L181 592H60Z" />
<glyph unicode="&#xee;" glyph-name="icircumflex" horiz-adv-x="288" d="M62 0V527H226V0H62ZM-48 592L73 724H216L337 592H209L115 688L173 687L79 592H-48Z" />
<glyph unicode="&#xef;" glyph-name="idieresis" horiz-adv-x="288" d="M62 0V527H226V0H62ZM-29 598V724H104V598H-29ZM183 598V724H316V598H183Z" />
<glyph unicode="&#xf0;" glyph-name="eth" horiz-adv-x="643" d="M321 -12Q233 -12 171 18T75 109T41 262Q41 344 70 403T154 495T284 527Q303 527 322 523T358 512L363 518Q350 537 336 555T305 592L141 577V650L240 660Q220 679 201 694T165 720L168 724H340Q348
719 358 712T380 696T404 676L551 690V616L472 609Q509 566 538 514T585 399T602 262Q602 170 569 109T473 18T321 -12ZM321 107Q362 107 387 123T424 169T436 243V280Q436 325 425 355T388 401T321 417Q280 417 255 402T219 356T207 281V244Q207 200 218 170T255
123T321 107Z" />
<glyph unicode="&#xf1;" glyph-name="ntilde" horiz-adv-x="629" d="M62 0V527H197L209 452H216Q236 479 262 499T321 529T391 539Q448 539 487 518T548 455T569 348V0H405V325Q405 347 400 362T384 389T359 405T325 410Q296 410 274 397T239 361T226 308V0H62ZM119
593Q119 627 133 657T173 705T238 724Q268 724 294 715T345 696T395 686Q412 686 423 696T438 724H513Q513 690 499 661T459 612T394 593Q365 593 339 602T287 621T237 631Q221 631 210 621T195 593H119Z" />
<glyph unicode="&#xf2;" glyph-name="ograve" horiz-adv-x="635" d="M317 -12Q229 -12 167 18T71 109T37 264Q37 357 70 418T166 509T317 539Q406 539 468 509T564 418T598 264Q598 171 565 110T469 18T317 -12ZM317 107Q358 107 383 123T420 169T432 245V282Q432
327 421 358T384 404T317 420Q277 420 252 405T215 358T203 282V245Q203 200 214 170T251 123T317 107ZM403 592H282L146 721L148 724H316L403 592Z" />
<glyph unicode="&#xf3;" glyph-name="oacute" horiz-adv-x="635" d="M317 -12Q229 -12 167 18T71 109T37 264Q37 357 70 418T166 509T317 539Q406 539 468 509T564 418T598 264Q598 171 565 110T469 18T317 -12ZM317 107Q358 107 383 123T420 169T432 245V282Q432
327 421 358T384 404T317 420Q277 420 252 405T215 358T203 282V245Q203 200 214 170T251 123T317 107ZM234 592L321 724H489L491 721L355 592H234Z" />
<glyph unicode="&#xf4;" glyph-name="ocircumflex" horiz-adv-x="635" d="M317 -12Q229 -12 167 18T71 109T37 264Q37 357 70 418T166 509T317 539Q406 539 468 509T564 418T598 264Q598 171 565 110T469 18T317 -12ZM317 107Q358 107 383 123T420 169T432 245V282Q432
327 421 358T384 404T317 420Q277 420 252 405T215 358T203 282V245Q203 200 214 170T251 123T317 107ZM126 592L247 724H390L511 592H383L289 688L347 687L253 592H126Z" />
<glyph unicode="&#xf5;" glyph-name="otilde" horiz-adv-x="635" d="M317 -12Q229 -12 167 18T71 109T37 264Q37 357 70 418T166 509T317 539Q406 539 468 509T564 418T598 264Q598 171 565 110T469 18T317 -12ZM317 107Q358 107 383 123T420 169T432 245V282Q432
327 421 358T384 404T317 420Q277 420 252 405T215 358T203 282V245Q203 200 214 170T251 123T317 107ZM121 593Q121 627 135 657T175 705T240 724Q269 724 295 715T347 696T397 686Q414 686 425 696T439 724H514Q514 690 501 661T461 612T395 593Q367 593 341
602T289 621T239 631Q223 631 212 621T197 593H121Z" />
<glyph unicode="&#xf6;" glyph-name="odieresis" horiz-adv-x="635" d="M317 -12Q229 -12 167 18T71 109T37 264Q37 357 70 418T166 509T317 539Q406 539 468 509T564 418T598 264Q598 171 565 110T469 18T317 -12ZM317 107Q358 107 383 123T420 169T432 245V282Q432
327 421 358T384 404T317 420Q277 420 252 405T215 358T203 282V245Q203 200 214 170T251 123T317 107ZM145 598V724H278V598H145ZM357 598V724H490V598H357Z" />
<glyph unicode="&#xf7;" glyph-name="divide" horiz-adv-x="649" d="M73 201V317H576V201H73ZM263 9V129H386V9H263ZM263 390V510H386V390H263Z" />
<glyph unicode="&#xf8;" glyph-name="oslash" horiz-adv-x="635" d="M317 -12Q229 -12 167 18T71 109T37 264Q37 357 70 418T166 509T317 539Q406 539 468 509T564 418T598 264Q598 171 565 110T469 18T317 -12ZM317 107Q358 107 383 123T420 169T432 245V282Q432
327 421 358T384 404T317 420Q277 420 252 405T215 358T203 282V245Q203 200 214 170T251 123T317 107ZM42 -43L506 571H593L130 -43H42Z" />
<glyph unicode="&#xf9;" glyph-name="ugrave" horiz-adv-x="629" d="M237 -12Q152 -12 106 35T59 179V527H223V202Q223 181 228 165T244 138T269 122T303 117Q332 117 354 130T389 167T402 219V527H566V0H431L421 75H414Q396 49 369 29T308 -1T237 -12ZM400 592H279L143
721L144 724H313L400 592Z" />
<glyph unicode="&#xfa;" glyph-name="uacute" horiz-adv-x="629" d="M237 -12Q152 -12 106 35T59 179V527H223V202Q223 181 228 165T244 138T269 122T303 117Q332 117 354 130T389 167T402 219V527H566V0H431L421 75H414Q396 49 369 29T308 -1T237 -12ZM231 592L318
724H486L488 721L351 592H231Z" />
<glyph unicode="&#xfb;" glyph-name="ucircumflex" horiz-adv-x="629" d="M237 -12Q152 -12 106 35T59 179V527H223V202Q223 181 228 165T244 138T269 122T303 117Q332 117 354 130T389 167T402 219V527H566V0H431L421 75H414Q396 49 369 29T308 -1T237 -12ZM122
592L244 724H387L508 592H380L286 688L343 687L250 592H122Z" />
<glyph unicode="&#xfc;" glyph-name="udieresis" horiz-adv-x="629" d="M237 -12Q152 -12 106 35T59 179V527H223V202Q223 181 228 165T244 138T269 122T303 117Q332 117 354 130T389 167T402 219V527H566V0H431L421 75H414Q396 49 369 29T308 -1T237 -12ZM142
598V724H274V598H142ZM354 598V724H487V598H354Z" />
<glyph unicode="&#xfd;" glyph-name="yacute" horiz-adv-x="574" d="M146 -197Q110 -197 83 -192T45 -182V-78H114Q142 -78 162 -66T193 -36T210 0L2 527H177L255 296Q261 280 268 255T283 203T296 155H302Q306 169 311 187T321 225T331 263T341 295L408 527H571L389
21Q372 -25 352 -65T303 -134T237 -180T146 -197ZM214 592L301 724H470L471 721L335 592H214Z" />
<glyph unicode="&#xfe;" glyph-name="thorn" horiz-adv-x="632" d="M62 -186V730H226V458H233Q246 483 267 501T318 529T381 539Q447 539 495 509T569 418T595 263Q595 170 569 109T494 18T381 -12Q350 -12 322 -5T272 17T233 54H226V-186H62ZM327 116Q365 116
387 131T419 175T429 246V281Q429 323 419 352T387 396T327 411Q301 411 282 402T250 374T231 331T225 276V252Q225 212 235 181T269 133T327 116Z" />
<glyph unicode="&#xff;" glyph-name="ydieresis" horiz-adv-x="574" d="M146 -197Q110 -197 83 -192T45 -182V-78H114Q142 -78 162 -66T193 -36T210 0L2 527H177L255 296Q261 280 268 255T283 203T296 155H302Q306 169 311 187T321 225T331 263T341 295L408 527H571L389
21Q372 -25 352 -65T303 -134T237 -180T146 -197ZM126 598V724H258V598H126ZM338 598V724H471V598H338Z" />
<glyph unicode="&#x2013;" glyph-name="endash" horiz-adv-x="500" d="M0 209V326H500V209H0Z" />
<glyph unicode="&#x2014;" glyph-name="emdash" horiz-adv-x="1000" d="M0 209V326H1000V209H0Z" />
<glyph unicode="&#x2018;" glyph-name="quoteleft" horiz-adv-x="279" d="M221 687V623Q198 621 180 605T151 565T140 511H217V357H58V494Q58 557 81 598T141 661T221 687Z" />
<glyph unicode="&#x2019;" glyph-name="quoteright" horiz-adv-x="279" d="M58 357V421Q81 424 99 439T128 480T139 534H62V687H221V550Q221 488 198 447T138 384T58 357Z" />
<glyph unicode="&#x201a;" glyph-name="quotesinglbase" horiz-adv-x="279" d="M58 -177V-113Q81 -110 99 -94T128 -54T139 0H62V154H221V16Q221 -46 198 -87T138 -149T58 -177Z" />
<glyph unicode="&#x201c;" glyph-name="quotedblleft" horiz-adv-x="496" d="M438 687V623Q415 621 397 605T368 565T357 511H435V357H276V494Q276 557 298 598T358 661T438 687ZM221 687V623Q198 621 180 605T151 565T140 511H217V357H58V494Q58 557 81 598T141
661T221 687Z" />
<glyph unicode="&#x201d;" glyph-name="quotedblright" horiz-adv-x="496" d="M58 357V421Q81 424 99 439T128 480T139 534H62V687H221V550Q221 488 198 447T138 384T58 357ZM276 357V421Q298 424 316 439T345 480T356 534H279V687H438V550Q438 488 415 447T355
384T276 357Z" />
<glyph unicode="&#x201e;" glyph-name="quotedblbase" horiz-adv-x="496" d="M58 -177V-113Q81 -110 99 -94T128 -54T139 0H62V154H221V16Q221 -46 198 -87T138 -149T58 -177ZM276 -177V-113Q298 -110 316 -94T345 -54T356 0H279V154H438V16Q438 -46 415 -87T355
-149T276 -177Z" />
<glyph unicode="&#x2022;" glyph-name="bullet" horiz-adv-x="466" d="M233 196Q190 196 157 215T104 268T85 344Q85 387 104 420T156 473T233 492Q276 492 309 473T362 421T381 344Q381 301 362 268T310 216T233 196Z" />
<glyph unicode="&#x2039;" glyph-name="guilsinglleft" horiz-adv-x="358" d="M199 122L43 325L199 527H318L190 325L318 122H199Z" />
<glyph unicode="&#x203a;" glyph-name="guilsinglright" horiz-adv-x="358" d="M159 530L315 327L159 125H40L167 327L40 530H159Z" />
</font>
</defs>
</svg>
