<?xml version="1.0" standalone="no"?>
<!DOCTYPE svg PUBLIC "-//W3C//DTD SVG 1.1//EN" "http://www.w3.org/Graphics/SVG/1.1/DTD/svg11.dtd">
<svg xmlns="http://www.w3.org/2000/svg">
<defs >
<font id="Archivo" horiz-adv-x="575" ><font-face
    font-family="Archivo Black"
    units-per-em="1000"
    panose-1="0 0 0 0 0 0 0 0 0 0"
    ascent="878"
    descent="-210"
    alphabetic="0" />
<glyph unicode=" " glyph-name="space" horiz-adv-x="180" />
<glyph unicode="!" glyph-name="exclam" horiz-adv-x="333" d="M105 246L64 688H270L228 246H105ZM68 0V185H266V0H68Z" />
<glyph unicode="&quot;" glyph-name="quotedbl" horiz-adv-x="497" d="M104 398L57 541V688H220V541L172 398H104ZM323 398L276 541V688H439V541L391 398H323Z" />
<glyph unicode="#" glyph-name="numbersign" horiz-adv-x="660" d="M85 -11L121 159H21V268H147L175 390H67V502H197L241 700H363L318 502H429L473 700H593L547 502H640V390H527L501 268H607V159H473L436 -11H319L356 159H241L205 -11H85ZM266 267H380L407 390H293L266
267Z" />
<glyph unicode="$" glyph-name="dollar" horiz-adv-x="611" d="M264 -67V756H342V-67H264ZM304 68Q256 68 209 77T122 107T58 160T34 238Q34 241 34 244T35 252H220Q219 249 219 246T219 241Q220 223 231 211T262 193T304 187Q318 187 337 189T372 199T387 226Q387
243 370 251T324 265T261 277Q224 283 187 292T117 319T66 366T46 441Q46 493 67 528T126 583T211 612T311 621Q356 621 400 613T482 586T541 537T563 464Q563 461 563 457T562 450H379V458Q379 473 369 482T342 496T308 501Q302 501 290 501T266 497T245 487T236
467Q236 455 247 448T278 436T322 426Q360 419 404 413T487 391T552 344T577 255Q577 201 555 165T495 107T408 77T304 68Z" />
<glyph unicode="%" glyph-name="percent" horiz-adv-x="1000" d="M236 0L655 687H764L347 0H236ZM235 342Q170 342 130 364T70 427T51 520Q51 574 70 614T129 677T235 700Q300 700 340 678T399 615T418 520Q418 467 400 427T341 365T235 342ZM235 418Q268 418
281 443T294 505V537Q294 562 289 581T270 612T235 624Q203 624 189 600T175 537V505Q175 468 189 443T235 418ZM767 -12Q702 -12 662 10T602 73T583 166Q583 220 602 260T661 323T767 346Q832 346 872 324T931 261T950 166Q950 113 932 73T873 11T767 -12ZM767
64Q800 64 813 89T826 151V183Q826 208 821 227T802 258T767 270Q735 270 721 246T707 183V151Q707 114 721 89T767 64Z" />
<glyph unicode="&amp;" glyph-name="ampersand" horiz-adv-x="889" d="M423 -12Q302 -12 225 15T112 88T75 192Q75 253 107 296T195 357V361Q153 377 124 415T95 503Q95 556 131 601T238 673T417 700Q522 700 596 675T710 607T749 512V487H572L571 501Q570 518
555 531T509 551T433 559Q398 559 373 552T331 533T307 506T299 475Q299 453 309 439T335 419T370 412H474V289H348Q329 289 313 281T288 258T278 217Q278 192 292 172T338 141T422 129Q481 129 513 141T559 173T572 218V412H888V289H751V222Q751 151 718 98T613
17T423 -12Z" />
<glyph unicode="&apos;" glyph-name="quotesingle" horiz-adv-x="278" d="M104 398L57 541V688H220V541L172 398H104Z" />
<glyph unicode="(" glyph-name="parenleft" horiz-adv-x="389" d="M235 -160Q149 -68 102 49T55 288Q55 411 102 528T235 737H355Q316 676 286 598T239 440T222 288Q222 217 239 137T286 -21T355 -160H235Z" />
<glyph unicode=")" glyph-name="parenright" horiz-adv-x="389" d="M154 738Q240 646 287 529T334 290Q334 167 287 50T154 -159H34Q74 -97 103 -20T150 139T167 290Q167 361 150 441T104 599T34 738H154Z" />
<glyph unicode="*" glyph-name="asterisk" horiz-adv-x="407" d="M157 322L169 444L68 373L21 454L133 505L21 557L68 637L169 566L157 688H250L238 567L339 637L386 557L274 505L386 454L339 373L238 444L250 322H157Z" />
<glyph unicode="+" glyph-name="plus" horiz-adv-x="660" d="M264 0V198H66V330H264V528H396V330H594V198H396V0H264Z" />
<glyph unicode="," glyph-name="comma" horiz-adv-x="333" d="M61 -192V-107Q86 -105 109 -91T148 -52T164 0H61V199H273V23Q273 -45 244 -91T166 -162T61 -192Z" />
<glyph unicode="-" glyph-name="hyphen" horiz-adv-x="333" d="M40 196V354H293V196H40Z" />
<glyph unicode="." glyph-name="period" horiz-adv-x="333" d="M61 0V199H273V0H61Z" />
<glyph unicode="/" glyph-name="slash" horiz-adv-x="306" d="M0 -48L185 736H306L121 -48H0Z" />
<glyph unicode="0" glyph-name="zero" horiz-adv-x="667" d="M334 -12Q249 -12 192 13T102 86T55 198T41 344Q41 424 55 489T102 602T192 674T334 700Q420 700 476 675T565 602T612 490T626 344Q626 264 612 199T566 86T477 14T334 -12ZM334 123Q369 123 390 141T420
197T429 295V394Q429 455 420 492T390 547T334 565Q299 565 278 548T248 493T238 394V295Q238 235 247 197T278 141T334 123Z" />
<glyph unicode="1" glyph-name="one" horiz-adv-x="667" d="M105 0V154H268V465H105V581Q152 584 205 600T310 640T400 689H467V154H624V0H105Z" />
<glyph unicode="2" glyph-name="two" horiz-adv-x="667" d="M49 0V48Q49 90 67 127T115 198T183 262T259 322Q299 352 334 377T391 428T413 486Q413 505 404 521T377 548T327 559Q296 559 275 547T242 514T230 465V445H52Q51 451 51 456T51 467Q51 538 83 590T181
671T346 700Q407 700 456 686T539 644T592 578T611 493Q611 447 594 410T546 341T475 279T388 218Q364 202 349 192T327 176T318 169H619V0H49Z" />
<glyph unicode="3" glyph-name="three" horiz-adv-x="667" d="M335 -12Q235 -12 170 15T74 87T42 186V207H218V188Q218 162 243 144T322 125Q380 125 403 151T426 217Q426 242 417 257T392 281T356 289H283V412H340Q360 412 375 420T400 444T410 484Q410 505 400
523T371 552T322 563Q297 563 276 554T243 529T231 497V487H64V512Q64 564 96 606T189 674T339 700Q424 700 483 675T574 607T605 513Q605 479 593 448T558 395T505 361V357Q562 339 593 295T625 187Q623 132 592 87T497 15T335 -12Z" />
<glyph unicode="4" glyph-name="four" horiz-adv-x="667" d="M358 0V141H23V290Q56 338 91 403T160 545T215 700H411Q407 667 389 625T344 536T285 444T221 358T160 288H358V431Q371 449 386 475T418 529T446 585T463 634H548V288H644V141H548V0H358Z" />
<glyph unicode="5" glyph-name="five" horiz-adv-x="667" d="M343 -12Q243 -12 176 17T74 99T39 222H215Q215 196 227 174T263 139T322 126Q357 126 380 139T416 176T428 228Q428 258 416 281T381 317T323 331Q290 331 271 321T243 300T227 281L69 303L98 688H574V518H247L239
414Q239 414 256 425T307 447T386 459Q459 459 512 431T595 351T625 225Q625 160 591 106T493 20T343 -12Z" />
<glyph unicode="6" glyph-name="six" horiz-adv-x="667" d="M339 -12Q264 -12 208 8T115 70T60 176T41 327Q41 427 59 498T115 613T208 679T339 700Q421 700 482 674T579 596T614 468H436Q436 501 425 522T392 554T342 565Q302 565 280 547T250 490T242 387Q263
406 288 417T340 433T387 439Q455 439 510 415T598 344T631 228Q631 151 595 98T494 16T339 -12ZM339 123Q371 123 393 134T426 166T438 219Q438 251 427 273T394 307T340 319Q309 319 287 308T254 275T242 221Q242 190 253 168T286 135T339 123Z" />
<glyph unicode="7" glyph-name="seven" horiz-adv-x="667" d="M158 0Q158 71 174 140T219 274T288 400T375 516H45V688H625V597Q587 550 551 501T484 399T430 291T393 178T380 59V0H158Z" />
<glyph unicode="8" glyph-name="eight" horiz-adv-x="667" d="M332 -12Q243 -12 178 11T77 79T41 189Q41 251 71 286T150 349Q100 389 83 421T66 497Q66 563 101 608T197 676T332 700Q406 700 467 677T564 608T600 497Q600 452 583 420T516 349Q566 321 596 286T626
189Q626 124 590 79T487 11T332 -12ZM332 123Q373 123 400 144T427 205Q427 246 399 266T332 287Q295 287 268 267T240 205Q240 165 266 144T332 123ZM332 414Q370 414 398 431T427 489Q427 530 400 547T332 565Q292 565 266 548T240 489Q240 449 267 432T332 414Z"
/>
<glyph unicode="9" glyph-name="nine" horiz-adv-x="667" d="M328 -12Q247 -12 185 14T88 92T53 220H231Q231 188 242 166T275 134T325 123Q366 123 387 141T417 199T425 301Q405 283 379 272T328 255T280 249Q212 249 157 273T69 344T36 460Q36 537 72 590T173
672T328 700Q403 700 459 680T552 618T607 512T626 361Q626 261 608 190T552 75T459 9T328 -12ZM326 369Q358 369 380 380T413 412T425 465Q425 497 414 519T381 553T327 565Q296 565 274 554T241 521T229 467Q229 436 240 414T273 381T326 369Z" />
<glyph unicode=":" glyph-name="colon" horiz-adv-x="333" d="M61 328V528H273V328H61ZM61 0V199H273V0H61Z" />
<glyph unicode=";" glyph-name="semicolon" horiz-adv-x="333" d="M61 -192V-107Q86 -105 109 -91T148 -52T164 0H61V199H273V23Q273 -45 244 -91T166 -162T61 -192ZM61 328V528H273V328H61Z" />
<glyph unicode="&lt;" glyph-name="less" horiz-adv-x="660" d="M582 -13L57 189V332L582 535V392L223 260L582 129V-13Z" />
<glyph unicode="=" glyph-name="equal" horiz-adv-x="660" d="M66 311V443H594V311H66ZM66 85V217H594V85H66Z" />
<glyph unicode="&gt;" glyph-name="greater" horiz-adv-x="660" d="M78 -13V129L437 260L78 392V535L603 332V189L78 -13Z" />
<glyph unicode="?" glyph-name="question" horiz-adv-x="611" d="M224 246V296Q224 314 233 330T257 361T289 391T320 421T344 454T354 492Q354 506 350 518T338 541T319 556T293 562Q271 562 258 555T237 536T226 509T223 478Q223 471 223 465T224 451H40Q39
461 38 470T37 489Q37 528 50 561T87 619T146 663T221 690T310 700Q356 700 395 691T466 664T520 621T554 565T566 496Q566 462 554 436T522 388T481 351T440 320T408 293T395 267V246H224ZM212 0V185H410V0H212Z" />
<glyph unicode="@" glyph-name="at" horiz-adv-x="1010" d="M470 -158Q336 -158 241 -114T96 23T45 262Q45 382 83 466T187 602T338 679T519 703Q614 703 695 681T836 613T931 494T965 321Q965 253 952 203T915 118T861 62T797 32T729 22Q691 22 664 32T620 56T598
84H592Q576 66 556 52T509 29T442 21Q415 21 388 29T339 55T304 99T290 162Q290 210 311 242T370 293T460 321T574 330V356Q574 375 570 389T553 413T517 422Q487 422 473 414T454 396T450 375V361H315Q314 366 314 370T314 381Q314 421 339 452T410 502T513 521Q580
521 624 503T691 450T714 366V165Q714 141 725 133T753 124Q783 124 805 143T839 205T851 322Q851 423 809 484T692 573T518 601Q406 601 326 565T202 453T158 261Q158 103 236 24T480 -56Q508 -56 545 -52T617 -40T674 -24V-127Q647 -135 611 -142T538 -154T470
-158ZM486 119Q514 119 531 126T558 148T570 181T574 222V237Q532 237 500 233T450 214T431 169Q431 158 437 146T455 127T486 119Z" />
<glyph unicode="A" glyph-name="A" horiz-adv-x="778" d="M10 0L261 688H518L769 0H535L506 97H265L236 0H10ZM311 251H461L428 361Q424 373 419 390T409 426T399 463T390 496H382Q378 478 372 455T358 408T344 361L311 251Z" />
<glyph unicode="B" glyph-name="B" horiz-adv-x="778" d="M74 0V688H532Q584 688 627 667T696 607T722 519Q722 469 706 437T664 387T607 359V355Q643 347 672 328T720 273T738 183Q738 128 711 87T639 23T538 0H74ZM295 160H463Q486 160 500 176T514 224Q514
239 508 251T490 271T463 278H295V160ZM295 420H447Q463 420 474 427T491 449T498 484Q498 506 483 521T447 537H295V420Z" />
<glyph unicode="C" glyph-name="C" horiz-adv-x="778" d="M402 -12Q285 -12 206 28T86 147T45 344Q45 520 135 610T402 700Q502 700 576 667T692 567T733 405H522Q522 445 508 474T468 519T401 535Q354 535 326 515T284 459T271 376V312Q271 265 284 229T326 173T399
153Q443 153 471 168T514 211T529 279H733Q733 185 694 120T581 22T402 -12Z" />
<glyph unicode="D" glyph-name="D" horiz-adv-x="778" d="M74 0V688H372Q490 688 570 651T691 538T733 344Q733 227 692 151T570 37T372 0H74ZM295 165H368Q404 165 430 175T474 204T499 251T507 314V374Q507 409 499 437T474 484T431 513T368 523H295V165Z" />
<glyph unicode="E" glyph-name="E" horiz-adv-x="722" d="M77 0V688H672V523H298V428H618V270H298V165H679V0H77Z" />
<glyph unicode="F" glyph-name="F" horiz-adv-x="667" d="M74 0V688H630V523H295V405H583V247H295V0H74Z" />
<glyph unicode="G" glyph-name="G" horiz-adv-x="833" d="M388 -12Q216 -12 131 78T45 344Q45 462 89 541T217 660T420 700Q492 700 555 684T667 635T743 553T770 439H559Q559 461 549 479T520 509T479 528T429 535Q390 535 360 525T311 493T281 443T271 376V312Q271
262 288 227T341 172T429 153Q464 153 493 163T541 194T559 240V244H403V384H770V0H656L634 68Q603 42 566 24T485 -3T388 -12Z" />
<glyph unicode="H" glyph-name="H" horiz-adv-x="833" d="M74 0V688H295V437H538V688H759V0H538V261H295V0H74Z" />
<glyph unicode="I" glyph-name="I" horiz-adv-x="369" d="M74 0V688H295V0H74Z" />
<glyph unicode="J" glyph-name="J" horiz-adv-x="667" d="M308 -12Q219 -12 155 14T57 95T23 239V248H230V240Q230 192 248 173T301 153Q336 153 354 172T372 240V688H593V239Q593 151 559 96T461 14T308 -12Z" />
<glyph unicode="K" glyph-name="K" horiz-adv-x="833" d="M74 0V688H295V394L540 688H814L567 405L819 0H558L412 257L295 144V0H74Z" />
<glyph unicode="L" glyph-name="L" horiz-adv-x="667" d="M74 0V688H295V176H648V0H74Z" />
<glyph unicode="M" glyph-name="M" horiz-adv-x="972" d="M74 0V688H382L445 446Q449 433 456 403T472 338T488 273H496Q501 295 508 325T524 388T538 446L601 688H898V0H687V248Q687 288 687 330T688 411T689 474H681Q678 454 673 427T661 374T649 327L560 0H395L305
327Q300 347 294 373T282 427T273 473H265Q266 448 267 410T268 330T269 248V0H74Z" />
<glyph unicode="N" glyph-name="N" horiz-adv-x="833" d="M74 0V688H262L476 441Q485 431 500 412T530 374T554 342L559 344Q558 372 558 399T558 441V688H759V0H572L331 275Q314 295 302 311T279 343L274 341Q275 322 275 303T275 275V0H74Z" />
<glyph unicode="O" glyph-name="O" horiz-adv-x="833" d="M416 -12Q299 -12 216 28T89 147T45 344Q45 462 89 541T216 660T416 700Q534 700 617 660T744 541T788 344Q788 227 744 148T617 28T416 -12ZM416 153Q452 153 479 164T525 197T553 247T562 312V376Q562
411 553 440T526 491T480 523T416 535Q380 535 353 524T307 491T280 441T271 376V312Q271 277 280 248T307 197T352 165T416 153Z" />
<glyph unicode="P" glyph-name="P" horiz-adv-x="722" d="M74 0V688H480Q545 688 594 659T672 577T700 456Q700 385 672 333T594 251T480 222H295V0H74ZM295 383H406Q441 383 458 401T476 454Q476 478 469 493T446 517T406 525H295V383Z" />
<glyph unicode="Q" glyph-name="Q" horiz-adv-x="833" d="M512 -131L405 -8Q401 -9 396 -9T385 -10Q279 -10 203 31T86 152T45 344Q45 462 89 541T216 660T416 700Q534 700 617 660T744 541T788 344Q788 227 744 148T618 28L775 -131H512ZM416 153Q452 153 479
164T525 197T553 247T562 312V376Q562 411 553 440T526 491T480 523T416 535Q380 535 353 524T307 491T280 441T271 376V312Q271 277 280 248T307 197T352 165T416 153Z" />
<glyph unicode="R" glyph-name="R" horiz-adv-x="778" d="M74 0V688H505Q582 688 633 657T711 576T737 468Q737 402 706 351T622 268L757 0H509L404 231H295V0H74ZM295 384H450Q476 384 494 404T512 459Q512 480 504 496T482 521T450 531H295V384Z" />
<glyph unicode="S" glyph-name="S" horiz-adv-x="722" d="M383 -12Q312 -12 251 -2T143 34T70 105T43 220Q43 222 43 225T44 233H253Q252 229 252 226T252 219Q252 189 266 173T305 152T363 146Q375 146 388 146T414 149T437 157T454 170T460 192Q460 211 443
222T397 241T332 256T257 272T182 297T117 335T71 394T54 480Q54 540 79 582T147 650T246 688T363 700Q425 700 479 688T576 649T642 583T667 488V476H460V480Q460 498 451 514T423 540T371 550Q341 550 321 544T290 528T280 505Q280 486 297 474T343 454T408 439T483
424T558 401T623 365T669 309T686 228Q686 143 647 90T539 13T383 -12Z" />
<glyph unicode="T" glyph-name="T" horiz-adv-x="722" d="M249 0V512H23V688H695V512H470V0H249Z" />
<glyph unicode="U" glyph-name="U" horiz-adv-x="833" d="M417 -12Q309 -12 233 20T115 117T74 277V688H295V280Q295 225 325 189T416 153Q477 153 507 189T538 280V688H759V277Q759 182 719 118T602 21T417 -12Z" />
<glyph unicode="V" glyph-name="V" horiz-adv-x="778" d="M261 0L17 688H253L348 370Q352 357 359 332T374 279T389 228H397Q403 249 411 276T426 328T438 370L534 688H760L517 0H261Z" />
<glyph unicode="W" glyph-name="W" horiz-adv-x="1000" d="M166 0L5 688H235L295 394Q297 386 300 370T307 334T314 298H318Q320 307 322 319T327 345T332 371T337 394L396 688H614L677 394Q679 384 682 367T690 332T697 298H701Q703 308 705 320T710 346T714
371T719 394L775 688H995L834 0H591L523 322Q521 335 517 352T509 388T502 419H498Q495 407 492 390T484 355T477 322L409 0H166Z" />
<glyph unicode="X" glyph-name="X" horiz-adv-x="778" d="M4 0L250 364L28 688H295L399 512H403L508 688H755L532 363L778 0H510L383 214H379L252 0H4Z" />
<glyph unicode="Y" glyph-name="Y" horiz-adv-x="778" d="M280 0V267L7 688H261L393 459H397L529 688H770L501 267V0H280Z" />
<glyph unicode="Z" glyph-name="Z" horiz-adv-x="722" d="M24 0V71L343 523H48V688H683V617L364 165H691V0H24Z" />
<glyph unicode="[" glyph-name="bracketleft" horiz-adv-x="389" d="M76 -160V737H349V634H235V-57H349V-160H76Z" />
<glyph unicode="\" glyph-name="backslash" horiz-adv-x="306" d="M306 -48H185L0 736H121L306 -48Z" />
<glyph unicode="]" glyph-name="bracketright" horiz-adv-x="389" d="M313 734V-163H40V-60H154V631H40V734H313Z" />
<glyph unicode="^" glyph-name="asciicircum" horiz-adv-x="660" d="M86 337L259 688H402L575 337H433L332 549L230 337H86Z" />
<glyph unicode="_" glyph-name="underscore" horiz-adv-x="556" d="M0 -180V-62H556V-180H0Z" />
<glyph unicode="`" glyph-name="grave" horiz-adv-x="297" d="M297 592H160L0 721L2 725H205L297 592Z" />
<glyph unicode="a" glyph-name="a" horiz-adv-x="667" d="M216 -12Q175 -12 141 -5T82 20T44 66T30 136Q30 195 54 232T126 289T240 316T395 324V350Q395 372 385 385T357 406T318 413Q301 413 283 409T254 395T242 367V363H46Q45 367 45 370T45 377Q45 426 76
462T169 519T321 540Q394 540 456 524T556 471T594 368V162Q594 146 602 135T626 123H662V8Q650 1 623 -5T558 -12Q518 -12 488 -4T440 19T414 54H407Q386 35 359 20T296 -3T216 -12ZM297 112Q316 112 333 117T365 132T387 155T395 185V230Q336 230 300 221T246
197T229 162Q229 142 239 131T264 116T297 112Z" />
<glyph unicode="b" glyph-name="b" horiz-adv-x="667" d="M408 -12Q357 -12 314 9T244 75H237L223 0H61V725H260V479H267Q283 499 305 512T353 533T408 540Q478 540 528 510T604 418T631 265Q631 172 605 111T528 19T408 -12ZM346 135Q377 135 396 147T423 183T432
237V290Q432 321 424 344T396 380T346 393Q323 393 306 384T279 360T263 324T258 280V247Q258 216 267 191T295 150T346 135Z" />
<glyph unicode="c" glyph-name="c" horiz-adv-x="667" d="M333 -12Q243 -12 177 18T73 110T36 264Q36 357 73 418T176 510T333 541Q393 541 446 528T539 488T601 418T624 315H431Q431 346 420 366T386 395T333 405Q298 405 277 392T245 353T235 292V235Q235 200
245 175T278 137T337 123Q370 123 392 132T427 162T439 215H624Q624 155 602 112T539 41T446 1T333 -12Z" />
<glyph unicode="d" glyph-name="d" horiz-adv-x="667" d="M259 -12Q189 -12 139 18T63 110T36 265Q36 357 62 418T139 509T259 540Q287 540 313 534T362 514T400 479H407V725H606V0H444L430 75H423Q395 30 353 9T259 -12ZM321 135Q352 135 371 150T400 190T409
247V280Q409 303 404 323T389 359T361 384T321 393Q290 393 271 380T244 344T235 290V237Q235 206 243 183T271 148T321 135Z" />
<glyph unicode="e" glyph-name="e" horiz-adv-x="667" d="M345 -12Q250 -12 181 17T74 108T36 264Q36 357 73 418T176 509T333 540Q428 540 494 511T596 420T631 264V230H235Q235 194 245 168T279 129T341 115Q368 115 386 121T416 137T433 162T438 192H631Q631
145 613 107T559 43T470 2T345 -12ZM236 324H430Q430 345 424 361T407 389T379 407T341 413Q308 413 286 402T252 372T236 324Z" />
<glyph unicode="f" glyph-name="f" horiz-adv-x="389" d="M82 0V393H8V528H82V550Q82 622 106 663T174 720T275 737Q290 737 310 735T350 728T383 719V602H337Q304 602 293 590T281 549V528H383V393H281V0H82Z" />
<glyph unicode="g" glyph-name="g" horiz-adv-x="666" d="M143 -210Q107 -210 77 -193T28 -147T10 -81Q10 -40 35 -9T94 37Q70 54 56 78T42 130Q42 170 71 201T143 243Q107 266 83 298T58 369Q58 435 95 472T194 524T330 540Q360 540 380 539T417 534Q461 561
478 587T495 627H659Q659 584 645 556T603 511T537 484Q566 462 582 433T599 370Q599 311 568 274T487 218T377 200H301Q267 200 253 192T238 171Q238 158 250 149T301 140H481Q573 140 616 93T659 -29Q659 -85 628 -125T547 -188T437 -210H143ZM251 -99H407Q422
-99 434 -93T453 -76T460 -49Q460 -26 445 -13T407 0H251Q229 0 214 -12T199 -48Q199 -71 214 -85T251 -99ZM328 304Q363 304 384 320T405 370Q405 404 384 420T328 436Q297 436 275 420T253 370Q253 348 262 333T288 311T328 304Z" />
<glyph unicode="h" glyph-name="h" horiz-adv-x="667" d="M60 0V725H259V473H266Q283 495 309 509T365 532T424 540Q487 540 527 517T588 449T608 342V0H409V318Q409 335 405 348T392 372T372 387T342 393Q317 393 299 382T270 352T259 310V0H60Z" />
<glyph unicode="i" glyph-name="i" horiz-adv-x="319" d="M60 590V725H259V590H60ZM60 0V528H259V0H60Z" />
<glyph unicode="j" glyph-name="j" horiz-adv-x="316" d="M60 590V725H259V590H60ZM76 -210Q60 -210 37 -208T-9 -202T-48 -192V-73H4Q34 -73 47 -57T60 -9V528H259V-29Q259 -93 240 -133T181 -191T76 -210Z" />
<glyph unicode="k" glyph-name="k" horiz-adv-x="667" d="M60 0V726H259V326L428 528H660L465 315L665 0H439L328 181L259 114V0H60Z" />
<glyph unicode="l" glyph-name="l" horiz-adv-x="319" d="M60 0V725H259V0H60Z" />
<glyph unicode="m" glyph-name="m" horiz-adv-x="1000" d="M60 0V528H223L236 449H243Q262 479 290 499T351 530T420 540Q481 540 521 517T580 449H587Q606 479 633 499T694 530T761 540Q822 540 862 517T921 449T941 342V0H742V318Q742 335 738 348T726 372T706
387T679 393Q655 393 637 382T610 352T600 310V0H401V318Q401 335 397 348T385 372T365 387T338 393Q314 393 297 382T269 352T259 310V0H60Z" />
<glyph unicode="n" glyph-name="n" horiz-adv-x="667" d="M60 0V528H223L236 448H243Q264 479 292 499T354 530T424 540Q487 540 527 517T588 449T608 342V0H409V318Q409 335 405 348T392 372T372 387T342 393Q317 393 299 382T270 352T259 310V0H60Z" />
<glyph unicode="o" glyph-name="o" horiz-adv-x="667" d="M333 -12Q243 -12 177 18T73 110T36 264Q36 357 73 418T176 509T333 540Q423 540 490 510T594 418T631 264Q631 172 594 111T490 19T333 -12ZM333 123Q368 123 390 136T422 175T432 235V292Q432 327 422
352T390 391T333 405Q298 405 277 392T245 353T235 292V235Q235 200 245 175T276 137T333 123Z" />
<glyph unicode="p" glyph-name="p" horiz-adv-x="667" d="M61 -197V528H223L240 453H247Q275 500 316 520T408 540Q478 540 528 510T604 418T631 263Q631 171 605 110T528 19T408 -12Q380 -12 354 -6T305 13T267 48H260V-197H61ZM346 135Q377 135 396 148T423
184T432 238V291Q432 322 424 345T396 380T346 393Q315 393 296 378T267 338T258 281V248Q258 225 263 205T278 169T306 144T346 135Z" />
<glyph unicode="q" glyph-name="q" horiz-adv-x="667" d="M407 -197V48H400Q382 29 360 16T313 -5T259 -12Q189 -12 139 18T63 110T36 263Q36 356 62 417T139 509T259 540Q310 540 352 518T420 453H427L444 528H606V-197H407ZM321 135Q344 135 361 144T388 168T404
204T409 248V281Q409 312 400 337T372 378T321 393Q290 393 271 381T244 345T235 291V238Q235 207 243 184T271 148T321 135Z" />
<glyph unicode="r" glyph-name="r" horiz-adv-x="444" d="M60 0V528H223L236 448H243Q256 478 276 499T324 530T381 541Q401 541 417 537T440 529V362H376Q344 362 322 354T286 329T266 289T259 235V0H60Z" />
<glyph unicode="s" glyph-name="s" horiz-adv-x="611" d="M304 -12Q256 -12 209 -3T122 27T58 80T34 158Q34 161 34 164T35 172H220Q219 169 219 166T219 161Q220 143 231 131T262 113T304 107Q318 107 337 109T372 119T387 146Q387 163 370 171T324 185T261 197Q224
203 187 212T117 239T66 286T46 361Q46 413 67 448T126 503T211 532T311 541Q356 541 400 533T482 506T541 457T563 384Q563 381 563 377T562 370H379V378Q379 393 369 402T342 416T308 421Q302 421 290 421T266 417T245 407T236 387Q236 375 247 368T278 356T322
346Q360 339 404 333T487 311T552 264T577 175Q577 121 555 85T495 27T408 -3T304 -12Z" />
<glyph unicode="t" glyph-name="t" horiz-adv-x="444" d="M284 -12Q230 -12 189 0T124 44T101 129V393H27V528H109L152 688H300V528H412V393H300V192Q300 158 311 141T356 123H412V6Q396 1 373 -3T326 -10T284 -12Z" />
<glyph unicode="u" glyph-name="u" horiz-adv-x="667" d="M242 -12Q148 -12 103 40T58 186V528H257V210Q257 194 261 180T274 156T295 141T324 135Q349 135 367 146T396 177T407 218V528H606V0H443L433 80H426Q407 51 378 30T313 -1T242 -12Z" />
<glyph unicode="v" glyph-name="v" horiz-adv-x="611" d="M200 0L0 528H214L265 357Q270 343 277 315T294 256T311 199H318Q325 223 334 253T351 312T364 357L415 528H611L409 0H200Z" />
<glyph unicode="w" glyph-name="w" horiz-adv-x="944" d="M193 0L0 528H215L256 367Q260 354 266 328T280 271T294 216H301Q308 241 314 266T328 316T341 366L384 528H582L624 365Q628 351 634 325T648 269T662 216H669Q674 236 681 263T695 317T707 365L750 528H944L750
0H556L506 178Q501 195 495 216T484 258T474 294H470Q467 280 462 260T450 219T438 179L387 0H193Z" />
<glyph unicode="x" glyph-name="x" horiz-adv-x="667" d="M4 0L207 280L24 528H258L342 388H346L430 528H650L464 275L662 0H430L330 166H326L225 0H4Z" />
<glyph unicode="y" glyph-name="y" horiz-adv-x="611" d="M156 -210Q120 -210 90 -205T41 -192V-73H121Q156 -73 174 -60T200 -30T210 0L0 528H214L276 314Q281 299 288 274T302 223T315 177H322Q326 191 330 209T340 246T350 283T358 313L415 528H611L423 16Q405
-33 383 -74T330 -146T257 -193T156 -210Z" />
<glyph unicode="z" glyph-name="z" horiz-adv-x="556" d="M20 0V65L242 393H32V528H526V466L302 135H535V0H20Z" />
<glyph unicode="{" glyph-name="braceleft" horiz-adv-x="389" d="M349 -160Q286 -160 242 -155T170 -138T130 -104T117 -48V195Q117 215 105 227T73 244T30 250V329Q50 329 70 335T103 353T117 386V625Q117 660 130 681T171 715T243 732T349 737V639Q335 639
318 637T287 626T273 598L263 397Q261 348 237 321T162 294V285Q196 285 217 273T250 238T263 182L273 -20Q274 -39 287 -48T317 -59T349 -62V-160Z" />
<glyph unicode="|" glyph-name="bar" horiz-adv-x="282" d="M74 -210V726H208V-210H74Z" />
<glyph unicode="}" glyph-name="braceright" horiz-adv-x="389" d="M40 736Q103 736 147 731T219 714T259 680T272 624V381Q272 361 284 349T317 332T359 326V247Q339 247 319 241T286 223T272 190V-49Q272 -83 259 -105T218 -139T146 -156T40 -161V-63Q54 -63
71 -61T102 -49T116 -22L126 179Q128 228 152 255T227 282V291Q194 291 172 303T139 338T126 394L116 596Q115 615 102 624T72 635T40 638V736Z" />
<glyph unicode="~" glyph-name="asciitilde" horiz-adv-x="660" d="M39 187V317Q54 334 80 352T138 384T207 397Q240 397 270 387T329 363T388 340T453 329Q489 329 522 342T580 373T621 409V279Q606 262 580 244T521 212T453 199Q420 199 390 209T331 233T272
256T207 267Q171 267 138 254T80 223T39 187Z" />
<glyph unicode="&#xa0;" glyph-name="uni00A0" horiz-adv-x="180" />
<glyph unicode="&#xa1;" glyph-name="exclamdown" horiz-adv-x="333" d="M63 -160L104 282H227L269 -160H63ZM67 343V528H265V343H67Z" />
<glyph unicode="&#xa2;" glyph-name="cent" horiz-adv-x="667" d="M297 -67V756H374V-67H297ZM333 69Q243 69 177 99T73 191T36 345Q36 438 73 499T176 591T333 622Q393 622 446 609T539 569T601 499T624 396H431Q431 427 420 447T386 476T333 486Q298 486 277
473T245 434T235 373V316Q235 281 245 256T278 218T337 204Q370 204 392 213T427 243T439 296H624Q624 236 602 193T539 122T446 82T333 69Z" />
<glyph unicode="&#xa3;" glyph-name="sterling" horiz-adv-x="667" d="M61 0V147H125V276H31V403H125V493Q125 551 152 597T235 672T381 700Q466 700 523 672T609 598T638 494V466H439V494Q439 510 431 523T410 544T381 552Q365 552 352 544T331 523T323 494V403H439V276H322L302
147H604V0H61Z" />
<glyph unicode="&#xa4;" glyph-name="currency" horiz-adv-x="660" d="M130 80L69 141L127 199Q105 224 93 260T81 339Q81 380 92 418T127 479L69 537L132 600L189 543Q212 563 250 575T329 587Q371 587 408 575T465 545L523 603L591 535L535 479Q555 458 566
420T577 339Q577 299 566 261T533 197L589 141L529 81L471 139Q449 117 411 104T329 91Q287 91 249 103T187 137L130 80ZM329 201Q368 201 396 220T441 270T457 339Q457 376 441 407T397 458T329 477Q292 477 263 459T218 409T201 339Q201 301 218 270T264 220T329
201Z" />
<glyph unicode="&#xa5;" glyph-name="yen" horiz-adv-x="678" d="M240 0V143H37V239H240V281H37V377H180Q167 400 150 430T125 476L7 688H237L311 528Q315 520 321 508T333 482T343 459H347Q352 470 358 483T370 508T379 529L453 688H670L554 476Q540 451 525
423T501 377H643V281H441V239H643V143H441V0H240Z" />
<glyph unicode="&#xa6;" glyph-name="brokenbar" horiz-adv-x="282" d="M74 336V726H208V336H74ZM74 -210V180H208V-210H74Z" />
<glyph unicode="&#xa7;" glyph-name="section" horiz-adv-x="667" d="M337 -184Q296 -184 251 -177T167 -152T102 -106T77 -31Q77 -29 77 -26T77 -21H258V-25Q258 -35 264 -43T281 -56T304 -63T328 -66Q345 -66 362 -63T392 -51T404 -30Q404 -10 385 5T335 33T267
59T192 89T123 128T73 182T54 255Q54 295 70 325T107 376T144 407Q111 430 90 459T69 529Q69 578 93 611T157 663T242 691T330 700Q371 700 416 693T500 668T565 622T590 547Q590 545 590 542T590 537H409V542Q409 552 403 559T385 572T362 579T339 582Q322 582
305 579T275 568T263 546Q263 526 282 511T332 483T400 457T475 427T544 388T594 334T613 261Q613 221 597 191T559 140T522 109Q556 86 577 57T598 -13Q598 -62 574 -95T510 -147T425 -175T337 -184ZM415 165Q426 174 436 186T446 215Q446 238 430 256T385 291T323
321T252 351Q241 342 231 330T221 301Q221 278 237 260T282 225T344 195T415 165Z" />
<glyph unicode="&#xa8;" glyph-name="dieresis" horiz-adv-x="372" d="M0 586V725H152V586H0ZM220 586V725H372V586H220Z" />
<glyph unicode="&#xa9;" glyph-name="copyright" horiz-adv-x="800" d="M400 -12Q322 -12 257 14T144 89T70 202T43 345Q43 422 69 487T144 599T257 673T400 700Q477 700 542 674T656 600T730 487T757 345Q757 267 731 202T656 89T543 15T400 -12ZM404 130Q333
130 285 154T213 226T189 345Q189 415 213 462T285 534T404 558Q464 558 509 538T578 478T603 381H476Q476 405 468 422T443 449T403 459Q359 459 342 432T325 351V341Q325 302 332 278T357 241T402 229Q428 229 445 238T471 264T480 305H603Q603 248 580 209T512
150T404 130ZM399 53Q481 53 544 91T643 195T680 345Q680 430 644 495T544 598T399 636Q318 636 255 599T156 496T120 346Q120 261 156 195T255 91T399 53Z" />
<glyph unicode="&#xaa;" glyph-name="ordfeminine" horiz-adv-x="400" d="M134 330Q98 330 71 339T28 369T12 428Q12 467 28 491T75 529T150 548T251 553V574Q251 588 245 597T227 612T201 617Q184 617 173 613T157 602T151 588V580H23Q22 582 22 586T22 592Q22
639 68 668T203 698Q250 698 290 687T356 650T381 584V441Q381 428 387 422T402 415H426V345Q420 342 404 336T358 330Q319 330 297 342T265 374H258Q235 353 205 342T134 330ZM187 409Q204 409 218 416T242 436T251 465V492Q213 492 189 487T154 470T143 444Q143
431 149 423T166 412T187 409Z" />
<glyph unicode="&#xab;" glyph-name="guillemotleft" horiz-adv-x="595" d="M189 119L22 324L189 528H332L194 324L332 119H189ZM425 119L258 324L425 528H568L430 324L568 119H425Z" />
<glyph unicode="&#xac;" glyph-name="logicalnot" horiz-adv-x="660" d="M448 154V335H48V490H602V154H448Z" />
<glyph unicode="&#xad;" glyph-name="uni00AD" horiz-adv-x="333" d="M40 196V354H293V196H40Z" />
<glyph unicode="&#xae;" glyph-name="registered" horiz-adv-x="800" d="M400 -12Q322 -12 257 14T144 89T70 202T43 345Q43 422 69 487T144 599T257 673T400 700Q477 700 542 674T656 600T730 487T757 345Q757 267 731 202T656 89T543 15T400 -12ZM399 53Q481
53 544 91T643 195T680 345Q680 430 644 495T544 598T399 636Q318 636 255 599T156 496T120 346Q120 261 156 195T255 91T399 53ZM231 138V551H442Q507 551 542 517T577 426Q577 387 559 357T516 306L597 138H452L396 284H364V138H231ZM364 376H404Q420 376 431
387T442 417Q442 434 431 445T404 457H364V376Z" />
<glyph unicode="&#xaf;" glyph-name="overscore" horiz-adv-x="316" d="M0 600V700H316V600H0Z" />
<glyph unicode="&#xb0;" glyph-name="degree" horiz-adv-x="400" d="M200 400Q159 400 125 420T71 474T50 550Q50 591 70 625T124 679T200 700Q241 700 275 680T329 625T350 550Q350 509 330 475T275 420T200 400ZM199 487Q225 487 243 505T261 549Q261 575 243
593T198 611Q174 611 156 593T137 549Q137 524 155 506T199 487Z" />
<glyph unicode="&#xb1;" glyph-name="plusminus" horiz-adv-x="660" d="M264 176V358H66V490H264V672H396V490H594V358H396V176H264ZM66 0V132H594V0H66Z" />
<glyph unicode="&#xb2;" glyph-name="uni00B2" horiz-adv-x="420" d="M50 440V465Q50 494 67 518T111 564T166 605Q201 630 227 651T253 692Q253 707 242 719T205 731Q188 731 176 725T158 707T151 681V670H52Q51 674 51 676T51 682Q51 720 69 747T124 790T216
805Q262 805 294 792T345 754T363 696Q363 672 353 653T327 617T290 588T249 561Q236 554 224 546T200 529H368V440H50Z" />
<glyph unicode="&#xb3;" glyph-name="uni00B3" horiz-adv-x="420" d="M211 428Q127 428 88 459T48 533V544H146V534Q146 521 160 511T204 501Q226 501 238 507T256 525T262 550Q262 563 257 571T243 584T223 588H182V653H214Q225 653 234 657T248 669T253 691Q253
702 248 711T231 727T204 733Q190 733 179 728T160 715T153 698V693H60V706Q60 733 78 755T130 791T214 805Q261 805 294 792T344 756T362 706Q362 679 347 657T306 626V624Q338 614 355 591T373 534Q372 505 355 481T302 443T211 428Z" />
<glyph unicode="&#xb4;" glyph-name="acute" horiz-adv-x="297" d="M0 592L92 725H295L297 721L137 592H0Z" />
<glyph unicode="&#xb5;" glyph-name="uni00B5" horiz-adv-x="669" d="M60 -197V528H259V210Q259 194 263 180T276 156T297 141T326 135Q351 135 369 146T398 177T409 218V528H608V0H445L435 80H428Q416 54 399 36T359 9T309 0Q296 0 281 2T249 9Q253 -13 256 -38T259
-78V-197H60Z" />
<glyph unicode="&#xb6;" glyph-name="paragraph" horiz-adv-x="708" d="M252 -161V255Q194 257 147 286T73 364T45 471Q45 531 74 580T152 659T261 688H680V567H614V-161H486V567H380V-161H252Z" />
<glyph unicode="&#xb7;" glyph-name="middot" horiz-adv-x="333" d="M71 235V418H262V235H71Z" />
<glyph unicode="&#xb8;" glyph-name="cedilla" horiz-adv-x="255" d="M133 -211Q99 -211 61 -207T0 -195V-138H105Q123 -138 134 -135T145 -116Q145 -101 137 -97T107 -92H67L87 39H183L172 -29Q190 -31 209 -40T242 -68T255 -118Q255 -146 243 -164T211 -193T171
-207T133 -211Z" />
<glyph unicode="&#xb9;" glyph-name="uni00B9" horiz-adv-x="420" d="M52 440V522H163V680H62V742Q90 744 121 752T183 773T236 799H274V522H381V440H52Z" />
<glyph unicode="&#xba;" glyph-name="ordmasculine" horiz-adv-x="400" d="M200 329Q142 329 98 349T30 411T6 514Q6 576 30 616T98 677T200 698Q259 698 303 678T371 617T395 514Q395 452 371 411T303 350T200 329ZM200 414Q235 414 250 436T265 498V529Q265
568 250 590T200 612Q163 612 150 589T136 529V498Q136 459 151 437T200 414Z" />
<glyph unicode="&#xbb;" glyph-name="guillemotright" horiz-adv-x="595" d="M406 528L573 323L406 119H263L401 323L263 528H406ZM170 528L337 323L170 119H27L165 323L27 528H170Z" />
<glyph unicode="&#xbc;" glyph-name="onequarter" horiz-adv-x="1000" d="M260 -12L670 700H766L355 -12H260ZM52 340V422H163V580H62V642Q90 644 121 652T183 673T236 699H274V422H381V340H52ZM767 0V74H580V153Q608 191 638 247T687 365H797Q794 344 779 316T744
257T700 199T657 152H767V223Q777 236 789 255T811 295T826 330H873V152H927V74H873V0H767Z" />
<glyph unicode="&#xbd;" glyph-name="onehalf" horiz-adv-x="1000" d="M260 -12L670 700H766L355 -12H260ZM613 0V25Q613 54 630 78T674 124T729 165Q764 190 790 211T816 252Q816 267 805 279T768 291Q751 291 739 285T721 267T714 241V230H615Q614 234 614 236T614
242Q614 280 632 307T687 350T779 365Q825 365 857 352T908 314T926 256Q926 232 916 213T890 177T853 148T812 121Q799 114 787 106T763 89H931V0H613ZM52 340V422H163V580H62V642Q90 644 121 652T183 673T236 699H274V422H381V340H52Z" />
<glyph unicode="&#xbe;" glyph-name="threequarters" horiz-adv-x="1000" d="M260 -12L670 700H766L355 -12H260ZM211 328Q127 328 88 359T48 433V444H146V434Q146 421 160 411T204 401Q226 401 238 407T256 425T262 450Q262 463 257 471T243 484T223 488H182V553H214Q225
553 234 557T248 569T253 591Q253 602 248 611T231 627T204 633Q190 633 179 628T160 615T153 598V593H60V606Q60 633 78 655T130 691T214 705Q261 705 294 692T344 656T362 606Q362 579 347 557T306 526V524Q338 514 355 491T373 434Q372 405 355 381T302 343T211
328ZM767 0V74H580V153Q608 191 638 247T687 365H797Q794 344 779 316T744 257T700 199T657 152H767V223Q777 236 789 255T811 295T826 330H873V152H927V74H873V0H767Z" />
<glyph unicode="&#xbf;" glyph-name="questiondown" horiz-adv-x="611" d="M302 -172Q256 -172 217 -163T146 -136T92 -93T58 -37T46 32Q46 66 58 92T90 140T131 177T172 208T204 235T217 261V282H388V232Q388 214 379 198T355 167T323 137T292 107T268 74T258
36Q258 22 262 10T274 -13T293 -28T319 -34Q341 -34 354 -27T375 -8T386 19T389 50Q389 57 389 63T388 77H572Q573 67 574 58T575 39Q575 0 562 -33T525 -91T466 -135T391 -162T302 -172ZM202 343V528H400V343H202Z" />
<glyph unicode="&#xc0;" glyph-name="Agrave" horiz-adv-x="778" d="M10 0L261 688H518L769 0H535L506 97H265L236 0H10ZM311 251H461L428 361Q424 373 419 390T409 426T399 463T390 496H382Q378 478 372 455T358 408T344 361L311 251ZM501 752H359L199 881L201
885H409L501 752Z" />
<glyph unicode="&#xc1;" glyph-name="Aacute" horiz-adv-x="778" d="M10 0L261 688H518L769 0H535L506 97H265L236 0H10ZM311 251H461L428 361Q424 373 419 390T409 426T399 463T390 496H382Q378 478 372 455T358 408T344 361L311 251ZM295 752L387 885H595L597
881L437 752H295Z" />
<glyph unicode="&#xc2;" glyph-name="Acircumflex" horiz-adv-x="778" d="M10 0L261 688H518L769 0H535L506 97H265L236 0H10ZM311 251H461L428 361Q424 373 419 390T409 426T399 463T390 496H382Q378 478 372 455T358 408T344 361L311 251ZM167 752L301 885H479L613
752H461L360 841H418L317 752H167Z" />
<glyph unicode="&#xc3;" glyph-name="Atilde" horiz-adv-x="778" d="M10 0L261 688H518L769 0H535L506 97H265L236 0H10ZM311 251H461L428 361Q424 373 419 390T409 426T399 463T390 496H382Q378 478 372 455T358 408T344 361L311 251ZM167 742Q167 778 184 811T233
864T307 885Q339 885 368 875T425 855T480 845Q499 845 512 856T530 885H611Q611 849 594 817T545 763T471 742Q439 742 410 752T353 772T298 782Q279 782 266 771T248 742H167Z" />
<glyph unicode="&#xc4;" glyph-name="Adieresis" horiz-adv-x="778" d="M10 0L261 688H518L769 0H535L506 97H265L236 0H10ZM311 251H461L428 361Q424 373 419 390T409 426T399 463T390 496H382Q378 478 372 455T358 408T344 361L311 251ZM203 746V885H355V746H203ZM423
746V885H575V746H423Z" />
<glyph unicode="&#xc5;" glyph-name="Aring" horiz-adv-x="778" d="M10 0L261 688H518L769 0H535L506 97H265L236 0H10ZM311 251H461L428 361Q424 373 419 390T409 426T399 463T390 496H382Q378 478 372 455T358 408T344 361L311 251ZM389 727Q339 727 306 757T273
835Q273 882 306 913T389 944Q439 944 472 913T505 835Q505 788 472 758T389 727ZM389 798Q406 798 417 809T429 836Q429 852 418 862T389 872Q372 872 361 862T349 834Q349 818 360 808T389 798Z" />
<glyph unicode="&#xc6;" glyph-name="AE" horiz-adv-x="1020" d="M0 0L291 688H970V523H605L627 428H914V270H664L688 165H977V0H516L494 97H260L226 0H0ZM315 251H460L414 459Q413 464 412 468T410 477T408 487T406 496H402Q401 492 399 487T396 478T393 469T389
459L315 251Z" />
<glyph unicode="&#xc7;" glyph-name="Ccedilla" horiz-adv-x="778" d="M402 -12Q285 -12 206 28T86 147T45 344Q45 520 135 610T402 700Q502 700 576 667T692 567T733 405H522Q522 445 508 474T468 519T401 535Q354 535 326 515T284 459T271 376V312Q271 265 284
229T326 173T399 153Q443 153 471 168T514 211T529 279H733Q733 185 694 120T581 22T402 -12ZM403 -211Q369 -211 331 -207T270 -195V-138H375Q393 -138 404 -135T415 -116Q415 -101 407 -97T377 -92H337L357 39H453L442 -29Q460 -31 479 -40T512 -68T525 -118Q525
-146 513 -164T481 -193T441 -207T403 -211Z" />
<glyph unicode="&#xc8;" glyph-name="Egrave" horiz-adv-x="722" d="M77 0V688H672V523H298V428H618V270H298V165H679V0H77ZM490 752H348L188 881L190 885H398L490 752Z" />
<glyph unicode="&#xc9;" glyph-name="Eacute" horiz-adv-x="722" d="M77 0V688H672V523H298V428H618V270H298V165H679V0H77ZM284 752L376 885H584L586 881L426 752H284Z" />
<glyph unicode="&#xca;" glyph-name="Ecircumflex" horiz-adv-x="722" d="M77 0V688H672V523H298V428H618V270H298V165H679V0H77ZM156 752L290 885H468L602 752H450L349 841H407L306 752H156Z" />
<glyph unicode="&#xcb;" glyph-name="Edieresis" horiz-adv-x="722" d="M77 0V688H672V523H298V428H618V270H298V165H679V0H77ZM192 746V885H344V746H192ZM412 746V885H564V746H412Z" />
<glyph unicode="&#xcc;" glyph-name="Igrave" horiz-adv-x="369" d="M74 0V688H295V0H74ZM297 752H155L-5 881L-3 885H205L297 752Z" />
<glyph unicode="&#xcd;" glyph-name="Iacute" horiz-adv-x="369" d="M74 0V688H295V0H74ZM91 752L183 885H391L393 881L233 752H91Z" />
<glyph unicode="&#xce;" glyph-name="Icircumflex" horiz-adv-x="369" d="M74 0V688H295V0H74ZM-37 752L97 885H275L409 752H257L156 841H214L113 752H-37Z" />
<glyph unicode="&#xcf;" glyph-name="Idieresis" horiz-adv-x="369" d="M74 0V688H295V0H74ZM-1 746V885H151V746H-1ZM219 746V885H371V746H219Z" />
<glyph unicode="&#xd0;" glyph-name="Eth" horiz-adv-x="778" d="M0 279V417H400V279H0ZM74 0V688H372Q490 688 570 651T691 538T733 344Q733 227 692 151T570 37T372 0H74ZM295 165H368Q404 165 430 175T474 204T499 251T507 314V374Q507 409 499 437T474 484T431
513T368 523H295V165Z" />
<glyph unicode="&#xd1;" glyph-name="Ntilde" horiz-adv-x="833" d="M74 0V688H262L476 441Q485 431 500 412T530 374T554 342L559 344Q558 372 558 399T558 441V688H759V0H572L331 275Q314 295 302 311T279 343L274 341Q275 322 275 303T275 275V0H74ZM195 742Q195
778 212 811T261 864T335 885Q367 885 396 875T453 855T508 845Q527 845 540 856T558 885H639Q639 849 622 817T573 763T499 742Q467 742 438 752T381 772T326 782Q307 782 294 771T276 742H195Z" />
<glyph unicode="&#xd2;" glyph-name="Ograve" horiz-adv-x="833" d="M416 -12Q299 -12 216 28T89 147T45 344Q45 462 89 541T216 660T416 700Q534 700 617 660T744 541T788 344Q788 227 744 148T617 28T416 -12ZM416 153Q452 153 479 164T525 197T553 247T562
312V376Q562 411 553 440T526 491T480 523T416 535Q380 535 353 524T307 491T280 441T271 376V312Q271 277 280 248T307 197T352 165T416 153ZM528 752H386L226 881L228 885H436L528 752Z" />
<glyph unicode="&#xd3;" glyph-name="Oacute" horiz-adv-x="833" d="M416 -12Q299 -12 216 28T89 147T45 344Q45 462 89 541T216 660T416 700Q534 700 617 660T744 541T788 344Q788 227 744 148T617 28T416 -12ZM416 153Q452 153 479 164T525 197T553 247T562
312V376Q562 411 553 440T526 491T480 523T416 535Q380 535 353 524T307 491T280 441T271 376V312Q271 277 280 248T307 197T352 165T416 153ZM322 752L414 885H622L624 881L464 752H322Z" />
<glyph unicode="&#xd4;" glyph-name="Ocircumflex" horiz-adv-x="833" d="M416 -12Q299 -12 216 28T89 147T45 344Q45 462 89 541T216 660T416 700Q534 700 617 660T744 541T788 344Q788 227 744 148T617 28T416 -12ZM416 153Q452 153 479 164T525 197T553 247T562
312V376Q562 411 553 440T526 491T480 523T416 535Q380 535 353 524T307 491T280 441T271 376V312Q271 277 280 248T307 197T352 165T416 153ZM194 752L328 885H506L640 752H488L387 841H445L344 752H194Z" />
<glyph unicode="&#xd5;" glyph-name="Otilde" horiz-adv-x="833" d="M416 -12Q299 -12 216 28T89 147T45 344Q45 462 89 541T216 660T416 700Q534 700 617 660T744 541T788 344Q788 227 744 148T617 28T416 -12ZM416 153Q452 153 479 164T525 197T553 247T562
312V376Q562 411 553 440T526 491T480 523T416 535Q380 535 353 524T307 491T280 441T271 376V312Q271 277 280 248T307 197T352 165T416 153ZM194 742Q194 778 211 811T260 864T334 885Q366 885 395 875T452 855T507 845Q526 845 539 856T557 885H638Q638 849
621 817T572 763T498 742Q466 742 437 752T380 772T325 782Q306 782 293 771T275 742H194Z" />
<glyph unicode="&#xd6;" glyph-name="Odieresis" horiz-adv-x="833" d="M416 -12Q299 -12 216 28T89 147T45 344Q45 462 89 541T216 660T416 700Q534 700 617 660T744 541T788 344Q788 227 744 148T617 28T416 -12ZM416 153Q452 153 479 164T525 197T553 247T562
312V376Q562 411 553 440T526 491T480 523T416 535Q380 535 353 524T307 491T280 441T271 376V312Q271 277 280 248T307 197T352 165T416 153ZM230 746V885H382V746H230ZM450 746V885H602V746H450Z" />
<glyph unicode="&#xd7;" glyph-name="multiply" horiz-adv-x="660" d="M162 2L68 96L237 264L68 432L162 526L330 357L498 526L592 432L423 264L592 96L498 2L330 171L162 2Z" />
<glyph unicode="&#xd8;" glyph-name="Oslash" horiz-adv-x="833" d="M416 -12Q299 -12 216 28T89 147T45 344Q45 462 89 541T216 660T416 700Q534 700 617 660T744 541T788 344Q788 227 744 148T617 28T416 -12ZM416 153Q452 153 479 164T525 197T553 247T562
312V376Q562 411 553 440T526 491T480 523T416 535Q380 535 353 524T307 491T280 441T271 376V312Q271 277 280 248T307 197T352 165T416 153ZM53 -37L670 724H778L161 -37H53Z" />
<glyph unicode="&#xd9;" glyph-name="Ugrave" horiz-adv-x="833" d="M417 -12Q309 -12 233 20T115 117T74 277V688H295V280Q295 225 325 189T416 153Q477 153 507 189T538 280V688H759V277Q759 182 719 118T602 21T417 -12ZM530 752H388L228 881L230 885H438L530 752Z" />
<glyph unicode="&#xda;" glyph-name="Uacute" horiz-adv-x="833" d="M417 -12Q309 -12 233 20T115 117T74 277V688H295V280Q295 225 325 189T416 153Q477 153 507 189T538 280V688H759V277Q759 182 719 118T602 21T417 -12ZM324 752L416 885H624L626 881L466 752H324Z" />
<glyph unicode="&#xdb;" glyph-name="Ucircumflex" horiz-adv-x="833" d="M417 -12Q309 -12 233 20T115 117T74 277V688H295V280Q295 225 325 189T416 153Q477 153 507 189T538 280V688H759V277Q759 182 719 118T602 21T417 -12ZM196 752L330 885H508L642 752H490L389
841H447L346 752H196Z" />
<glyph unicode="&#xdc;" glyph-name="Udieresis" horiz-adv-x="833" d="M417 -12Q309 -12 233 20T115 117T74 277V688H295V280Q295 225 325 189T416 153Q477 153 507 189T538 280V688H759V277Q759 182 719 118T602 21T417 -12ZM232 746V885H384V746H232ZM452 746V885H604V746H452Z"
/>
<glyph unicode="&#xdd;" glyph-name="Yacute" horiz-adv-x="778" d="M280 0V267L7 688H261L393 459H397L529 688H770L501 267V0H280ZM303 752L395 885H603L605 881L445 752H303Z" />
<glyph unicode="&#xde;" glyph-name="Thorn" horiz-adv-x="722" d="M74 0V688H295V588H460Q525 588 574 559T652 478T680 356Q680 285 652 233T574 151T460 122H295V0H74ZM295 283H386Q421 283 438 301T456 354Q456 378 449 393T426 417T386 425H295V283Z" />
<glyph unicode="&#xdf;" glyph-name="germandbls" horiz-adv-x="667" d="M67 0V517Q67 576 90 618T153 686T239 725T336 737Q382 737 428 728T512 698T574 640T597 548Q597 500 572 459T503 400V395Q556 376 590 325T624 214Q624 142 592 95T505 24T378 0H314V136H342Q365
136 384 149T414 183T425 229Q425 256 414 277T384 312T342 325H314V466H341Q360 466 374 475T397 499T406 534Q406 563 388 583T336 603Q315 603 299 594T275 570T266 534V0H67Z" />
<glyph unicode="&#xe0;" glyph-name="agrave" horiz-adv-x="667" d="M216 -12Q175 -12 141 -5T82 20T44 66T30 136Q30 195 54 232T126 289T240 316T395 324V350Q395 372 385 385T357 406T318 413Q301 413 283 409T254 395T242 367V363H46Q45 367 45 370T45 377Q45
426 76 462T169 519T321 540Q394 540 456 524T556 471T594 368V162Q594 146 602 135T626 123H662V8Q650 1 623 -5T558 -12Q518 -12 488 -4T440 19T414 54H407Q386 35 359 20T296 -3T216 -12ZM297 112Q316 112 333 117T365 132T387 155T395 185V230Q336 230 300
221T246 197T229 162Q229 142 239 131T264 116T297 112ZM419 590H282L122 719L124 723H327L419 590Z" />
<glyph unicode="&#xe1;" glyph-name="aacute" horiz-adv-x="667" d="M216 -12Q175 -12 141 -5T82 20T44 66T30 136Q30 195 54 232T126 289T240 316T395 324V350Q395 372 385 385T357 406T318 413Q301 413 283 409T254 395T242 367V363H46Q45 367 45 370T45 377Q45
426 76 462T169 519T321 540Q394 540 456 524T556 471T594 368V162Q594 146 602 135T626 123H662V8Q650 1 623 -5T558 -12Q518 -12 488 -4T440 19T414 54H407Q386 35 359 20T296 -3T216 -12ZM297 112Q316 112 333 117T365 132T387 155T395 185V230Q336 230 300
221T246 197T229 162Q229 142 239 131T264 116T297 112ZM220 590L312 723H515L517 719L357 590H220Z" />
<glyph unicode="&#xe2;" glyph-name="acircumflex" horiz-adv-x="667" d="M216 -12Q175 -12 141 -5T82 20T44 66T30 136Q30 195 54 232T126 289T240 316T395 324V350Q395 372 385 385T357 406T318 413Q301 413 283 409T254 395T242 367V363H46Q45 367 45 370T45
377Q45 426 76 462T169 519T321 540Q394 540 456 524T556 471T594 368V162Q594 146 602 135T626 123H662V8Q650 1 623 -5T558 -12Q518 -12 488 -4T440 19T414 54H407Q386 35 359 20T296 -3T216 -12ZM297 112Q316 112 333 117T365 132T387 155T395 185V230Q336 230
300 221T246 197T229 162Q229 142 239 131T264 116T297 112ZM103 590L237 723H405L539 590H392L291 679H349L248 590H103Z" />
<glyph unicode="&#xe3;" glyph-name="atilde" horiz-adv-x="667" d="M216 -12Q175 -12 141 -5T82 20T44 66T30 136Q30 195 54 232T126 289T240 316T395 324V350Q395 372 385 385T357 406T318 413Q301 413 283 409T254 395T242 367V363H46Q45 367 45 370T45 377Q45
426 76 462T169 519T321 540Q394 540 456 524T556 471T594 368V162Q594 146 602 135T626 123H662V8Q650 1 623 -5T558 -12Q518 -12 488 -4T440 19T414 54H407Q386 35 359 20T296 -3T216 -12ZM297 112Q316 112 333 117T365 132T387 155T395 185V230Q336 230 300
221T246 197T229 162Q229 142 239 131T264 116T297 112ZM98 580Q98 616 115 649T164 702T238 723Q270 723 299 713T356 693T411 683Q430 683 443 694T461 723H542Q542 687 525 655T476 601T402 580Q370 580 341 590T284 610T229 620Q210 620 197 609T179 580H98Z"
/>
<glyph unicode="&#xe4;" glyph-name="adieresis" horiz-adv-x="667" d="M216 -12Q175 -12 141 -5T82 20T44 66T30 136Q30 195 54 232T126 289T240 316T395 324V350Q395 372 385 385T357 406T318 413Q301 413 283 409T254 395T242 367V363H46Q45 367 45 370T45
377Q45 426 76 462T169 519T321 540Q394 540 456 524T556 471T594 368V162Q594 146 602 135T626 123H662V8Q650 1 623 -5T558 -12Q518 -12 488 -4T440 19T414 54H407Q386 35 359 20T296 -3T216 -12ZM297 112Q316 112 333 117T365 132T387 155T395 185V230Q336 230
300 221T246 197T229 162Q229 142 239 131T264 116T297 112ZM134 584V723H286V584H134ZM354 584V723H506V584H354Z" />
<glyph unicode="&#xe5;" glyph-name="aring" horiz-adv-x="667" d="M216 -12Q175 -12 141 -5T82 20T44 66T30 136Q30 195 54 232T126 289T240 316T395 324V350Q395 372 385 385T357 406T318 413Q301 413 283 409T254 395T242 367V363H46Q45 367 45 370T45 377Q45
426 76 462T169 519T321 540Q394 540 456 524T556 471T594 368V162Q594 146 602 135T626 123H662V8Q650 1 623 -5T558 -12Q518 -12 488 -4T440 19T414 54H407Q386 35 359 20T296 -3T216 -12ZM297 112Q316 112 333 117T365 132T387 155T395 185V230Q336 230 300
221T246 197T229 162Q229 142 239 131T264 116T297 112ZM320 575Q273 575 242 605T211 683Q211 730 242 761T320 792Q367 792 398 761T429 683Q429 636 398 606T320 575ZM320 641Q337 641 348 653T360 684Q360 702 349 713T320 725Q303 725 292 713T280 682Q280
664 291 653T320 641Z" />
<glyph unicode="&#xe6;" glyph-name="ae" horiz-adv-x="1008" d="M256 -12Q204 -12 162 -5T91 21T46 69T30 146Q30 202 54 237T125 291T240 317T395 324V350Q395 372 386 385T360 406T322 413Q304 413 286 409T255 395T242 367V363H46Q45 367 45 370T45 377Q45
426 76 462T169 519T321 540Q377 540 429 529T518 492Q554 516 598 528T694 540Q783 540 845 511T939 420T972 264V230H596Q596 194 605 168T636 129T692 115Q716 115 732 121T759 137T774 162T779 192H972Q972 145 955 107T905 43T822 2T706 -12Q631 -12 572 6T472
61Q447 42 415 26T343 -1T256 -12ZM297 112Q316 112 333 117T365 132T387 155T395 185V230Q336 230 300 221T246 197T229 162Q229 142 239 131T264 116T297 112ZM597 324H771Q771 345 766 361T750 389T724 407T688 413Q659 413 640 402T611 372T597 324Z" />
<glyph unicode="&#xe7;" glyph-name="ccedilla" horiz-adv-x="667" d="M333 -12Q243 -12 177 18T73 110T36 264Q36 357 73 418T176 510T333 541Q393 541 446 528T539 488T601 418T624 315H431Q431 346 420 366T386 395T333 405Q298 405 277 392T245 353T235 292V235Q235
200 245 175T278 137T337 123Q370 123 392 132T427 162T439 215H624Q624 155 602 112T539 41T446 1T333 -12ZM338 -211Q304 -211 266 -207T205 -195V-138H310Q328 -138 339 -135T350 -116Q350 -101 342 -97T312 -92H272L292 39H388L377 -29Q395 -31 414 -40T447
-68T460 -118Q460 -146 448 -164T416 -193T376 -207T338 -211Z" />
<glyph unicode="&#xe8;" glyph-name="egrave" horiz-adv-x="667" d="M345 -12Q250 -12 181 17T74 108T36 264Q36 357 73 418T176 509T333 540Q428 540 494 511T596 420T631 264V230H235Q235 194 245 168T279 129T341 115Q368 115 386 121T416 137T433 162T438
192H631Q631 145 613 107T559 43T470 2T345 -12ZM236 324H430Q430 345 424 361T407 389T379 407T341 413Q308 413 286 402T252 372T236 324ZM431 592H294L134 721L136 725H339L431 592Z" />
<glyph unicode="&#xe9;" glyph-name="eacute" horiz-adv-x="667" d="M345 -12Q250 -12 181 17T74 108T36 264Q36 357 73 418T176 509T333 540Q428 540 494 511T596 420T631 264V230H235Q235 194 245 168T279 129T341 115Q368 115 386 121T416 137T433 162T438
192H631Q631 145 613 107T559 43T470 2T345 -12ZM236 324H430Q430 345 424 361T407 389T379 407T341 413Q308 413 286 402T252 372T236 324ZM232 592L324 725H527L529 721L369 592H232Z" />
<glyph unicode="&#xea;" glyph-name="ecircumflex" horiz-adv-x="667" d="M345 -12Q250 -12 181 17T74 108T36 264Q36 357 73 418T176 509T333 540Q428 540 494 511T596 420T631 264V230H235Q235 194 245 168T279 129T341 115Q368 115 386 121T416 137T433 162T438
192H631Q631 145 613 107T559 43T470 2T345 -12ZM236 324H430Q430 345 424 361T407 389T379 407T341 413Q308 413 286 402T252 372T236 324ZM115 592L249 725H417L551 592H404L303 681H361L260 592H115Z" />
<glyph unicode="&#xeb;" glyph-name="edieresis" horiz-adv-x="667" d="M345 -12Q250 -12 181 17T74 108T36 264Q36 357 73 418T176 509T333 540Q428 540 494 511T596 420T631 264V230H235Q235 194 245 168T279 129T341 115Q368 115 386 121T416 137T433 162T438
192H631Q631 145 613 107T559 43T470 2T345 -12ZM236 324H430Q430 345 424 361T407 389T379 407T341 413Q308 413 286 402T252 372T236 324ZM146 586V725H298V586H146ZM366 586V725H518V586H366Z" />
<glyph unicode="&#xec;" glyph-name="igrave" horiz-adv-x="319" d="M60 0V528H259V0H60ZM259 592H122L-38 721L-36 725H167L259 592Z" />
<glyph unicode="&#xed;" glyph-name="iacute" horiz-adv-x="319" d="M60 0V528H259V0H60ZM60 592L152 725H355L357 721L197 592H60Z" />
<glyph unicode="&#xee;" glyph-name="icircumflex" horiz-adv-x="319" d="M60 0V528H259V0H60ZM-57 592L77 725H245L379 592H232L131 681H189L88 592H-57Z" />
<glyph unicode="&#xef;" glyph-name="idieresis" horiz-adv-x="319" d="M60 0V528H259V0H60ZM-26 586V725H126V586H-26ZM194 586V725H346V586H194Z" />
<glyph unicode="&#xf0;" glyph-name="eth" horiz-adv-x="667" d="M333 -12Q243 -12 177 18T73 110T36 264Q36 341 68 399T158 491T298 524Q314 524 331 520T361 511L367 518Q355 537 342 553T314 586L149 567V645L247 656Q222 679 200 695T164 721L165 725H363Q369
722 379 716T403 700T431 678L570 694V616L502 608Q535 570 564 520T612 406T631 264Q631 172 594 111T490 19T333 -12ZM333 123Q368 123 390 136T422 175T432 235V292Q432 327 422 352T390 391T333 405Q298 405 277 392T245 353T235 292V235Q235 200 245 175T276
137T333 123Z" />
<glyph unicode="&#xf1;" glyph-name="ntilde" horiz-adv-x="667" d="M60 0V528H223L236 448H243Q264 479 292 499T354 530T424 540Q487 540 527 517T588 449T608 342V0H409V318Q409 335 405 348T392 372T372 387T342 393Q317 393 299 382T270 352T259 310V0H60ZM113
582Q113 618 130 651T179 704T253 725Q285 725 314 715T371 695T426 685Q445 685 458 696T476 725H557Q557 689 540 657T491 603T417 582Q385 582 356 592T299 612T244 622Q225 622 212 611T194 582H113Z" />
<glyph unicode="&#xf2;" glyph-name="ograve" horiz-adv-x="667" d="M333 -12Q243 -12 177 18T73 110T36 264Q36 357 73 418T176 509T333 540Q423 540 490 510T594 418T631 264Q631 172 594 111T490 19T333 -12ZM333 123Q368 123 390 136T422 175T432 235V292Q432
327 422 352T390 391T333 405Q298 405 277 392T245 353T235 292V235Q235 200 245 175T276 137T333 123ZM433 592H296L136 721L138 725H341L433 592Z" />
<glyph unicode="&#xf3;" glyph-name="oacute" horiz-adv-x="667" d="M333 -12Q243 -12 177 18T73 110T36 264Q36 357 73 418T176 509T333 540Q423 540 490 510T594 418T631 264Q631 172 594 111T490 19T333 -12ZM333 123Q368 123 390 136T422 175T432 235V292Q432
327 422 352T390 391T333 405Q298 405 277 392T245 353T235 292V235Q235 200 245 175T276 137T333 123ZM234 592L326 725H529L531 721L371 592H234Z" />
<glyph unicode="&#xf4;" glyph-name="ocircumflex" horiz-adv-x="667" d="M333 -12Q243 -12 177 18T73 110T36 264Q36 357 73 418T176 509T333 540Q423 540 490 510T594 418T631 264Q631 172 594 111T490 19T333 -12ZM333 123Q368 123 390 136T422 175T432 235V292Q432
327 422 352T390 391T333 405Q298 405 277 392T245 353T235 292V235Q235 200 245 175T276 137T333 123ZM117 592L251 725H419L553 592H406L305 681H363L262 592H117Z" />
<glyph unicode="&#xf5;" glyph-name="otilde" horiz-adv-x="667" d="M333 -12Q243 -12 177 18T73 110T36 264Q36 357 73 418T176 509T333 540Q423 540 490 510T594 418T631 264Q631 172 594 111T490 19T333 -12ZM333 123Q368 123 390 136T422 175T432 235V292Q432
327 422 352T390 391T333 405Q298 405 277 392T245 353T235 292V235Q235 200 245 175T276 137T333 123ZM112 582Q112 618 129 651T178 704T252 725Q284 725 313 715T370 695T425 685Q444 685 457 696T475 725H556Q556 689 539 657T490 603T416 582Q384 582 355
592T298 612T243 622Q224 622 211 611T193 582H112Z" />
<glyph unicode="&#xf6;" glyph-name="odieresis" horiz-adv-x="667" d="M333 -12Q243 -12 177 18T73 110T36 264Q36 357 73 418T176 509T333 540Q423 540 490 510T594 418T631 264Q631 172 594 111T490 19T333 -12ZM333 123Q368 123 390 136T422 175T432 235V292Q432
327 422 352T390 391T333 405Q298 405 277 392T245 353T235 292V235Q235 200 245 175T276 137T333 123ZM148 586V725H300V586H148ZM368 586V725H520V586H368Z" />
<glyph unicode="&#xf7;" glyph-name="divide" horiz-adv-x="660" d="M66 196V328H594V196H66ZM266 15V146H397V15H266ZM266 377V508H397V377H266Z" />
<glyph unicode="&#xf8;" glyph-name="oslash" horiz-adv-x="667" d="M333 -12Q243 -12 177 18T73 110T36 264Q36 357 73 418T176 509T333 540Q423 540 490 510T594 418T631 264Q631 172 594 111T490 19T333 -12ZM333 123Q368 123 390 136T422 175T432 235V292Q432
327 422 352T390 391T333 405Q298 405 277 392T245 353T235 292V235Q235 200 245 175T276 137T333 123ZM46 -38L530 566H622L138 -38H46Z" />
<glyph unicode="&#xf9;" glyph-name="ugrave" horiz-adv-x="667" d="M242 -12Q148 -12 103 40T58 186V528H257V210Q257 194 261 180T274 156T295 141T324 135Q349 135 367 146T396 177T407 218V528H606V0H443L433 80H426Q407 51 378 30T313 -1T242 -12ZM433 592H296L136
721L138 725H341L433 592Z" />
<glyph unicode="&#xfa;" glyph-name="uacute" horiz-adv-x="667" d="M242 -12Q148 -12 103 40T58 186V528H257V210Q257 194 261 180T274 156T295 141T324 135Q349 135 367 146T396 177T407 218V528H606V0H443L433 80H426Q407 51 378 30T313 -1T242 -12ZM234 592L326
725H529L531 721L371 592H234Z" />
<glyph unicode="&#xfb;" glyph-name="ucircumflex" horiz-adv-x="667" d="M242 -12Q148 -12 103 40T58 186V528H257V210Q257 194 261 180T274 156T295 141T324 135Q349 135 367 146T396 177T407 218V528H606V0H443L433 80H426Q407 51 378 30T313 -1T242 -12ZM117
592L251 725H419L553 592H406L305 681H363L262 592H117Z" />
<glyph unicode="&#xfc;" glyph-name="udieresis" horiz-adv-x="667" d="M242 -12Q148 -12 103 40T58 186V528H257V210Q257 194 261 180T274 156T295 141T324 135Q349 135 367 146T396 177T407 218V528H606V0H443L433 80H426Q407 51 378 30T313 -1T242 -12ZM148
586V725H300V586H148ZM368 586V725H520V586H368Z" />
<glyph unicode="&#xfd;" glyph-name="yacute" horiz-adv-x="611" d="M156 -210Q120 -210 90 -205T41 -192V-73H121Q156 -73 174 -60T200 -30T210 0L0 528H214L276 314Q281 299 288 274T302 223T315 177H322Q326 191 330 209T340 246T350 283T358 313L415 528H611L423
16Q405 -33 383 -74T330 -146T257 -193T156 -210ZM218 592L310 725H513L515 721L355 592H218Z" />
<glyph unicode="&#xfe;" glyph-name="thorn" horiz-adv-x="666" d="M60 -197V728H259V453H266Q277 478 297 497T345 528T407 540Q477 540 527 510T603 418T630 263Q630 171 604 110T527 19T407 -12Q379 -12 353 -6T304 13T266 48H259V-197H60ZM345 135Q376 135
395 148T422 184T431 238V291Q431 322 423 345T395 380T345 393Q322 393 305 385T278 361T262 325T257 281V248Q257 217 266 192T294 151T345 135Z" />
<glyph unicode="&#xff;" glyph-name="ydieresis" horiz-adv-x="611" d="M156 -210Q120 -210 90 -205T41 -192V-73H121Q156 -73 174 -60T200 -30T210 0L0 528H214L276 314Q281 299 288 274T302 223T315 177H322Q326 191 330 209T340 246T350 283T358 313L415 528H611L423
16Q405 -33 383 -74T330 -146T257 -193T156 -210ZM132 586V725H284V586H132ZM352 586V725H504V586H352Z" />
<glyph unicode="&#x2013;" glyph-name="endash" horiz-adv-x="500" d="M0 196V334H500V196H0Z" />
<glyph unicode="&#x2014;" glyph-name="emdash" horiz-adv-x="1000" d="M0 196V334H1000V196H0Z" />
<glyph unicode="&#x2018;" glyph-name="quoteleft" horiz-adv-x="278" d="M232 688V613Q210 612 189 596T155 555T141 500H232V325H46V479Q46 545 72 590T140 660T232 688Z" />
<glyph unicode="&#x2019;" glyph-name="quoteright" horiz-adv-x="278" d="M46 325V400Q68 402 89 417T123 458T137 513H46V688H232V534Q232 468 206 423T138 353T46 325Z" />
<glyph unicode="&#x201a;" glyph-name="quotesinglbase" horiz-adv-x="278" d="M46 -188V-113Q68 -111 89 -96T123 -55T137 0H46V175H232V21Q232 -45 206 -90T138 -160T46 -188Z" />
<glyph unicode="&#x201c;" glyph-name="quotedblleft" horiz-adv-x="508" d="M462 688V613Q440 612 419 596T385 555T371 500H462V325H276V479Q276 545 302 590T370 660T462 688ZM232 688V613Q210 612 189 596T155 555T141 500H232V325H46V479Q46 545 72 590T140
660T232 688Z" />
<glyph unicode="&#x201d;" glyph-name="quotedblright" horiz-adv-x="508" d="M46 325V400Q68 402 89 417T123 458T137 513H46V688H232V534Q232 468 206 423T138 353T46 325ZM276 325V400Q298 402 319 417T353 458T367 513H276V688H462V534Q462 468 436 423T368
353T276 325Z" />
<glyph unicode="&#x201e;" glyph-name="quotedblbase" horiz-adv-x="508" d="M46 -188V-113Q68 -111 89 -96T123 -55T137 0H46V175H232V21Q232 -45 206 -90T138 -160T46 -188ZM276 -188V-113Q298 -111 319 -96T353 -55T367 0H276V175H462V21Q462 -45 436 -90T368
-160T276 -188Z" />
<glyph unicode="&#x2022;" glyph-name="bullet" horiz-adv-x="500" d="M250 183Q203 183 167 204T109 261T88 345Q88 392 109 428T166 486T250 507Q297 507 333 486T391 429T412 345Q412 298 391 262T334 204T250 183Z" />
<glyph unicode="&#x2039;" glyph-name="guilsinglleft" horiz-adv-x="359" d="M189 119L22 324L189 528H332L194 324L332 119H189Z" />
<glyph unicode="&#x203a;" glyph-name="guilsinglright" horiz-adv-x="359" d="M170 533L337 328L170 124H27L165 328L27 533H170Z" />
</font>
</defs>
</svg>
