<?xml version="1.0" standalone="no"?>
<!DOCTYPE svg PUBLIC "-//W3C//DTD SVG 1.1//EN" "http://www.w3.org/Graphics/SVG/1.1/DTD/svg11.dtd">
<svg xmlns="http://www.w3.org/2000/svg">
<defs >
<font id="EBGaramond" horiz-adv-x="528" ><font-face
    font-family="EB Garamond ExtraBold"
    units-per-em="1000"
    panose-1="0 0 0 0 0 0 0 0 0 0"
    ascent="1007"
    descent="-298"
    alphabetic="0" />
<glyph unicode=" " glyph-name="space" horiz-adv-x="245" />
<glyph unicode="!" glyph-name="exclam" horiz-adv-x="299" d="M147 172Q134 172 127 184T114 225Q105 283 97 330T84 416T75 490T71 555Q70 591 93 620T152 649Q187 649 208 622T229 557Q229 526 225 491T213 417T197 330T179 225Q175 202 168 187T147 172ZM145
-14Q114 -14 92 8T70 61Q70 92 92 114T145 136Q176 136 198 114T220 61Q220 30 198 8T145 -14Z" />
<glyph unicode="&quot;" glyph-name="quotedbl" horiz-adv-x="413" d="M81 400Q74 400 72 410T69 429Q70 449 69 464T67 496Q67 520 66 541T63 581T61 617Q61 632 71 643T91 660Q109 672 123 678T156 685Q168 685 175 674T183 647Q183 615 171 574T142 494T113
432Q107 421 97 411T81 400ZM249 400Q242 400 240 410T237 429Q238 449 237 464T235 496Q235 520 234 541T231 581T229 617Q229 632 239 643T259 660Q277 672 291 678T324 685Q336 685 343 674T351 647Q351 615 339 574T310 494T281 432Q275 421 265 411T249 400Z"
/>
<glyph unicode="#" glyph-name="numbersign" horiz-adv-x="488" d="M72 -96Q65 -96 61 -90T56 -77V-72L95 85L38 83Q27 82 21 89T15 104Q15 132 20 147T35 170T54 177L118 180L144 286L77 283Q66 282 60 289T54 304Q54 332 59 347T74 370T93 377L168 380L203 523Q206
540 216 545T244 550Q250 550 253 544T257 531Q257 528 256 527T255 523L221 383L335 387L371 534Q374 551 384 556T412 561Q418 561 421 555T425 542Q425 539 424 538T423 534L388 390L447 393Q460 394 467 388T474 371Q474 354 468 338T452 311T432 299L364 296L338
189L408 192Q421 193 428 187T435 170Q435 153 429 137T413 110T393 98L315 95L278 -56Q274 -72 266 -76T241 -80Q234 -80 230 -74T225 -61V-56L262 92L148 88L109 -72Q105 -88 97 -92T72 -96ZM171 182L285 186L311 293L198 289L171 182Z" />
<glyph unicode="$" glyph-name="dollar" horiz-adv-x="465" d="M178 -82Q165 -82 160 -73T155 -54L161 7Q162 10 161 11T156 14Q130 19 106 28T58 51Q51 56 46 61T37 74Q27 100 23 137T21 214Q21 226 39 226Q48 226 51 223T59 214Q74 165 100 129T160 75Q164 74
166 75T170 81L188 244Q189 249 187 253T179 261Q143 282 111 307T59 367T38 454Q38 503 62 541T129 603T222 633Q232 635 232 642L237 693Q238 702 248 707T274 712Q284 712 288 704T290 684Q289 677 288 670T287 656T285 641Q285 634 293 632Q318 628 340 621T377
608Q388 604 393 599T402 578Q407 559 409 531T412 468Q412 464 407 461T394 457Q387 457 379 460T369 471Q355 514 335 541T286 578Q279 579 278 572L261 427Q260 418 265 412T290 394Q343 363 373 334T417 272T430 198Q430 106 372 61T221 10Q216 10 215 4L207
-70Q206 -76 198 -79T178 -82ZM234 63Q266 69 279 91T293 138Q293 166 282 185T247 221Q240 225 239 216L223 74Q222 63 234 63ZM205 451Q211 445 211 454L224 569Q226 580 218 578Q195 571 184 553T172 508Q172 492 180 479T205 451Z" />
<glyph unicode="%" glyph-name="percent" horiz-adv-x="713" d="M172 263Q132 263 100 284T49 345T30 436Q30 491 48 531T100 594T179 616Q222 616 253 594T303 534T321 444Q321 383 301 343T248 283T172 263ZM180 297Q193 297 200 316T211 367T215 435Q215 471
210 504T196 559T171 581Q158 581 151 562T140 512T137 444Q137 417 139 391T147 344T161 310T180 297ZM538 641Q547 655 560 659T590 664Q598 664 603 658T609 646Q609 642 608 641L204 5Q197 -7 184 -11T156 -15Q148 -15 141 -10T133 1Q133 4 134 5L538 641ZM534
-17Q494 -17 462 4T411 65T392 156Q392 211 410 251T462 314T541 336Q584 336 615 314T665 254T683 164Q683 103 663 63T610 3T534 -17ZM542 17Q555 17 562 36T573 87T577 155Q577 191 572 224T558 279T533 301Q520 301 513 282T502 232T499 164Q499 137 501 111T509
64T523 30T542 17Z" />
<glyph unicode="&amp;" glyph-name="ampersand" horiz-adv-x="809" d="M207 -16Q168 -16 127 0T58 48T30 131Q30 186 70 242T185 335L206 345L199 352Q189 363 173 380T144 421T131 474Q131 509 155 537T222 583T322 600Q368 600 404 587T462 550T483 494Q483
447 455 422T377 379L353 370L375 347Q400 322 428 292T482 237L502 217L515 229Q534 246 545 264T563 298T569 327Q569 343 560 350T540 362Q531 366 525 369T518 382Q518 393 527 395T549 397Q564 397 580 395T613 391T650 389Q672 389 697 395T746 406T787 412Q795
412 799 408T804 398Q804 389 795 381T769 369Q736 363 713 347T673 313Q659 300 645 287T616 261T586 236T556 211T527 185L546 163Q577 126 605 100T662 73Q679 73 699 76T741 87Q746 89 752 91T765 94Q773 94 778 92T783 79Q783 64 762 42T702 2T612 -15Q572
-15 543 -6T490 23T440 70L421 91L416 85Q387 51 353 29T281 -5T207 -16ZM290 85Q310 85 336 88T384 114L391 121L375 140Q341 180 309 219T241 298L229 312L212 301Q199 293 191 280T178 250T174 215Q174 154 205 120T290 85ZM332 396L342 406Q353 417 358 440T364
488Q365 517 354 539T317 562Q301 562 288 548T274 511Q274 483 281 464T297 433T311 416L332 396Z" />
<glyph unicode="&apos;" glyph-name="quotesingle" horiz-adv-x="245" d="M81 400Q74 400 72 410T69 429Q70 449 69 464T67 496Q67 520 66 541T63 581T61 617Q61 632 71 643T91 660Q109 672 123 678T156 685Q168 685 175 674T183 647Q183 615 171 574T142 494T113
432Q107 421 97 411T81 400Z" />
<glyph unicode="(" glyph-name="parenleft" horiz-adv-x="302" d="M239 -215Q221 -215 208 -202Q187 -181 164 -143T118 -55T76 50T46 161T35 267Q35 330 51 393T92 513T147 615T202 686Q210 694 224 700T252 706Q262 706 277 698T292 677Q292 675 287 668T277
652T269 642Q244 610 219 556T177 429T160 270Q160 215 168 154T191 35T224 -69T261 -139Q263 -141 269 -149T282 -164T288 -174Q288 -193 273 -204T239 -215Z" />
<glyph unicode=")" glyph-name="parenright" horiz-adv-x="302" d="M63 -215Q45 -215 30 -204T14 -174Q14 -172 20 -165T33 -149T41 -139Q60 -115 78 -69T110 35T133 154T142 270Q142 356 125 428T83 555T33 642Q32 644 26 652T15 667T10 677Q10 689 25 697T50
706Q64 706 78 700T100 686Q126 660 155 615T209 513T251 393T267 267Q267 217 256 161T226 50T185 -54T139 -142T94 -202Q81 -215 63 -215Z" />
<glyph unicode="*" glyph-name="asterisk" horiz-adv-x="361" d="M199 348Q186 348 176 357T164 382L151 450Q144 448 125 436T89 414Q83 411 77 409T64 407Q52 407 43 415T34 436Q34 456 51 468L104 510Q99 515 80 524T43 543Q33 548 27 557T20 578Q20 596 34
604T71 604Q87 598 102 592T134 579Q133 597 133 613T132 648Q132 663 140 675T165 689Q179 688 188 678T199 654L208 587Q214 590 231 602T265 625Q271 629 277 631T291 634Q303 634 312 626T321 603Q321 585 306 572L254 528Q260 524 280 516T316 499Q327 494
334 486T341 466Q341 447 327 440T291 436Q275 441 259 447T227 458Q227 451 229 428T231 386Q231 372 224 360T199 348Z" />
<glyph unicode="+" glyph-name="plus" horiz-adv-x="604" d="M284 -12Q280 -12 276 -7T271 5V206Q271 219 258 219H47Q40 219 35 223T30 232Q30 240 33 251T42 272T59 282H257Q267 282 269 285T271 296V478Q271 488 279 495T298 507T318 512Q326 512 330 505T334
489V296Q334 282 347 282H551Q560 282 567 278T574 266Q574 253 564 236T540 219H347Q334 219 334 206V17Q334 7 325 1T304 -9T284 -12Z" />
<glyph unicode="," glyph-name="comma" horiz-adv-x="251" d="M49 -168Q22 -168 22 -151Q22 -143 28 -140T46 -134Q74 -126 92 -114T120 -86T130 -50Q130 -30 118 -21T88 -6Q72 -1 59 14T46 55Q46 82 68 101T119 120Q166 120 195 91T224 15Q224 -26 209 -59T169
-117T113 -155T49 -168Z" />
<glyph unicode="-" glyph-name="hyphen" horiz-adv-x="325" d="M36 163Q25 162 25 174Q25 207 31 221T49 238Q104 247 166 255T283 267Q294 268 297 263T300 250Q300 218 296 207T280 194Q225 186 159 177T36 163Z" />
<glyph unicode="." glyph-name="period" horiz-adv-x="251" d="M124 -34Q89 -34 64 -9T38 52Q38 90 63 115T124 141Q162 141 187 116T213 52Q213 17 188 -8T124 -34Z" />
<glyph unicode="/" glyph-name="slash" horiz-adv-x="407" d="M36 -62Q25 -62 19 -56T15 -42L327 645Q334 659 346 663T374 667Q388 667 393 660T396 645L83 -42Q77 -55 64 -58T36 -62Z" />
<glyph unicode="0" glyph-name="zero" horiz-adv-x="540" d="M520 -14Q458 -14 413 14T337 88T293 191T278 302Q278 359 292 417T337 523T416 601T532 631Q594 631 639 603T714 529T759 427T774 317Q774 260 760 202T715 95T636 16T520 -14ZM535 35Q565 35 583
72T610 169T619 299Q619 351 613 401T593 493T561 558T516 583Q486 583 468 546T442 448T434 319Q434 267 440 217T459 125T491 60T535 35Z" />
<glyph unicode="1" glyph-name="one" horiz-adv-x="540" d="M119 -3Q113 -3 107 1T101 12Q101 29 120 34Q146 41 165 47T195 65T206 97V455Q206 480 194 493T162 512T120 522Q112 524 103 529T94 546Q94 560 103 566T126 573Q188 577 237 592T336 632Q338 633
341 634T348 636Q356 636 363 633T370 625Q370 613 367 597T364 552V98Q364 80 377 69T411 50T459 34Q468 31 473 27T478 13Q478 -2 462 -2Q441 -2 408 -1T342 1T289 2Q269 2 238 1T174 -1T119 -3Z" />
<glyph unicode="2" glyph-name="two" horiz-adv-x="540" d="M457 -4Q451 -4 426 -4T367 -2T297 -1T235 0Q210 0 185 0T138 -1T102 -2T86 -3Q84 -3 75 2T66 14Q66 23 71 28T80 38L220 197Q273 256 297 313T322 440Q322 480 303 508T246 536Q212 536 182 517T130
476Q124 470 115 462T94 454Q86 454 84 460T81 476Q81 493 98 518T145 569T214 612T297 630Q349 630 384 607T439 545T458 462Q458 434 445 400T414 336T376 284Q361 267 339 246T294 203T251 162T218 131T205 117Q205 113 220 111Q239 109 265 108T311 107Q332
107 353 108T394 111Q415 114 431 121T461 141T483 175Q486 182 494 189T512 196Q520 196 523 189T524 174Q513 144 503 110T485 51T478 18Q478 8 469 2T457 -4Z" />
<glyph unicode="3" glyph-name="three" horiz-adv-x="540" d="M175 -38Q153 -38 130 -32T92 -14T76 12Q76 26 79 41T90 66T109 76Q117 76 122 73T134 62Q148 45 167 26T210 6Q241 6 265 23T304 72T319 149Q319 190 308 221T276 269T225 286Q197 286 182 276T160
263Q152 259 142 264T133 278Q138 299 151 313T178 334Q212 352 234 368T270 401T289 438T295 483Q295 513 274 534T220 556Q193 556 173 544T139 517T116 489T102 477Q95 477 88 485T80 503Q80 511 91 531T126 574T188 613T283 629Q324 629 358 614T412 572T433
506Q433 484 419 454T373 399T291 364Q288 363 288 361T292 358Q346 358 387 340T453 287T477 202Q477 147 452 103T385 28T288 -21T175 -38Z" />
<glyph unicode="4" glyph-name="four" horiz-adv-x="540" d="M216 -3Q210 -3 202 1T193 12Q193 23 200 27T217 34Q255 42 269 54T283 97V146Q283 151 278 153T266 156Q237 156 196 154T113 150T37 148Q32 148 27 150T21 156Q21 160 27 168Q33 176 37 181T45 193T55
207L298 605Q307 619 320 630T346 642H352Q361 642 363 635T361 620L134 250Q129 241 132 238T143 235H276Q279 235 281 237T283 241V354Q283 373 286 380T301 392Q330 406 364 410T411 414Q434 414 437 394T441 335V235Q441 228 446 228Q459 227 465 227T481 227Q497
227 508 227T538 229Q550 229 550 222Q550 214 546 198T537 167T527 153Q515 153 504 153T480 154Q470 154 466 154T455 152Q451 151 446 149T441 146V98Q441 70 454 58T506 34Q515 31 523 27T531 13Q531 6 524 2T509 -2Q488 -2 461 -1T407 1T360 2Q340 2 315 1T264
-1T216 -3Z" />
<glyph unicode="5" glyph-name="five" horiz-adv-x="540" d="M138 -38Q123 -38 105 -36T87 -22Q87 -10 100 -6T129 0Q186 8 231 31T301 87T327 154Q327 191 309 218T252 268T149 309Q114 320 102 331T89 363Q89 377 95 403T108 459T123 512T131 543Q137 569 151
580T181 595Q199 599 233 604T306 616T373 626T410 630Q418 630 422 623T426 608Q425 592 416 573T401 537Q393 516 375 502T332 486Q316 485 292 485T242 483T197 482T169 480Q162 479 158 474T152 462T150 451Q150 446 153 443T160 439Q216 430 258 415T336 382Q402
351 430 303T458 202Q458 146 424 94T334 11Q316 1 284 -10T214 -30T138 -38Z" />
<glyph unicode="6" glyph-name="six" horiz-adv-x="540" d="M283 -14Q209 -14 162 13T93 86T70 193Q70 248 82 292T113 372T150 432T181 472Q204 500 242 529T328 585T431 631Q449 638 466 639T483 632Q483 621 474 614T445 598Q393 573 359 540T293 458Q279 435
261 396T230 306T217 198Q217 143 229 106T261 50T301 31Q329 31 347 62T366 152Q366 182 356 206T330 246T299 261Q289 261 282 260T268 255Q247 245 242 256T250 282Q256 288 261 292T272 302Q289 316 320 332T376 348Q414 348 446 329T499 276T520 202Q520 164
504 126T457 56T383 5T283 -14Z" />
<glyph unicode="7" glyph-name="seven" horiz-adv-x="540" d="M177 -29Q164 -29 155 -20T146 4Q146 12 156 28T174 57L406 472Q411 481 407 483T395 486H178Q152 486 138 478T109 450Q105 445 97 431T77 406T55 394Q48 394 43 399T37 411Q37 419 42 438T49 463Q56
499 65 539T75 609Q75 621 84 624T99 627Q113 626 139 622T198 616Q225 616 261 616T330 615T383 614Q417 614 443 614T489 615T526 617Q531 617 534 610T537 594Q537 590 532 582T519 560T500 529L200 4Q195 -6 188 -17T177 -29Z" />
<glyph unicode="8" glyph-name="eight" horiz-adv-x="540" d="M270 -13Q212 -13 164 7T88 62T59 144Q59 182 82 206T138 249T201 284Q210 289 208 293T197 302Q167 325 141 351T97 410T80 480Q80 527 112 560T195 611T300 629Q348 629 391 611T462 561T489 486Q489
447 470 422T427 386Q417 382 406 377T385 366Q369 356 369 351T379 339Q416 316 445 293T492 241T510 176Q510 118 478 76T391 10T270 -13ZM288 33Q323 33 344 58T366 118Q366 144 350 169T310 216T265 255Q260 260 257 262T250 265Q248 265 237 257Q218 238 211
213T204 149Q204 120 214 94T244 50T288 33ZM328 385Q340 399 345 429T351 490Q351 527 337 554T286 582Q267 582 252 573T228 548T219 510Q219 484 232 463T265 422T306 386Q313 381 318 381T328 385Z" />
<glyph unicode="9" glyph-name="nine" horiz-adv-x="540" d="M84 -54Q68 -54 62 -48T55 -37Q55 -24 65 -18T86 -10Q124 -5 161 17T231 70T289 134Q307 158 330 196T370 283T388 389Q388 422 380 455T358 515T327 558T290 575Q268 575 252 564T228 528T220 463Q220
433 230 405T255 359T289 341Q300 341 308 343T324 348Q349 358 352 346T343 320Q339 313 334 309T324 299Q317 292 301 283T266 266T229 259Q191 259 154 279T93 334T68 414Q68 446 87 483T141 554T218 608T311 629Q356 629 395 611T465 560T512 487T529 400Q529
337 505 280T447 177T380 101Q357 80 320 54T239 3T155 -38T84 -54Z" />
<glyph unicode=":" glyph-name="colon" horiz-adv-x="289" d="M134 242Q99 242 74 267T48 328Q48 366 73 391T134 417Q172 417 197 392T223 328Q223 293 198 268T134 242ZM134 -34Q99 -34 74 -9T48 52Q48 90 73 115T134 141Q172 141 197 116T223 52Q223 17 198
-8T134 -34Z" />
<glyph unicode=";" glyph-name="semicolon" horiz-adv-x="251" d="M114 243Q79 243 54 268T28 329Q28 367 53 392T114 418Q152 418 177 393T203 329Q203 294 178 269T114 243ZM49 -168Q22 -168 22 -151Q22 -143 28 -140T46 -134Q74 -126 92 -114T120 -86T130 -50Q130
-30 118 -21T88 -6Q72 -1 59 14T46 55Q46 82 68 101T119 120Q166 120 195 91T224 15Q224 -26 209 -59T169 -117T113 -155T49 -168Z" />
<glyph unicode="&lt;" glyph-name="less" horiz-adv-x="537" d="M478 0L85 188Q69 196 52 205T35 220Q35 228 46 246T75 272L478 469Q482 471 485 471Q495 471 498 464T502 447Q502 432 492 419T465 397L137 239Q133 238 133 235T137 229L465 72Q482 65 492 51T502
22Q502 6 494 1T478 0Z" />
<glyph unicode="=" glyph-name="equal" horiz-adv-x="643" d="M61 316Q54 316 50 320T45 329Q45 335 47 346T56 365T73 374H575Q585 374 591 370T598 358Q598 346 589 331T566 316H61ZM61 133Q54 133 50 137T45 146Q45 152 47 163T56 182T73 191H575Q585 191 591
187T598 175Q598 163 589 148T566 133H61Z" />
<glyph unicode="&gt;" glyph-name="greater" horiz-adv-x="537" d="M59 465L452 277Q468 270 485 261T502 245Q502 238 491 219T462 193L59 -4Q55 -6 52 -6Q42 -6 39 1T35 18Q35 33 45 47T72 68L400 226Q404 228 404 231T400 236L72 393Q56 401 46 414T35 443Q35
459 43 464T59 465Z" />
<glyph unicode="?" glyph-name="question" horiz-adv-x="399" d="M148 171Q141 171 132 179T113 202Q104 218 96 240T88 291Q88 328 118 354T209 409Q241 423 257 440T274 486Q274 512 252 524T204 536Q180 536 168 532T149 524Q142 521 134 519T114 517Q99 517
85 532T61 569T51 609Q51 628 73 644T126 661Q169 661 208 640T281 582Q304 558 320 530T345 472T354 412Q354 371 339 347T304 314Q290 307 276 299T246 281T213 263Q191 252 183 239T171 195Q170 183 164 177T148 171ZM144 -14Q113 -14 91 8T69 61Q69 92 91 114T144
136Q175 136 197 114T219 61Q219 30 197 8T144 -14Z" />
<glyph unicode="@" glyph-name="at" horiz-adv-x="788" d="M402 -158Q328 -158 261 -133T142 -63T60 46T30 185Q30 273 62 340T149 452T277 520T429 543Q495 543 554 521T660 459T732 364T758 244Q758 180 727 130T648 51T547 22Q517 22 501 32T478 53T464 64Q458
64 439 53T391 29T323 17Q262 17 220 51T177 148Q177 222 210 276T298 360T421 390Q440 390 461 386T494 379Q502 377 510 374T523 370Q529 370 533 377T542 390T553 397Q556 397 564 396T580 393T588 386Q579 363 571 332T560 285L536 148Q535 142 534 136T533
123Q533 112 537 103T551 94Q586 94 616 110T664 155T683 226Q683 303 650 360T557 449T415 481Q353 481 297 461T198 404T129 315T104 196Q104 134 128 81T196 -12T295 -74T414 -96Q445 -96 483 -87T560 -63T625 -28Q634 -22 644 -16T662 -10Q689 -10 689 -29Q689
-42 662 -63T591 -106T497 -143T402 -158ZM364 75Q381 75 394 80T420 95Q429 102 434 113T444 147L466 264Q467 266 467 269T467 276Q467 305 446 323T394 342Q366 342 342 323T302 268T286 181Q286 144 298 121T328 86T364 75Z" />
<glyph unicode="A" glyph-name="A" horiz-adv-x="726" d="M21 -5Q10 -5 3 -2T-5 12Q-5 22 1 26T17 34Q47 42 68 59T100 98Q124 153 146 207T189 314T230 422T271 532Q288 578 292 597T299 618Q319 623 336 627T374 639Q393 646 407 656T429 674Q434 677 438 678T447
671Q451 664 453 658T458 643Q478 577 499 510T543 375T587 237T632 98Q637 82 648 70T676 49T712 34Q721 31 727 27T734 13Q734 6 729 2T715 -2Q694 -2 664 -1T603 1T549 2Q529 2 500 1T441 -1T389 -3Q381 -3 375 1T368 12Q368 21 374 26T390 34Q428 42 446 55T456
97Q451 117 446 136T435 174T425 213Q423 221 420 225T409 230H235Q227 230 224 226T218 213Q214 198 210 186T201 161T193 137T185 109Q176 77 188 61T247 34Q269 29 269 12Q269 5 264 2T248 -2Q215 -2 190 -1T135 1Q106 1 80 -2T21 -5ZM263 288H388Q403 288 403
295Q403 299 403 300T401 306L337 527Q334 537 331 537Q329 537 325 527L248 306Q246 302 246 298Q246 293 251 291T263 288Z" />
<glyph unicode="B" glyph-name="B" horiz-adv-x="635" d="M35 -5Q26 -5 21 0T16 11Q16 26 36 32Q69 42 82 53T96 95V551Q96 583 84 596T36 618Q24 621 20 627T15 639Q15 646 20 650T35 655Q68 655 90 653T132 649T178 647Q202 647 222 649T266 654T327 657Q446
657 508 624T571 508Q571 478 557 450T517 402Q501 389 483 380T443 365Q439 364 439 360T443 355Q470 350 498 341T552 313T592 267T607 194Q607 138 590 105T547 55T501 27Q468 11 426 4T326 -4Q288 -4 253 -2T179 0Q159 0 133 -1T81 -3T35 -5ZM323 54Q351 54
374 71T412 119T426 186Q426 220 419 242T401 277T381 298Q374 305 356 312T310 320Q297 320 282 313T266 288V116Q266 86 281 70T323 54ZM305 368Q328 368 346 373T382 395Q389 402 400 423T411 485Q411 530 401 557T369 597T317 610Q292 610 279 600T266 568V403Q266
385 279 377T305 368Z" />
<glyph unicode="C" glyph-name="C" horiz-adv-x="709" d="M404 -14Q325 -14 256 9T135 76T54 180T25 315Q25 383 52 445T131 557T260 635T433 664Q464 664 497 659T562 646T617 628Q625 624 631 618T639 601Q644 565 645 534T647 480Q647 468 639 464T621 464T607
480Q600 500 592 522T566 560Q546 581 511 595T424 609Q374 609 334 588T266 529T223 444T208 344Q208 277 221 222T261 126T328 65T424 43Q499 43 544 74T621 172Q629 190 644 189T659 172Q659 158 657 140T650 100T638 54Q635 43 628 36T612 24Q574 7 522 -3T404
-14Z" />
<glyph unicode="D" glyph-name="D" horiz-adv-x="769" d="M385 -7Q345 -7 304 -5T229 -2T183 0Q163 0 137 0T83 -2T33 -3Q27 -3 21 1T15 12Q15 21 20 26T34 34Q72 42 86 54T100 97V551Q100 583 87 596T34 618Q25 620 20 625T15 640Q15 647 21 651T33 655Q55 655
82 654T136 652T183 650Q198 650 224 651T282 654T344 657T394 659Q464 659 527 636T639 569T716 467T744 335Q744 269 721 208T653 98T540 22T385 -7ZM369 48Q435 48 477 80T540 170T561 306Q561 372 549 426T511 519T448 579T359 601Q329 601 310 599T280 591T270
568V134Q270 103 280 84T313 57T369 48Z" />
<glyph unicode="E" glyph-name="E" horiz-adv-x="577" d="M35 -5Q26 -5 21 0T16 11Q16 26 36 32Q69 42 82 53T96 95V551Q96 583 84 596T36 618Q24 621 20 627T15 639Q15 646 20 650T35 655Q57 655 83 654T134 652T179 650Q235 650 299 651T412 653Q444 653 464
657T489 661Q497 661 505 657T515 640Q519 603 525 568T532 505Q532 495 528 490T519 485Q514 485 508 489T498 502Q487 529 479 547T459 577Q448 588 431 598T386 609H323Q298 609 282 597T266 563V379Q266 366 273 361T292 355H377Q403 355 414 374T435 417Q443
435 456 435Q461 435 465 429T468 412Q467 398 466 384T464 357T463 329Q463 316 463 303T465 275T467 246Q469 231 466 225T457 218Q440 218 433 242Q424 274 413 291T382 308H288Q277 308 272 302T266 285V96Q266 68 278 57T315 45H404Q424 45 443 50T477 68Q494
82 508 104T534 148Q538 156 542 158T553 160Q559 160 561 154T563 140Q563 122 558 101T546 57T531 8Q529 1 522 -1T507 -4Q502 -4 468 -4T384 -2T279 -1T179 0Q159 0 133 -1T81 -3T35 -5Z" />
<glyph unicode="F" glyph-name="F" horiz-adv-x="554" d="M33 -3Q27 -3 21 1T15 12Q15 29 34 34Q72 42 86 54T100 97V551Q100 583 88 596T40 618Q28 621 24 627T19 639Q19 646 24 650T39 655Q61 655 87 654T138 652T183 650Q225 650 274 650T369 650Q412 650 447
655T505 661Q513 661 521 657T531 640Q533 615 534 589T535 540T536 498Q536 478 523 478Q518 478 511 482T502 495Q495 521 487 542T464 578Q451 591 434 597T390 604H327Q302 604 286 592T270 558Q270 541 270 518T270 477Q270 455 270 429T270 380Q270 367 277
362T296 356Q319 356 342 356T389 356Q415 356 426 372T447 410Q451 419 456 423T468 428Q473 428 477 422T480 405Q478 383 477 364T475 329Q475 309 476 296T479 260Q481 245 478 239T469 232Q462 232 455 239T445 256Q436 287 425 298T394 309Q383 309 371 309T348
309Q334 309 319 309T290 309Q279 309 274 303T268 286Q268 241 269 192T270 98Q270 67 287 55T348 34Q357 32 362 28T367 13Q367 6 363 2T351 -2Q330 -2 298 -1T235 1T183 2Q163 2 137 1T83 -1T33 -3Z" />
<glyph unicode="G" glyph-name="G" horiz-adv-x="717" d="M376 -14Q303 -14 240 9T128 76T52 180T25 315Q25 383 51 445T126 557T246 635T405 664Q426 664 453 661T508 653T562 642T606 628Q615 624 621 618T628 601Q633 565 636 534T640 480Q640 470 636 465T623
460Q611 460 606 465T595 480Q586 500 573 522T543 562Q530 575 514 585T476 602T423 609Q370 609 330 588T262 529T222 444T208 344Q208 277 218 222T251 126T309 65T393 43Q411 43 425 50T450 65Q460 72 465 89T472 127Q473 136 473 153T473 188T474 215Q474
226 469 235T448 251Q438 255 429 258T410 264T391 269Q382 271 374 277T366 292Q366 299 373 303T388 307Q410 307 439 306T498 304T547 302Q576 302 611 304T678 306Q686 306 690 303T694 291Q694 281 689 277T675 270Q645 262 635 252T620 221Q616 199 615 183T613
146V112Q613 107 617 102T627 92Q632 87 634 82T637 70Q637 63 632 57T616 48Q608 47 589 38T539 16T468 -5T376 -14Z" />
<glyph unicode="H" glyph-name="H" horiz-adv-x="799" d="M33 -3Q27 -3 21 1T15 12Q15 29 34 34Q68 42 81 54T94 97V551Q94 583 82 596T34 618Q15 623 15 640Q15 647 21 651T33 655Q55 655 81 654T132 652T177 650Q197 650 225 651T282 653T332 654Q348 654 348
639Q348 629 343 625T329 618Q288 606 276 593T264 550V373Q264 365 268 362T280 358H521Q535 358 535 373V550Q535 580 523 593T470 618Q461 621 456 625T451 639Q451 654 467 654Q488 654 517 653T574 651T622 650Q642 650 667 651T718 654T766 655Q772 655 778
651T784 640Q784 623 765 618Q730 609 718 596T705 551V97Q705 66 718 54T765 34Q784 29 784 12Q784 5 778 1T766 -3Q747 -3 721 -2T669 1T622 2Q603 2 575 1T517 -1T467 -2Q460 -2 456 2T451 13Q451 23 456 27T470 34Q509 45 522 57T535 98V284Q535 292 532 296T521
301H280Q264 301 264 284V98Q264 70 277 58T329 34Q338 31 343 27T348 13Q348 6 344 2T332 -2Q311 -2 282 -1T225 1T177 2Q157 2 131 1T78 -1T33 -3Z" />
<glyph unicode="I" glyph-name="I" horiz-adv-x="369" d="M33 -3Q27 -3 21 1T15 12Q15 29 34 34Q72 42 86 54T100 97V551Q100 583 87 596T34 618Q15 623 15 640Q15 647 21 651T33 655Q55 655 82 654T136 652T183 650Q203 650 231 651T288 653T338 654Q346 654
350 651T354 639Q354 629 349 625T335 618Q294 606 282 593T270 550V98Q270 70 283 58T335 34Q344 31 349 27T354 13Q354 6 350 2T338 -2Q317 -2 288 -1T231 1T183 2Q163 2 137 1T83 -1T33 -3Z" />
<glyph unicode="J" glyph-name="J" horiz-adv-x="376" d="M62 -200Q-85 -200 -85 -140Q-85 -119 -67 -100T-31 -80Q-20 -80 -10 -86T10 -103Q30 -127 39 -142T60 -158Q89 -158 105 -120T122 9V551Q122 583 109 596T56 618Q37 623 37 640Q37 647 43 651T55 655Q77
655 104 654T158 652T205 650Q225 650 253 651T310 653T360 654Q368 654 372 651T376 639Q376 629 371 625T357 618Q316 606 304 593T292 550V94Q292 71 282 39T254 -29T211 -97Q179 -140 140 -170T62 -200Z" />
<glyph unicode="K" glyph-name="K" horiz-adv-x="781" d="M43 -6Q34 -6 25 -1T15 12Q15 29 40 34Q78 42 89 54T100 97V551Q100 583 87 596T34 618Q15 623 15 640Q15 647 21 651T33 655Q55 655 82 654T136 652T183 650Q203 650 231 651T288 653T338 654Q346 654
350 651T354 639Q354 629 349 625T335 618Q294 606 282 593T270 550V343Q270 335 273 332T281 328Q286 328 291 332T305 343L496 551Q504 560 509 567T515 582Q515 604 469 614Q460 616 455 621T450 636Q450 643 456 647T468 651H540Q575 651 606 651T671 653T746
654Q756 654 764 651T773 639Q773 629 763 625T743 618Q690 611 654 595T589 557Q560 535 533 509T478 455T420 400Q404 386 420 368L659 98Q671 85 684 73T716 52T760 34Q769 31 780 27T791 13Q791 6 781 1T750 -5Q720 -5 689 -3T627 0T563 2Q526 2 495 0T428
-3Q422 -3 416 1T410 12Q410 29 429 34Q471 42 473 63Q473 71 469 79T456 97L304 277Q297 285 291 289T280 293Q276 293 273 289T269 277Q269 232 269 188T272 98Q273 80 276 69T291 50T329 34Q338 31 346 27T354 13Q354 6 345 1T326 -4Q294 -4 269 -2T224 2T183
4Q163 4 144 2T102 -3T43 -6Z" />
<glyph unicode="L" glyph-name="L" horiz-adv-x="586" d="M39 -5Q30 -5 25 0T20 11Q20 17 25 23T40 32Q73 42 86 53T100 95V551Q100 573 95 585T75 604T34 618Q15 623 15 640Q15 647 21 651T33 655Q55 655 82 654T136 652T183 650Q203 650 231 651T288 653T338
654Q346 654 350 651T354 639Q354 629 349 625T335 618Q294 606 282 593T270 550V105Q270 77 282 66T319 54H416Q437 54 454 61T485 82Q502 98 515 119T539 163Q550 186 555 190T567 195Q575 195 578 188T581 174Q581 172 579 164T577 151Q569 121 563 100T554
59T547 14Q546 7 543 1T530 -5Q516 -5 478 -4T388 -3T283 -1T183 0Q163 0 137 -1T85 -3T39 -5Z" />
<glyph unicode="M" glyph-name="M" horiz-adv-x="921" d="M43 -3Q31 -3 26 1T20 12Q20 21 29 23T47 30Q70 39 87 59T109 109Q114 146 120 210T133 354T147 516Q148 521 148 530T148 550Q148 570 142 581T122 599Q111 605 98 610T70 620Q58 623 51 628T43 642Q43
651 50 654T69 658Q85 658 107 657T157 656T212 654T268 653Q276 653 283 647T292 635Q300 615 306 599T320 562L464 223Q466 219 468 219T472 223L603 538Q611 577 615 599T624 634Q628 647 641 647H686Q730 649 778 653T855 658Q866 658 873 655T881 642Q881
633 874 629T858 622Q854 621 848 618T837 613Q807 599 794 582T782 527Q785 454 788 402T793 306T799 214T807 98Q809 73 829 58T879 34Q888 31 894 27T901 13Q901 6 896 2T882 -2Q861 -2 831 -1T770 1T720 2Q700 2 674 1T620 -1T570 -3Q562 -3 556 1T549 12Q549
21 555 26T571 34Q609 42 624 54T637 97Q634 157 632 219T629 341T624 456Q624 462 621 462T615 454L433 3Q427 -13 417 -10T402 1Q350 117 295 230T197 449Q193 459 187 456T179 440Q177 395 177 335T177 214T178 104Q178 76 196 60T254 34Q263 32 272 28T281
13Q281 6 273 2T257 -2Q230 -2 215 -1T188 0T154 1Q131 1 105 0T61 -2T43 -3Z" />
<glyph unicode="N" glyph-name="N" horiz-adv-x="813" d="M683 -19Q669 -19 640 -4T577 52Q549 82 522 111T466 170T410 229T355 288T299 346T244 405T188 465Q187 467 183 471T177 475Q173 475 172 468T170 456Q170 411 171 349T174 225T176 113Q176 79 197 62T259
34Q268 32 277 28T286 13Q286 6 278 2T262 -2Q235 -2 217 -1T184 0T147 1Q124 1 103 0T68 -2T54 -3Q48 -3 40 1T31 12Q31 21 38 25T55 34Q78 43 90 64T105 115Q109 152 113 213T122 350T126 508Q126 560 100 583T37 620Q28 622 19 627T10 642Q10 651 17 654T36
658Q52 658 75 657T126 656T183 654T239 653Q247 653 251 651T259 643Q285 614 311 585T364 526T417 468T470 410T522 351T575 293T628 234Q631 230 635 226T642 222Q650 222 650 236Q650 271 650 312T650 397T650 481T647 553Q646 582 627 595T569 618Q560 620
553 624T546 639Q546 646 553 650T567 654Q594 654 611 654T642 653T673 652Q693 652 707 652T737 654T779 655Q790 655 796 651T803 640Q803 624 778 619Q744 612 728 599T712 556Q712 513 711 471T708 387T704 308T701 234T700 170Q700 147 703 118T709 64T712
30Q712 3 705 -8T683 -19Z" />
<glyph unicode="O" glyph-name="O" horiz-adv-x="759" d="M375 -14Q305 -14 242 9T130 76T53 180T25 315Q25 383 48 445T116 557T229 635T384 664Q454 664 517 641T629 574T706 470T734 335Q734 268 711 205T643 93T530 15T375 -14ZM393 33Q446 33 481 65T535
153T553 283Q553 343 542 402T508 509T450 587T364 616Q312 616 277 584T224 496T206 367Q206 307 217 248T250 141T308 63T393 33Z" />
<glyph unicode="P" glyph-name="P" horiz-adv-x="619" d="M33 -3Q27 -3 21 1T15 12Q15 29 34 34Q72 42 86 54T100 97V551Q100 583 88 596T40 618Q28 621 24 627T19 639Q19 646 24 650T39 655Q61 655 87 654T138 652T183 650Q207 650 225 652T267 657T327 660Q450
660 522 608T594 464Q594 401 567 348T486 262T348 229Q321 229 307 237T293 257Q293 265 300 269T312 273Q324 273 331 271T352 268Q390 268 409 314T429 435Q429 530 403 571T327 613Q299 613 285 600T271 560L270 98Q270 67 287 55T348 34Q357 32 362 28T367
13Q367 6 363 2T351 -2Q330 -2 298 -1T235 1T183 2Q163 2 137 1T83 -1T33 -3Z" />
<glyph unicode="Q" glyph-name="Q" horiz-adv-x="759" d="M726 -248Q669 -248 603 -228T484 -170Q448 -144 419 -122T356 -70Q339 -54 312 -29T243 11Q212 22 174 44T103 102T47 190T25 315Q25 383 48 445T116 557T229 635T384 664Q454 664 517 641T629 574T706
470T734 335Q734 268 711 206T643 94T531 16Q520 13 520 5Q520 0 525 -5Q547 -26 569 -46T629 -97Q678 -137 720 -155T800 -173Q810 -173 817 -173T831 -171Q837 -170 842 -170T854 -169Q885 -169 885 -192Q885 -201 881 -207T865 -221Q845 -234 809 -241T726 -248ZM393
36Q473 36 513 102T553 283Q553 345 542 404T508 510T450 584T364 612Q285 612 246 547T206 367Q206 305 217 246T250 140T308 64T393 36Z" />
<glyph unicode="R" glyph-name="R" horiz-adv-x="770" d="M647 -21Q591 -21 554 -7T491 29T446 79Q425 108 405 137T366 200T328 275Q318 297 304 305Q298 309 292 310T280 312Q275 312 273 307T270 292V98Q270 67 287 55T348 34Q357 32 362 28T367 13Q367 6 363
2T351 -2Q330 -2 298 -1T235 1T183 2Q163 2 137 1T83 -1T33 -3Q27 -3 21 1T15 12Q15 29 34 34Q72 42 86 54T100 97V551Q100 573 95 585T77 605T40 618Q28 621 24 627T19 639Q19 646 24 650T39 655Q72 655 94 653T136 649T182 647Q206 647 224 649T266 654T326 657Q444
657 508 618T573 497Q573 452 553 422T503 373T442 345Q438 344 438 340T441 333Q471 289 499 248T557 173T615 110Q650 77 687 71T760 65Q775 65 775 46Q775 22 760 8T715 -14T647 -21ZM305 346Q341 346 364 362T398 406T410 473Q410 521 398 551T364 595T309
610Q289 610 280 593T270 518Q270 496 270 463T270 384Q270 364 279 355T305 346Z" />
<glyph unicode="S" glyph-name="S" horiz-adv-x="500" d="M222 -14Q179 -14 138 -5T61 27Q54 32 48 38T38 52Q27 81 23 121T21 206Q21 213 26 216T40 219Q51 219 54 216T62 206Q85 132 129 83T235 34Q266 34 285 48T314 84T324 126Q324 156 312 177T275 216T210
255Q168 278 129 305T64 371T39 469Q39 529 71 572T158 640T278 664Q316 664 352 656T411 639Q424 634 429 629T439 606Q444 585 446 555T449 485Q449 472 430 472Q422 472 415 476T405 488Q389 550 355 581T272 613Q241 613 222 603T193 575T183 528Q183 506 199
486T245 446T317 400Q375 366 407 334T452 268T465 189Q465 118 435 73T350 7T222 -14Z" />
<glyph unicode="T" glyph-name="T" horiz-adv-x="701" d="M204 -3Q198 -3 191 1T183 12Q183 21 189 26T205 34Q243 42 259 54T276 97V515Q276 553 274 570T269 593T261 601Q254 606 240 607T220 608H203Q170 608 140 591T92 550Q87 543 77 530T56 507T34 497Q25
497 22 502T18 515Q18 528 25 542Q45 581 54 609T67 674Q69 688 76 694T93 700Q101 700 109 687T127 666Q138 658 162 654T199 650L581 651Q604 651 620 656T644 665Q661 675 671 687T694 699Q701 699 703 695T706 683Q706 679 706 674T704 664Q699 644 694 625T685
587T681 551V530Q681 512 678 503T664 493Q654 493 648 502T634 532Q621 572 599 590T534 608H493Q477 608 467 600T451 570T446 503V98Q446 70 461 58T516 34Q525 31 531 27T538 13Q538 6 533 2T519 -2Q498 -2 468 -1T409 1T359 2Q339 2 311 1T255 -1T204 -3Z"
/>
<glyph unicode="U" glyph-name="U" horiz-adv-x="746" d="M373 -14Q278 -14 215 20T119 114T87 256V536Q87 562 75 586T35 618Q8 625 8 640Q8 647 15 651T34 655Q67 655 104 653T171 650Q200 650 243 652T318 654Q330 654 337 651T344 639Q344 627 328 622T295
608Q279 601 269 583T258 530V272Q258 206 279 164T334 101T410 81Q498 81 542 131T586 291Q586 318 586 350T587 415T587 477Q586 526 580 551T563 590T531 614Q520 620 505 624T490 639Q490 647 498 650T520 654Q559 654 578 653T621 651Q640 651 652 652T678
654T713 655Q724 655 731 652T738 640Q738 626 712 618Q677 608 664 587T648 527Q645 454 644 392T643 265Q643 183 607 120T510 22T373 -14Z" />
<glyph unicode="V" glyph-name="V" horiz-adv-x="714" d="M355 -18Q340 -18 332 0Q325 16 314 42T294 92L95 551Q85 574 69 592T22 618Q13 621 7 625T0 639Q0 647 6 650T19 654Q40 654 68 653T124 651T171 650Q191 650 222 651T284 654T338 655Q346 655 355 651T365
640Q365 631 356 626T337 618Q307 611 294 603T281 578Q281 574 282 568T285 555L411 197Q413 190 415 189T421 198L533 493Q553 544 543 577T485 618Q475 620 465 625T455 640Q455 647 464 650T484 654Q506 654 519 653T546 652T579 651Q608 651 632 654T688 657Q699
657 708 654T718 640Q718 630 710 627T692 620Q662 612 644 590T605 520L461 177Q442 133 428 102T403 47T381 0Q377 -10 372 -14T355 -18Z" />
<glyph unicode="W" glyph-name="W" horiz-adv-x="1043" d="M378 -17Q368 -17 364 -10T355 8L95 554Q85 577 72 593T28 618Q19 621 10 625T0 639Q0 647 9 650T25 654Q57 654 98 652T168 650Q198 650 230 652T296 655Q309 655 318 651T327 640Q327 630 319 626T295
618Q278 614 275 607T272 588Q272 584 274 575T277 562Q296 517 316 472T355 382T394 291T432 199Q437 188 440 187T449 198L499 283Q502 288 504 292T506 301Q506 305 505 309T501 318L388 554Q379 577 361 593T312 618Q303 621 297 625T290 639Q290 647 296 650T309
654Q330 654 358 653T414 651T461 650Q491 650 524 652T590 654Q606 654 615 651T624 640Q624 634 621 630T609 624T589 618Q568 614 565 602T566 576Q570 566 576 550T589 515T602 479T614 451Q621 436 624 439T632 451Q638 464 647 486T664 531T678 565Q683 575
683 587Q683 603 670 609T645 621T632 638Q632 645 634 649T653 653Q681 653 690 652T713 650Q728 651 743 653T789 655Q800 655 809 652T819 638Q819 628 811 625T793 618Q763 610 749 593T722 552Q711 531 699 507T674 457T651 410Q645 397 646 385T654 357L725
199Q729 189 732 192T738 200Q778 289 816 379T883 539Q894 567 895 576T896 591Q895 601 888 608T868 618Q858 620 848 625T838 640Q838 647 847 650T867 654Q899 654 911 652T936 651Q951 652 966 654T1012 657Q1026 657 1036 654T1047 640Q1047 630 1036 627T1016
620Q996 615 983 605T960 583T944 554L699 3Q695 -7 691 -11T678 -15Q669 -15 664 -11T653 4Q645 22 630 51T593 126T542 234Q539 241 535 241T527 234Q508 198 487 159T443 81T400 5Q396 -5 392 -11T378 -17Z" />
<glyph unicode="X" glyph-name="X" horiz-adv-x="760" d="M25 -7Q14 -7 5 -4T-5 10Q-5 20 3 23T21 30Q41 36 59 46T97 75T140 124L261 281Q274 298 274 315T260 352L116 554Q107 568 97 580T74 603T40 618Q31 621 25 625T18 639Q18 647 24 650T37 654Q87 654 137
651T236 648Q269 648 301 651T370 655Q378 655 387 651T397 640Q397 631 388 626T369 618Q338 611 323 603T308 577Q308 565 321 548L417 417Q426 405 434 404T452 415L529 523Q543 542 548 555T553 579Q553 593 543 602T509 618Q499 621 489 626T479 640Q479 647
488 650T511 654Q533 654 546 653T571 651T604 650Q633 650 652 653T703 657Q714 657 725 654T736 640Q736 630 726 627T707 620Q686 613 663 598T625 564L483 387Q472 374 472 362T484 332L654 92Q668 72 685 57T719 36Q728 34 741 27T755 10Q755 3 748 -1T730
-5Q688 -5 653 -4T587 0T522 1Q492 1 462 0T400 -2Q392 -2 383 2T373 13Q373 22 382 27T401 35Q421 40 441 48T461 73Q461 78 459 83T453 94L343 248Q330 268 320 271T294 251L209 125Q194 103 192 89T190 67Q192 54 203 45T236 32Q246 31 256 25T266 10Q266 3
257 0T237 -4Q204 -4 176 -3T132 -1Q103 -1 80 -4T25 -7Z" />
<glyph unicode="Y" glyph-name="Y" horiz-adv-x="671" d="M195 -6Q182 -6 175 -1T167 11Q167 20 176 25T196 33Q234 41 248 60T262 110V246Q262 284 253 307T229 353L98 554Q89 568 79 580T56 603T22 618Q13 621 7 625T0 639Q0 647 6 650T19 654Q66 654 106 651T191
648Q226 648 257 651T326 655Q334 655 343 651T353 640Q353 631 344 626T325 618Q295 611 282 603T269 578Q269 562 280 543L385 364Q392 351 401 351Q405 351 408 354T416 364Q440 407 462 449T505 538Q509 546 512 556T515 576Q515 596 497 606T458 618Q448 619
438 625T428 640Q428 647 437 650T457 654Q487 654 512 652T565 649Q590 649 613 653T666 657Q677 657 686 654T696 640Q696 630 688 627T670 620Q640 612 618 595T584 557Q569 532 553 507T522 456T491 406T460 355Q453 342 447 327T436 295T432 256V111Q432 73
445 59T498 33Q509 30 518 26T527 12Q527 5 520 0T501 -5Q480 -5 451 -3T394 1T345 3Q325 3 299 1T245 -3T195 -6Z" />
<glyph unicode="Z" glyph-name="Z" horiz-adv-x="595" d="M518 -4Q514 -4 490 -4T430 -3T350 -1T264 0Q227 -1 189 -1T113 -3L36 -5Q26 -5 22 9T21 27Q31 43 41 59T60 91T79 122Q111 178 145 235T215 349T285 462T353 574Q355 579 357 583T359 592Q359 597 356
600T344 603Q328 603 313 603T281 603Q264 603 249 603T217 603Q173 603 140 580T82 516Q75 504 65 493T38 481Q29 481 26 486T22 499Q22 505 24 512T29 526Q42 553 47 572T54 611T59 659Q61 675 65 681T82 688Q92 688 107 676T138 658Q158 651 177 651T224 650Q253
650 282 650T340 650Q355 650 385 651T451 652T518 654T566 655Q574 655 580 645T584 630L514 516Q484 467 453 412T389 300T326 191T266 93Q254 74 254 64Q254 58 260 56T279 52Q290 51 312 51T346 50Q389 50 420 53T474 69Q516 91 546 163Q550 171 554 173T565
175Q580 175 580 160Q580 147 577 130T568 93T558 54T547 16Q544 6 537 1T518 -4Z" />
<glyph unicode="[" glyph-name="bracketleft" horiz-adv-x="362" d="M152 -201Q135 -201 126 -199T113 -185T110 -145V645Q110 673 113 684T125 698T152 701L328 700Q336 700 344 698T352 683Q352 672 338 668T316 661L235 649Q225 648 221 641T217 626L216 -125Q216
-132 220 -138T233 -146L309 -158Q323 -160 335 -165T348 -179Q348 -191 342 -195T328 -200L152 -201Z" />
<glyph unicode="\" glyph-name="backslash" horiz-adv-x="407" d="M371 -62Q357 -62 344 -59T324 -42L11 645Q8 652 14 659T33 667Q50 667 61 663T80 645L392 -42Q395 -49 389 -55T371 -62Z" />
<glyph unicode="]" glyph-name="bracketright" horiz-adv-x="362" d="M210 -201L34 -200Q27 -200 21 -196T14 -179Q14 -170 27 -165T53 -158L129 -146Q138 -144 142 -138T146 -125L145 626Q145 634 141 641T127 649L46 661Q38 663 24 667T10 683Q10 695 18 697T34
700L210 701Q228 701 237 699T249 685T252 645V-145Q252 -173 249 -184T237 -198T210 -201Z" />
<glyph unicode="^" glyph-name="asciicircum" horiz-adv-x="517" d="M54 242Q45 242 38 245T30 259Q30 262 32 266L253 609H261L485 266Q490 258 485 250T463 242Q448 242 436 253T413 279L262 500Q258 505 256 505T252 500L104 279Q94 264 82 253T54 242Z" />
<glyph unicode="_" glyph-name="underscore" horiz-adv-x="610" d="M585 -127Q596 -127 602 -131T609 -143Q609 -156 599 -172T575 -188H17Q10 -188 5 -183T0 -174Q0 -168 3 -157T12 -136T29 -127H585Z" />
<glyph unicode="`" glyph-name="grave" horiz-adv-x="245" d="M200 452Q189 452 174 467Q152 490 130 514T86 562T43 610Q37 617 35 623T33 635Q33 648 51 654T94 660Q114 660 124 655T143 633Q151 618 163 591T187 535T206 487Q209 480 210 475T211 465Q211 452
200 452Z" />
<glyph unicode="a" glyph-name="a" horiz-adv-x="447" d="M132 -14Q103 -14 79 -2T41 32T27 80Q27 115 49 139T115 182L201 220Q221 229 226 236T231 263L232 318Q233 347 223 362T192 378Q180 378 167 373T148 360Q145 356 144 351T143 341Q143 335 144 326T145
310Q145 303 128 294T89 277T51 269Q43 269 38 275T32 292Q32 308 43 323T80 359Q107 381 139 398T202 425T255 436Q312 436 346 400T378 302L373 108Q372 85 380 69T402 52Q420 52 434 65Q437 68 440 68Q445 68 448 65T452 56Q452 44 432 24Q413 5 391 -4T345
-14Q287 -14 248 44H246Q213 13 187 0T132 -14ZM194 55Q203 55 209 58T220 68Q223 72 224 78T226 91L229 168Q229 177 226 179T219 182Q217 182 215 182T209 179Q185 166 173 153T160 104Q160 75 171 65T194 55Z" />
<glyph unicode="b" glyph-name="b" horiz-adv-x="548" d="M279 -14Q248 -14 223 -9T178 2Q164 6 153 8T132 11Q122 11 112 8T94 -2Q84 -9 78 -9Q68 -9 64 -5T59 4Q59 13 65 40T70 110L65 546Q65 573 59 593T28 618Q23 619 20 623T16 634Q16 640 19 644T27 649Q51
654 81 663T141 684T187 701Q197 705 202 705Q209 705 211 701T214 692Q214 685 212 669T209 638L208 422Q208 410 210 403T217 395Q248 415 280 425T341 436Q394 436 436 409T502 334T527 227Q527 156 496 102T409 17T279 -14ZM295 31Q320 31 337 54T363 116T373
200Q373 240 364 281T334 349T280 377Q267 377 245 373T208 359V142Q208 110 220 85T253 45T295 31Z" />
<glyph unicode="c" glyph-name="c" horiz-adv-x="412" d="M211 -14Q157 -14 114 15T46 93T21 205Q21 270 51 322T133 405T247 436Q333 436 388 378Q396 368 396 360Q396 354 387 343T367 322T347 312Q337 312 328 318T311 331Q284 354 258 367T211 381Q176 381
159 353T142 253Q142 204 156 169T198 116T267 97Q297 97 319 107T366 135Q371 139 375 142T384 145Q396 145 396 129Q396 125 395 118T390 102Q382 82 356 55T293 7T211 -14Z" />
<glyph unicode="d" glyph-name="d" horiz-adv-x="563" d="M358 -19Q355 -19 349 -12T343 -1Q346 16 347 28T349 51V57Q327 24 291 5T216 -14Q161 -14 117 13T47 89T21 196Q21 266 52 319T138 403T264 433Q278 433 293 431T323 425Q338 422 336 422Q340 422 340
433V546Q340 581 332 597T303 618Q291 621 291 634Q291 647 302 649Q338 657 380 670T451 695Q466 702 471 703T477 705Q489 705 489 692Q489 697 488 688T486 664T484 638L478 122Q478 88 483 74T501 59Q506 59 510 59T540 62Q553 63 553 51Q553 43 547 34T535
24Q497 20 455 11T376 -13Q370 -16 366 -17T358 -19ZM271 58Q283 58 305 64T340 84L339 315Q339 330 326 346T294 373T258 384Q234 384 216 364T186 307T175 224Q175 187 182 157T202 104T232 70T271 58Z" />
<glyph unicode="e" glyph-name="e" horiz-adv-x="423" d="M211 -14Q157 -14 114 15T46 93T21 205Q21 269 51 321T132 405T245 436Q288 436 323 417T379 367T400 295Q400 256 369 256H171Q157 256 151 248T144 221Q144 185 160 156T204 109T269 92Q298 92 322 103T372
133Q375 135 379 137T386 140Q397 140 397 127Q397 118 391 100Q382 73 358 47T297 3T211 -14ZM171 300H224Q253 300 262 301T280 305Q285 307 288 316T291 335Q291 361 275 377T232 394Q212 394 195 383T166 353T156 315Q156 300 171 300Z" />
<glyph unicode="f" glyph-name="f" horiz-adv-x="369" d="M40 -3Q34 -3 27 1T20 12Q20 20 25 24T38 32Q67 41 73 48T80 71V356Q70 356 57 356T28 358Q22 359 18 370T14 390Q14 394 17 396T24 400Q36 405 50 410T80 423Q85 503 112 557T178 644T262 691T345 706Q416
706 447 687T479 624Q479 601 469 587T438 572Q429 572 420 580T401 601Q383 621 359 640T303 659Q264 659 245 626T225 519V438Q225 429 230 426T242 423H352Q361 423 365 418T369 406Q369 397 367 387T360 369Q355 361 352 361H265Q241 361 233 356T225 336V91Q225
64 236 53T290 33Q309 29 309 14Q309 8 304 3T293 -3Q263 -3 222 -1T155 2Q138 2 119 1T80 -1T40 -3Z" />
<glyph unicode="g" glyph-name="g" horiz-adv-x="514" d="M220 -289Q120 -289 64 -259T8 -176Q8 -145 15 -127T49 -89Q69 -75 86 -62T113 -42L164 -62Q136 -77 119 -96T102 -142Q102 -183 136 -209T223 -236Q294 -236 321 -209Q338 -192 348 -171T358 -130Q358
-115 348 -106T311 -91T232 -79Q126 -68 81 -37T35 45Q35 54 40 64T63 85Q77 95 90 105T114 124T127 140L180 122Q160 116 148 104T136 84Q136 74 148 68T192 57T281 48Q393 39 442 15T492 -57Q492 -99 469 -140T406 -215T318 -269T220 -289ZM234 140Q264 140 281
174T299 268Q299 306 291 334T267 377T231 393Q212 393 197 378T174 335T165 273Q165 235 174 205T199 158T234 140ZM222 94Q177 94 134 115T62 175T33 263Q33 314 62 353T139 415T241 437Q272 437 301 430T366 418Q384 415 404 413T448 411Q464 411 478 412T503
414Q520 414 520 390Q520 369 506 350Q500 343 493 343H466Q440 343 430 335Q427 333 426 332T425 323T425 288Q425 235 397 191T323 121T222 94Z" />
<glyph unicode="h" glyph-name="h" horiz-adv-x="569" d="M36 -3Q16 -3 16 12Q16 25 39 33Q54 38 65 43T76 71V546Q76 573 70 593T38 618Q27 620 27 634Q27 647 37 649Q62 654 94 664T155 686T200 702Q209 705 214 705Q221 705 223 701T225 692Q225 687 224 678T222
659T220 638V394Q220 385 221 377T225 367Q240 380 260 396T308 424T370 436Q424 436 461 399T498 293V73Q498 52 508 45T533 33Q543 29 548 25T554 12Q554 -3 532 -3Q507 -3 491 -2T461 1T424 2Q401 2 389 1T363 -1T324 -3Q299 -3 299 13Q299 21 305 26T319 33Q332
37 342 45T353 75V271Q353 292 345 309T324 336T295 346Q281 346 265 341T231 324Q225 320 223 314T221 296V73Q221 53 230 46T253 34Q261 31 267 26T273 13Q273 -3 256 -3Q236 -3 217 -2T181 1T145 2Q128 2 111 1T75 -1T36 -3Z" />
<glyph unicode="i" glyph-name="i" horiz-adv-x="306" d="M36 -3Q30 -3 25 1T20 11Q20 19 24 24T37 31Q64 38 74 45T85 68V284Q85 320 75 332T42 348Q36 349 33 354T30 367Q30 383 42 385Q96 396 140 414T207 443Q225 451 229 451Q243 451 243 437Q242 418 239
393T233 340T230 288V69Q230 56 240 48T278 31Q286 28 291 24T296 12Q296 -2 281 -2Q262 -2 240 -1T196 1T156 2Q139 2 119 1T77 -1T36 -3ZM152 488Q118 488 93 513T68 572Q68 609 93 634T152 659Q189 659 214 634T239 572Q239 538 214 513T152 488Z" />
<glyph unicode="j" glyph-name="j" horiz-adv-x="275" d="M5 -287Q-17 -287 -28 -283T-40 -270Q-40 -262 -35 -258T-19 -248Q-3 -240 10 -230T36 -193Q46 -172 52 -141T61 -75T66 -8T67 48V284Q67 320 57 332T24 348Q18 349 15 354T12 367Q12 383 24 385Q78 396
122 414T189 443Q197 447 203 449T211 451Q225 451 225 437Q223 409 218 367T212 288L213 91Q213 60 211 19T200 -67T173 -152Q158 -186 130 -217T68 -267T5 -287ZM136 488Q102 488 77 513T52 572Q52 609 77 634T136 659Q173 659 198 634T223 572Q223 538 198 513T136
488Z" />
<glyph unicode="k" glyph-name="k" horiz-adv-x="563" d="M35 -3Q15 -3 15 12Q15 20 21 24T38 33Q53 38 64 43T75 71V546Q75 573 69 593T37 618Q26 620 26 634Q26 647 36 649Q61 654 93 664T154 686T199 702Q208 705 213 705Q220 705 222 701T224 692Q224 685
222 669T219 638L220 254Q220 241 229 241Q232 241 235 243T241 246Q277 278 306 311T346 361Q350 367 352 371T355 379Q355 384 347 389T322 397Q310 399 310 409Q310 418 317 420T332 423H381Q399 423 430 424T492 428T536 432Q547 432 547 420Q547 412 541 407T524
399Q507 395 483 385T433 360Q414 350 395 338T360 312T330 286Q325 281 325 275Q325 271 327 269T332 263Q356 232 376 203T417 145T464 87Q481 68 505 53T546 31Q554 28 563 24T573 12Q573 -3 551 -3Q486 -3 427 -2T317 0Q297 0 297 15Q297 23 303 27T320 36Q328
39 330 42T334 50Q334 55 331 60T321 74L230 207Q228 209 226 209Q220 207 220 201Q220 186 220 171T220 140Q220 124 220 106T220 70Q220 54 226 47T249 34Q257 31 263 26T269 13Q269 6 265 2T252 -3Q232 -3 214 -2T179 1T144 2Q127 2 110 1T74 -1T35 -3Z" />
<glyph unicode="l" glyph-name="l" horiz-adv-x="295" d="M35 -3Q25 -3 20 1T15 12Q15 20 21 24T38 33Q53 38 64 43T75 71V546Q75 573 69 593T37 618Q26 620 26 634Q26 647 36 649Q61 654 93 664T155 686T200 702Q209 705 214 705Q221 705 223 701T225 692Q225
685 223 669T220 638V73Q220 51 231 46T257 35Q268 31 274 27T280 14Q280 7 275 3T260 -1Q240 -1 220 0T181 1T144 2Q127 2 110 1T74 -1T35 -3Z" />
<glyph unicode="m" glyph-name="m" horiz-adv-x="813" d="M40 -3Q34 -3 27 1T20 12Q20 20 27 25T43 33Q58 38 69 44T80 71V303Q80 323 74 337T51 355Q47 356 43 360T39 374Q39 389 50 392Q74 398 104 406T162 425T210 445Q214 447 217 449T223 451Q233 451 233
439Q233 431 231 413T228 380Q228 370 230 368H232Q264 400 300 418T379 436Q409 436 435 413T474 357H479Q508 395 545 415T628 436Q659 436 684 419T725 370T741 292V70Q741 50 752 44T778 33Q786 30 792 25T798 12Q798 5 793 1T781 -3Q761 -3 742 -2T705 1T669
2Q652 2 637 1T605 -1T569 -3Q563 -3 558 1T553 12Q553 20 558 25T572 33Q585 37 590 43T596 63V267Q596 292 590 309T573 336T546 346Q536 346 522 341T494 323Q483 313 483 288V70Q483 50 489 44T510 33Q518 30 524 25T530 12Q530 5 525 1T513 -3Q493 -3 477
-2T445 1T411 2Q394 2 379 1T347 -1T311 -3Q305 -3 300 1T295 12Q295 20 300 25T314 33Q327 37 332 43T338 63V267Q338 292 332 309T315 335T289 345Q279 345 265 340T235 324Q225 317 225 292V70Q225 53 229 46T249 33Q257 30 262 25T268 12Q268 6 263 2T252 -3Q232
-3 216 -2T184 1T151 2Q134 2 116 1T79 -1T40 -3Z" />
<glyph unicode="n" glyph-name="n" horiz-adv-x="574" d="M40 -3Q34 -3 27 1T20 12Q20 20 27 25T43 33Q58 38 69 44T80 71V303Q80 323 74 337T50 355Q46 356 43 360T39 374Q39 389 49 392Q83 400 128 413T203 442Q208 444 213 447T223 451Q230 451 231 447T233
438Q233 430 231 413T228 382Q228 378 228 373T230 367Q264 399 297 417T377 436Q430 436 466 398T502 292V70Q502 50 513 44T539 33Q547 30 553 25T559 12Q559 5 554 1T542 -3Q522 -3 503 -2T466 1T430 2Q413 2 395 1T359 -1T320 -3Q314 -3 309 1T304 12Q304 20
309 25T323 33Q338 38 347 44T357 70V267Q357 304 341 325T299 346Q280 346 265 341T233 323Q229 320 227 315T225 305V70Q225 50 235 44T259 33Q278 26 278 12Q278 6 273 2T262 -3Q242 -3 224 -2T190 1T155 2Q138 2 119 1T80 -1T40 -3Z" />
<glyph unicode="o" glyph-name="o" horiz-adv-x="505" d="M238 -14Q177 -14 128 13T50 88T21 197Q21 246 39 289T90 366T166 418T260 437Q323 437 373 408T454 331T484 226Q484 161 457 106T375 19T238 -14ZM257 33Q275 33 288 40T310 62Q322 82 327 117T332 202Q332
258 321 300T291 366T245 390Q232 390 221 386T202 373Q185 355 179 318T172 222Q172 175 183 132T213 61T257 33Z" />
<glyph unicode="p" glyph-name="p" horiz-adv-x="558" d="M35 -257Q28 -257 22 -253T15 -242Q15 -234 21 -229T38 -221Q61 -214 68 -207T75 -183V290Q75 303 70 314T56 334T34 344Q28 346 25 349T21 363Q21 372 24 376T33 381Q67 389 110 402T183 431Q188 433
193 436T203 440Q210 440 211 436T213 427Q213 419 211 401T208 369Q208 359 210 357Q220 367 245 384T304 414T368 428Q422 428 460 399T518 325T538 231Q538 184 520 140T470 59T396 2T305 -19Q295 -19 281 -17T251 -10T223 0Q222 0 221 -1T220 -4T219 -11V-172Q219
-186 224 -195T241 -210T271 -222Q282 -225 287 -229T293 -242Q293 -248 289 -252T277 -257Q247 -257 212 -255T150 -252Q133 -252 114 -253T75 -255T35 -257ZM298 31Q308 31 322 39T351 66T374 116T384 194Q384 248 374 280T350 328T320 349T294 354Q277 354 260
347T231 329T220 309Q220 303 220 280T220 228T219 174T219 141Q219 121 227 95T253 50T298 31Z" />
<glyph unicode="q" glyph-name="q" horiz-adv-x="539" d="M280 -287Q273 -287 269 -283T264 -272Q264 -264 270 -260T286 -252Q314 -244 326 -234T338 -202L339 15Q339 26 337 31T332 37Q330 36 328 35T323 32Q309 23 289 12T248 -6T207 -14Q153 -14 111 14T45
90T20 196Q20 257 47 312T129 402T268 437Q303 437 331 431T380 419T415 412Q425 412 435 415T453 425Q458 428 461 430T469 432Q479 432 483 428T488 419Q488 410 483 384T477 313L479 -213Q479 -229 486 -236T516 -251Q527 -254 533 -259T539 -272Q539 -279 533
-283T519 -287Q489 -287 461 -285T406 -282Q389 -282 367 -283T323 -285T280 -287ZM267 56Q285 56 305 61T339 81Q339 98 339 124T339 181T339 238T339 281Q339 330 313 361T252 392Q228 392 211 369T184 307T174 223Q174 193 179 164T196 110T224 71T267 56Z"
/>
<glyph unicode="r" glyph-name="r" horiz-adv-x="432" d="M40 -3Q33 -3 27 1T20 12Q20 20 26 25T43 33Q66 40 73 47T80 71V304Q80 324 75 336T53 353Q48 355 44 358T39 372Q39 387 52 390Q85 398 125 410T196 437Q201 440 209 444T221 448Q231 448 231 436Q231
431 231 415T229 383T228 356Q228 346 232 346Q247 367 267 388T312 423T362 437Q399 437 414 423T429 387Q429 371 420 352T397 318T367 304Q357 304 347 309T325 319Q315 324 305 328T287 333Q261 333 243 314T225 236V82Q225 60 237 50T277 32Q288 29 293 25T299
12Q299 -3 283 -3Q253 -3 217 -1T155 2Q138 2 119 1T80 -1T40 -3Z" />
<glyph unicode="s" glyph-name="s" horiz-adv-x="368" d="M170 -14Q136 -14 105 -7T46 19Q36 35 32 68T29 141Q29 154 50 154Q59 154 65 148T74 137Q94 97 118 66T179 34Q205 34 217 50T230 85Q230 111 209 128T163 157Q135 171 108 189T63 236T45 304Q45 345
67 374T128 420T211 437Q245 437 274 430T315 415Q323 405 327 377T332 312Q332 301 312 301Q305 301 297 306T287 317Q274 357 254 377T209 397Q187 397 170 383T152 346Q152 326 172 310T220 279Q286 245 314 213T342 127Q342 60 299 23T170 -14Z" />
<glyph unicode="t" glyph-name="t" horiz-adv-x="388" d="M226 -14Q156 -14 122 20T88 116V346Q88 355 81 359T57 364H42Q35 364 30 376T25 399Q25 401 26 404T31 408Q56 416 86 436T144 478T189 515Q197 521 202 525T216 529Q226 529 230 525T232 507L225 445Q224
432 231 428T250 423H370Q372 423 375 416T378 404Q378 388 374 375T365 361H273Q251 361 242 355T233 336V149Q233 102 250 80T297 57Q325 57 338 63T362 73Q366 75 369 75Q374 75 377 69T380 53Q380 47 358 31T301 0T226 -14Z" />
<glyph unicode="u" glyph-name="u" horiz-adv-x="556" d="M342 -21Q333 -21 333 -11Q333 1 335 21T338 52Q338 57 338 60T336 64Q312 33 269 9T180 -15Q149 -15 124 4T85 57T70 130V314Q70 337 62 351T31 370Q25 371 20 375T15 389Q15 396 19 401T30 407Q74 409
111 416T186 432Q191 434 197 435T210 437Q224 437 223 423Q219 400 217 385T215 346V155Q215 131 222 114T242 87T271 76Q285 76 299 80T327 98Q332 103 336 118T341 158V314Q341 331 336 343T319 362T290 371Q278 372 272 377T265 394Q265 405 272 410T290 415Q345
419 377 421T429 427T468 434Q471 435 475 436T482 437Q497 437 497 425Q497 421 496 417T493 408Q492 404 491 391T488 362T486 338V106Q486 84 491 77T504 70Q508 70 516 70T528 69Q538 69 543 64T548 50Q548 40 545 34T530 27Q480 23 439 10T369 -14Q362 -17
355 -19T342 -21Z" />
<glyph unicode="v" glyph-name="v" horiz-adv-x="493" d="M246 -21Q239 -21 233 -9T217 24Q209 42 199 65T181 108Q155 166 128 221T74 334Q64 357 53 372T23 395Q13 399 9 403T5 417Q5 425 14 427T30 429Q55 429 69 428T98 425T134 423Q156 423 174 424T211 427T255
429Q262 429 270 426T279 415Q279 406 272 403T257 396Q246 392 240 382T233 353Q233 344 233 336T237 320L301 165Q302 165 302 165T304 165L360 315Q363 323 364 330T365 345Q365 362 357 375T332 395Q324 398 317 401T310 414Q310 422 318 425T334 428Q364 427
376 427T402 426Q414 426 429 426T473 428Q480 428 489 426T498 416Q498 401 480 394Q461 387 446 372T422 333L344 135Q341 127 337 119T329 102T321 85T313 68Q309 59 302 42T287 8T273 -21H246Z" />
<glyph unicode="w" glyph-name="w" horiz-adv-x="767" d="M238 -32Q233 -32 228 -30T220 -21L74 334Q65 357 54 372T23 395Q13 399 9 403T5 417Q5 425 14 427T30 429Q55 429 69 428T97 425T133 423Q155 423 169 424T199 427T239 429Q246 429 254 426T263 415Q263
406 256 403T241 396Q230 392 225 384T220 357Q220 338 227 319L281 173Q281 172 283 172Q285 172 285 173L351 329Q353 334 354 340T356 354Q356 363 347 375T320 394Q310 398 306 402T302 416Q302 424 311 426T330 428Q357 428 382 426T421 424Q447 424 470 426T524
428Q531 428 539 425T548 414Q548 405 541 402T526 395Q515 391 509 384T503 363Q503 350 506 339T512 319L568 171Q568 170 570 170Q572 170 572 171L623 307Q627 318 629 328T630 349Q630 364 623 376T602 393Q594 396 587 399T580 412Q580 420 588 423T604 426Q634
425 646 425T672 424Q680 424 687 424T707 424T738 426Q745 426 754 424T763 414Q763 405 759 401T745 392Q726 385 711 370T687 331L545 -21Q541 -30 527 -30Q515 -30 510 -21L380 272Q380 273 378 273Q376 273 376 272L257 -21Q252 -32 238 -32Z" />
<glyph unicode="x" glyph-name="x" horiz-adv-x="521" d="M30 -4Q23 -4 14 -2T5 8Q5 17 9 21T23 30Q33 34 44 43T74 79L170 209Q176 217 176 222T171 235L97 343Q84 363 74 376T47 395Q37 399 33 403T29 417Q29 425 38 427T54 429Q79 429 93 428T122 425T158 423Q190
423 211 426T270 429Q277 429 285 426T294 415Q294 406 286 403T270 396Q260 392 251 387T241 370Q241 364 245 356T254 340L300 273Q305 264 309 273L335 321Q341 332 345 345T349 370Q349 387 330 394Q322 398 316 401T310 413Q310 421 318 424T334 427Q363 426
376 426T402 426Q414 426 425 427T466 429Q473 429 482 427T491 417Q491 408 487 404T473 395Q463 391 453 382T422 346L348 250Q340 239 341 234T347 220L428 94Q442 73 460 57T497 33Q507 29 511 25T515 11Q515 3 506 1T490 -1Q466 -1 447 0T409 3T368 5Q336
5 310 2T247 -1Q223 -1 223 13Q223 22 229 25T245 32Q258 36 266 44T274 73Q274 84 272 92T261 113L212 183Q209 186 206 183L163 104Q159 97 153 85T147 60Q147 49 151 42T166 29Q174 25 181 22T188 10Q188 2 180 -1T164 -4Q134 -3 124 -3T101 -2Q89 -2 74 -2T30
-4Z" />
<glyph unicode="y" glyph-name="y" horiz-adv-x="491" d="M90 -283Q62 -283 37 -263T11 -215Q11 -195 21 -176T53 -156Q70 -156 88 -162T122 -167Q139 -165 145 -159T161 -135Q167 -125 172 -117T184 -95T203 -55Q217 -24 217 -1Q217 15 212 28T201 55L77 332Q67
355 56 370T26 393Q16 397 12 401T8 415Q8 423 17 425T33 427Q58 427 76 426T108 424T135 423Q157 423 173 424T208 426T251 427Q258 427 266 424T275 413Q275 404 268 401T253 394Q242 390 236 382T229 355Q229 346 231 335T241 305L299 164Q300 162 301 162Q302
162 303 164L351 311Q354 319 356 330T358 351Q358 368 347 379T325 394Q317 397 310 400T303 413Q303 421 311 424T327 427Q357 426 372 425T400 423Q408 423 417 423T439 425T471 427Q478 427 487 425T496 415Q496 406 492 402T478 393Q459 386 445 371T420 332L268
-34Q258 -58 248 -81T229 -128T209 -174T189 -220Q176 -251 150 -267T90 -283Z" />
<glyph unicode="z" glyph-name="z" horiz-adv-x="450" d="M45 -5Q41 -5 31 5T20 25Q20 32 28 44T46 70T62 94Q86 133 104 161T140 217T178 278T229 361Q231 365 231 369T218 373H173Q159 373 149 370T128 355Q124 351 114 337T93 307T72 278T60 261Q54 254 40
258T27 271Q30 282 36 308T47 363T53 414Q53 425 60 433T77 441Q87 441 97 431Q102 427 116 426T146 424Q158 424 169 424T188 425Q235 425 294 426T404 429Q413 429 418 421T426 402T424 385Q412 371 403 359T381 329L221 68Q217 61 219 57T236 53H287Q302 53
314 57T339 76Q355 93 364 109T392 159Q400 173 415 170T430 154Q430 147 427 131T420 95T409 53T397 11Q392 -5 377 -5Q352 -5 290 -2T135 1Q111 1 85 -2T45 -5Z" />
<glyph unicode="{" glyph-name="braceleft" horiz-adv-x="372" d="M335 -152Q277 -152 228 -139T150 -96T126 -19Q129 19 140 67T151 157Q151 183 147 200T126 231T77 257Q66 262 56 265T45 280Q45 292 56 297T77 306Q96 315 111 324T136 352T146 406Q146 447
137 484T124 559Q120 606 149 641T228 695T333 714Q350 714 356 711T362 696Q362 686 349 682T323 673Q289 663 276 651T260 621T257 578Q257 562 263 534T275 476T281 424Q281 389 259 360T202 311T131 283Q127 282 129 281T133 279Q171 266 199 251T247 217T275
177T285 130Q285 109 279 79T265 21T258 -24Q258 -56 263 -74T282 -101T327 -115Q339 -117 350 -121T361 -137Q361 -147 354 -149T335 -152Z" />
<glyph unicode="|" glyph-name="bar" horiz-adv-x="279" d="M104 -289Q94 -289 87 -280T80 -261V644Q80 660 92 671T121 690T152 701T171 705Q182 705 190 698T199 679V-241Q199 -257 187 -266T158 -281T126 -287T104 -289Z" />
<glyph unicode="}" glyph-name="braceright" horiz-adv-x="372" d="M37 -152Q27 -152 19 -150T11 -137Q11 -126 22 -122T45 -115Q75 -110 90 -101T109 -74T114 -24Q114 -7 108 21T94 79T87 130Q87 155 96 176T125 216T172 250T239 279Q241 280 243 281T241 283Q205
291 171 310T114 359T91 424Q91 446 97 475T109 533T115 578Q115 604 113 621T97 650T49 673Q37 677 24 681T10 696Q10 707 16 710T39 714Q94 714 143 695T222 641T248 559Q245 522 236 485T226 406Q226 371 235 353T261 325T295 306Q304 302 315 297T327 280Q327
268 317 265T295 257Q262 244 247 231T226 201T221 157Q221 116 232 68T246 -19Q250 -66 222 -95T145 -138T37 -152Z" />
<glyph unicode="~" glyph-name="asciitilde" horiz-adv-x="555" d="M371 247Q349 247 326 256T280 277Q254 290 227 301T170 312Q144 312 119 298T78 269T58 254Q51 254 43 268T35 287Q35 301 47 322T79 365T125 400T176 414Q200 414 224 405T274 383Q301 370
329 359T385 348Q405 348 424 357T458 377T484 397T497 406Q508 406 514 395T520 373Q520 359 507 338T473 296T425 261T371 247Z" />
<glyph unicode="&#xa0;" glyph-name="uni00A0" horiz-adv-x="245" />
<glyph unicode="&#xa1;" glyph-name="exclamdown" horiz-adv-x="299" d="M147 308Q160 308 167 293T179 255Q188 198 197 151T213 64T224 -10T229 -77Q229 -114 208 -141T152 -169Q117 -169 94 -140T71 -75Q72 -43 75 -10T83 63T97 150T114 255Q119 284 126 296T147
308ZM145 494Q176 494 198 472T220 419Q220 388 198 366T145 344Q114 344 92 366T70 419Q70 450 92 472T145 494Z" />
<glyph unicode="&#xa2;" glyph-name="cent" horiz-adv-x="437" d="M206 -105Q197 -105 191 -100T185 -85L191 -11Q146 -3 107 24T45 98T21 205Q21 263 48 313T124 397T236 436L243 498Q244 509 253 514T272 520Q280 520 285 513T289 498L282 436Q315 433 349 419T411
378Q420 369 420 360Q420 336 401 321T359 306Q337 306 323 323Q309 341 298 352T276 369L250 118Q257 117 264 117T278 116Q316 116 348 130T393 167Q399 177 408 177Q421 177 421 161Q421 156 419 149T415 134Q396 76 355 34T237 -14L231 -85Q229 -94 222 -99T206
-105ZM206 132L231 380H230Q198 380 179 365T151 321T142 253Q142 207 159 178T206 132Z" />
<glyph unicode="&#xa3;" glyph-name="sterling" horiz-adv-x="585" d="M55 293Q48 292 42 297T35 310Q35 319 45 329T68 340L445 365Q453 366 458 360T463 348Q463 341 450 330T420 318L55 293ZM354 -37Q308 -37 274 -15T214 27Q202 37 186 47T156 64T136 71Q132
71 122 60T100 33T80 5Q57 -26 28 -26Q14 -25 4 -13T-7 24Q-7 48 7 71T46 112T104 132Q113 133 117 138T124 149Q132 174 136 213T144 294T150 371Q154 415 169 460T215 544T295 605T417 629Q479 629 510 601T541 531Q541 509 527 491T495 463T461 452Q451 452
445 459T439 473Q439 481 441 490T443 513Q443 543 434 565T404 587Q382 587 366 566T336 494T311 360Q305 315 294 275T263 205T213 156Q210 155 211 149T216 143Q265 143 304 131T375 102Q407 87 431 75T475 62Q492 62 499 69T507 96Q507 110 502 127T493 162T488
189Q488 201 495 209T518 217Q545 217 558 198T572 149Q572 116 554 83T505 23T435 -20T354 -37Z" />
<glyph unicode="&#xa4;" glyph-name="currency" horiz-adv-x="510" d="M64 42Q51 42 38 55T25 80Q25 85 29 89L86 146Q69 171 59 201T49 265Q49 300 59 331T88 388L29 446Q25 450 25 455Q25 466 38 479T64 493Q70 493 73 489L131 432Q158 453 191 465T261 477Q296
477 327 467T384 437L437 489Q441 493 446 493Q459 493 472 480T485 454Q485 450 482 445L429 393Q449 367 460 334T472 265Q472 230 462 198T431 140L482 90Q485 86 485 81Q485 68 472 55T446 42Q441 42 437 46L387 95Q332 54 261 54Q224 54 190 66T128 100L73
46Q70 42 64 42ZM261 115Q303 115 337 135T391 189T411 265Q411 307 391 341T337 396T261 416Q219 416 185 396T130 342T110 265Q110 224 130 190T184 135T261 115Z" />
<glyph unicode="&#xa5;" glyph-name="yen" horiz-adv-x="671" d="M195 -6Q182 -6 175 -1T167 11Q167 20 176 25T196 33Q234 41 248 60T262 110V181H152Q145 181 139 186T133 199Q134 208 144 220T168 233L262 232V246Q262 254 262 260T260 273H152Q145 273 139
278T133 291Q134 300 144 312T168 325H245L98 554Q89 568 79 580T56 603T22 618Q13 621 7 625T0 639Q0 647 6 650T19 654Q66 654 106 651T191 648Q226 648 257 651T326 655Q334 655 343 651T353 640Q353 631 344 626T325 618Q295 611 282 603T269 578Q269 571 272
562T280 543L370 366Q377 353 386 353Q390 353 393 356T401 366Q413 388 424 409T448 452T471 495T495 539Q505 557 505 577Q505 597 488 606T449 618Q439 619 429 625T419 640Q419 647 428 650T448 654Q478 654 503 652T557 649Q588 649 612 653T666 657Q677 657
686 654T696 640Q696 630 688 627T670 620Q650 615 634 606T605 584T584 557Q569 532 554 507T522 456T491 405T460 353Q456 346 453 339T446 324L541 323Q549 323 554 317T558 305Q557 298 543 285T513 272H432V232L541 231Q549 231 554 225T558 213Q557 206 543
193T513 180H432V111Q432 73 445 59T498 33Q509 30 518 26T527 12Q527 5 520 0T501 -5Q480 -5 451 -3T394 1T345 3Q325 3 299 1T245 -3T195 -6Z" />
<glyph unicode="&#xa6;" glyph-name="brokenbar" horiz-adv-x="281" d="M106 -290Q96 -290 89 -281T82 -262V124Q82 140 94 151T123 170T154 181T173 185Q184 185 192 178T201 159V-242Q201 -258 189 -267T160 -282T128 -288T106 -290ZM104 251Q94 251 87 260T80
279V644Q80 660 92 671T121 690T152 701T171 705Q182 705 190 698T199 679V299Q199 283 187 274T158 259T126 253T104 251Z" />
<glyph unicode="&#xa7;" glyph-name="section" horiz-adv-x="453" d="M148 -148Q111 -148 87 -136T63 -106Q63 -98 70 -77T100 -39Q108 -34 117 -38T131 -46Q148 -61 174 -69T224 -78Q249 -78 262 -61T275 -12Q275 14 254 40T202 94T139 149Q84 196 57 240T30
329Q30 374 42 404T73 457T114 500Q125 539 149 571T208 621T280 640Q307 640 338 632T381 612Q387 607 392 601T397 587Q397 584 389 567T370 535T345 519Q337 519 328 527Q310 547 285 560T246 574Q213 574 201 557T188 517Q188 499 205 476T252 426T313 372Q344
346 369 316T408 246T423 151Q423 84 400 29T332 -67T221 -134Q205 -141 186 -144T148 -148ZM335 66Q336 62 339 62T344 66Q348 81 349 96T350 128Q350 169 322 211T254 289Q236 307 212 333T168 385T139 429Q138 433 135 432T130 429Q120 418 117 401T114 367Q114
330 140 289T207 211Q226 193 253 166T303 111T335 66Z" />
<glyph unicode="&#xa8;" glyph-name="dieresis" horiz-adv-x="367" d="M280 491Q249 491 227 513T204 567Q204 600 226 622T280 644Q314 644 337 622T360 567Q360 536 337 514T280 491ZM82 491Q51 491 29 513T6 567Q6 600 28 622T82 644Q116 644 139 622T162 567Q162
536 139 514T82 491Z" />
<glyph unicode="&#xa9;" glyph-name="copyright" horiz-adv-x="684" d="M341 15Q277 15 221 39T121 106T54 206T30 327Q30 392 54 448T121 547T221 614T342 639Q407 639 463 615T562 548T629 449T654 327Q654 263 630 206T562 107T463 40T341 15ZM355 134Q297
134 251 158T179 224T152 321Q152 371 177 414T250 485T370 512Q398 512 426 506T475 488Q481 486 484 483T488 472Q491 448 491 432T492 395Q492 385 486 379T472 374Q466 374 461 378T453 390Q449 401 446 410T434 429Q424 440 408 448T366 457Q316 457 294 420T271
331Q271 287 280 255T309 206T366 188Q402 188 423 203T458 254Q462 263 468 266T481 267Q495 264 495 247Q495 226 492 212T484 175Q482 168 478 168T468 164Q448 154 420 144T355 134ZM341 68Q394 68 440 88T521 144T575 227T595 327Q595 379 576 425T521 505T441
560T342 580Q290 580 244 560T163 506T109 425T89 327Q89 274 108 227T162 145T243 89T341 68Z" />
<glyph unicode="&#xaa;" glyph-name="ordfeminine" horiz-adv-x="359" d="M298 206Q304 206 310 202T316 190Q316 189 316 189T315 186Q308 174 299 167T275 159H45Q38 159 33 164T27 175Q27 183 36 194T58 206H298ZM118 286Q96 286 78 294T48 317T37 350Q37 373
53 389T101 418L158 440Q172 446 175 451T179 468V497Q179 516 174 524T156 532Q149 532 142 530T129 522Q124 517 126 508T128 493Q128 488 114 481T82 468T52 460Q45 458 42 464T42 481Q47 493 53 504T77 529Q90 539 110 549T154 567T198 575Q242 575 271 548T299
473L295 368Q295 357 300 346T314 334Q320 334 325 337T334 343Q335 344 336 344T338 345Q342 345 344 343T347 336Q347 329 341 322T331 311Q320 300 305 293T267 286Q239 286 223 297T193 325H192Q182 312 165 299T118 286ZM162 338Q165 338 167 339T172 342Q174
344 174 345T175 348L177 405Q177 410 174 411T166 411Q151 404 147 396T142 365Q142 346 148 342T162 338Z" />
<glyph unicode="&#xab;" glyph-name="guillemotleft" horiz-adv-x="580" d="M322 15Q311 15 301 23T286 36Q255 65 232 84T187 117T139 146T75 179Q59 187 52 197T45 219Q45 231 57 236Q103 264 133 283T186 318T232 354T286 402Q291 406 301 414T322 423Q329
423 329 412Q329 408 327 404T323 395Q288 344 266 315T226 267T184 227Q177 221 177 219T184 211Q207 190 225 171T266 124T323 43Q325 39 327 35T329 27Q329 15 322 15ZM533 15Q522 15 512 23T497 36Q466 65 443 84T398 117T350 146T286 179Q270 187 263 197T256
219Q256 231 268 236Q314 264 344 283T397 318T443 354T497 402Q502 406 512 414T533 423Q540 423 540 412Q540 408 538 404T534 395Q499 344 477 315T437 267T395 227Q388 221 388 219T395 211Q418 190 436 171T477 124T534 43Q536 39 538 35T540 27Q540 15 533
15Z" />
<glyph unicode="&#xac;" glyph-name="logicalnot" horiz-adv-x="626" d="M497 42Q492 42 487 48T482 62V299Q482 315 467 315H50Q43 315 37 320T30 330Q30 339 33 353T45 378T65 389H538Q549 389 552 383T556 368V76Q556 64 545 57T520 46T497 42Z" />
<glyph unicode="&#xad;" glyph-name="uni00AD" horiz-adv-x="325" d="M36 163Q25 162 25 174Q25 207 31 221T49 238Q104 247 166 255T283 267Q294 268 297 263T300 250Q300 218 296 207T280 194Q225 186 159 177T36 163Z" />
<glyph unicode="&#xae;" glyph-name="registered" horiz-adv-x="690" d="M344 15Q280 15 224 39T124 106T57 206T33 327Q33 392 57 448T124 547T224 614T345 639Q410 639 466 615T565 548T632 449T657 327Q657 263 633 206T565 107T466 40T344 15ZM344 68Q397
68 443 88T524 144T578 227T598 327Q598 379 579 425T524 505T444 560T345 580Q293 580 247 560T166 506T112 425T92 327Q92 274 111 227T165 145T246 89T344 68ZM469 170Q454 170 436 181T398 211T362 255T332 308Q330 313 327 315T319 318Q316 318 315 316T313
309V227Q313 212 322 206T354 195Q359 194 362 192T366 182Q366 177 363 173T355 169Q339 169 311 170T267 172Q257 172 243 172T215 170T189 169Q186 169 182 173T178 182Q178 188 181 191T190 195Q210 200 217 206T224 227V441Q224 452 221 458T212 468T193 475Q182
476 182 486Q182 493 192 493Q218 493 232 491T267 489Q286 489 298 491T341 493Q405 493 438 474T471 413Q471 379 452 362T410 334Q408 333 408 331T409 327Q427 284 450 259T495 222T530 211Q533 211 535 209T537 202Q537 189 521 180T469 170ZM330 355Q360
355 374 369T388 402Q388 431 375 443T336 456Q321 456 316 452T310 438V370Q310 363 315 359T330 355Z" />
<glyph unicode="&#xaf;" glyph-name="overscore" horiz-adv-x="367" d="M39 510Q29 510 24 516T18 529Q18 549 24 564T39 587T58 596H328Q338 596 343 591T348 577Q348 551 335 531T305 510H39Z" />
<glyph unicode="&#xb0;" glyph-name="degree" horiz-adv-x="359" d="M181 376Q135 376 100 398T45 456T25 531Q25 571 44 603T99 655T181 675Q227 675 261 656T314 604T334 531Q334 492 315 457T261 399T181 376ZM180 436Q214 436 238 461T263 525Q263 564 239
588T180 613Q145 613 121 589T96 525Q96 486 120 461T180 436Z" />
<glyph unicode="&#xb1;" glyph-name="plusminus" horiz-adv-x="602" d="M284 126Q280 126 276 131T271 143V344Q271 357 258 357H47Q40 357 35 361T30 370Q30 381 36 398T59 416H257Q267 416 269 419T271 430V600Q271 610 278 617T295 629T314 634Q322 634 326
627T330 611V430Q330 423 333 420T343 416H547Q556 416 563 412T570 400Q570 387 560 372T536 357H343Q330 357 330 344V155Q330 139 313 133T284 126ZM49 29Q42 29 36 34T30 44Q30 51 33 62T44 83T63 93H545Q556 93 564 88T572 75Q572 61 561 45T534 29H49Z" />
<glyph unicode="&#xb2;" glyph-name="uni00B2" horiz-adv-x="350" d="M283 438Q277 438 256 439T208 440T152 441Q131 441 105 441T59 439T38 438Q34 438 31 440T27 446Q27 451 31 455L68 498Q98 534 122 562T161 616T176 673Q176 691 164 703T129 716Q109 716
95 703T73 679Q64 664 53 664Q46 664 44 669T41 683Q41 700 57 722T102 760T173 776Q223 776 254 750T285 688Q285 667 275 646T245 603Q238 596 221 582T183 553T149 527T135 515Q135 514 137 513T144 512H243Q260 512 274 524T297 552Q299 556 303 560T314 564Q323
564 325 559T325 548Q310 512 303 482T296 452Q295 447 292 443T283 438Z" />
<glyph unicode="&#xb3;" glyph-name="uni00B3" horiz-adv-x="298" d="M96 435Q71 435 52 442T33 463Q33 475 38 487T51 500Q55 500 58 498T64 492Q71 482 84 472T110 461Q133 461 148 481T164 539Q164 560 152 580T113 601Q89 601 81 594T72 587Q65 587 60 588T55
596Q57 605 63 612T76 623T90 631Q132 653 143 668T155 703Q155 713 144 722T115 731Q98 731 83 723T60 707Q56 703 53 700T48 696Q44 696 40 701T35 711Q35 715 46 730T83 760T149 775Q184 775 213 757T243 709Q243 693 229 673T179 643Q177 642 177 641T179 640Q214
640 239 619T265 557Q265 520 241 493T178 450T96 435Z" />
<glyph unicode="&#xb4;" glyph-name="acute" horiz-adv-x="245" d="M45 452Q34 452 34 465Q34 469 35 474T39 487Q47 506 59 534T83 590T102 633Q110 650 121 655T151 660Q176 660 194 654T212 635Q212 630 210 624T202 610Q181 587 160 563T116 514T71 467Q56
452 45 452Z" />
<glyph unicode="&#xb5;" glyph-name="uni03BC.1" horiz-adv-x="564" d="M138 -285Q119 -285 106 -273T85 -242T75 -208Q74 -199 74 -176T74 -123T73 -61T72 0Q72 67 72 115T70 198T67 262T66 319T65 382Q65 408 74 422T124 436Q165 436 187 427T210 390Q210 362
202 325T184 252T165 188T157 149Q157 132 163 121T181 104T203 98Q233 98 260 138T310 266Q311 303 311 330T313 377T317 408Q320 424 327 430T347 436Q387 436 412 428T449 407T461 379Q461 333 442 281T397 173Q397 154 408 140T437 118T476 110Q494 110 508
117T533 132T546 139Q551 139 555 136T559 127Q559 81 541 49T497 1T446 -15Q415 -14 393 20T367 99Q366 107 366 115T368 131L365 132Q362 126 350 103T320 54T284 7T254 -13Q238 -13 222 -2T192 26T164 54Q157 61 147 72T131 84Q117 84 117 59Q117 50 118 30T119
-14T121 -59T122 -94Q122 -110 138 -124T176 -152T213 -177T230 -200Q230 -216 215 -236T179 -270T138 -285Z" />
<glyph unicode="&#xb6;" glyph-name="paragraph" horiz-adv-x="635" d="M314 -317Q271 -317 238 -300T185 -254T166 -187Q166 -147 187 -120T238 -79T296 -65Q328 -66 351 -80T374 -125Q374 -152 359 -169T323 -187Q310 -187 300 -180T281 -163Q273 -155 266 -149T254
-142Q242 -142 231 -156T219 -196Q219 -224 243 -249T319 -275Q341 -275 362 -264T398 -230T412 -171V26Q412 34 409 44T396 54Q321 54 252 74T128 134T42 227T10 349Q10 462 64 527T216 620T446 648Q478 648 511 647T569 643T603 639Q611 637 615 628T620 609Q620
599 616 585T604 570Q599 570 564 578T485 586Q476 586 470 578T464 559V-168Q464 -198 449 -233T401 -292T314 -317Z" />
<glyph unicode="&#xb7;" glyph-name="middot" horiz-adv-x="267" d="M132 127Q97 127 72 152T46 213Q46 251 71 276T132 302Q170 302 195 277T221 213Q221 178 196 153T132 127Z" />
<glyph unicode="&#xb8;" glyph-name="cedilla" horiz-adv-x="290" d="M102 -274Q79 -274 67 -265T55 -225Q55 -209 59 -204T73 -199Q85 -199 102 -207T143 -216Q157 -216 163 -206T170 -177Q170 -158 152 -148T114 -138Q101 -138 94 -143T80 -148Q73 -148 65 -141T57
-122Q57 -113 73 -95L163 8H210L175 -33Q169 -40 169 -44Q169 -48 182 -55Q207 -66 221 -85T235 -140Q235 -165 222 -189T189 -232T146 -262T102 -274Z" />
<glyph unicode="&#xb9;" glyph-name="uni00B9" horiz-adv-x="247" d="M47 440Q43 440 40 442T36 449Q36 455 39 458T47 463Q62 466 67 468T74 475T75 488V676Q75 697 64 707T41 719Q36 720 33 722T30 731Q30 747 46 748Q84 750 108 754T162 776Q163 777 167 779T173
781Q182 781 182 774Q182 768 181 761T179 736V489Q179 479 181 475T206 463Q211 461 214 459T217 450Q217 446 215 444T208 441Q199 441 183 441T150 442T125 443Q116 443 102 443T73 441T47 440Z" />
<glyph unicode="&#xba;" glyph-name="ordmasculine" horiz-adv-x="331" d="M301 206Q307 206 313 202T319 190Q319 189 319 189T318 186Q311 174 302 167T278 159H32Q25 159 20 164T14 175Q14 183 23 194T45 206H301ZM187 286Q141 286 105 303T48 352T27 421Q27
466 50 501T113 555T203 575Q249 575 286 557T346 508T369 440Q369 398 349 363T288 307T187 286ZM200 326Q218 326 226 341T238 379T241 425Q241 452 236 477T220 518T194 535Q176 535 167 520T156 482T153 437Q153 409 159 384T176 342T200 326Z" />
<glyph unicode="&#xbb;" glyph-name="guillemotright" horiz-adv-x="580" d="M258 15Q251 15 251 27Q251 31 253 35T257 43Q292 95 314 123T355 171T396 211Q404 217 404 219T396 227Q373 248 355 267T315 315T257 395Q255 400 253 404T251 412Q251 423 258 423Q269
423 279 415T294 402Q325 374 348 355T393 319T446 283T523 236Q535 231 535 219Q535 208 529 198T505 179Q468 161 442 147T393 118T348 84T294 36Q290 32 280 24T258 15ZM47 15Q40 15 40 27Q40 31 42 35T46 43Q81 95 103 123T144 171T185 211Q193 217 193 219T185
227Q162 248 144 267T104 315T46 395Q44 400 42 404T40 412Q40 423 47 423Q58 423 68 415T83 402Q114 374 137 355T182 319T235 283T312 236Q324 231 324 219Q324 208 318 198T294 179Q257 161 231 147T182 118T137 84T83 36Q79 32 69 24T47 15Z" />
<glyph unicode="&#xbc;" glyph-name="onequarter" horiz-adv-x="642" d="M47 278Q43 278 40 280T36 287Q36 293 39 296T47 301Q62 304 67 306T74 313T75 326V514Q75 535 64 545T41 557Q36 558 33 560T30 569Q30 585 46 586Q84 588 108 592T162 614Q163 615 167
617T173 619Q182 619 182 612Q182 606 181 599T179 574V327Q179 317 181 313T206 301Q211 299 214 297T217 288Q217 284 215 282T208 279Q199 279 183 279T150 280T125 281Q116 281 102 281T73 279T47 278ZM510 641Q519 655 532 659T562 664Q570 664 575 658T581
646Q581 642 580 641L176 5Q169 -7 156 -11T128 -15Q120 -15 113 -10T105 1Q105 4 106 5L510 641ZM489 -9Q478 -9 478 -1V83Q478 86 473 87T466 89Q429 89 397 88T325 87Q323 87 319 87T314 91Q314 93 315 94T317 97Q353 141 395 185T475 273Q485 285 503 303T541
341Q547 347 553 351T563 355Q566 355 567 353T568 346L566 137Q566 132 572 132H590Q595 132 604 132T620 133Q627 133 627 126Q627 117 621 104T610 91H575Q571 91 569 90T566 84L567 31Q567 23 550 14T514 -2T489 -9ZM403 133H473Q475 133 476 134T478 137V212Q478
213 477 213T475 212Q466 203 451 189T423 161T401 137Q399 133 403 133Z" />
<glyph unicode="&#xbd;" glyph-name="onehalf" horiz-adv-x="719" d="M47 278Q43 278 40 280T36 287Q36 293 39 296T47 301Q62 304 67 306T74 313T75 326V514Q75 535 64 545T41 557Q36 558 33 560T30 569Q30 585 46 586Q84 588 108 592T162 614Q163 615 167 617T173
619Q182 619 182 612Q182 606 181 599T179 574V327Q179 317 181 313T206 301Q211 299 214 297T217 288Q217 284 215 282T208 279Q199 279 183 279T150 280T125 281Q116 281 102 281T73 279T47 278ZM510 641Q519 655 532 659T562 664Q570 664 575 658T581 646Q581
642 580 641L176 5Q169 -7 156 -11T128 -15Q120 -15 113 -10T105 1Q105 4 106 5L510 641ZM652 -16Q646 -16 625 -15T577 -14T521 -13Q500 -13 474 -13T428 -15T407 -16Q403 -16 400 -14T396 -8Q396 -3 400 1L437 44Q467 80 491 108T530 162T545 219Q545 237 533
249T498 262Q478 262 464 249T442 225Q433 210 422 210Q415 210 413 215T410 229Q410 246 426 268T471 306T542 322Q592 322 623 296T654 234Q654 213 644 192T614 149Q607 142 590 128T552 99T518 73T504 61Q504 60 506 59T513 58H612Q629 58 643 70T666 98Q668
102 672 106T683 110Q692 110 694 105T694 94Q679 58 672 28T665 -2Q664 -7 661 -11T652 -16Z" />
<glyph unicode="&#xbe;" glyph-name="threequarters" horiz-adv-x="666" d="M96 275Q71 275 52 282T33 303Q33 315 38 327T51 340Q55 340 58 338T64 332Q71 322 84 312T110 301Q133 301 148 321T164 379Q164 400 152 420T113 441Q89 441 81 434T72 427Q65 427
60 428T55 436Q57 445 63 452T76 463T90 471Q132 493 143 508T155 543Q155 553 144 562T115 571Q98 571 83 563T60 547Q56 543 53 540T48 536Q44 536 40 541T35 551Q35 555 46 570T83 600T149 615Q184 615 213 597T243 549Q243 533 229 513T179 483Q177 482 177
481T179 480Q214 480 239 459T265 397Q265 360 241 333T178 290T96 275ZM530 641Q539 655 552 659T582 664Q590 664 595 658T601 646Q601 642 600 641L196 5Q189 -7 176 -11T148 -15Q140 -15 133 -10T125 1Q125 4 126 5L530 641ZM513 -9Q502 -9 502 -1V83Q502 86
497 87T490 89Q453 89 421 88T349 87Q347 87 343 87T338 91Q338 93 339 94T341 97Q377 141 419 185T499 273Q509 285 527 303T565 341Q571 347 577 351T587 355Q590 355 591 353T592 346L590 137Q590 132 596 132H614Q619 132 628 132T644 133Q651 133 651 126Q651
117 645 104T634 91H599Q595 91 593 90T590 84L591 31Q591 23 574 14T538 -2T513 -9ZM427 133H497Q499 133 500 134T502 137V212Q502 213 501 213T499 212Q490 203 475 189T447 161T425 137Q423 133 427 133Z" />
<glyph unicode="&#xbf;" glyph-name="questiondown" horiz-adv-x="399" d="M251 309Q259 309 268 301T286 278Q295 262 303 240T311 189Q311 152 282 126T190 71Q159 57 142 40T125 -6Q125 -31 147 -43T195 -56Q219 -56 231 -52T250 -44Q258 -41 266 -39T285 -37Q300
-37 314 -52T338 -89T348 -129Q348 -148 326 -164T273 -181Q230 -181 191 -160T118 -102Q96 -78 80 -50T54 8T45 68Q45 109 60 133T95 166Q109 173 123 181T154 199T186 217Q208 228 216 241T228 285Q230 297 235 303T251 309ZM255 494Q286 494 308 472T330 419Q330
388 308 366T255 344Q224 344 202 366T180 419Q180 450 202 472T255 494Z" />
<glyph unicode="&#xc0;" glyph-name="Agrave" horiz-adv-x="726" d="M407 681Q404 680 397 682T380 689Q340 713 294 738T207 788Q190 799 187 810Q185 819 200 828T234 843T261 851Q282 854 296 840Q328 809 354 778T408 713Q420 698 420 691Q420 684 407 681ZM21
-5Q10 -5 3 -2T-5 12Q-5 22 1 26T17 34Q47 42 68 59T100 98Q124 153 146 207T189 314T230 422T271 532Q288 578 292 597T299 618Q319 623 336 627T374 639Q393 646 407 656T429 674Q434 677 438 678T447 671Q451 664 453 658T458 643Q478 577 499 510T543 375T587
237T632 98Q637 82 648 70T676 49T712 34Q721 31 727 27T734 13Q734 6 729 2T715 -2Q694 -2 664 -1T603 1T549 2Q529 2 500 1T441 -1T389 -3Q381 -3 375 1T368 12Q368 21 374 26T390 34Q428 42 446 55T456 97Q451 117 446 136T435 174T425 213Q423 221 420 225T409
230H235Q227 230 224 226T218 213Q214 198 210 186T201 161T193 137T185 109Q176 77 188 61T247 34Q269 29 269 12Q269 5 264 2T248 -2Q215 -2 190 -1T135 1Q106 1 80 -2T21 -5ZM263 288H388Q403 288 403 295Q403 299 403 300T401 306L337 527Q334 537 331 537Q329
537 325 527L248 306Q246 302 246 298Q246 293 251 291T263 288Z" />
<glyph unicode="&#xc1;" glyph-name="Aacute" horiz-adv-x="726" d="M21 -5Q10 -5 3 -2T-5 12Q-5 22 1 26T17 34Q47 42 68 59T100 98Q124 153 146 207T189 314T230 422T271 532Q288 578 292 597T299 618Q319 623 336 627T374 639Q393 646 407 656T429 674Q434
677 438 678T447 671Q451 664 453 658T458 643Q478 577 499 510T543 375T587 237T632 98Q637 82 648 70T676 49T712 34Q721 31 727 27T734 13Q734 6 729 2T715 -2Q694 -2 664 -1T603 1T549 2Q529 2 500 1T441 -1T389 -3Q381 -3 375 1T368 12Q368 21 374 26T390
34Q428 42 446 55T456 97Q451 117 446 136T435 174T425 213Q423 221 420 225T409 230H235Q227 230 224 226T218 213Q214 198 210 186T201 161T193 137T185 109Q176 77 188 61T247 34Q269 29 269 12Q269 5 264 2T248 -2Q215 -2 190 -1T135 1Q106 1 80 -2T21 -5ZM263
288H388Q403 288 403 295Q403 299 403 300T401 306L337 527Q334 537 331 537Q329 537 325 527L248 306Q246 302 246 298Q246 293 251 291T263 288ZM329 681Q316 684 316 691Q316 698 328 713Q355 747 382 778T440 840Q454 854 475 851Q483 850 501 844T535 828T549
810Q546 799 529 788Q489 763 443 738T356 689Q347 684 340 682T329 681Z" />
<glyph unicode="&#xc2;" glyph-name="Acircumflex" horiz-adv-x="726" d="M21 -5Q10 -5 3 -2T-5 12Q-5 22 1 26T17 34Q47 42 68 59T100 98Q124 153 146 207T189 314T230 422T271 532Q288 578 292 597T299 618Q319 623 336 627T374 639Q393 646 407 656T429 674Q434
677 438 678T447 671Q451 664 453 658T458 643Q478 577 499 510T543 375T587 237T632 98Q637 82 648 70T676 49T712 34Q721 31 727 27T734 13Q734 6 729 2T715 -2Q694 -2 664 -1T603 1T549 2Q529 2 500 1T441 -1T389 -3Q381 -3 375 1T368 12Q368 21 374 26T390
34Q428 42 446 55T456 97Q451 117 446 136T435 174T425 213Q423 221 420 225T409 230H235Q227 230 224 226T218 213Q214 198 210 186T201 161T193 137T185 109Q176 77 188 61T247 34Q269 29 269 12Q269 5 264 2T248 -2Q215 -2 190 -1T135 1Q106 1 80 -2T21 -5ZM263
288H388Q403 288 403 295Q403 299 403 300T401 306L337 527Q334 537 331 537Q329 537 325 527L248 306Q246 302 246 298Q246 293 251 291T263 288ZM233 692Q213 692 213 705Q213 714 222 721L328 817Q346 834 356 840T380 847Q395 847 405 841T433 817L538 722Q546
715 546 705Q546 691 529 691Q522 691 505 696T467 708T426 724T393 740Q386 744 380 744T367 740Q355 733 335 725T294 710T256 697T233 692Z" />
<glyph unicode="&#xc3;" glyph-name="Atilde" horiz-adv-x="726" d="M21 -5Q10 -5 3 -2T-5 12Q-5 22 1 26T17 34Q47 42 68 59T100 98Q124 153 146 207T189 314T230 422T271 532Q288 578 292 597T299 618Q319 623 336 627T374 639Q393 646 407 656T429 674Q434
677 438 678T447 671Q451 664 453 658T458 643Q478 577 499 510T543 375T587 237T632 98Q637 82 648 70T676 49T712 34Q721 31 727 27T734 13Q734 6 729 2T715 -2Q694 -2 664 -1T603 1T549 2Q529 2 500 1T441 -1T389 -3Q381 -3 375 1T368 12Q368 21 374 26T390
34Q428 42 446 55T456 97Q451 117 446 136T435 174T425 213Q423 221 420 225T409 230H235Q227 230 224 226T218 213Q214 198 210 186T201 161T193 137T185 109Q176 77 188 61T247 34Q269 29 269 12Q269 5 264 2T248 -2Q215 -2 190 -1T135 1Q106 1 80 -2T21 -5ZM263
288H388Q403 288 403 295Q403 299 403 300T401 306L337 527Q334 537 331 537Q329 537 325 527L248 306Q246 302 246 298Q246 293 251 291T263 288ZM236 691Q231 691 224 697T217 707Q217 713 226 729T248 765T274 797T294 811Q313 811 335 810T380 807Q399 806
421 805T468 804Q479 804 487 810T503 824Q511 832 515 839T523 846Q528 846 537 839T546 827Q546 823 542 816T528 796Q517 780 508 765T489 735Q483 726 474 724T458 721Q449 721 425 723T372 727T317 731T283 733Q275 733 268 727T254 712Q248 704 243 698T236
691Z" />
<glyph unicode="&#xc4;" glyph-name="Adieresis" horiz-adv-x="726" d="M21 -5Q10 -5 3 -2T-5 12Q-5 22 1 26T17 34Q47 42 68 59T100 98Q124 153 146 207T189 314T230 422T271 532Q288 578 292 597T299 618Q319 623 336 627T374 639Q393 646 407 656T429 674Q434
677 438 678T447 671Q451 664 453 658T458 643Q478 577 499 510T543 375T587 237T632 98Q637 82 648 70T676 49T712 34Q721 31 727 27T734 13Q734 6 729 2T715 -2Q694 -2 664 -1T603 1T549 2Q529 2 500 1T441 -1T389 -3Q381 -3 375 1T368 12Q368 21 374 26T390
34Q428 42 446 55T456 97Q451 117 446 136T435 174T425 213Q423 221 420 225T409 230H235Q227 230 224 226T218 213Q214 198 210 186T201 161T193 137T185 109Q176 77 188 61T247 34Q269 29 269 12Q269 5 264 2T248 -2Q215 -2 190 -1T135 1Q106 1 80 -2T21 -5ZM263
288H388Q403 288 403 295Q403 299 403 300T401 306L337 527Q334 537 331 537Q329 537 325 527L248 306Q246 302 246 298Q246 293 251 291T263 288ZM478 686Q447 686 425 708T402 762Q402 795 424 817T478 839Q512 839 535 817T558 762Q558 731 535 709T478 686ZM280
686Q249 686 227 708T204 762Q204 795 226 817T280 839Q314 839 337 817T360 762Q360 731 337 709T280 686Z" />
<glyph unicode="&#xc5;" glyph-name="Aring" horiz-adv-x="726" d="M21 -5Q10 -5 3 -2T-5 12Q-5 22 1 26T17 34Q47 42 68 59T100 98Q124 153 146 207T189 314T230 422T271 532Q288 578 292 597T299 618Q319 623 336 627T374 639Q393 646 407 656T429 674Q434 677
438 678T447 671Q451 664 453 658T458 643Q478 577 499 510T543 375T587 237T632 98Q637 82 648 70T676 49T712 34Q721 31 727 27T734 13Q734 6 729 2T715 -2Q694 -2 664 -1T603 1T549 2Q529 2 500 1T441 -1T389 -3Q381 -3 375 1T368 12Q368 21 374 26T390 34Q428
42 446 55T456 97Q451 117 446 136T435 174T425 213Q423 221 420 225T409 230H235Q227 230 224 226T218 213Q214 198 210 186T201 161T193 137T185 109Q176 77 188 61T247 34Q269 29 269 12Q269 5 264 2T248 -2Q215 -2 190 -1T135 1Q106 1 80 -2T21 -5ZM263 288H388Q403
288 403 295Q403 299 403 300T401 306L337 527Q334 537 331 537Q329 537 325 527L248 306Q246 302 246 298Q246 293 251 291T263 288ZM331 771Q331 750 346 735T385 719Q406 719 417 735T429 771Q429 793 414 808T376 823Q355 823 343 808T331 771ZM386 859Q428
859 462 838T496 778Q496 751 479 730T434 698T375 686Q332 686 298 708T264 769Q264 796 281 816T327 847T386 859Z" />
<glyph unicode="&#xc6;" glyph-name="AE" horiz-adv-x="917" d="M21 -5Q10 -5 3 -2T-5 12Q-5 22 1 26T17 34Q46 43 69 60T104 98L402 599Q404 604 404 607T397 612L376 618Q364 621 360 627T355 639Q355 655 375 655Q408 655 448 653T519 650Q564 650 616 650T714
652T792 653T829 654Q837 654 845 650T855 633Q862 596 867 561T872 498Q872 488 868 483T859 478Q854 478 848 482T838 495Q825 527 816 550T791 587Q781 598 765 603T726 609H663Q638 609 622 597T606 563V378Q606 365 613 360T632 354Q653 354 674 354T717 354Q743
354 754 373T775 417Q779 426 784 430T796 435Q801 435 805 429T808 412Q806 390 805 370T803 329Q803 309 804 289T807 246Q809 231 806 225T797 218Q790 218 783 225T773 242Q764 274 753 291T722 308Q699 308 675 308T628 308Q617 308 612 302T606 285V96Q606
68 618 57T655 45H744Q758 45 770 47T792 55T812 66Q832 82 846 106T872 158Q876 166 879 170T888 175Q903 175 903 160Q903 133 893 90T871 8Q869 1 862 -1T847 -4Q842 -4 808 -4T724 -2T619 -1T519 0Q499 0 473 -1T421 -3T375 -5Q366 -5 361 0T356 11Q356 26
376 32Q409 42 422 53T436 95V235Q436 241 433 247T419 253H278Q270 253 265 250T253 236Q237 205 223 169T201 109Q195 91 195 79Q195 62 209 52T258 34Q280 29 280 12Q280 5 275 2T259 -2Q226 -2 196 -1T135 1Q106 1 80 -2T21 -5ZM327 311H421Q426 311 431 315T436
324V541Q436 548 434 554T425 547L312 329Q308 322 311 316Q313 313 318 312T327 311Z" />
<glyph unicode="&#xc7;" glyph-name="Ccedilla" horiz-adv-x="709" d="M404 -14Q325 -14 256 9T135 76T54 180T25 315Q25 383 52 445T131 557T260 635T433 664Q464 664 497 659T562 646T617 628Q625 624 631 618T639 601Q644 565 645 534T647 480Q647 468 639
464T621 464T607 480Q600 500 592 522T566 560Q546 581 511 595T424 609Q374 609 334 588T266 529T223 444T208 344Q208 277 221 222T261 126T328 65T424 43Q499 43 544 74T621 172Q629 190 644 189T659 172Q659 158 657 140T650 100T638 54Q635 43 628 36T612
24Q574 7 522 -3T404 -14ZM323 -275Q298 -275 284 -268T270 -229Q270 -213 277 -206T291 -199Q297 -199 309 -205T351 -212Q365 -212 380 -205T396 -174Q396 -158 385 -148T347 -137Q339 -137 335 -140T323 -143Q308 -143 301 -135T293 -120Q293 -113 294 -109T300
-100L395 8H444L409 -37Q398 -52 413 -58Q440 -68 458 -88T477 -140Q477 -175 453 -206T393 -256T323 -275Z" />
<glyph unicode="&#xc8;" glyph-name="Egrave" horiz-adv-x="577" d="M326 681Q323 680 316 682T299 689Q259 713 213 738T126 788Q109 799 106 810Q104 819 119 828T153 843T180 851Q201 854 215 840Q247 809 273 778T327 713Q339 698 339 691Q339 684 326 681ZM35
-5Q26 -5 21 0T16 11Q16 26 36 32Q69 42 82 53T96 95V551Q96 583 84 596T36 618Q24 621 20 627T15 639Q15 646 20 650T35 655Q57 655 83 654T134 652T179 650Q235 650 299 651T412 653Q444 653 464 657T489 661Q497 661 505 657T515 640Q519 603 525 568T532 505Q532
495 528 490T519 485Q514 485 508 489T498 502Q487 529 479 547T459 577Q448 588 431 598T386 609H323Q298 609 282 597T266 563V379Q266 366 273 361T292 355H377Q403 355 414 374T435 417Q443 435 456 435Q461 435 465 429T468 412Q467 398 466 384T464 357T463
329Q463 316 463 303T465 275T467 246Q469 231 466 225T457 218Q440 218 433 242Q424 274 413 291T382 308H288Q277 308 272 302T266 285V96Q266 68 278 57T315 45H404Q424 45 443 50T477 68Q494 82 508 104T534 148Q538 156 542 158T553 160Q559 160 561 154T563
140Q563 122 558 101T546 57T531 8Q529 1 522 -1T507 -4Q502 -4 468 -4T384 -2T279 -1T179 0Q159 0 133 -1T81 -3T35 -5Z" />
<glyph unicode="&#xc9;" glyph-name="Eacute" horiz-adv-x="577" d="M35 -5Q26 -5 21 0T16 11Q16 26 36 32Q69 42 82 53T96 95V551Q96 583 84 596T36 618Q24 621 20 627T15 639Q15 646 20 650T35 655Q57 655 83 654T134 652T179 650Q235 650 299 651T412 653Q444
653 464 657T489 661Q497 661 505 657T515 640Q519 603 525 568T532 505Q532 495 528 490T519 485Q514 485 508 489T498 502Q487 529 479 547T459 577Q448 588 431 598T386 609H323Q298 609 282 597T266 563V379Q266 366 273 361T292 355H377Q403 355 414 374T435
417Q443 435 456 435Q461 435 465 429T468 412Q467 398 466 384T464 357T463 329Q463 316 463 303T465 275T467 246Q469 231 466 225T457 218Q440 218 433 242Q424 274 413 291T382 308H288Q277 308 272 302T266 285V96Q266 68 278 57T315 45H404Q424 45 443 50T477
68Q494 82 508 104T534 148Q538 156 542 158T553 160Q559 160 561 154T563 140Q563 122 558 101T546 57T531 8Q529 1 522 -1T507 -4Q502 -4 468 -4T384 -2T279 -1T179 0Q159 0 133 -1T81 -3T35 -5ZM248 681Q235 684 235 691Q235 698 247 713Q274 747 301 778T359
840Q373 854 394 851Q402 850 420 844T454 828T468 810Q465 799 448 788Q408 763 362 738T275 689Q266 684 259 682T248 681Z" />
<glyph unicode="&#xca;" glyph-name="Ecircumflex" horiz-adv-x="577" d="M35 -5Q26 -5 21 0T16 11Q16 26 36 32Q69 42 82 53T96 95V551Q96 583 84 596T36 618Q24 621 20 627T15 639Q15 646 20 650T35 655Q57 655 83 654T134 652T179 650Q235 650 299 651T412
653Q444 653 464 657T489 661Q497 661 505 657T515 640Q519 603 525 568T532 505Q532 495 528 490T519 485Q514 485 508 489T498 502Q487 529 479 547T459 577Q448 588 431 598T386 609H323Q298 609 282 597T266 563V379Q266 366 273 361T292 355H377Q403 355 414
374T435 417Q443 435 456 435Q461 435 465 429T468 412Q467 398 466 384T464 357T463 329Q463 316 463 303T465 275T467 246Q469 231 466 225T457 218Q440 218 433 242Q424 274 413 291T382 308H288Q277 308 272 302T266 285V96Q266 68 278 57T315 45H404Q424 45
443 50T477 68Q494 82 508 104T534 148Q538 156 542 158T553 160Q559 160 561 154T563 140Q563 122 558 101T546 57T531 8Q529 1 522 -1T507 -4Q502 -4 468 -4T384 -2T279 -1T179 0Q159 0 133 -1T81 -3T35 -5ZM152 692Q132 692 132 705Q132 714 141 721L247 817Q265
834 275 840T299 847Q314 847 324 841T352 817L457 722Q465 715 465 705Q465 691 448 691Q441 691 424 696T386 708T345 724T312 740Q305 744 299 744T286 740Q274 733 254 725T213 710T175 697T152 692Z" />
<glyph unicode="&#xcb;" glyph-name="Edieresis" horiz-adv-x="577" d="M35 -5Q26 -5 21 0T16 11Q16 26 36 32Q69 42 82 53T96 95V551Q96 583 84 596T36 618Q24 621 20 627T15 639Q15 646 20 650T35 655Q57 655 83 654T134 652T179 650Q235 650 299 651T412 653Q444
653 464 657T489 661Q497 661 505 657T515 640Q519 603 525 568T532 505Q532 495 528 490T519 485Q514 485 508 489T498 502Q487 529 479 547T459 577Q448 588 431 598T386 609H323Q298 609 282 597T266 563V379Q266 366 273 361T292 355H377Q403 355 414 374T435
417Q443 435 456 435Q461 435 465 429T468 412Q467 398 466 384T464 357T463 329Q463 316 463 303T465 275T467 246Q469 231 466 225T457 218Q440 218 433 242Q424 274 413 291T382 308H288Q277 308 272 302T266 285V96Q266 68 278 57T315 45H404Q424 45 443 50T477
68Q494 82 508 104T534 148Q538 156 542 158T553 160Q559 160 561 154T563 140Q563 122 558 101T546 57T531 8Q529 1 522 -1T507 -4Q502 -4 468 -4T384 -2T279 -1T179 0Q159 0 133 -1T81 -3T35 -5ZM397 686Q366 686 344 708T321 762Q321 795 343 817T397 839Q431
839 454 817T477 762Q477 731 454 709T397 686ZM199 686Q168 686 146 708T123 762Q123 795 145 817T199 839Q233 839 256 817T279 762Q279 731 256 709T199 686Z" />
<glyph unicode="&#xcc;" glyph-name="Igrave" horiz-adv-x="369" d="M215 681Q212 680 205 682T188 689Q148 713 102 738T15 788Q-2 799 -5 810Q-7 819 8 828T42 843T69 851Q90 854 104 840Q136 809 162 778T216 713Q228 698 228 691Q228 684 215 681ZM33 -3Q27
-3 21 1T15 12Q15 29 34 34Q72 42 86 54T100 97V551Q100 583 87 596T34 618Q15 623 15 640Q15 647 21 651T33 655Q55 655 82 654T136 652T183 650Q203 650 231 651T288 653T338 654Q346 654 350 651T354 639Q354 629 349 625T335 618Q294 606 282 593T270 550V98Q270
70 283 58T335 34Q344 31 349 27T354 13Q354 6 350 2T338 -2Q317 -2 288 -1T231 1T183 2Q163 2 137 1T83 -1T33 -3Z" />
<glyph unicode="&#xcd;" glyph-name="Iacute" horiz-adv-x="369" d="M33 -3Q27 -3 21 1T15 12Q15 29 34 34Q72 42 86 54T100 97V551Q100 583 87 596T34 618Q15 623 15 640Q15 647 21 651T33 655Q55 655 82 654T136 652T183 650Q203 650 231 651T288 653T338 654Q346
654 350 651T354 639Q354 629 349 625T335 618Q294 606 282 593T270 550V98Q270 70 283 58T335 34Q344 31 349 27T354 13Q354 6 350 2T338 -2Q317 -2 288 -1T231 1T183 2Q163 2 137 1T83 -1T33 -3ZM137 681Q124 684 124 691Q124 698 136 713Q163 747 190 778T248
840Q262 854 283 851Q291 850 309 844T343 828T357 810Q354 799 337 788Q297 763 251 738T164 689Q155 684 148 682T137 681Z" />
<glyph unicode="&#xce;" glyph-name="Icircumflex" horiz-adv-x="369" d="M33 -3Q27 -3 21 1T15 12Q15 29 34 34Q72 42 86 54T100 97V551Q100 583 87 596T34 618Q15 623 15 640Q15 647 21 651T33 655Q55 655 82 654T136 652T183 650Q203 650 231 651T288 653T338
654Q346 654 350 651T354 639Q354 629 349 625T335 618Q294 606 282 593T270 550V98Q270 70 283 58T335 34Q344 31 349 27T354 13Q354 6 350 2T338 -2Q317 -2 288 -1T231 1T183 2Q163 2 137 1T83 -1T33 -3ZM41 692Q21 692 21 705Q21 714 30 721L136 817Q154 834
164 840T188 847Q203 847 213 841T241 817L346 722Q354 715 354 705Q354 691 337 691Q330 691 313 696T275 708T234 724T201 740Q194 744 188 744T175 740Q163 733 143 725T102 710T64 697T41 692Z" />
<glyph unicode="&#xcf;" glyph-name="Idieresis" horiz-adv-x="369" d="M33 -3Q27 -3 21 1T15 12Q15 29 34 34Q72 42 86 54T100 97V551Q100 583 87 596T34 618Q15 623 15 640Q15 647 21 651T33 655Q55 655 82 654T136 652T183 650Q203 650 231 651T288 653T338
654Q346 654 350 651T354 639Q354 629 349 625T335 618Q294 606 282 593T270 550V98Q270 70 283 58T335 34Q344 31 349 27T354 13Q354 6 350 2T338 -2Q317 -2 288 -1T231 1T183 2Q163 2 137 1T83 -1T33 -3ZM286 686Q255 686 233 708T210 762Q210 795 232 817T286
839Q320 839 343 817T366 762Q366 731 343 709T286 686ZM88 686Q57 686 35 708T12 762Q12 795 34 817T88 839Q122 839 145 817T168 762Q168 731 145 709T88 686Z" />
<glyph unicode="&#xd0;" glyph-name="Eth" horiz-adv-x="769" d="M57 304Q44 304 39 314T33 335Q33 349 41 357T62 366H362Q372 366 378 361T385 347Q385 346 385 345T384 342Q381 329 370 317T342 304H57ZM385 -7Q345 -7 304 -5T229 -2T183 0Q163 0 137 0T83
-2T33 -3Q27 -3 21 1T15 12Q15 21 20 26T34 34Q72 42 86 54T100 97V551Q100 583 87 596T34 618Q25 620 20 625T15 640Q15 647 21 651T33 655Q55 655 82 654T136 652T183 650Q198 650 224 651T282 654T344 657T394 659Q464 659 527 636T639 569T716 467T744 335Q744
269 721 208T653 98T540 22T385 -7ZM369 48Q435 48 477 80T540 170T561 306Q561 372 549 426T511 519T448 579T359 601Q329 601 310 599T280 591T270 568V134Q270 103 280 84T313 57T369 48Z" />
<glyph unicode="&#xd1;" glyph-name="Ntilde" horiz-adv-x="813" d="M683 -19Q669 -19 640 -4T577 52Q549 82 522 111T466 170T410 229T355 288T299 346T244 405T188 465Q187 467 183 471T177 475Q173 475 172 468T170 456Q170 411 171 349T174 225T176 113Q176
79 197 62T259 34Q268 32 277 28T286 13Q286 6 278 2T262 -2Q235 -2 217 -1T184 0T147 1Q124 1 103 0T68 -2T54 -3Q48 -3 40 1T31 12Q31 21 38 25T55 34Q78 43 90 64T105 115Q109 152 113 213T122 350T126 508Q126 560 100 583T37 620Q28 622 19 627T10 642Q10
651 17 654T36 658Q52 658 75 657T126 656T183 654T239 653Q247 653 251 651T259 643Q285 614 311 585T364 526T417 468T470 410T522 351T575 293T628 234Q631 230 635 226T642 222Q650 222 650 236Q650 271 650 312T650 397T650 481T647 553Q646 582 627 595T569
618Q560 620 553 624T546 639Q546 646 553 650T567 654Q594 654 611 654T642 653T673 652Q693 652 707 652T737 654T779 655Q790 655 796 651T803 640Q803 624 778 619Q744 612 728 599T712 556Q712 513 711 471T708 387T704 308T701 234T700 170Q700 147 703 118T709
64T712 30Q712 3 705 -8T683 -19ZM285 691Q280 691 273 697T266 707Q266 713 275 729T297 765T323 797T343 811Q362 811 384 810T429 807Q448 806 470 805T517 804Q528 804 536 810T552 824Q560 832 564 839T572 846Q577 846 586 839T595 827Q595 823 591 816T577
796Q566 780 557 765T538 735Q532 726 523 724T507 721Q498 721 474 723T421 727T366 731T332 733Q324 733 317 727T303 712Q297 704 292 698T285 691Z" />
<glyph unicode="&#xd2;" glyph-name="Ograve" horiz-adv-x="759" d="M419 681Q416 680 409 682T392 689Q352 713 306 738T219 788Q202 799 199 810Q197 819 212 828T246 843T273 851Q294 854 308 840Q340 809 366 778T420 713Q432 698 432 691Q432 684 419 681ZM375
-14Q305 -14 242 9T130 76T53 180T25 315Q25 383 48 445T116 557T229 635T384 664Q454 664 517 641T629 574T706 470T734 335Q734 268 711 205T643 93T530 15T375 -14ZM393 33Q446 33 481 65T535 153T553 283Q553 343 542 402T508 509T450 587T364 616Q312 616
277 584T224 496T206 367Q206 307 217 248T250 141T308 63T393 33Z" />
<glyph unicode="&#xd3;" glyph-name="Oacute" horiz-adv-x="759" d="M375 -14Q305 -14 242 9T130 76T53 180T25 315Q25 383 48 445T116 557T229 635T384 664Q454 664 517 641T629 574T706 470T734 335Q734 268 711 205T643 93T530 15T375 -14ZM393 33Q446 33 481
65T535 153T553 283Q553 343 542 402T508 509T450 587T364 616Q312 616 277 584T224 496T206 367Q206 307 217 248T250 141T308 63T393 33ZM341 681Q328 684 328 691Q328 698 340 713Q367 747 394 778T452 840Q466 854 487 851Q495 850 513 844T547 828T561 810Q558
799 541 788Q501 763 455 738T368 689Q359 684 352 682T341 681Z" />
<glyph unicode="&#xd4;" glyph-name="Ocircumflex" horiz-adv-x="759" d="M375 -14Q305 -14 242 9T130 76T53 180T25 315Q25 383 48 445T116 557T229 635T384 664Q454 664 517 641T629 574T706 470T734 335Q734 268 711 205T643 93T530 15T375 -14ZM393 33Q446
33 481 65T535 153T553 283Q553 343 542 402T508 509T450 587T364 616Q312 616 277 584T224 496T206 367Q206 307 217 248T250 141T308 63T393 33ZM245 692Q225 692 225 705Q225 714 234 721L340 817Q358 834 368 840T392 847Q407 847 417 841T445 817L550 722Q558
715 558 705Q558 691 541 691Q534 691 517 696T479 708T438 724T405 740Q398 744 392 744T379 740Q367 733 347 725T306 710T268 697T245 692Z" />
<glyph unicode="&#xd5;" glyph-name="Otilde" horiz-adv-x="759" d="M375 -14Q305 -14 242 9T130 76T53 180T25 315Q25 383 48 445T116 557T229 635T384 664Q454 664 517 641T629 574T706 470T734 335Q734 268 711 205T643 93T530 15T375 -14ZM393 33Q446 33 481
65T535 153T553 283Q553 343 542 402T508 509T450 587T364 616Q312 616 277 584T224 496T206 367Q206 307 217 248T250 141T308 63T393 33ZM248 691Q243 691 236 697T229 707Q229 713 238 729T260 765T286 797T306 811Q325 811 347 810T392 807Q411 806 433 805T480
804Q491 804 499 810T515 824Q523 832 527 839T535 846Q540 846 549 839T558 827Q558 823 554 816T540 796Q529 780 520 765T501 735Q495 726 486 724T470 721Q461 721 437 723T384 727T329 731T295 733Q287 733 280 727T266 712Q260 704 255 698T248 691Z" />
<glyph unicode="&#xd6;" glyph-name="Odieresis" horiz-adv-x="759" d="M375 -14Q305 -14 242 9T130 76T53 180T25 315Q25 383 48 445T116 557T229 635T384 664Q454 664 517 641T629 574T706 470T734 335Q734 268 711 205T643 93T530 15T375 -14ZM393 33Q446 33
481 65T535 153T553 283Q553 343 542 402T508 509T450 587T364 616Q312 616 277 584T224 496T206 367Q206 307 217 248T250 141T308 63T393 33ZM490 686Q459 686 437 708T414 762Q414 795 436 817T490 839Q524 839 547 817T570 762Q570 731 547 709T490 686ZM292
686Q261 686 239 708T216 762Q216 795 238 817T292 839Q326 839 349 817T372 762Q372 731 349 709T292 686Z" />
<glyph unicode="&#xd7;" glyph-name="multiply" horiz-adv-x="526" d="M431 49Q421 49 412 58L270 199Q261 208 251 198L117 63Q113 59 108 57T98 54Q91 54 83 68T74 98Q74 110 80 116L207 242Q213 248 213 252T207 262L76 395Q70 401 70 409Q70 421 77 433T90
451Q94 455 101 454T112 448L252 306Q257 302 261 302T270 306L412 448Q418 454 425 454Q431 454 434 451Q439 445 446 433T454 409Q454 401 448 395L315 261Q306 252 315 243L449 111Q456 104 456 92Q456 82 449 66T431 49Z" />
<glyph unicode="&#xd8;" glyph-name="Oslash" horiz-adv-x="759" d="M78 -14Q59 -14 43 -2T27 23Q27 44 45 60L687 656Q696 667 711 665T730 649Q732 643 734 636T736 621Q736 612 734 603T723 587L95 -7Q92 -10 89 -12T78 -14ZM375 -14Q305 -14 242 9T130 76T53
180T25 315Q25 383 48 445T116 557T229 635T384 664Q454 664 517 641T629 574T706 470T734 335Q734 268 711 205T643 93T530 15T375 -14ZM393 33Q446 33 481 65T535 153T553 283Q553 343 542 402T508 509T450 587T364 616Q312 616 277 584T224 496T206 367Q206
307 217 248T250 141T308 63T393 33Z" />
<glyph unicode="&#xd9;" glyph-name="Ugrave" horiz-adv-x="746" d="M437 681Q434 680 427 682T410 689Q370 713 324 738T237 788Q220 799 217 810Q215 819 230 828T264 843T291 851Q312 854 326 840Q358 809 384 778T438 713Q450 698 450 691Q450 684 437 681ZM373
-14Q278 -14 215 20T119 114T87 256V536Q87 562 75 586T35 618Q8 625 8 640Q8 647 15 651T34 655Q67 655 104 653T171 650Q200 650 243 652T318 654Q330 654 337 651T344 639Q344 627 328 622T295 608Q279 601 269 583T258 530V272Q258 206 279 164T334 101T410
81Q498 81 542 131T586 291Q586 318 586 350T587 415T587 477Q586 526 580 551T563 590T531 614Q520 620 505 624T490 639Q490 647 498 650T520 654Q559 654 578 653T621 651Q640 651 652 652T678 654T713 655Q724 655 731 652T738 640Q738 626 712 618Q677 608
664 587T648 527Q645 454 644 392T643 265Q643 183 607 120T510 22T373 -14Z" />
<glyph unicode="&#xda;" glyph-name="Uacute" horiz-adv-x="746" d="M373 -14Q278 -14 215 20T119 114T87 256V536Q87 562 75 586T35 618Q8 625 8 640Q8 647 15 651T34 655Q67 655 104 653T171 650Q200 650 243 652T318 654Q330 654 337 651T344 639Q344 627 328
622T295 608Q279 601 269 583T258 530V272Q258 206 279 164T334 101T410 81Q498 81 542 131T586 291Q586 318 586 350T587 415T587 477Q586 526 580 551T563 590T531 614Q520 620 505 624T490 639Q490 647 498 650T520 654Q559 654 578 653T621 651Q640 651 652
652T678 654T713 655Q724 655 731 652T738 640Q738 626 712 618Q677 608 664 587T648 527Q645 454 644 392T643 265Q643 183 607 120T510 22T373 -14ZM359 681Q346 684 346 691Q346 698 358 713Q385 747 412 778T470 840Q484 854 505 851Q513 850 531 844T565 828T579
810Q576 799 559 788Q519 763 473 738T386 689Q377 684 370 682T359 681Z" />
<glyph unicode="&#xdb;" glyph-name="Ucircumflex" horiz-adv-x="746" d="M373 -14Q278 -14 215 20T119 114T87 256V536Q87 562 75 586T35 618Q8 625 8 640Q8 647 15 651T34 655Q67 655 104 653T171 650Q200 650 243 652T318 654Q330 654 337 651T344 639Q344
627 328 622T295 608Q279 601 269 583T258 530V272Q258 206 279 164T334 101T410 81Q498 81 542 131T586 291Q586 318 586 350T587 415T587 477Q586 526 580 551T563 590T531 614Q520 620 505 624T490 639Q490 647 498 650T520 654Q559 654 578 653T621 651Q640
651 652 652T678 654T713 655Q724 655 731 652T738 640Q738 626 712 618Q677 608 664 587T648 527Q645 454 644 392T643 265Q643 183 607 120T510 22T373 -14ZM263 692Q243 692 243 705Q243 714 252 721L358 817Q376 834 386 840T410 847Q425 847 435 841T463 817L568
722Q576 715 576 705Q576 691 559 691Q552 691 535 696T497 708T456 724T423 740Q416 744 410 744T397 740Q385 733 365 725T324 710T286 697T263 692Z" />
<glyph unicode="&#xdc;" glyph-name="Udieresis" horiz-adv-x="746" d="M373 -14Q278 -14 215 20T119 114T87 256V536Q87 562 75 586T35 618Q8 625 8 640Q8 647 15 651T34 655Q67 655 104 653T171 650Q200 650 243 652T318 654Q330 654 337 651T344 639Q344 627
328 622T295 608Q279 601 269 583T258 530V272Q258 206 279 164T334 101T410 81Q498 81 542 131T586 291Q586 318 586 350T587 415T587 477Q586 526 580 551T563 590T531 614Q520 620 505 624T490 639Q490 647 498 650T520 654Q559 654 578 653T621 651Q640 651
652 652T678 654T713 655Q724 655 731 652T738 640Q738 626 712 618Q677 608 664 587T648 527Q645 454 644 392T643 265Q643 183 607 120T510 22T373 -14ZM508 686Q477 686 455 708T432 762Q432 795 454 817T508 839Q542 839 565 817T588 762Q588 731 565 709T508
686ZM310 686Q279 686 257 708T234 762Q234 795 256 817T310 839Q344 839 367 817T390 762Q390 731 367 709T310 686Z" />
<glyph unicode="&#xdd;" glyph-name="Yacute" horiz-adv-x="671" d="M195 -6Q182 -6 175 -1T167 11Q167 20 176 25T196 33Q234 41 248 60T262 110V246Q262 284 253 307T229 353L98 554Q89 568 79 580T56 603T22 618Q13 621 7 625T0 639Q0 647 6 650T19 654Q66
654 106 651T191 648Q226 648 257 651T326 655Q334 655 343 651T353 640Q353 631 344 626T325 618Q295 611 282 603T269 578Q269 562 280 543L385 364Q392 351 401 351Q405 351 408 354T416 364Q440 407 462 449T505 538Q509 546 512 556T515 576Q515 596 497 606T458
618Q448 619 438 625T428 640Q428 647 437 650T457 654Q487 654 512 652T565 649Q590 649 613 653T666 657Q677 657 686 654T696 640Q696 630 688 627T670 620Q640 612 618 595T584 557Q569 532 553 507T522 456T491 406T460 355Q453 342 447 327T436 295T432 256V111Q432
73 445 59T498 33Q509 30 518 26T527 12Q527 5 520 0T501 -5Q480 -5 451 -3T394 1T345 3Q325 3 299 1T245 -3T195 -6ZM333 681Q320 684 320 691Q320 698 332 713Q359 747 386 778T444 840Q458 854 479 851Q487 850 505 844T539 828T553 810Q550 799 533 788Q493
763 447 738T360 689Q351 684 344 682T333 681Z" />
<glyph unicode="&#xde;" glyph-name="Thorn" horiz-adv-x="597" d="M33 -3Q27 -3 21 1T15 12Q15 29 34 34Q72 42 86 54T100 97V551Q100 583 87 596T34 618Q15 623 15 640Q15 647 21 651T33 655Q55 655 82 654T136 652T183 650Q203 650 231 651T288 653T338 654Q346
654 350 651T354 639Q354 629 349 625T335 618Q297 607 285 596T270 561V552Q270 549 271 547T276 545Q278 545 284 546T296 549T299 551Q318 556 337 557T377 559Q431 559 476 537T549 469T577 352Q577 281 542 231T448 155T318 128Q308 128 297 129T278 131Q270
131 270 122V98Q270 70 283 58T335 34Q344 31 349 27T354 13Q354 6 350 2T338 -2Q317 -2 288 -1T231 1T183 2Q163 2 137 1T83 -1T33 -3ZM306 170Q363 170 386 213T410 335Q410 390 400 429T370 490T326 512Q310 512 297 505T277 482T270 436V238Q270 193 283 182T306
170Z" />
<glyph unicode="&#xdf;" glyph-name="germandbls" horiz-adv-x="597" d="M411 -14Q359 -14 334 5T309 50Q309 68 318 89T345 111Q354 111 361 106T381 85Q395 69 409 58T445 47Q458 47 473 56T488 84Q488 104 475 123T441 160T396 198Q372 218 349 239T311 284T296
333Q296 357 307 374T336 406T369 436Q392 458 406 484T421 544Q421 597 399 631T332 665Q278 665 252 621T225 471V75Q225 55 240 47T279 33Q287 31 292 26T298 12Q298 6 293 2T282 -3Q262 -3 239 -2T195 1T155 2Q138 2 119 1T80 -1T40 -3Q34 -3 27 1T20 12Q20
20 27 25T43 33Q58 38 69 44T80 71V356Q70 356 57 356T28 358Q22 359 18 370T14 390Q14 397 24 400Q36 405 51 410T80 423Q85 501 111 555T177 643T263 691T352 706Q394 706 427 691T480 652T500 600Q500 554 485 528T454 482Q439 464 429 441T418 378Q418 362
428 347T454 318T489 287Q511 270 531 251T564 209T577 159Q577 123 560 92T516 36T461 -1T411 -14Z" />
<glyph unicode="&#xe0;" glyph-name="agrave" horiz-adv-x="447" d="M267 452Q256 452 241 467Q219 490 197 514T153 562T110 610Q104 617 102 623T100 635Q100 648 118 654T161 660Q181 660 191 655T210 633Q218 618 230 591T254 535T273 487Q276 480 277 475T278
465Q278 452 267 452ZM132 -14Q103 -14 79 -2T41 32T27 80Q27 115 49 139T115 182L201 220Q221 229 226 236T231 263L232 318Q233 347 223 362T192 378Q180 378 167 373T148 360Q145 356 144 351T143 341Q143 335 144 326T145 310Q145 303 128 294T89 277T51 269Q43
269 38 275T32 292Q32 308 43 323T80 359Q107 381 139 398T202 425T255 436Q312 436 346 400T378 302L373 108Q372 85 380 69T402 52Q420 52 434 65Q437 68 440 68Q445 68 448 65T452 56Q452 44 432 24Q413 5 391 -4T345 -14Q287 -14 248 44H246Q213 13 187 0T132
-14ZM194 55Q203 55 209 58T220 68Q223 72 224 78T226 91L229 168Q229 177 226 179T219 182Q217 182 215 182T209 179Q185 166 173 153T160 104Q160 75 171 65T194 55Z" />
<glyph unicode="&#xe1;" glyph-name="aacute" horiz-adv-x="447" d="M132 -14Q103 -14 79 -2T41 32T27 80Q27 115 49 139T115 182L201 220Q221 229 226 236T231 263L232 318Q233 347 223 362T192 378Q180 378 167 373T148 360Q145 356 144 351T143 341Q143 335
144 326T145 310Q145 303 128 294T89 277T51 269Q43 269 38 275T32 292Q32 308 43 323T80 359Q107 381 139 398T202 425T255 436Q312 436 346 400T378 302L373 108Q372 85 380 69T402 52Q420 52 434 65Q437 68 440 68Q445 68 448 65T452 56Q452 44 432 24Q413 5
391 -4T345 -14Q287 -14 248 44H246Q213 13 187 0T132 -14ZM194 55Q203 55 209 58T220 68Q223 72 224 78T226 91L229 168Q229 177 226 179T219 182Q217 182 215 182T209 179Q185 166 173 153T160 104Q160 75 171 65T194 55ZM200 452Q189 452 189 465Q189 469 190
474T194 487Q202 506 214 534T238 590T257 633Q265 650 276 655T306 660Q331 660 349 654T367 635Q367 630 365 624T357 610Q336 587 315 563T271 514T226 467Q211 452 200 452Z" />
<glyph unicode="&#xe2;" glyph-name="acircumflex" horiz-adv-x="447" d="M228 676Q239 676 247 666T266 635Q276 618 286 601T306 568T326 534T345 500Q355 481 350 468T335 455Q328 455 318 464T292 489Q282 501 268 517T234 553Q230 557 229 557T222 553Q203
534 189 518T164 489Q149 473 139 464T121 455Q105 455 103 468T111 500Q120 517 129 533T149 566T169 599T189 633Q202 655 210 665T228 676ZM132 -14Q103 -14 79 -2T41 32T27 80Q27 115 49 139T115 182L201 220Q221 229 226 236T231 263L232 318Q233 347 223
362T192 378Q180 378 167 373T148 360Q145 356 144 351T143 341Q143 335 144 326T145 310Q145 303 128 294T89 277T51 269Q43 269 38 275T32 292Q32 308 43 323T80 359Q107 381 139 398T202 425T255 436Q312 436 346 400T378 302L373 108Q372 85 380 69T402 52Q420
52 434 65Q437 68 440 68Q445 68 448 65T452 56Q452 44 432 24Q413 5 391 -4T345 -14Q287 -14 248 44H246Q213 13 187 0T132 -14ZM194 55Q203 55 209 58T220 68Q223 72 224 78T226 91L229 168Q229 177 226 179T219 182Q217 182 215 182T209 179Q185 166 173 153T160
104Q160 75 171 65T194 55Z" />
<glyph unicode="&#xe3;" glyph-name="atilde" horiz-adv-x="447" d="M132 -14Q103 -14 79 -2T41 32T27 80Q27 115 49 139T115 182L201 220Q221 229 226 236T231 263L232 318Q233 347 223 362T192 378Q180 378 167 373T148 360Q145 356 144 351T143 341Q143 335
144 326T145 310Q145 303 128 294T89 277T51 269Q43 269 38 275T32 292Q32 308 43 323T80 359Q107 381 139 398T202 425T255 436Q312 436 346 400T378 302L373 108Q372 85 380 69T402 52Q420 52 434 65Q437 68 440 68Q445 68 448 65T452 56Q452 44 432 24Q413 5
391 -4T345 -14Q287 -14 248 44H246Q213 13 187 0T132 -14ZM194 55Q203 55 209 58T220 68Q223 72 224 78T226 91L229 168Q229 177 226 179T219 182Q217 182 215 182T209 179Q185 166 173 153T160 104Q160 75 171 65T194 55ZM97 467Q93 467 84 475T74 487Q74 493
86 511T115 550T147 587T169 603Q179 603 193 600T241 595Q264 594 283 593T311 591Q320 591 329 596T346 611Q356 623 360 629T369 636Q374 636 383 629T392 616Q392 612 386 604T371 583Q360 567 349 549T328 516Q322 507 313 505T297 502Q288 502 267 503T221
506T175 509T144 511Q137 511 133 508T125 500Q112 482 107 475T97 467Z" />
<glyph unicode="&#xe4;" glyph-name="adieresis" horiz-adv-x="447" d="M132 -14Q103 -14 79 -2T41 32T27 80Q27 115 49 139T115 182L201 220Q221 229 226 236T231 263L232 318Q233 347 223 362T192 378Q180 378 167 373T148 360Q145 356 144 351T143 341Q143
335 144 326T145 310Q145 303 128 294T89 277T51 269Q43 269 38 275T32 292Q32 308 43 323T80 359Q107 381 139 398T202 425T255 436Q312 436 346 400T378 302L373 108Q372 85 380 69T402 52Q420 52 434 65Q437 68 440 68Q445 68 448 65T452 56Q452 44 432 24Q413
5 391 -4T345 -14Q287 -14 248 44H246Q213 13 187 0T132 -14ZM194 55Q203 55 209 58T220 68Q223 72 224 78T226 91L229 168Q229 177 226 179T219 182Q217 182 215 182T209 179Q185 166 173 153T160 104Q160 75 171 65T194 55ZM322 491Q291 491 269 513T246 567Q246
600 268 622T322 644Q356 644 379 622T402 567Q402 536 379 514T322 491ZM124 491Q93 491 71 513T48 567Q48 600 70 622T124 644Q158 644 181 622T204 567Q204 536 181 514T124 491Z" />
<glyph unicode="&#xe5;" glyph-name="aring" horiz-adv-x="447" d="M132 -14Q103 -14 79 -2T41 32T27 80Q27 115 49 139T115 182L201 220Q221 229 226 236T231 263L232 318Q233 347 223 362T192 378Q180 378 167 373T148 360Q145 356 144 351T143 341Q143 335
144 326T145 310Q145 303 128 294T89 277T51 269Q43 269 38 275T32 292Q32 308 43 323T80 359Q107 381 139 398T202 425T255 436Q312 436 346 400T378 302L373 108Q372 85 380 69T402 52Q420 52 434 65Q437 68 440 68Q445 68 448 65T452 56Q452 44 432 24Q413 5
391 -4T345 -14Q287 -14 248 44H246Q213 13 187 0T132 -14ZM194 55Q203 55 209 58T220 68Q223 72 224 78T226 91L229 168Q229 177 226 179T219 182Q217 182 215 182T209 179Q185 166 173 153T160 104Q160 75 171 65T194 55ZM221 480Q179 480 147 505T115 576Q115
607 131 630T174 667T232 680Q273 680 305 655T337 586Q337 554 321 530T278 493T221 480ZM231 518Q251 518 262 537T273 578Q273 604 259 621T222 638Q202 638 191 620T179 578Q179 554 194 536T231 518Z" />
<glyph unicode="&#xe6;" glyph-name="ae" horiz-adv-x="638" d="M136 -14Q107 -14 82 -2T42 32T27 80Q27 115 48 140T115 182L201 213Q221 222 226 229T231 256L232 316Q233 345 223 360T192 376Q180 376 167 370T148 357Q143 351 143 338Q143 332 144 324T145
310Q145 302 127 293T87 276T51 269Q43 269 38 275T32 292Q32 324 79 362Q98 377 127 394T188 424T250 437Q276 437 295 431T334 408Q339 405 342 405Q346 405 350 408Q373 421 396 429T454 437Q501 437 537 421T594 378T615 314Q615 298 609 290T591 280Q584 279
558 272T497 255T431 236T385 221Q381 220 378 216T374 203V181Q374 161 387 139T424 103T474 88Q502 88 531 100T583 141Q588 148 597 148Q608 148 608 135Q608 130 607 122T602 108Q574 55 532 21T410 -14Q367 -14 333 -1T268 42Q266 44 264 45T259 47Q256 47
251 42Q235 26 220 13T184 -7T136 -14ZM194 55Q203 55 209 58T220 68Q223 72 226 78T229 92V155Q229 164 228 168T223 172Q219 172 213 169Q195 161 184 152T166 131T160 104Q160 75 171 65T194 55ZM386 272Q410 278 433 284T490 300Q501 303 503 309T506 326Q506
353 493 373T447 394Q428 394 413 386T388 364T378 331L377 279Q377 275 379 273T386 272Z" />
<glyph unicode="&#xe7;" glyph-name="ccedilla" horiz-adv-x="412" d="M211 -14Q157 -14 114 15T46 93T21 205Q21 270 51 322T133 405T247 436Q333 436 388 378Q396 368 396 360Q396 354 387 343T367 322T347 312Q337 312 328 318T311 331Q284 354 258 367T211
381Q176 381 159 353T142 253Q142 204 156 169T198 116T267 97Q297 97 319 107T366 135Q371 139 375 142T384 145Q396 145 396 129Q396 125 395 118T390 102Q382 82 356 55T293 7T211 -14ZM158 -274Q135 -274 123 -265T111 -225Q111 -209 115 -204T129 -199Q141
-199 158 -207T199 -216Q213 -216 219 -206T226 -177Q226 -158 208 -148T170 -138Q157 -138 150 -143T136 -148Q129 -148 121 -141T113 -122Q113 -113 129 -95L219 8H266L231 -33Q225 -40 225 -44Q225 -48 238 -55Q263 -66 277 -85T291 -140Q291 -165 278 -189T245
-232T202 -262T158 -274Z" />
<glyph unicode="&#xe8;" glyph-name="egrave" horiz-adv-x="423" d="M278 452Q267 452 252 467Q230 490 208 514T164 562T121 610Q115 617 113 623T111 635Q111 648 129 654T172 660Q192 660 202 655T221 633Q229 618 241 591T265 535T284 487Q287 480 288 475T289
465Q289 452 278 452ZM211 -14Q157 -14 114 15T46 93T21 205Q21 269 51 321T132 405T245 436Q288 436 323 417T379 367T400 295Q400 256 369 256H171Q157 256 151 248T144 221Q144 185 160 156T204 109T269 92Q298 92 322 103T372 133Q375 135 379 137T386 140Q397
140 397 127Q397 118 391 100Q382 73 358 47T297 3T211 -14ZM171 300H224Q253 300 262 301T280 305Q285 307 288 316T291 335Q291 361 275 377T232 394Q212 394 195 383T166 353T156 315Q156 300 171 300Z" />
<glyph unicode="&#xe9;" glyph-name="eacute" horiz-adv-x="423" d="M211 -14Q157 -14 114 15T46 93T21 205Q21 269 51 321T132 405T245 436Q288 436 323 417T379 367T400 295Q400 256 369 256H171Q157 256 151 248T144 221Q144 185 160 156T204 109T269 92Q298
92 322 103T372 133Q375 135 379 137T386 140Q397 140 397 127Q397 118 391 100Q382 73 358 47T297 3T211 -14ZM171 300H224Q253 300 262 301T280 305Q285 307 288 316T291 335Q291 361 275 377T232 394Q212 394 195 383T166 353T156 315Q156 300 171 300ZM211
452Q200 452 200 465Q200 469 201 474T205 487Q213 506 225 534T249 590T268 633Q276 650 287 655T317 660Q342 660 360 654T378 635Q378 630 376 624T368 610Q347 587 326 563T282 514T237 467Q222 452 211 452Z" />
<glyph unicode="&#xea;" glyph-name="ecircumflex" horiz-adv-x="423" d="M239 676Q250 676 258 666T277 635Q287 618 297 601T317 568T337 534T356 500Q366 481 361 468T346 455Q339 455 329 464T303 489Q293 501 279 517T245 553Q241 557 240 557T233 553Q214
534 200 518T175 489Q160 473 150 464T132 455Q116 455 114 468T122 500Q131 517 140 533T160 566T180 599T200 633Q213 655 221 665T239 676ZM211 -14Q157 -14 114 15T46 93T21 205Q21 269 51 321T132 405T245 436Q288 436 323 417T379 367T400 295Q400 256 369
256H171Q157 256 151 248T144 221Q144 185 160 156T204 109T269 92Q298 92 322 103T372 133Q375 135 379 137T386 140Q397 140 397 127Q397 118 391 100Q382 73 358 47T297 3T211 -14ZM171 300H224Q253 300 262 301T280 305Q285 307 288 316T291 335Q291 361 275
377T232 394Q212 394 195 383T166 353T156 315Q156 300 171 300Z" />
<glyph unicode="&#xeb;" glyph-name="edieresis" horiz-adv-x="423" d="M211 -14Q157 -14 114 15T46 93T21 205Q21 269 51 321T132 405T245 436Q288 436 323 417T379 367T400 295Q400 256 369 256H171Q157 256 151 248T144 221Q144 185 160 156T204 109T269 92Q298
92 322 103T372 133Q375 135 379 137T386 140Q397 140 397 127Q397 118 391 100Q382 73 358 47T297 3T211 -14ZM171 300H224Q253 300 262 301T280 305Q285 307 288 316T291 335Q291 361 275 377T232 394Q212 394 195 383T166 353T156 315Q156 300 171 300ZM333
491Q302 491 280 513T257 567Q257 600 279 622T333 644Q367 644 390 622T413 567Q413 536 390 514T333 491ZM135 491Q104 491 82 513T59 567Q59 600 81 622T135 644Q169 644 192 622T215 567Q215 536 192 514T135 491Z" />
<glyph unicode="&#xec;" glyph-name="igrave" horiz-adv-x="306" d="M192 452Q181 452 166 467Q144 490 122 514T78 562T35 610Q29 617 27 623T25 635Q25 648 43 654T86 660Q106 660 116 655T135 633Q143 618 155 591T179 535T198 487Q201 480 202 475T203 465Q203
452 192 452ZM36 -3Q30 -3 25 1T20 11Q20 19 24 24T37 31Q64 38 74 45T85 68V284Q85 320 75 332T42 348Q36 349 33 354T30 367Q30 383 42 385Q96 396 140 414T207 443Q225 451 229 451Q243 451 243 437Q242 418 239 393T233 340T230 288V69Q230 56 240 48T278 31Q286
28 291 24T296 12Q296 -2 281 -2Q262 -2 240 -1T196 1T156 2Q139 2 119 1T77 -1T36 -3Z" />
<glyph unicode="&#xed;" glyph-name="iacute" horiz-adv-x="306" d="M36 -3Q30 -3 25 1T20 11Q20 19 24 24T37 31Q64 38 74 45T85 68V284Q85 320 75 332T42 348Q36 349 33 354T30 367Q30 383 42 385Q96 396 140 414T207 443Q225 451 229 451Q243 451 243 437Q242
418 239 393T233 340T230 288V69Q230 56 240 48T278 31Q286 28 291 24T296 12Q296 -2 281 -2Q262 -2 240 -1T196 1T156 2Q139 2 119 1T77 -1T36 -3ZM125 452Q114 452 114 465Q114 469 115 474T119 487Q127 506 139 534T163 590T182 633Q190 650 201 655T231 660Q256
660 274 654T292 635Q292 630 290 624T282 610Q261 587 240 563T196 514T151 467Q136 452 125 452Z" />
<glyph unicode="&#xee;" glyph-name="icircumflex" horiz-adv-x="306" d="M153 676Q164 676 172 666T191 635Q201 618 211 601T231 568T251 534T270 500Q280 481 275 468T260 455Q253 455 243 464T217 489Q207 501 193 517T159 553Q155 557 154 557T147 553Q128
534 114 518T89 489Q74 473 64 464T46 455Q30 455 28 468T36 500Q45 517 54 533T74 566T94 599T114 633Q127 655 135 665T153 676ZM36 -3Q30 -3 25 1T20 11Q20 19 24 24T37 31Q64 38 74 45T85 68V284Q85 320 75 332T42 348Q36 349 33 354T30 367Q30 383 42 385Q96
396 140 414T207 443Q225 451 229 451Q243 451 243 437Q242 418 239 393T233 340T230 288V69Q230 56 240 48T278 31Q286 28 291 24T296 12Q296 -2 281 -2Q262 -2 240 -1T196 1T156 2Q139 2 119 1T77 -1T36 -3Z" />
<glyph unicode="&#xef;" glyph-name="idieresis" horiz-adv-x="306" d="M36 -3Q30 -3 25 1T20 11Q20 19 24 24T37 31Q64 38 74 45T85 68V284Q85 320 75 332T42 348Q36 349 33 354T30 367Q30 383 42 385Q96 396 140 414T207 443Q225 451 229 451Q243 451 243 437Q242
418 239 393T233 340T230 288V69Q230 56 240 48T278 31Q286 28 291 24T296 12Q296 -2 281 -2Q262 -2 240 -1T196 1T156 2Q139 2 119 1T77 -1T36 -3ZM247 491Q216 491 194 513T171 567Q171 600 193 622T247 644Q281 644 304 622T327 567Q327 536 304 514T247 491ZM49
491Q18 491 -4 513T-27 567Q-27 600 -5 622T49 644Q83 644 106 622T129 567Q129 536 106 514T49 491Z" />
<glyph unicode="&#xf0;" glyph-name="eth" horiz-adv-x="520" d="M249 -14Q188 -14 136 13T52 88T20 197Q20 263 52 317T141 404T271 437Q276 437 280 437T288 435Q290 434 291 434T292 439Q287 460 278 489T260 537L141 475Q130 469 122 475T113 489Q113 506
118 514T136 528L234 578Q211 611 179 633T103 665Q92 667 80 671T67 687Q67 697 81 700T114 704Q173 704 227 685T327 627L436 684Q444 689 455 686T467 672Q467 659 462 651T440 633L367 593Q404 554 431 500T474 383T490 250Q490 206 475 160T429 75T353 11T249
-14ZM264 36Q289 36 304 53T328 112T336 228Q336 257 330 292T316 350Q301 370 287 378T252 386Q230 386 212 367T184 311T173 222Q173 176 185 133T219 63T264 36Z" />
<glyph unicode="&#xf1;" glyph-name="ntilde" horiz-adv-x="574" d="M40 -3Q34 -3 27 1T20 12Q20 20 27 25T43 33Q58 38 69 44T80 71V303Q80 323 74 337T50 355Q46 356 43 360T39 374Q39 389 49 392Q83 400 128 413T203 442Q208 444 213 447T223 451Q230 451 231
447T233 438Q233 430 231 413T228 382Q228 378 228 373T230 367Q264 399 297 417T377 436Q430 436 466 398T502 292V70Q502 50 513 44T539 33Q547 30 553 25T559 12Q559 5 554 1T542 -3Q522 -3 503 -2T466 1T430 2Q413 2 395 1T359 -1T320 -3Q314 -3 309 1T304
12Q304 20 309 25T323 33Q338 38 347 44T357 70V267Q357 304 341 325T299 346Q280 346 265 341T233 323Q229 320 227 315T225 305V70Q225 50 235 44T259 33Q278 26 278 12Q278 6 273 2T262 -3Q242 -3 224 -2T190 1T155 2Q138 2 119 1T80 -1T40 -3ZM164 467Q160
467 151 475T141 487Q141 493 153 511T182 550T214 587T236 603Q246 603 260 600T308 595Q331 594 350 593T378 591Q387 591 396 596T413 611Q423 623 427 629T436 636Q441 636 450 629T459 616Q459 612 453 604T438 583Q427 567 416 549T395 516Q389 507 380 505T364
502Q355 502 334 503T288 506T242 509T211 511Q204 511 200 508T192 500Q179 482 174 475T164 467Z" />
<glyph unicode="&#xf2;" glyph-name="ograve" horiz-adv-x="505" d="M299 452Q288 452 273 467Q251 490 229 514T185 562T142 610Q136 617 134 623T132 635Q132 648 150 654T193 660Q213 660 223 655T242 633Q250 618 262 591T286 535T305 487Q308 480 309 475T310
465Q310 452 299 452ZM238 -14Q177 -14 128 13T50 88T21 197Q21 246 39 289T90 366T166 418T260 437Q323 437 373 408T454 331T484 226Q484 161 457 106T375 19T238 -14ZM257 33Q275 33 288 40T310 62Q322 82 327 117T332 202Q332 258 321 300T291 366T245 390Q232
390 221 386T202 373Q185 355 179 318T172 222Q172 175 183 132T213 61T257 33Z" />
<glyph unicode="&#xf3;" glyph-name="oacute" horiz-adv-x="505" d="M238 -14Q177 -14 128 13T50 88T21 197Q21 246 39 289T90 366T166 418T260 437Q323 437 373 408T454 331T484 226Q484 161 457 106T375 19T238 -14ZM257 33Q275 33 288 40T310 62Q322 82 327
117T332 202Q332 258 321 300T291 366T245 390Q232 390 221 386T202 373Q185 355 179 318T172 222Q172 175 183 132T213 61T257 33ZM232 452Q221 452 221 465Q221 469 222 474T226 487Q234 506 246 534T270 590T289 633Q297 650 308 655T338 660Q363 660 381 654T399
635Q399 630 397 624T389 610Q368 587 347 563T303 514T258 467Q243 452 232 452Z" />
<glyph unicode="&#xf4;" glyph-name="ocircumflex" horiz-adv-x="505" d="M260 676Q271 676 279 666T298 635Q308 618 318 601T338 568T358 534T377 500Q387 481 382 468T367 455Q360 455 350 464T324 489Q314 501 300 517T266 553Q262 557 261 557T254 553Q235
534 221 518T196 489Q181 473 171 464T153 455Q137 455 135 468T143 500Q152 517 161 533T181 566T201 599T221 633Q234 655 242 665T260 676ZM238 -14Q177 -14 128 13T50 88T21 197Q21 246 39 289T90 366T166 418T260 437Q323 437 373 408T454 331T484 226Q484
161 457 106T375 19T238 -14ZM257 33Q275 33 288 40T310 62Q322 82 327 117T332 202Q332 258 321 300T291 366T245 390Q232 390 221 386T202 373Q185 355 179 318T172 222Q172 175 183 132T213 61T257 33Z" />
<glyph unicode="&#xf5;" glyph-name="otilde" horiz-adv-x="505" d="M238 -14Q177 -14 128 13T50 88T21 197Q21 246 39 289T90 366T166 418T260 437Q323 437 373 408T454 331T484 226Q484 161 457 106T375 19T238 -14ZM257 33Q275 33 288 40T310 62Q322 82 327
117T332 202Q332 258 321 300T291 366T245 390Q232 390 221 386T202 373Q185 355 179 318T172 222Q172 175 183 132T213 61T257 33ZM125 467Q121 467 112 475T102 487Q102 493 114 511T143 550T175 587T197 603Q207 603 221 600T269 595Q292 594 311 593T339 591Q348
591 357 596T374 611Q384 623 388 629T397 636Q402 636 411 629T420 616Q420 612 414 604T399 583Q388 567 377 549T356 516Q350 507 341 505T325 502Q316 502 295 503T249 506T203 509T172 511Q165 511 161 508T153 500Q140 482 135 475T125 467Z" />
<glyph unicode="&#xf6;" glyph-name="odieresis" horiz-adv-x="505" d="M238 -14Q177 -14 128 13T50 88T21 197Q21 246 39 289T90 366T166 418T260 437Q323 437 373 408T454 331T484 226Q484 161 457 106T375 19T238 -14ZM257 33Q275 33 288 40T310 62Q322 82
327 117T332 202Q332 258 321 300T291 366T245 390Q232 390 221 386T202 373Q185 355 179 318T172 222Q172 175 183 132T213 61T257 33ZM354 491Q323 491 301 513T278 567Q278 600 300 622T354 644Q388 644 411 622T434 567Q434 536 411 514T354 491ZM156 491Q125
491 103 513T80 567Q80 600 102 622T156 644Q190 644 213 622T236 567Q236 536 213 514T156 491Z" />
<glyph unicode="&#xf7;" glyph-name="divide" horiz-adv-x="602" d="M49 259Q42 259 36 263T30 272Q30 278 33 289T44 308T63 317H546Q557 317 564 313T572 302Q572 289 562 274T535 259H49ZM306 64Q276 64 254 85T232 137Q232 169 254 191T306 213Q338 213 360
191T382 137Q382 107 360 86T306 64ZM305 349Q275 349 253 370T231 422Q231 454 253 476T305 498Q337 498 359 476T381 422Q381 392 359 371T305 349Z" />
<glyph unicode="&#xf8;" glyph-name="oslash" horiz-adv-x="504" d="M53 -15Q41 -15 31 -9T21 8Q21 31 35 42L443 427Q453 437 466 437Q484 437 484 412Q484 405 481 394T469 375L80 -3Q74 -8 69 -11T53 -15ZM238 -14Q177 -14 128 13T50 88T21 197Q21 246 39 289T90
366T166 418T260 437Q323 437 373 408T454 331T484 226Q484 161 457 106T375 19T238 -14ZM257 33Q275 33 288 40T310 62Q322 82 327 117T332 202Q332 258 321 300T291 366T245 390Q232 390 221 386T202 373Q185 355 179 318T172 222Q172 175 183 132T213 61T257
33Z" />
<glyph unicode="&#xf9;" glyph-name="ugrave" horiz-adv-x="556" d="M329 452Q318 452 303 467Q281 490 259 514T215 562T172 610Q166 617 164 623T162 635Q162 648 180 654T223 660Q243 660 253 655T272 633Q280 618 292 591T316 535T335 487Q338 480 339 475T340
465Q340 452 329 452ZM342 -21Q333 -21 333 -11Q333 1 335 21T338 52Q338 57 338 60T336 64Q312 33 269 9T180 -15Q149 -15 124 4T85 57T70 130V314Q70 337 62 351T31 370Q25 371 20 375T15 389Q15 396 19 401T30 407Q74 409 111 416T186 432Q191 434 197 435T210
437Q224 437 223 423Q219 400 217 385T215 346V155Q215 131 222 114T242 87T271 76Q285 76 299 80T327 98Q332 103 336 118T341 158V314Q341 331 336 343T319 362T290 371Q278 372 272 377T265 394Q265 405 272 410T290 415Q345 419 377 421T429 427T468 434Q471
435 475 436T482 437Q497 437 497 425Q497 421 496 417T493 408Q492 404 491 391T488 362T486 338V106Q486 84 491 77T504 70Q508 70 516 70T528 69Q538 69 543 64T548 50Q548 40 545 34T530 27Q480 23 439 10T369 -14Q362 -17 355 -19T342 -21Z" />
<glyph unicode="&#xfa;" glyph-name="uacute" horiz-adv-x="556" d="M342 -21Q333 -21 333 -11Q333 1 335 21T338 52Q338 57 338 60T336 64Q312 33 269 9T180 -15Q149 -15 124 4T85 57T70 130V314Q70 337 62 351T31 370Q25 371 20 375T15 389Q15 396 19 401T30
407Q74 409 111 416T186 432Q191 434 197 435T210 437Q224 437 223 423Q219 400 217 385T215 346V155Q215 131 222 114T242 87T271 76Q285 76 299 80T327 98Q332 103 336 118T341 158V314Q341 331 336 343T319 362T290 371Q278 372 272 377T265 394Q265 405 272
410T290 415Q345 419 377 421T429 427T468 434Q471 435 475 436T482 437Q497 437 497 425Q497 421 496 417T493 408Q492 404 491 391T488 362T486 338V106Q486 84 491 77T504 70Q508 70 516 70T528 69Q538 69 543 64T548 50Q548 40 545 34T530 27Q480 23 439 10T369
-14Q362 -17 355 -19T342 -21ZM262 452Q251 452 251 465Q251 469 252 474T256 487Q264 506 276 534T300 590T319 633Q327 650 338 655T368 660Q393 660 411 654T429 635Q429 630 427 624T419 610Q398 587 377 563T333 514T288 467Q273 452 262 452Z" />
<glyph unicode="&#xfb;" glyph-name="ucircumflex" horiz-adv-x="556" d="M290 676Q301 676 309 666T328 635Q338 618 348 601T368 568T388 534T407 500Q417 481 412 468T397 455Q390 455 380 464T354 489Q344 501 330 517T296 553Q292 557 291 557T284 553Q265
534 251 518T226 489Q211 473 201 464T183 455Q167 455 165 468T173 500Q182 517 191 533T211 566T231 599T251 633Q264 655 272 665T290 676ZM342 -21Q333 -21 333 -11Q333 1 335 21T338 52Q338 57 338 60T336 64Q312 33 269 9T180 -15Q149 -15 124 4T85 57T70
130V314Q70 337 62 351T31 370Q25 371 20 375T15 389Q15 396 19 401T30 407Q74 409 111 416T186 432Q191 434 197 435T210 437Q224 437 223 423Q219 400 217 385T215 346V155Q215 131 222 114T242 87T271 76Q285 76 299 80T327 98Q332 103 336 118T341 158V314Q341
331 336 343T319 362T290 371Q278 372 272 377T265 394Q265 405 272 410T290 415Q345 419 377 421T429 427T468 434Q471 435 475 436T482 437Q497 437 497 425Q497 421 496 417T493 408Q492 404 491 391T488 362T486 338V106Q486 84 491 77T504 70Q508 70 516 70T528
69Q538 69 543 64T548 50Q548 40 545 34T530 27Q480 23 439 10T369 -14Q362 -17 355 -19T342 -21Z" />
<glyph unicode="&#xfc;" glyph-name="udieresis" horiz-adv-x="556" d="M342 -21Q333 -21 333 -11Q333 1 335 21T338 52Q338 57 338 60T336 64Q312 33 269 9T180 -15Q149 -15 124 4T85 57T70 130V314Q70 337 62 351T31 370Q25 371 20 375T15 389Q15 396 19 401T30
407Q74 409 111 416T186 432Q191 434 197 435T210 437Q224 437 223 423Q219 400 217 385T215 346V155Q215 131 222 114T242 87T271 76Q285 76 299 80T327 98Q332 103 336 118T341 158V314Q341 331 336 343T319 362T290 371Q278 372 272 377T265 394Q265 405 272
410T290 415Q345 419 377 421T429 427T468 434Q471 435 475 436T482 437Q497 437 497 425Q497 421 496 417T493 408Q492 404 491 391T488 362T486 338V106Q486 84 491 77T504 70Q508 70 516 70T528 69Q538 69 543 64T548 50Q548 40 545 34T530 27Q480 23 439 10T369
-14Q362 -17 355 -19T342 -21ZM384 491Q353 491 331 513T308 567Q308 600 330 622T384 644Q418 644 441 622T464 567Q464 536 441 514T384 491ZM186 491Q155 491 133 513T110 567Q110 600 132 622T186 644Q220 644 243 622T266 567Q266 536 243 514T186 491Z" />
<glyph unicode="&#xfd;" glyph-name="yacute" horiz-adv-x="491" d="M90 -283Q62 -283 37 -263T11 -215Q11 -195 21 -176T53 -156Q70 -156 88 -162T122 -167Q139 -165 145 -159T161 -135Q167 -125 172 -117T184 -95T203 -55Q217 -24 217 -1Q217 15 212 28T201
55L77 332Q67 355 56 370T26 393Q16 397 12 401T8 415Q8 423 17 425T33 427Q58 427 76 426T108 424T135 423Q157 423 173 424T208 426T251 427Q258 427 266 424T275 413Q275 404 268 401T253 394Q242 390 236 382T229 355Q229 346 231 335T241 305L299 164Q300
162 301 162Q302 162 303 164L351 311Q354 319 356 330T358 351Q358 368 347 379T325 394Q317 397 310 400T303 413Q303 421 311 424T327 427Q357 426 372 425T400 423Q408 423 417 423T439 425T471 427Q478 427 487 425T496 415Q496 406 492 402T478 393Q459 386
445 371T420 332L268 -34Q258 -58 248 -81T229 -128T209 -174T189 -220Q176 -251 150 -267T90 -283ZM259 452Q248 452 248 465Q248 469 249 474T253 487Q261 506 273 534T297 590T316 633Q324 650 335 655T365 660Q390 660 408 654T426 635Q426 630 424 624T416
610Q395 587 374 563T330 514T285 467Q270 452 259 452Z" />
<glyph unicode="&#xfe;" glyph-name="thorn" horiz-adv-x="558" d="M35 -257Q28 -257 22 -253T15 -242Q15 -234 21 -229T38 -221Q61 -214 68 -207T75 -183V546Q75 573 69 593T37 618Q26 620 26 634Q26 647 36 649Q61 654 93 664T154 686T199 702Q204 704 207 704T213
705Q220 705 222 701T224 692Q224 685 222 669T219 638L220 414Q220 402 220 390T221 366Q235 378 259 392T312 417T368 428Q422 428 460 399T518 325T538 231Q538 184 520 140T470 59T396 2T305 -19Q289 -19 266 -14T223 0Q222 0 221 -1T220 -4T219 -11V-172Q219
-194 231 -204T271 -222Q282 -225 287 -229T293 -242Q293 -248 289 -252T277 -257Q257 -257 234 -256T190 -253T150 -252Q133 -252 114 -253T75 -255T35 -257ZM298 31Q308 31 322 39T351 66T374 116T384 194Q384 248 374 280T350 328T320 349T294 354Q277 354 263
347T237 327Q230 320 225 305T220 261V122Q220 109 223 88T236 54Q244 45 260 38T298 31Z" />
<glyph unicode="&#xff;" glyph-name="ydieresis" horiz-adv-x="491" d="M90 -283Q62 -283 37 -263T11 -215Q11 -195 21 -176T53 -156Q70 -156 88 -162T122 -167Q139 -165 145 -159T161 -135Q167 -125 172 -117T184 -95T203 -55Q217 -24 217 -1Q217 15 212 28T201
55L77 332Q67 355 56 370T26 393Q16 397 12 401T8 415Q8 423 17 425T33 427Q58 427 76 426T108 424T135 423Q157 423 173 424T208 426T251 427Q258 427 266 424T275 413Q275 404 268 401T253 394Q242 390 236 382T229 355Q229 346 231 335T241 305L299 164Q300
162 301 162Q302 162 303 164L351 311Q354 319 356 330T358 351Q358 368 347 379T325 394Q317 397 310 400T303 413Q303 421 311 424T327 427Q357 426 372 425T400 423Q408 423 417 423T439 425T471 427Q478 427 487 425T496 415Q496 406 492 402T478 393Q459 386
445 371T420 332L268 -34Q258 -58 248 -81T229 -128T209 -174T189 -220Q176 -251 150 -267T90 -283ZM381 491Q350 491 328 513T305 567Q305 600 327 622T381 644Q415 644 438 622T461 567Q461 536 438 514T381 491ZM183 491Q152 491 130 513T107 567Q107 600 129
622T183 644Q217 644 240 622T263 567Q263 536 240 514T183 491Z" />
<glyph unicode="&#x2013;" glyph-name="endash" horiz-adv-x="650" d="M52 181Q45 181 40 186T35 195Q35 201 38 212T47 233T64 242H591Q602 242 608 238T615 226Q615 213 605 197T581 181H52Z" />
<glyph unicode="&#x2014;" glyph-name="emdash" horiz-adv-x="962" d="M37 181Q30 181 25 186T20 195Q20 201 23 212T32 233T49 242H918Q929 242 935 238T942 226Q942 213 932 197T908 181H37Z" />
<glyph unicode="&#x2018;" glyph-name="quoteleft" horiz-adv-x="238" d="M189 700Q216 700 216 683Q216 675 210 672T192 666Q165 659 146 647T118 618T108 582Q108 563 121 553T150 538Q167 533 179 518T192 477Q192 450 170 431T119 412Q72 412 43 441T14 517Q14
558 29 591T69 649T125 687T189 700Z" />
<glyph unicode="&#x2019;" glyph-name="quoteright" horiz-adv-x="238" d="M49 405Q22 405 22 422Q22 430 28 433T46 439Q74 447 92 459T120 487T130 523Q130 543 118 552T88 567Q72 572 59 587T46 628Q46 655 68 674T119 693Q166 693 195 664T224 588Q224 547
209 514T169 456T113 418T49 405Z" />
<glyph unicode="&#x201a;" glyph-name="quotesinglbase" horiz-adv-x="238" d="M49 -168Q22 -168 22 -151Q22 -143 28 -140T46 -134Q74 -126 92 -114T120 -86T130 -50Q130 -30 118 -21T88 -6Q72 -1 59 14T46 55Q46 82 68 101T119 120Q166 120 195 91T224 15Q224
-26 209 -59T169 -117T113 -155T49 -168Z" />
<glyph unicode="&#x201c;" glyph-name="quotedblleft" horiz-adv-x="444" d="M403 701Q430 701 430 684Q430 676 424 673T406 667Q379 660 360 648T332 619T322 583Q322 564 335 554T364 539Q381 534 393 519T406 478Q406 451 384 432T333 413Q286 413 257 442T228
518Q228 559 243 592T283 650T339 688T403 701ZM197 701Q224 701 224 684Q224 676 218 673T200 667Q173 660 154 648T126 619T116 583Q116 564 129 554T158 539Q175 534 187 519T200 478Q200 451 178 432T127 413Q80 413 51 442T22 518Q22 559 37 592T77 650T133
688T197 701Z" />
<glyph unicode="&#x201d;" glyph-name="quotedblright" horiz-adv-x="444" d="M49 405Q22 405 22 422Q22 430 28 433T46 439Q74 447 92 459T120 487T130 523Q130 543 118 552T88 567Q72 572 59 587T46 628Q46 655 68 674T119 693Q166 693 195 664T224 588Q224
547 209 514T169 456T113 418T49 405ZM255 405Q228 405 228 422Q228 430 234 433T252 439Q280 447 298 459T326 487T336 523Q336 543 324 552T294 567Q278 572 265 587T252 628Q252 655 274 674T325 693Q372 693 401 664T430 588Q430 547 415 514T375 456T319 418T255
405Z" />
<glyph unicode="&#x201e;" glyph-name="quotedblbase" horiz-adv-x="444" d="M49 -168Q22 -168 22 -151Q22 -143 28 -140T46 -134Q74 -126 92 -114T120 -86T130 -50Q130 -30 118 -21T88 -6Q72 -1 59 14T46 55Q46 82 68 101T119 120Q166 120 195 91T224 15Q224
-26 209 -59T169 -117T113 -155T49 -168ZM255 -168Q228 -168 228 -151Q228 -143 234 -140T252 -134Q280 -126 298 -114T326 -86T336 -50Q336 -30 324 -21T294 -6Q278 -1 265 14T252 55Q252 82 274 101T325 120Q372 120 401 91T430 15Q430 -26 415 -59T375 -117T319
-155T255 -168Z" />
<glyph unicode="&#x2022;" glyph-name="bullet" horiz-adv-x="379" d="M190 199Q147 199 112 220T56 276T35 353Q35 397 55 432T111 487T190 508Q233 508 267 488T323 432T344 353Q344 311 323 276T268 220T190 199Z" />
<glyph unicode="&#x2039;" glyph-name="guilsinglleft" horiz-adv-x="369" d="M322 15Q311 15 301 23T286 36Q255 65 232 84T187 117T139 146T75 179Q59 187 52 197T45 219Q45 231 57 236Q103 264 133 283T186 318T232 354T286 402Q291 406 301 414T322 423Q329
423 329 412Q329 408 327 404T323 395Q288 344 266 315T226 267T184 227Q177 221 177 219T184 211Q207 190 225 171T266 124T323 43Q325 39 327 35T329 27Q329 15 322 15Z" />
<glyph unicode="&#x203a;" glyph-name="guilsinglright" horiz-adv-x="369" d="M47 15Q40 15 40 27Q40 31 42 35T46 43Q81 95 103 123T144 171T185 211Q193 217 193 219T185 227Q162 248 144 267T104 315T46 395Q44 400 42 404T40 412Q40 423 47 423Q58 423 68
415T83 402Q114 374 137 355T182 319T235 283T312 236Q324 231 324 219Q324 208 318 198T294 179Q257 161 231 147T182 118T137 84T83 36Q79 32 69 24T47 15Z" />
</font>
</defs>
</svg>
