<?xml version="1.0" standalone="no"?>
<!DOCTYPE svg PUBLIC "-//W3C//DTD SVG 1.1//EN" "http://www.w3.org/Graphics/SVG/1.1/DTD/svg11.dtd">
<svg xmlns="http://www.w3.org/2000/svg">
<defs >
<font id="NunitoSans" horiz-adv-x="598" ><font-face
    font-family="Nunito Sans"
    units-per-em="1000"
    panose-1="0 0 0 0 0 0 0 0 0 0"
    ascent="1011"
    descent="-353"
    alphabetic="0" />
<glyph unicode=" " glyph-name="space" horiz-adv-x="270" />
<glyph unicode="!" glyph-name="exclam" horiz-adv-x="248" d="M86 209L47 705H201L162 209H86ZM54 0V139H194V0H54Z" />
<glyph unicode="&quot;" glyph-name="quotedbl" horiz-adv-x="447" d="M79 415L49 705H194L164 415H79ZM284 415L254 705H399L369 415H284Z" />
<glyph unicode="#" glyph-name="numbersign" horiz-adv-x="600" d="M81 0L115 172H44V252H130L171 461H65V541H185L218 705H305L272 541H398L431 705H518L485 541H556V461H470L429 252H535V172H415L381 0H294L328 172H202L168 0H81ZM217 252H342L383 461H258L217 252Z" />
<glyph unicode="$" glyph-name="dollar" horiz-adv-x="600" d="M260 -115V-5Q194 0 136 19T34 74L73 175Q120 140 176 121T299 102Q372 102 406 128T440 193Q440 228 417 249T335 283L229 306Q139 326 94 372T48 496Q48 580 105 637T260 707V820H360V708Q412 703
461 683T544 629L506 533Q430 603 312 603Q250 603 213 575T175 500Q175 466 198 445T272 413L378 390Q474 369 520 324T567 203Q567 119 510 66T360 -2V-115H260Z" />
<glyph unicode="%" glyph-name="percent" horiz-adv-x="945" d="M308 -28L226 20L638 733L719 685L308 -28ZM222 284Q138 284 91 342T44 500Q44 600 91 657T222 715Q306 715 353 658T400 500Q400 400 353 342T222 284ZM222 368Q258 368 278 400T298 500Q298 567
278 599T222 631Q186 631 166 600T146 500Q146 432 166 400T222 368ZM724 -10Q640 -10 593 48T546 206Q546 306 593 363T724 421Q808 421 855 364T902 206Q902 106 855 48T724 -10ZM724 74Q760 74 780 106T800 206Q800 273 780 305T724 337Q688 337 668 306T648
206Q648 138 668 106T724 74Z" />
<glyph unicode="&amp;" glyph-name="ampersand" horiz-adv-x="726" d="M301 -10Q188 -10 123 42T57 180Q57 248 95 298T200 389L206 392Q167 433 150 470T133 547Q133 622 186 668T328 715Q410 715 458 674T506 561Q506 507 476 462T374 374L509 230Q528 270 539
319T554 423H658Q652 268 583 157L739 0H587L515 76Q472 36 417 13T301 -10ZM328 626Q292 626 270 606T248 550Q248 524 260 502T305 443Q358 474 379 499T401 556Q401 590 381 608T328 626ZM308 89Q389 89 445 145L275 321Q224 292 203 262T181 190Q181 143 213
116T308 89Z" />
<glyph unicode="&apos;" glyph-name="quotesingle" horiz-adv-x="242" d="M79 415L49 705H194L164 415H79Z" />
<glyph unicode="(" glyph-name="parenleft" horiz-adv-x="358" d="M238 -195Q164 -85 132 29T100 263Q100 383 132 497T238 721L323 687Q276 572 255 473T234 263Q234 154 255 54T323 -161L238 -195Z" />
<glyph unicode=")" glyph-name="parenright" horiz-adv-x="358" d="M120 -195L35 -161Q82 -45 103 55T124 263Q124 371 103 471T35 687L120 721Q194 611 226 497T258 263Q258 144 226 30T120 -195Z" />
<glyph unicode="*" glyph-name="asterisk" horiz-adv-x="452" d="M165 338L89 382L161 492L31 485V572L162 564L90 675L166 719L227 593L287 719L363 674L291 564L422 572V485L291 492L363 382L287 338L226 465L165 338Z" />
<glyph unicode="+" glyph-name="plus" horiz-adv-x="600" d="M254 40V243H56V331H254V528H346V331H544V243H346V40H254Z" />
<glyph unicode="," glyph-name="comma" horiz-adv-x="248" d="M115 -133L64 -93Q89 -68 101 -46T119 0H54V139H194V47Q194 -4 177 -46T115 -133Z" />
<glyph unicode="-" glyph-name="hyphen" horiz-adv-x="434" d="M68 218V318H366V218H68Z" />
<glyph unicode="." glyph-name="period" horiz-adv-x="248" d="M54 0V139H194V0H54Z" />
<glyph unicode="/" glyph-name="slash" horiz-adv-x="313" d="M74 -71L-20 -43L239 760L333 732L74 -71Z" />
<glyph unicode="0" glyph-name="zero" horiz-adv-x="600" d="M300 -10Q175 -10 109 84T43 354Q43 531 109 623T300 715Q426 715 491 623T557 355Q557 179 491 85T300 -10ZM300 95Q368 95 400 157T433 355Q433 489 401 549T300 610Q233 610 200 550T167 355Q167
220 200 158T300 95Z" />
<glyph unicode="1" glyph-name="one" horiz-adv-x="600" d="M109 0V106H268V559L145 485L95 579L305 705H396V106H545V0H109Z" />
<glyph unicode="2" glyph-name="two" horiz-adv-x="600" d="M80 0V95L308 338Q354 388 374 426T394 505Q394 607 271 607Q175 607 94 535L51 631Q93 669 156 692T287 715Q400 715 460 664T521 518Q521 454 491 395T395 268L240 106H548V0H80Z" />
<glyph unicode="3" glyph-name="three" horiz-adv-x="600" d="M286 -10Q214 -10 149 11T40 70L82 168Q172 98 282 98Q417 98 417 204Q417 254 384 278T286 303H173V409H274Q330 409 363 436T396 513Q396 559 366 583T277 607Q173 607 94 535L52 631Q94 671 157
693T288 715Q398 715 459 666T520 528Q520 471 491 428T412 366Q473 349 507 304T541 193Q541 99 473 45T286 -10Z" />
<glyph unicode="4" glyph-name="four" horiz-adv-x="600" d="M349 0V134H42V228L371 705H477V240H576V134H477V0H349ZM349 240V509L165 240H349Z" />
<glyph unicode="5" glyph-name="five" horiz-adv-x="600" d="M306 -10Q237 -10 172 11T66 70L108 168Q199 98 304 98Q367 98 402 130T438 218Q438 274 404 308T311 343Q227 343 172 276H86V705H519V599H211V408Q264 448 341 448Q408 448 457 420T534 341T562 223Q562
154 531 102T443 20T306 -10Z" />
<glyph unicode="6" glyph-name="six" horiz-adv-x="600" d="M326 -10Q195 -10 124 82T52 340Q52 519 132 617T355 715Q411 715 466 695T560 636L518 540Q481 574 439 590T353 607Q266 607 220 546T174 364V335Q195 390 242 421T350 452Q411 452 458 423T532 343T559
226Q559 158 530 105T448 21T326 -10ZM319 92Q373 92 406 127T440 221Q440 279 407 315T319 351Q265 351 232 315T198 221Q198 163 231 128T319 92Z" />
<glyph unicode="7" glyph-name="seven" horiz-adv-x="600" d="M86 0L404 598H55V705H546V609L227 0H86Z" />
<glyph unicode="8" glyph-name="eight" horiz-adv-x="600" d="M300 -10Q177 -10 108 43T38 190Q38 254 71 299T159 362Q111 383 84 426T56 525Q56 614 122 664T300 715Q413 715 479 665T545 525Q545 469 518 426T443 362Q497 344 529 299T562 190Q562 96 493 43T300
-10ZM300 407Q359 407 392 435T426 512Q426 560 393 587T300 615Q241 615 208 588T175 512Q175 463 208 435T300 407ZM300 90Q443 90 443 199Q443 307 300 307Q230 307 194 280T157 199Q157 145 193 118T300 90Z" />
<glyph unicode="9" glyph-name="nine" horiz-adv-x="600" d="M246 -10Q190 -10 135 11T40 70L83 166Q119 132 161 115T247 98Q335 98 381 159T427 341V371Q407 316 360 285T250 253Q190 253 143 282T69 362T41 479Q41 548 71 601T153 684T274 715Q406 715 477
624T548 365Q548 187 468 89T246 -10ZM282 355Q336 355 369 390T403 484Q403 542 370 578T282 614Q228 614 195 578T161 484Q161 426 194 391T282 355Z" />
<glyph unicode=":" glyph-name="colon" horiz-adv-x="248" d="M54 351V489H194V351H54ZM54 0V139H194V0H54Z" />
<glyph unicode=";" glyph-name="semicolon" horiz-adv-x="248" d="M54 351V489H194V351H54ZM115 -133L64 -93Q89 -68 101 -46T119 0H54V139H194V47Q194 -4 177 -46T115 -133Z" />
<glyph unicode="&lt;" glyph-name="less" horiz-adv-x="600" d="M544 33L56 240V335L544 542V445L168 287L544 129V33Z" />
<glyph unicode="=" glyph-name="equal" horiz-adv-x="600" d="M56 343V431H544V343H56ZM56 144V231H544V144H56Z" />
<glyph unicode="&gt;" glyph-name="greater" horiz-adv-x="600" d="M56 33V129L433 287L56 445V542L544 335V240L56 33Z" />
<glyph unicode="?" glyph-name="question" horiz-adv-x="459" d="M183 209V249Q183 296 200 336T260 423Q292 458 304 483T317 536Q317 569 293 588T225 607Q127 607 44 535L2 631Q44 669 106 692T233 715Q296 715 343 694T417 636T444 549Q444 503 424 463T351
376Q304 333 286 301T263 237L259 209H183ZM151 0V139H291V0H151Z" />
<glyph unicode="@" glyph-name="at" horiz-adv-x="950" d="M486 -165Q358 -165 261 -111T109 40T54 268Q54 369 86 451T178 592T320 683T503 715Q621 715 709 669T847 539T896 342Q896 255 872 192T804 94T702 59Q653 59 621 81T578 145Q551 102 513 81T432 59Q352
59 308 109T264 246Q264 319 291 376T367 466T478 499Q567 499 600 428L611 489H704L662 248Q656 215 656 194Q656 133 708 133Q757 133 787 190T818 342Q818 435 780 501T671 602T502 638Q393 638 312 593T186 464T141 268Q141 157 183 77T303 -45T486 -88Q638
-88 729 -5L769 -71Q721 -116 648 -140T486 -165ZM450 138Q507 138 543 189T580 322Q580 419 494 419Q436 419 399 371T362 247Q362 194 385 166T450 138Z" />
<glyph unicode="A" glyph-name="A" horiz-adv-x="744" d="M1 0L320 705H425L744 0H614L544 163H200L131 0H1ZM371 566L244 265H500L373 566H371Z" />
<glyph unicode="B" glyph-name="B" horiz-adv-x="688" d="M77 0V705H385Q496 705 557 657T618 522Q618 465 589 424T509 364Q569 347 602 305T636 197Q636 103 573 52T396 0H77ZM200 406H363Q494 406 494 507Q494 608 363 608H200V406ZM200 97H380Q512 97 512
203Q512 309 380 309H200V97Z" />
<glyph unicode="C" glyph-name="C" horiz-adv-x="679" d="M405 -10Q295 -10 217 34T96 160T54 353Q54 464 96 545T216 670T405 715Q476 715 539 693T644 630L602 528Q557 566 510 583T409 601Q302 601 246 537T190 353Q190 234 246 169T409 104Q463 104 510 121T602
177L644 75Q603 35 540 13T405 -10Z" />
<glyph unicode="D" glyph-name="D" horiz-adv-x="762" d="M77 0V705H339Q516 705 612 614T709 353Q709 184 613 92T339 0H77ZM205 106H331Q575 106 575 353Q575 599 331 599H205V106Z" />
<glyph unicode="E" glyph-name="E" horiz-adv-x="597" d="M77 0V705H546V603H200V409H524V307H200V102H546V0H77Z" />
<glyph unicode="F" glyph-name="F" horiz-adv-x="562" d="M77 0V705H538V603H205V404H517V302H205V0H77Z" />
<glyph unicode="G" glyph-name="G" horiz-adv-x="736" d="M416 -10Q299 -10 219 34T96 159T54 351Q54 463 97 544T221 670T415 715Q489 715 554 694T662 634L619 534Q572 571 523 587T415 603Q303 603 246 538T188 351Q188 228 247 164T422 100Q455 100 489 105T558
122V286H396V381H665V42Q616 18 549 4T416 -10Z" />
<glyph unicode="H" glyph-name="H" horiz-adv-x="773" d="M77 0V705H205V411H568V705H696V0H568V304H205V0H77Z" />
<glyph unicode="I" glyph-name="I" horiz-adv-x="281" d="M77 0V705H205V0H77Z" />
<glyph unicode="J" glyph-name="J" horiz-adv-x="355" d="M-1 -9L-10 96L61 100Q150 106 150 198V705H278V199Q278 9 81 -5L-1 -9Z" />
<glyph unicode="K" glyph-name="K" horiz-adv-x="664" d="M77 0V705H205V393H207L518 705H674L331 366L691 0H533L207 326H205V0H77Z" />
<glyph unicode="L" glyph-name="L" horiz-adv-x="562" d="M77 0V705H205V109H543V0H77Z" />
<glyph unicode="M" glyph-name="M" horiz-adv-x="868" d="M79 0V705H186L436 244L685 705H790V0H674V475L472 107H397L195 473V0H79Z" />
<glyph unicode="N" glyph-name="N" horiz-adv-x="748" d="M77 0V705H173L552 213V705H671V0H576L196 494V0H77Z" />
<glyph unicode="O" glyph-name="O" horiz-adv-x="785" d="M393 -10Q291 -10 215 35T96 161T54 353Q54 464 96 545T214 670T393 715Q496 715 572 671T690 545T732 354Q732 243 690 162T572 35T393 -10ZM393 100Q490 100 544 167T598 353Q598 473 545 539T393 605Q296
605 242 539T188 353Q188 234 242 167T393 100Z" />
<glyph unicode="P" glyph-name="P" horiz-adv-x="652" d="M77 0V705H383Q499 705 562 647T625 485Q625 381 562 323T383 264H205V0H77ZM205 365H363Q501 365 501 485Q501 604 363 604H205V365Z" />
<glyph unicode="Q" glyph-name="Q" horiz-adv-x="785" d="M584 -213L487 -56Q458 -10 392 -10V-10Q290 -10 214 35T96 161T54 353Q54 464 96 545T214 670T393 715Q496 715 572 671T690 545T732 354Q732 234 683 148T546 22Q589 8 620 -45L693 -161L584 -213ZM393
100Q490 100 544 167T598 353Q598 473 545 539T393 605Q296 605 242 539T188 353Q188 234 242 167T393 100Z" />
<glyph unicode="R" glyph-name="R" horiz-adv-x="686" d="M77 0V705H383Q499 705 562 650T625 494Q625 415 584 364T466 294Q517 278 550 217L668 0H527L405 225Q387 258 363 270T300 282H205V0H77ZM205 377H361Q501 377 501 491Q501 604 361 604H205V377Z" />
<glyph unicode="S" glyph-name="S" horiz-adv-x="631" d="M320 -10Q237 -10 166 11T46 70L85 171Q134 136 192 117T320 98Q399 98 435 124T471 193Q471 228 446 248T358 281L248 304Q60 344 60 497Q60 563 95 612T192 688T335 715Q407 715 470 694T575 633L536
537Q453 607 334 607Q265 607 226 578T187 502Q187 466 211 445T293 411L402 388Q501 367 549 322T598 202Q598 139 564 91T468 17T320 -10Z" />
<glyph unicode="T" glyph-name="T" horiz-adv-x="621" d="M247 0V598H5V705H617V598H375V0H247Z" />
<glyph unicode="U" glyph-name="U" horiz-adv-x="738" d="M370 -10Q225 -10 149 65T72 289V705H200V290Q200 195 243 148T370 100Q539 100 539 290V705H666V289Q666 141 591 66T370 -10Z" />
<glyph unicode="V" glyph-name="V" horiz-adv-x="713" d="M303 0L-11 705H126L359 164L592 705H724L410 0H303Z" />
<glyph unicode="W" glyph-name="W" horiz-adv-x="1113" d="M271 0L22 705H154L329 185L513 705H608L788 178L968 705H1093L842 0H736L557 509L377 0H271Z" />
<glyph unicode="X" glyph-name="X" horiz-adv-x="672" d="M-6 0L263 359L4 705H153L336 452L519 705H669L410 359L678 0H528L336 264L145 0H-6Z" />
<glyph unicode="Y" glyph-name="Y" horiz-adv-x="618" d="M245 0V324L-26 705H123L311 438L500 705H643L373 323V0H245Z" />
<glyph unicode="Z" glyph-name="Z" horiz-adv-x="605" d="M47 0V94L419 598H47V705H569V611L197 107H584V0H47Z" />
<glyph unicode="[" glyph-name="bracketleft" horiz-adv-x="354" d="M106 -180V705H342V611H231V-86H342V-180H106Z" />
<glyph unicode="\" glyph-name="backslash" horiz-adv-x="313" d="M239 -71L-20 732L74 760L333 -43L239 -71Z" />
<glyph unicode="]" glyph-name="bracketright" horiz-adv-x="354" d="M12 -180V-86H123V611H12V705H248V-180H12Z" />
<glyph unicode="^" glyph-name="asciicircum" horiz-adv-x="600" d="M46 140L253 628H347L554 140H458L300 517L142 140H46Z" />
<glyph unicode="_" glyph-name="underscore" horiz-adv-x="500" d="M20 -75V0H480V-75H20Z" />
<glyph unicode="`" glyph-name="grave" horiz-adv-x="500" d="M208 554L67 757H190L292 554H208Z" />
<glyph unicode="a" glyph-name="a" horiz-adv-x="547" d="M226 -10Q173 -10 132 10T67 66T43 145Q43 199 71 230T162 276T331 290H366V311Q366 361 344 383T270 405Q229 405 186 393T99 354L63 439Q89 457 124 470T199 491T274 499Q381 499 433 450T485 296V0H368V78Q351
37 314 14T226 -10ZM252 76Q301 76 333 110T366 196V218H332Q238 218 202 204T165 151Q165 118 188 97T252 76Z" />
<glyph unicode="b" glyph-name="b" horiz-adv-x="600" d="M347 -10Q293 -10 251 14T187 79V0H65V705H190V417Q212 454 253 476T347 499Q412 499 460 468T535 381T562 245Q562 167 535 110T460 21T347 -10ZM312 85Q368 85 402 125T436 245Q436 325 402 364T312
404Q256 404 222 365T188 245Q188 166 222 126T312 85Z" />
<glyph unicode="c" glyph-name="c" horiz-adv-x="472" d="M291 -10Q214 -10 157 21T69 111T38 247Q38 325 69 381T157 468T291 499Q338 499 384 484T460 442L423 355Q397 378 365 390T302 402Q237 402 202 362T166 246Q166 172 201 130T302 87Q331 87 364 99T423
135L460 47Q430 21 384 6T291 -10Z" />
<glyph unicode="d" glyph-name="d" horiz-adv-x="600" d="M253 -10Q189 -10 141 21T65 109T38 245Q38 324 65 380T140 468T253 499Q305 499 347 476T410 415V705H535V0H413V81Q393 39 350 15T253 -10ZM288 85Q344 85 378 125T412 245Q412 325 378 364T288 404Q232
404 198 365T164 245Q164 166 198 126T288 85Z" />
<glyph unicode="e" glyph-name="e" horiz-adv-x="542" d="M306 -10Q223 -10 163 21T71 109T38 244Q38 320 69 377T156 466T283 499Q387 499 447 433T508 253V216H158Q172 85 308 85Q349 85 390 97T465 137L500 53Q465 24 412 7T306 -10ZM288 414Q233 414 199 380T158
288H404Q400 349 371 381T288 414Z" />
<glyph unicode="f" glyph-name="f" horiz-adv-x="364" d="M98 0V395H4V489H98V490Q98 594 152 647T322 707L371 710L379 618L333 615Q273 611 248 586T223 510V489H356V395H223V0H98Z" />
<glyph unicode="g" glyph-name="g" horiz-adv-x="604" d="M293 -190Q225 -190 166 -175T61 -127L97 -40Q139 -68 187 -81T283 -95Q417 -95 417 34V101Q396 60 353 36T256 12Q190 12 141 42T65 128T38 256Q38 329 65 383T141 468T256 499Q311 499 354 475T417 409V489H539V49Q539
-70 476 -130T293 -190ZM290 107Q348 107 382 147T416 256Q416 325 382 364T290 404Q232 404 198 365T164 256Q164 187 198 147T290 107Z" />
<glyph unicode="h" glyph-name="h" horiz-adv-x="585" d="M65 0V705H190V418Q215 458 257 478T350 499Q523 499 523 298V0H398V292Q398 349 377 375T310 401Q255 401 223 367T190 275V0H65Z" />
<glyph unicode="i" glyph-name="i" horiz-adv-x="255" d="M57 594V716H197V594H57ZM65 0V489H190V0H65Z" />
<glyph unicode="j" glyph-name="j" horiz-adv-x="259" d="M61 594V716H201V594H61ZM-45 -193L-54 -102L-8 -97Q69 -88 69 -7V489H194V9Q194 -89 149 -135T-2 -190L-45 -193Z" />
<glyph unicode="k" glyph-name="k" horiz-adv-x="536" d="M65 0V705H190V281H192L389 489H540L318 255L554 0H401L192 218H190V0H65Z" />
<glyph unicode="l" glyph-name="l" horiz-adv-x="319" d="M235 -10Q148 -10 107 37T65 177V705H190V183Q190 93 266 93Q277 93 288 94T309 98L307 -1Q271 -10 235 -10Z" />
<glyph unicode="m" glyph-name="m" horiz-adv-x="877" d="M67 0V489H189V414Q211 454 250 476T340 499Q450 499 484 403Q507 448 550 473T648 499Q813 499 813 298V0H688V293Q688 349 670 375T607 401Q558 401 530 367T502 271V0H377V293Q377 349 359 375T297
401Q248 401 220 367T192 271V0H67Z" />
<glyph unicode="n" glyph-name="n" horiz-adv-x="585" d="M65 0V489H187V413Q212 455 254 477T350 499Q523 499 523 298V0H398V292Q398 349 377 375T310 401Q255 401 223 367T190 275V0H65Z" />
<glyph unicode="o" glyph-name="o" horiz-adv-x="576" d="M288 -10Q212 -10 156 21T69 109T38 245Q38 323 69 380T156 468T288 499Q364 499 420 468T507 380T538 245Q538 167 507 110T420 21T288 -10ZM288 85Q344 85 378 125T412 245Q412 325 378 364T288 404Q232
404 198 365T164 245Q164 166 198 126T288 85Z" />
<glyph unicode="p" glyph-name="p" horiz-adv-x="600" d="M65 -180V489H187V411Q208 451 250 475T347 499Q411 499 459 468T535 381T562 245Q562 167 535 110T460 21T347 -10Q295 -10 254 12T190 73V-180H65ZM312 85Q368 85 402 125T436 245Q436 325 402 364T312
404Q256 404 222 365T188 245Q188 166 222 126T312 85Z" />
<glyph unicode="q" glyph-name="q" horiz-adv-x="600" d="M410 -180V74Q389 36 347 13T253 -10Q189 -10 141 21T65 109T38 245Q38 324 65 380T140 468T253 499Q307 499 350 475T413 409V489H535V-180H410ZM288 85Q344 85 378 125T412 245Q412 325 378 364T288
404Q232 404 198 365T164 245Q164 166 198 126T288 85Z" />
<glyph unicode="r" glyph-name="r" horiz-adv-x="392" d="M65 0V489H187V403Q223 490 341 499L379 502L387 396L315 389Q192 377 192 263V0H65Z" />
<glyph unicode="s" glyph-name="s" horiz-adv-x="488" d="M244 -10Q182 -10 128 5T38 48L70 130Q107 105 153 92T245 78Q293 78 316 94T340 138Q340 180 278 192L178 211Q51 235 51 343Q51 391 77 426T151 480T259 499Q311 499 359 485T441 441L407 359Q378 383
338 397T260 411Q211 411 188 394T164 349Q164 305 221 295L321 276Q386 264 419 232T453 146Q453 73 396 32T244 -10Z" />
<glyph unicode="t" glyph-name="t" horiz-adv-x="384" d="M289 -10Q95 -10 95 182V395H1V489H95V635H220V489H368V395H220V189Q220 141 241 117T309 93Q323 93 338 96T369 104L388 12Q370 2 343 -4T289 -10Z" />
<glyph unicode="u" glyph-name="u" horiz-adv-x="579" d="M242 -10Q62 -10 62 192V489H187V190Q187 138 208 113T275 88Q325 88 357 122T389 214V489H514V0H392V73Q343 -10 242 -10Z" />
<glyph unicode="v" glyph-name="v" horiz-adv-x="527" d="M209 0L-3 489H130L266 147L407 489H532L317 0H209Z" />
<glyph unicode="w" glyph-name="w" horiz-adv-x="853" d="M200 0L7 489H135L260 145L386 489H474L600 143L725 489H846L654 0H545L426 315L309 0H200Z" />
<glyph unicode="x" glyph-name="x" horiz-adv-x="546" d="M-3 0L202 253L10 489H156L274 338L392 489H538L345 252L551 0H404L273 165L143 0H-3Z" />
<glyph unicode="y" glyph-name="y" horiz-adv-x="526" d="M109 -180L199 20L-4 489H129L266 147L406 489H532L238 -180H109Z" />
<glyph unicode="z" glyph-name="z" horiz-adv-x="474" d="M49 0V81L301 395H49V489H437V408L185 94H448V0H49Z" />
<glyph unicode="{" glyph-name="braceleft" horiz-adv-x="391" d="M264 -180Q206 -180 175 -149T143 -59V135Q143 176 129 193T79 214L43 217V308L79 311Q114 314 128 332T143 390V584Q143 642 174 673T264 705H379V611H311Q268 611 268 567V375Q268 334 246 302T190
262Q223 255 245 223T268 150V-42Q268 -86 311 -86H379V-180H264Z" />
<glyph unicode="|" glyph-name="bar" horiz-adv-x="289" d="M82 -180V705H207V-180H82Z" />
<glyph unicode="}" glyph-name="braceright" horiz-adv-x="391" d="M12 -180V-86H81Q123 -86 123 -42V150Q123 191 146 223T202 262Q169 270 146 302T123 375V567Q123 611 81 611H12V705H127Q185 705 216 674T248 584V390Q248 350 262 332T312 311L348 308V217L312
214Q277 211 263 194T248 135V-59Q248 -117 217 -148T127 -180H12Z" />
<glyph unicode="~" glyph-name="asciitilde" horiz-adv-x="600" d="M410 209Q387 209 360 217T292 247Q255 267 233 274T195 282Q144 282 123 223L56 261Q74 310 109 338T191 366Q215 366 242 358T308 329Q376 293 405 293Q456 293 480 352L544 313Q527 265 491
237T410 209Z" />
<glyph unicode="&#xa0;" glyph-name="uni00A0" horiz-adv-x="270" />
<glyph unicode="&#xa1;" glyph-name="exclamdown" horiz-adv-x="248" d="M54 350V489H194V350H54ZM47 -180L86 280H162L201 -180H47Z" />
<glyph unicode="&#xa2;" glyph-name="cent" horiz-adv-x="600" d="M271 -115V-2Q184 18 133 84T82 245Q82 306 105 356T171 440T271 487V609H371V493Q415 489 454 474T518 434L483 348Q455 371 420 384T349 398Q284 398 247 356T210 247Q210 179 246 136T348 93Q384
93 419 106T483 143L518 57Q492 34 454 17T371 -5V-115H271Z" />
<glyph unicode="&#xa3;" glyph-name="sterling" horiz-adv-x="600" d="M44 0V105H128V310H44V398H128V497Q128 596 186 655T364 715Q423 715 480 696T575 642L531 549Q496 583 454 597T370 612Q312 612 284 584T256 502V398H422V310H256V105H561V0H44Z" />
<glyph unicode="&#xa4;" glyph-name="currency" horiz-adv-x="600" d="M82 -30L31 22L104 97Q82 128 70 166T57 245Q57 287 69 325T104 394L31 469L82 520L156 445Q186 468 222 480T299 493Q339 493 375 481T441 446L514 522L568 467L494 392Q540 328 540 245Q540
204 528 167T493 97L567 22L516 -29L443 46Q413 23 377 10T299 -3Q259 -3 222 10T155 45L82 -30ZM299 98Q337 98 368 118T418 171T437 245Q437 286 419 319T369 373T299 393Q261 393 229 373T179 320T160 245Q160 205 178 172T228 118T299 98Z" />
<glyph unicode="&#xa5;" glyph-name="yen" horiz-adv-x="600" d="M236 0V159H68V247H236V315H68V403H194L-16 705H124L300 442L477 705H616L407 403H532V315H364V247H532V159H364V0H236Z" />
<glyph unicode="&#xa6;" glyph-name="brokenbar" horiz-adv-x="289" d="M82 372V705H207V372H82ZM82 -180V154H207V-180H82Z" />
<glyph unicode="&#xa7;" glyph-name="section" horiz-adv-x="569" d="M263 -190Q196 -190 140 -174T48 -129L83 -44Q115 -69 165 -85T263 -101Q313 -101 343 -79T374 -14Q374 15 358 37T299 78L173 135Q97 170 66 211T35 308Q35 348 52 383T101 445Q89 461 83
482T76 530Q76 588 105 629T185 692T304 715Q368 715 420 700T506 657L471 575Q438 598 392 612T304 626Q256 626 226 603T196 539Q196 510 212 489T271 447L397 390Q473 356 504 315T535 217Q535 177 518 142T469 80Q481 64 487 43T494 -5Q494 -62 465 -103T384
-167T263 -190ZM146 330Q146 299 166 274T236 225L345 175Q364 166 379 157T406 137Q424 163 424 195Q424 227 404 252T334 300L225 350Q206 359 191 368T164 388Q146 362 146 330Z" />
<glyph unicode="&#xa8;" glyph-name="dieresis" horiz-adv-x="500" d="M286 597V712H402V597H286ZM98 597V712H214V597H98Z" />
<glyph unicode="&#xa9;" glyph-name="copyright" horiz-adv-x="815" d="M408 -10Q331 -10 265 17T150 94T73 210T45 353Q45 430 72 496T149 611T265 687T408 715Q485 715 551 688T666 611T742 496T770 353Q770 276 743 210T666 95T551 18T408 -10ZM408 43Q496
43 565 84T674 195T714 353Q714 441 674 511T565 621T408 662Q320 662 251 622T141 511T101 353Q101 265 141 195T250 84T408 43ZM426 137Q326 137 268 196T209 354Q209 454 267 511T426 568Q466 568 505 556T570 520L539 444Q493 484 434 484Q379 484 347 450T315
354Q315 292 347 257T434 221Q462 221 489 231T539 261L570 186Q545 164 505 151T426 137Z" />
<glyph unicode="&#xaa;" glyph-name="ordfeminine" horiz-adv-x="339" d="M135 408Q85 408 54 435T22 502Q22 549 63 569T185 589H228V600Q228 654 162 654Q137 654 109 648T56 627L36 684Q61 699 97 707T168 715Q308 715 308 596V414H231V469H229Q213 438 191
423T135 408ZM156 463Q187 463 207 484T228 542V545H188Q143 545 123 535T103 504Q103 487 115 475T156 463Z" />
<glyph unicode="&#xab;" glyph-name="guillemotleft" horiz-adv-x="494" d="M163 74L62 235V297L161 458L245 420L172 266L245 111L163 74ZM370 74L269 235V297L368 458L452 420L379 266L452 111L370 74Z" />
<glyph unicode="&#xac;" glyph-name="logicalnot" horiz-adv-x="600" d="M452 140V344H56V432H544V140H452Z" />
<glyph unicode="&#xad;" glyph-name="uni00AD" horiz-adv-x="434" d="M68 218V318H366V218H68Z" />
<glyph unicode="&#xae;" glyph-name="registered" horiz-adv-x="815" d="M408 -10Q331 -10 265 17T150 94T73 210T45 353Q45 430 72 496T149 611T265 687T408 715Q485 715 551 688T666 611T742 496T770 353Q770 276 743 210T666 95T551 18T408 -10ZM408 43Q496
43 565 84T674 195T714 353Q714 441 674 511T565 621T408 662Q320 662 251 622T141 511T101 353Q101 265 141 195T250 84T408 43ZM253 142V565H436Q507 565 544 531T582 440Q582 395 560 367T496 327Q514 321 527 305T549 257L587 142H489L450 267Q443 289 428
296T393 304H349V142H253ZM348 376H423Q491 376 491 435Q491 493 423 493H348V376Z" />
<glyph unicode="&#xaf;" glyph-name="overscore" horiz-adv-x="500" d="M93 616V690H408V616H93Z" />
<glyph unicode="&#xb0;" glyph-name="degree" horiz-adv-x="379" d="M190 406Q145 406 110 426T54 482T33 561Q33 605 53 639T109 694T190 715Q235 715 270 695T325 640T346 561Q346 517 326 482T270 426T190 406ZM190 477Q225 477 247 501T269 561Q269 596 247
620T190 644Q155 644 133 620T110 561Q110 525 132 501T190 477Z" />
<glyph unicode="&#xb1;" glyph-name="plusminus" horiz-adv-x="600" d="M254 139V291H56V379H254V531H346V379H544V291H346V139H254ZM56 0V88H544V0H56Z" />
<glyph unicode="&#xb2;" glyph-name="uni00B2" horiz-adv-x="380" d="M48 282V355L172 485Q197 511 207 532T218 574Q218 626 160 626Q136 626 110 616T64 585L30 657Q56 681 98 695T183 709Q249 709 287 677T326 588Q326 555 311 524T260 457L172 366H347V282H48Z" />
<glyph unicode="&#xb3;" glyph-name="uni00B3" horiz-adv-x="380" d="M185 277Q133 277 93 291T25 330L59 401Q102 360 173 360Q206 360 225 373T244 412Q244 435 227 444T179 453H96V537H167Q198 537 215 547T232 581Q232 601 216 613T167 626Q107 626 64 585L30
657Q56 681 97 695T185 709Q252 709 291 679T330 598Q330 564 312 539T264 501Q300 491 321 465T342 399Q342 342 298 310T185 277Z" />
<glyph unicode="&#xb4;" glyph-name="acute" horiz-adv-x="500" d="M208 554L311 757H434L292 554H208Z" />
<glyph unicode="&#xb5;" glyph-name="uni00B5" horiz-adv-x="600" d="M75 -180V489H200V191Q200 90 287 90Q338 90 370 124T402 215V489H527V0H405V87Q390 40 358 15T285 -10Q253 -10 230 0T191 36L200 -180H75Z" />
<glyph unicode="&#xb6;" glyph-name="paragraph" horiz-adv-x="625" d="M249 -180V282Q185 282 137 309T63 383T36 494Q36 557 62 604T137 678T251 705H548V-180H457V616H340V-180H249Z" />
<glyph unicode="&#xb7;" glyph-name="middot" horiz-adv-x="248" d="M54 198V337H194V198H54Z" />
<glyph unicode="&#xb8;" glyph-name="cedilla" horiz-adv-x="500" d="M251 -195Q222 -195 195 -190T149 -174L167 -118Q185 -126 202 -130T241 -135Q295 -135 295 -105Q295 -82 258 -82Q248 -82 239 -83T217 -88L198 -70L211 20H278L268 -38Q274 -37 279 -37Q320
-37 345 -56T370 -109Q370 -148 337 -171T251 -195Z" />
<glyph unicode="&#xb9;" glyph-name="uni00B9" horiz-adv-x="380" d="M66 282V366H166V593L88 549L47 623L193 705H266V366H346V282H66Z" />
<glyph unicode="&#xba;" glyph-name="ordmasculine" horiz-adv-x="353" d="M177 409Q109 409 64 451T19 563Q19 633 64 674T177 715Q245 715 289 674T334 563Q334 493 290 451T177 409ZM177 472Q211 472 231 495T251 563Q251 607 231 630T177 653Q143 653 123
631T102 563Q102 518 122 495T177 472Z" />
<glyph unicode="&#xbb;" glyph-name="guillemotright" horiz-adv-x="494" d="M125 74L42 111L116 266L42 420L126 458L226 297V235L125 74ZM332 74L249 111L323 266L249 420L333 458L433 297V235L332 74Z" />
<glyph unicode="&#xbc;" glyph-name="onequarter" horiz-adv-x="911" d="M66 282V366H166V593L88 549L47 623L193 705H266V366H346V282H66ZM318 -28L238 20L651 733L731 685L318 -28ZM742 0V71H554V140L749 423H842V155H893V71H842V0H742ZM742 155V287L652 155H742Z" />
<glyph unicode="&#xbd;" glyph-name="onehalf" horiz-adv-x="959" d="M66 282V366H166V593L88 549L47 623L193 705H266V366H346V282H66ZM318 -28L238 20L651 733L731 685L318 -28ZM627 0V73L751 203Q776 229 786 250T797 292Q797 344 739 344Q715 344 689 334T643
303L609 375Q635 399 677 413T762 427Q828 427 866 395T905 306Q905 273 890 242T839 175L751 84H926V0H627Z" />
<glyph unicode="&#xbe;" glyph-name="threequarters" horiz-adv-x="911" d="M185 277Q133 277 93 291T25 330L59 401Q102 360 173 360Q206 360 225 373T244 412Q244 435 227 444T179 453H96V537H167Q198 537 215 547T232 581Q232 601 216 613T167 626Q107 626
64 585L30 657Q56 681 97 695T185 709Q252 709 291 679T330 598Q330 564 312 539T264 501Q300 491 321 465T342 399Q342 342 298 310T185 277ZM318 -28L238 20L651 733L731 685L318 -28ZM742 0V71H554V140L749 423H842V155H893V71H842V0H742ZM742 155V287L652 155H742Z"
/>
<glyph unicode="&#xbf;" glyph-name="questiondown" horiz-adv-x="459" d="M169 350V489H308V350H169ZM226 -190Q132 -190 74 -147T16 -34Q16 9 36 46T108 127Q155 166 173 195T196 254L201 280H276V244Q276 202 260 165T200 86Q167 55 155 33T143 -14Q143 -45
167 -63T234 -82Q332 -82 415 -17L458 -112Q416 -148 354 -169T226 -190Z" />
<glyph unicode="&#xc0;" glyph-name="Agrave" horiz-adv-x="744" d="M1 0L320 705H425L744 0H614L544 163H200L131 0H1ZM371 566L244 265H500L373 566H371ZM329 765L169 939H300L418 765H329Z" />
<glyph unicode="&#xc1;" glyph-name="Aacute" horiz-adv-x="744" d="M1 0L320 705H425L744 0H614L544 163H200L131 0H1ZM371 566L244 265H500L373 566H371ZM329 765L447 939H577L418 765H329Z" />
<glyph unicode="&#xc2;" glyph-name="Acircumflex" horiz-adv-x="744" d="M1 0L320 705H425L744 0H614L544 163H200L131 0H1ZM371 566L244 265H500L373 566H371ZM195 765L319 939H427L551 765H463L373 869L283 765H195Z" />
<glyph unicode="&#xc3;" glyph-name="Atilde" horiz-adv-x="744" d="M1 0L320 705H425L744 0H614L544 163H200L131 0H1ZM371 566L244 265H500L373 566H371ZM212 772L150 776Q156 847 192 885T284 924Q309 924 333 915T388 888Q420 869 436 864T465 858Q522 858
534 928L596 924Q591 853 555 815T463 776Q438 776 412 786T357 813Q329 830 312 836T281 842Q226 842 212 772Z" />
<glyph unicode="&#xc4;" glyph-name="Adieresis" horiz-adv-x="744" d="M1 0L320 705H425L744 0H614L544 163H200L131 0H1ZM371 566L244 265H500L373 566H371ZM409 790V905H525V790H409ZM221 790V905H337V790H221Z" />
<glyph unicode="&#xc5;" glyph-name="Aring" horiz-adv-x="744" d="M1 0L320 705H425L744 0H614L544 163H200L131 0H1ZM371 566L244 265H500L373 566H371ZM373 755Q338 755 309 771T264 816T247 878Q247 930 283 965T373 1000Q426 1000 462 965T499 878Q499 844
483 816T438 772T373 755ZM373 812Q402 812 420 831T438 878Q438 906 420 924T373 943Q345 943 327 925T308 878Q308 850 326 831T373 812Z" />
<glyph unicode="&#xc6;" glyph-name="AE" horiz-adv-x="992" d="M-36 0L402 705H941V603H540L582 409H920V307H605L649 102H941V0H556L521 163H197L100 0H-36ZM433 562L256 265H499L435 562H433Z" />
<glyph unicode="&#xc7;" glyph-name="Ccedilla" horiz-adv-x="679" d="M405 -10Q295 -10 217 34T96 160T54 353Q54 464 96 545T216 670T405 715Q476 715 539 693T644 630L602 528Q557 566 510 583T409 601Q302 601 246 537T190 353Q190 234 246 169T409 104Q463
104 510 121T602 177L644 75Q603 35 540 13T405 -10ZM392 -195Q363 -195 336 -190T290 -174L308 -118Q326 -126 343 -130T382 -135Q436 -135 436 -105Q436 -82 399 -82Q389 -82 380 -83T358 -88L339 -70L352 20H419L409 -38Q415 -37 420 -37Q461 -37 486 -56T511
-109Q511 -148 478 -171T392 -195Z" />
<glyph unicode="&#xc8;" glyph-name="Egrave" horiz-adv-x="597" d="M77 0V705H546V603H200V409H524V307H200V102H546V0H77ZM284 765L124 939H255L373 765H284Z" />
<glyph unicode="&#xc9;" glyph-name="Eacute" horiz-adv-x="597" d="M77 0V705H546V603H200V409H524V307H200V102H546V0H77ZM284 765L402 939H532L373 765H284Z" />
<glyph unicode="&#xca;" glyph-name="Ecircumflex" horiz-adv-x="597" d="M77 0V705H546V603H200V409H524V307H200V102H546V0H77ZM150 765L274 939H382L506 765H418L328 869L238 765H150Z" />
<glyph unicode="&#xcb;" glyph-name="Edieresis" horiz-adv-x="597" d="M77 0V705H546V603H200V409H524V307H200V102H546V0H77ZM364 790V905H480V790H364ZM176 790V905H292V790H176Z" />
<glyph unicode="&#xcc;" glyph-name="Igrave" horiz-adv-x="281" d="M77 0V705H205V0H77ZM97 765L-63 939H68L186 765H97Z" />
<glyph unicode="&#xcd;" glyph-name="Iacute" horiz-adv-x="281" d="M77 0V705H205V0H77ZM97 765L215 939H345L186 765H97Z" />
<glyph unicode="&#xce;" glyph-name="Icircumflex" horiz-adv-x="281" d="M77 0V705H205V0H77ZM-37 765L87 939H195L319 765H231L141 869L51 765H-37Z" />
<glyph unicode="&#xcf;" glyph-name="Idieresis" horiz-adv-x="281" d="M77 0V705H205V0H77ZM177 790V905H293V790H177ZM-11 790V905H105V790H-11Z" />
<glyph unicode="&#xd0;" glyph-name="Eth" horiz-adv-x="762" d="M77 0V705H339Q516 705 612 614T709 353Q709 184 613 92T339 0H77ZM205 106H331Q575 106 575 353Q575 599 331 599H205V106ZM-10 310V404H394V310H-10Z" />
<glyph unicode="&#xd1;" glyph-name="Ntilde" horiz-adv-x="748" d="M77 0V705H173L552 213V705H671V0H576L196 494V0H77ZM213 772L151 776Q157 847 193 885T285 924Q310 924 334 915T389 888Q421 869 437 864T466 858Q523 858 535 928L597 924Q592 853 556 815T464
776Q439 776 413 786T358 813Q330 830 313 836T282 842Q227 842 213 772Z" />
<glyph unicode="&#xd2;" glyph-name="Ograve" horiz-adv-x="785" d="M393 -10Q291 -10 215 35T96 161T54 353Q54 464 96 545T214 670T393 715Q496 715 572 671T690 545T732 354Q732 243 690 162T572 35T393 -10ZM393 100Q490 100 544 167T598 353Q598 473 545
539T393 605Q296 605 242 539T188 353Q188 234 242 167T393 100ZM348 765L188 939H319L437 765H348Z" />
<glyph unicode="&#xd3;" glyph-name="Oacute" horiz-adv-x="785" d="M393 -10Q291 -10 215 35T96 161T54 353Q54 464 96 545T214 670T393 715Q496 715 572 671T690 545T732 354Q732 243 690 162T572 35T393 -10ZM393 100Q490 100 544 167T598 353Q598 473 545
539T393 605Q296 605 242 539T188 353Q188 234 242 167T393 100ZM348 765L466 939H596L437 765H348Z" />
<glyph unicode="&#xd4;" glyph-name="Ocircumflex" horiz-adv-x="785" d="M393 -10Q291 -10 215 35T96 161T54 353Q54 464 96 545T214 670T393 715Q496 715 572 671T690 545T732 354Q732 243 690 162T572 35T393 -10ZM393 100Q490 100 544 167T598 353Q598 473
545 539T393 605Q296 605 242 539T188 353Q188 234 242 167T393 100ZM214 765L338 939H446L570 765H482L392 869L302 765H214Z" />
<glyph unicode="&#xd5;" glyph-name="Otilde" horiz-adv-x="785" d="M393 -10Q291 -10 215 35T96 161T54 353Q54 464 96 545T214 670T393 715Q496 715 572 671T690 545T732 354Q732 243 690 162T572 35T393 -10ZM393 100Q490 100 544 167T598 353Q598 473 545
539T393 605Q296 605 242 539T188 353Q188 234 242 167T393 100ZM231 772L169 776Q175 847 211 885T303 924Q328 924 352 915T407 888Q439 869 455 864T484 858Q541 858 553 928L615 924Q610 853 574 815T482 776Q457 776 431 786T376 813Q348 830 331 836T300
842Q245 842 231 772Z" />
<glyph unicode="&#xd6;" glyph-name="Odieresis" horiz-adv-x="785" d="M393 -10Q291 -10 215 35T96 161T54 353Q54 464 96 545T214 670T393 715Q496 715 572 671T690 545T732 354Q732 243 690 162T572 35T393 -10ZM393 100Q490 100 544 167T598 353Q598 473 545
539T393 605Q296 605 242 539T188 353Q188 234 242 167T393 100ZM428 790V905H544V790H428ZM240 790V905H356V790H240Z" />
<glyph unicode="&#xd7;" glyph-name="multiply" horiz-adv-x="600" d="M128 52L66 113L238 285L66 457L128 520L300 348L472 520L534 457L362 285L534 113L472 52L300 224L128 52Z" />
<glyph unicode="&#xd8;" glyph-name="Oslash" horiz-adv-x="785" d="M393 -10Q291 -10 215 35T96 161T54 353Q54 464 96 545T214 670T393 715Q496 715 572 671T690 545T732 354Q732 243 690 162T572 35T393 -10ZM393 100Q490 100 544 167T598 353Q598 473 545
539T393 605Q296 605 242 539T188 353Q188 234 242 167T393 100ZM209 -60L125 -11L189 98L225 158L488 609L514 657L577 765L661 716L597 607L561 547L298 97L272 49L209 -60Z" />
<glyph unicode="&#xd9;" glyph-name="Ugrave" horiz-adv-x="738" d="M370 -10Q225 -10 149 65T72 289V705H200V290Q200 195 243 148T370 100Q539 100 539 290V705H666V289Q666 141 591 66T370 -10ZM326 765L166 939H297L415 765H326Z" />
<glyph unicode="&#xda;" glyph-name="Uacute" horiz-adv-x="738" d="M370 -10Q225 -10 149 65T72 289V705H200V290Q200 195 243 148T370 100Q539 100 539 290V705H666V289Q666 141 591 66T370 -10ZM326 765L444 939H574L415 765H326Z" />
<glyph unicode="&#xdb;" glyph-name="Ucircumflex" horiz-adv-x="738" d="M370 -10Q225 -10 149 65T72 289V705H200V290Q200 195 243 148T370 100Q539 100 539 290V705H666V289Q666 141 591 66T370 -10ZM192 765L316 939H424L548 765H460L370 869L280 765H192Z" />
<glyph unicode="&#xdc;" glyph-name="Udieresis" horiz-adv-x="738" d="M370 -10Q225 -10 149 65T72 289V705H200V290Q200 195 243 148T370 100Q539 100 539 290V705H666V289Q666 141 591 66T370 -10ZM406 790V905H522V790H406ZM218 790V905H334V790H218Z" />
<glyph unicode="&#xdd;" glyph-name="Yacute" horiz-adv-x="618" d="M245 0V324L-26 705H123L311 438L500 705H643L373 323V0H245ZM265 765L383 939H513L354 765H265Z" />
<glyph unicode="&#xde;" glyph-name="Thorn" horiz-adv-x="654" d="M77 0V705H205V587H385Q501 587 564 529T627 367Q627 263 564 205T385 146H205V0H77ZM205 247H365Q503 247 503 367Q503 486 365 486H205V247Z" />
<glyph unicode="&#xdf;" glyph-name="germandbls" horiz-adv-x="653" d="M436 -10Q382 -10 330 6T240 53L276 137Q314 110 357 97T438 83Q475 83 496 98T517 142Q517 165 497 180T422 212Q343 236 311 269T279 351Q279 383 293 412T351 482Q377 507 387 525T398
565Q398 592 379 608T321 624Q257 624 224 586T190 478V0H65V459Q65 582 131 648T322 715Q414 715 465 678T516 576Q516 541 501 511T448 446Q416 416 405 400T394 366Q394 345 414 330T492 297Q566 275 598 239T631 149Q631 77 578 34T436 -10Z" />
<glyph unicode="&#xe0;" glyph-name="agrave" horiz-adv-x="547" d="M226 -10Q173 -10 132 10T67 66T43 145Q43 199 71 230T162 276T331 290H366V311Q366 361 344 383T270 405Q229 405 186 393T99 354L63 439Q89 457 124 470T199 491T274 499Q381 499 433 450T485
296V0H368V78Q351 37 314 14T226 -10ZM252 76Q301 76 333 110T366 196V218H332Q238 218 202 204T165 151Q165 118 188 97T252 76ZM237 554L96 757H219L321 554H237Z" />
<glyph unicode="&#xe1;" glyph-name="aacute" horiz-adv-x="547" d="M226 -10Q173 -10 132 10T67 66T43 145Q43 199 71 230T162 276T331 290H366V311Q366 361 344 383T270 405Q229 405 186 393T99 354L63 439Q89 457 124 470T199 491T274 499Q381 499 433 450T485
296V0H368V78Q351 37 314 14T226 -10ZM252 76Q301 76 333 110T366 196V218H332Q238 218 202 204T165 151Q165 118 188 97T252 76ZM237 554L340 757H463L321 554H237Z" />
<glyph unicode="&#xe2;" glyph-name="acircumflex" horiz-adv-x="547" d="M226 -10Q173 -10 132 10T67 66T43 145Q43 199 71 230T162 276T331 290H366V311Q366 361 344 383T270 405Q229 405 186 393T99 354L63 439Q89 457 124 470T199 491T274 499Q381 499 433
450T485 296V0H368V78Q351 37 314 14T226 -10ZM252 76Q301 76 333 110T366 196V218H332Q238 218 202 204T165 151Q165 118 188 97T252 76ZM114 554L224 757H334L444 554H364L279 686L194 554H114Z" />
<glyph unicode="&#xe3;" glyph-name="atilde" horiz-adv-x="547" d="M226 -10Q173 -10 132 10T67 66T43 145Q43 199 71 230T162 276T331 290H366V311Q366 361 344 383T270 405Q229 405 186 393T99 354L63 439Q89 457 124 470T199 491T274 499Q381 499 433 450T485
296V0H368V78Q351 37 314 14T226 -10ZM252 76Q301 76 333 110T366 196V218H332Q238 218 202 204T165 151Q165 118 188 97T252 76ZM147 584L85 588Q90 657 122 696T205 736Q228 736 246 727T289 699Q311 683 324 677T350 670Q401 670 411 740L473 736Q469 667 437
628T354 588Q333 588 315 596T269 625Q232 654 209 654Q159 654 147 584Z" />
<glyph unicode="&#xe4;" glyph-name="adieresis" horiz-adv-x="547" d="M226 -10Q173 -10 132 10T67 66T43 145Q43 199 71 230T162 276T331 290H366V311Q366 361 344 383T270 405Q229 405 186 393T99 354L63 439Q89 457 124 470T199 491T274 499Q381 499 433 450T485
296V0H368V78Q351 37 314 14T226 -10ZM252 76Q301 76 333 110T366 196V218H332Q238 218 202 204T165 151Q165 118 188 97T252 76ZM315 597V712H431V597H315ZM127 597V712H243V597H127Z" />
<glyph unicode="&#xe5;" glyph-name="aring" horiz-adv-x="547" d="M226 -10Q173 -10 132 10T67 66T43 145Q43 199 71 230T162 276T331 290H366V311Q366 361 344 383T270 405Q229 405 186 393T99 354L63 439Q89 457 124 470T199 491T274 499Q381 499 433 450T485
296V0H368V78Q351 37 314 14T226 -10ZM252 76Q301 76 333 110T366 196V218H332Q238 218 202 204T165 151Q165 118 188 97T252 76ZM279 546Q244 546 215 562T170 607T153 669Q153 721 189 756T279 791Q332 791 368 756T405 669Q405 635 389 607T344 563T279 546ZM279
603Q308 603 326 622T344 669Q344 697 326 715T279 734Q251 734 233 716T214 669Q214 641 232 622T279 603Z" />
<glyph unicode="&#xe6;" glyph-name="ae" horiz-adv-x="865" d="M236 -10Q178 -10 135 10T67 66T43 145Q43 199 71 230T162 276T334 290H366V311Q366 361 344 383T271 405Q229 405 186 393T99 354L63 439Q89 457 124 470T199 491T275 499Q398 499 442 422Q471
460 516 479T609 499Q711 499 771 433T831 253V218H487Q500 85 633 85Q718 85 788 138L823 53Q788 24 736 7T631 -10Q557 -10 501 17T416 99Q394 47 348 19T236 -10ZM612 414Q560 414 528 382T488 290H727Q723 350 694 382T612 414ZM253 76Q303 76 334 110T366
200V218H332Q238 218 202 204T165 151Q165 118 188 97T253 76Z" />
<glyph unicode="&#xe7;" glyph-name="ccedilla" horiz-adv-x="472" d="M291 -10Q214 -10 157 21T69 111T38 247Q38 325 69 381T157 468T291 499Q338 499 384 484T460 442L423 355Q397 378 365 390T302 402Q237 402 202 362T166 246Q166 172 201 130T302 87Q331
87 364 99T423 135L460 47Q430 21 384 6T291 -10ZM284 -195Q255 -195 228 -190T182 -174L200 -118Q218 -126 235 -130T274 -135Q328 -135 328 -105Q328 -82 291 -82Q281 -82 272 -83T250 -88L231 -70L244 20H311L301 -38Q307 -37 312 -37Q353 -37 378 -56T403 -109Q403
-148 370 -171T284 -195Z" />
<glyph unicode="&#xe8;" glyph-name="egrave" horiz-adv-x="542" d="M306 -10Q223 -10 163 21T71 109T38 244Q38 320 69 377T156 466T283 499Q387 499 447 433T508 253V216H158Q172 85 308 85Q349 85 390 97T465 137L500 53Q465 24 412 7T306 -10ZM288 414Q233
414 199 380T158 288H404Q400 349 371 381T288 414ZM242 554L101 757H224L326 554H242Z" />
<glyph unicode="&#xe9;" glyph-name="eacute" horiz-adv-x="542" d="M306 -10Q223 -10 163 21T71 109T38 244Q38 320 69 377T156 466T283 499Q387 499 447 433T508 253V216H158Q172 85 308 85Q349 85 390 97T465 137L500 53Q465 24 412 7T306 -10ZM288 414Q233
414 199 380T158 288H404Q400 349 371 381T288 414ZM242 554L345 757H468L326 554H242Z" />
<glyph unicode="&#xea;" glyph-name="ecircumflex" horiz-adv-x="542" d="M306 -10Q223 -10 163 21T71 109T38 244Q38 320 69 377T156 466T283 499Q387 499 447 433T508 253V216H158Q172 85 308 85Q349 85 390 97T465 137L500 53Q465 24 412 7T306 -10ZM288 414Q233
414 199 380T158 288H404Q400 349 371 381T288 414ZM119 554L229 757H339L449 554H369L284 686L199 554H119Z" />
<glyph unicode="&#xeb;" glyph-name="edieresis" horiz-adv-x="542" d="M306 -10Q223 -10 163 21T71 109T38 244Q38 320 69 377T156 466T283 499Q387 499 447 433T508 253V216H158Q172 85 308 85Q349 85 390 97T465 137L500 53Q465 24 412 7T306 -10ZM288 414Q233
414 199 380T158 288H404Q400 349 371 381T288 414ZM320 597V712H436V597H320ZM132 597V712H248V597H132Z" />
<glyph unicode="&#xec;" glyph-name="igrave" horiz-adv-x="255" d="M65 0V489H190V0H65ZM85 554L-56 757H67L169 554H85Z" />
<glyph unicode="&#xed;" glyph-name="iacute" horiz-adv-x="255" d="M65 0V489H190V0H65ZM85 554L188 757H311L169 554H85Z" />
<glyph unicode="&#xee;" glyph-name="icircumflex" horiz-adv-x="255" d="M65 0V489H190V0H65ZM-38 554L72 757H182L292 554H212L127 686L42 554H-38Z" />
<glyph unicode="&#xef;" glyph-name="idieresis" horiz-adv-x="255" d="M65 0V489H190V0H65ZM163 597V712H279V597H163ZM-25 597V712H91V597H-25Z" />
<glyph unicode="&#xf0;" glyph-name="eth" horiz-adv-x="580" d="M283 -10Q210 -10 155 19T69 101T38 222Q38 290 68 341T150 421T272 450Q316 450 353 437T416 393Q402 447 372 488T305 556L138 480L105 552L221 605Q204 612 181 620T131 634L154 715Q207 704
250 688T327 653L464 715L497 643L402 600Q469 542 506 462T543 288Q543 147 476 69T283 -10ZM287 86Q346 86 378 123T411 222Q411 284 379 320T287 356Q230 356 197 320T164 222Q164 158 196 122T287 86Z" />
<glyph unicode="&#xf1;" glyph-name="ntilde" horiz-adv-x="585" d="M65 0V489H187V413Q212 455 254 477T350 499Q523 499 523 298V0H398V292Q398 349 377 375T310 401Q255 401 223 367T190 275V0H65ZM162 584L100 588Q105 657 137 696T220 736Q243 736 261 727T304
699Q326 683 339 677T365 670Q416 670 426 740L488 736Q484 667 452 628T369 588Q348 588 330 596T284 625Q247 654 224 654Q174 654 162 584Z" />
<glyph unicode="&#xf2;" glyph-name="ograve" horiz-adv-x="576" d="M288 -10Q212 -10 156 21T69 109T38 245Q38 323 69 380T156 468T288 499Q364 499 420 468T507 380T538 245Q538 167 507 110T420 21T288 -10ZM288 85Q344 85 378 125T412 245Q412 325 378 364T288
404Q232 404 198 365T164 245Q164 166 198 126T288 85ZM246 554L105 757H228L330 554H246Z" />
<glyph unicode="&#xf3;" glyph-name="oacute" horiz-adv-x="576" d="M288 -10Q212 -10 156 21T69 109T38 245Q38 323 69 380T156 468T288 499Q364 499 420 468T507 380T538 245Q538 167 507 110T420 21T288 -10ZM288 85Q344 85 378 125T412 245Q412 325 378 364T288
404Q232 404 198 365T164 245Q164 166 198 126T288 85ZM246 554L349 757H472L330 554H246Z" />
<glyph unicode="&#xf4;" glyph-name="ocircumflex" horiz-adv-x="576" d="M288 -10Q212 -10 156 21T69 109T38 245Q38 323 69 380T156 468T288 499Q364 499 420 468T507 380T538 245Q538 167 507 110T420 21T288 -10ZM288 85Q344 85 378 125T412 245Q412 325 378
364T288 404Q232 404 198 365T164 245Q164 166 198 126T288 85ZM123 554L233 757H343L453 554H373L288 686L203 554H123Z" />
<glyph unicode="&#xf5;" glyph-name="otilde" horiz-adv-x="576" d="M288 -10Q212 -10 156 21T69 109T38 245Q38 323 69 380T156 468T288 499Q364 499 420 468T507 380T538 245Q538 167 507 110T420 21T288 -10ZM288 85Q344 85 378 125T412 245Q412 325 378 364T288
404Q232 404 198 365T164 245Q164 166 198 126T288 85ZM156 584L94 588Q99 657 131 696T214 736Q237 736 255 727T298 699Q320 683 333 677T359 670Q410 670 420 740L482 736Q478 667 446 628T363 588Q342 588 324 596T278 625Q241 654 218 654Q168 654 156 584Z"
/>
<glyph unicode="&#xf6;" glyph-name="odieresis" horiz-adv-x="576" d="M288 -10Q212 -10 156 21T69 109T38 245Q38 323 69 380T156 468T288 499Q364 499 420 468T507 380T538 245Q538 167 507 110T420 21T288 -10ZM288 85Q344 85 378 125T412 245Q412 325 378
364T288 404Q232 404 198 365T164 245Q164 166 198 126T288 85ZM324 597V712H440V597H324ZM136 597V712H252V597H136Z" />
<glyph unicode="&#xf7;" glyph-name="divide" horiz-adv-x="600" d="M242 432V536H346V432H242ZM56 243V331H544V243H56ZM242 38V142H346V38H242Z" />
<glyph unicode="&#xf8;" glyph-name="oslash" horiz-adv-x="576" d="M156 -59L87 -19L123 43Q83 76 61 127T38 245Q38 323 69 380T156 468T288 499Q339 499 382 484L420 549L489 509L452 446Q493 413 515 362T538 245Q538 167 507 110T420 21T288 -10Q237 -10
193 5L156 -59ZM164 245Q164 186 184 147L331 397Q311 404 288 404Q232 404 198 365T164 245ZM288 85Q344 85 378 125T412 245Q412 304 392 343L245 92Q264 85 288 85Z" />
<glyph unicode="&#xf9;" glyph-name="ugrave" horiz-adv-x="579" d="M242 -10Q62 -10 62 192V489H187V190Q187 138 208 113T275 88Q325 88 357 122T389 214V489H514V0H392V73Q343 -10 242 -10ZM247 555L106 758H229L331 555H247Z" />
<glyph unicode="&#xfa;" glyph-name="uacute" horiz-adv-x="579" d="M242 -10Q62 -10 62 192V489H187V190Q187 138 208 113T275 88Q325 88 357 122T389 214V489H514V0H392V73Q343 -10 242 -10ZM247 555L350 758H473L331 555H247Z" />
<glyph unicode="&#xfb;" glyph-name="ucircumflex" horiz-adv-x="579" d="M242 -10Q62 -10 62 192V489H187V190Q187 138 208 113T275 88Q325 88 357 122T389 214V489H514V0H392V73Q343 -10 242 -10ZM124 555L234 758H344L454 555H374L289 687L204 555H124Z" />
<glyph unicode="&#xfc;" glyph-name="udieresis" horiz-adv-x="579" d="M242 -10Q62 -10 62 192V489H187V190Q187 138 208 113T275 88Q325 88 357 122T389 214V489H514V0H392V73Q343 -10 242 -10ZM325 598V713H441V598H325ZM137 598V713H253V598H137Z" />
<glyph unicode="&#xfd;" glyph-name="yacute" horiz-adv-x="526" d="M109 -180L199 20L-4 489H129L266 147L406 489H532L238 -180H109ZM222 554L325 757H448L306 554H222Z" />
<glyph unicode="&#xfe;" glyph-name="thorn" horiz-adv-x="600" d="M65 -180V705H190V417Q212 455 253 477T347 499Q411 499 459 468T535 381T562 245Q562 167 535 110T460 21T347 -10Q295 -10 254 12T190 73V-180H65ZM312 85Q368 85 402 125T436 245Q436 325
402 364T312 404Q256 404 222 365T188 245Q188 166 222 126T312 85Z" />
<glyph unicode="&#xff;" glyph-name="ydieresis" horiz-adv-x="526" d="M109 -180L199 20L-4 489H129L266 147L406 489H532L238 -180H109ZM300 597V712H416V597H300ZM112 597V712H228V597H112Z" />
<glyph unicode="&#x2013;" glyph-name="endash" horiz-adv-x="500" d="M0 230V305H500V230H0Z" />
<glyph unicode="&#x2014;" glyph-name="emdash" horiz-adv-x="1000" d="M0 230V305H1000V230H0Z" />
<glyph unicode="&#x2018;" glyph-name="quoteleft" horiz-adv-x="248" d="M54 441V532Q54 583 72 626T133 713L185 672Q160 647 147 625T130 580H194V441H54Z" />
<glyph unicode="&#x2019;" glyph-name="quoteright" horiz-adv-x="248" d="M115 433L64 473Q110 521 118 566H54V705H194V614Q194 562 177 520T115 433Z" />
<glyph unicode="&#x201a;" glyph-name="quotesinglbase" horiz-adv-x="248" d="M115 -133L64 -93Q87 -69 100 -47T119 0H54V139H194V47Q194 -6 176 -48T115 -133Z" />
<glyph unicode="&#x201c;" glyph-name="quotedblleft" horiz-adv-x="443" d="M54 441V532Q54 583 72 626T133 713L185 672Q160 647 147 625T130 580H194V441H54ZM249 441V532Q249 583 267 626T328 713L380 672Q355 647 342 625T325 580H389V441H249Z" />
<glyph unicode="&#x201d;" glyph-name="quotedblright" horiz-adv-x="443" d="M115 433L64 473Q110 521 118 566H54V705H194V614Q194 562 177 520T115 433ZM310 433L259 473Q305 521 313 566H249V705H389V614Q389 562 372 520T310 433Z" />
<glyph unicode="&#x201e;" glyph-name="quotedblbase" horiz-adv-x="443" d="M115 -133L64 -93Q87 -69 100 -47T119 0H54V139H194V47Q194 -6 176 -48T115 -133ZM310 -133L259 -93Q282 -69 295 -47T314 0H249V139H389V47Q389 -6 371 -48T310 -133Z" />
<glyph unicode="&#x2022;" glyph-name="bullet" horiz-adv-x="524" d="M262 88Q213 88 172 111T106 175T81 265Q81 311 104 351T169 417T262 443Q310 443 351 420T418 357T443 265Q443 216 419 176T353 112T262 88Z" />
<glyph unicode="&#x2039;" glyph-name="guilsinglleft" horiz-adv-x="287" d="M163 74L62 235V297L161 458L245 420L172 266L245 111L163 74Z" />
<glyph unicode="&#x203a;" glyph-name="guilsinglright" horiz-adv-x="287" d="M125 74L42 111L116 266L42 420L126 458L226 297V235L125 74Z" />
</font>
</defs>
</svg>
