<?xml version="1.0" standalone="no"?>
<!DOCTYPE svg PUBLIC "-//W3C//DTD SVG 1.1//EN" "http://www.w3.org/Graphics/SVG/1.1/DTD/svg11.dtd">
<svg xmlns="http://www.w3.org/2000/svg">
<defs >
<font id="NunitoSans" horiz-adv-x="619" ><font-face
    font-family="Nunito Sans Black"
    units-per-em="1000"
    panose-1="0 0 0 0 0 0 0 0 0 0"
    ascent="1011"
    descent="-353"
    alphabetic="0" />
<glyph unicode=" " glyph-name="space" horiz-adv-x="286" />
<glyph unicode="!" glyph-name="exclam" horiz-adv-x="272" d="M82 238L27 705H245L189 238H82ZM43 0V182H228V0H43Z" />
<glyph unicode="&quot;" glyph-name="quotedbl" horiz-adv-x="515" d="M75 398L32 705H236L194 398H75ZM322 398L279 705H483L441 398H322Z" />
<glyph unicode="#" glyph-name="numbersign" horiz-adv-x="600" d="M73 0L104 159H55V265H124L160 448H77V554H179L210 705H325L294 554H381L411 705H526L496 554H545V448H476L440 265H523V159H420L389 0H274L305 159H219L188 0H73ZM239 265H325L361 448H275L239 265Z" />
<glyph unicode="$" glyph-name="dollar" horiz-adv-x="600" d="M240 -115V-5Q175 1 118 20T19 68L70 211Q114 180 174 162T296 144Q358 144 383 161T408 203Q408 224 391 238T329 263L216 287Q32 328 32 486Q32 570 88 628T240 705V820H379V708Q431 702 478 683T557
636L508 502Q472 530 423 545T318 561Q266 561 237 542T208 493Q208 473 225 460T285 436L398 411Q585 370 585 216Q585 131 528 74T379 0V-115H240Z" />
<glyph unicode="%" glyph-name="percent" horiz-adv-x="964" d="M334 -32L222 33L630 737L741 672L334 -32ZM218 285Q128 285 79 344T29 502Q29 601 79 658T218 716Q306 716 356 658T406 502Q406 404 357 345T218 285ZM218 395Q241 395 253 419T265 502Q265 561
253 584T218 607Q194 607 182 585T170 502Q170 441 182 418T218 395ZM746 -11Q657 -11 608 48T558 205Q558 304 608 362T746 420Q835 420 885 361T935 205Q935 107 886 48T746 -11ZM746 98Q769 98 781 122T794 205Q794 264 782 287T746 310Q723 310 711 288T699
205Q699 145 711 122T746 98Z" />
<glyph unicode="&amp;" glyph-name="ampersand" horiz-adv-x="766" d="M317 -11Q236 -11 176 14T84 85T51 192Q51 260 88 308T184 387Q152 419 136 456T120 533Q120 587 147 628T224 693T341 716Q430 716 482 671T535 548Q535 435 417 368L519 269Q537 306 547
348T561 435H706Q703 362 682 294T625 170L805 0H589L526 61Q481 27 428 8T317 -11ZM341 600Q313 600 297 583T281 538Q281 517 291 498T326 454Q365 474 381 494T398 543Q398 572 383 586T341 600ZM329 123Q357 123 380 131T426 155L277 298Q227 263 227 205Q227
167 254 145T329 123Z" />
<glyph unicode="&apos;" glyph-name="quotesingle" horiz-adv-x="268" d="M75 398L32 705H236L194 398H75Z" />
<glyph unicode="(" glyph-name="parenleft" horiz-adv-x="407" d="M255 -198Q168 -90 133 26T97 263Q97 384 132 499T255 724L372 676Q341 597 323 530T296 399T288 263Q288 191 296 127T322 -4T372 -150L255 -198Z" />
<glyph unicode=")" glyph-name="parenright" horiz-adv-x="407" d="M151 -198L35 -150Q65 -70 83 -3T109 128T118 263Q118 334 110 398T83 529T35 676L151 724Q238 615 273 500T309 263Q309 142 274 26T151 -198Z" />
<glyph unicode="*" glyph-name="asterisk" horiz-adv-x="455" d="M176 319L74 379L137 471L28 463V580L137 571L75 664L178 723L228 607L277 723L382 662L319 571L428 580V462L318 471L382 379L277 318L228 436L176 319Z" />
<glyph unicode="+" glyph-name="plus" horiz-adv-x="600" d="M238 40V228H56V346H238V528H362V346H544V228H362V40H238Z" />
<glyph unicode="," glyph-name="comma" horiz-adv-x="272" d="M127 -155L60 -102Q114 -48 127 0H43V182H228V67Q228 4 206 -47T127 -155Z" />
<glyph unicode="-" glyph-name="hyphen" horiz-adv-x="445" d="M63 199V338H383V199H63Z" />
<glyph unicode="." glyph-name="period" horiz-adv-x="272" d="M43 0V182H228V0H43Z" />
<glyph unicode="/" glyph-name="slash" horiz-adv-x="349" d="M109 -81L-21 -43L240 770L370 731L109 -81Z" />
<glyph unicode="0" glyph-name="zero" horiz-adv-x="600" d="M300 -11Q169 -11 100 84T31 355Q31 531 100 623T300 716Q431 716 500 624T569 356Q569 180 500 85T300 -11ZM300 135Q348 135 371 187T395 356Q395 471 372 520T300 570Q252 570 229 521T205 356Q205
240 228 188T300 135Z" />
<glyph unicode="1" glyph-name="one" horiz-adv-x="600" d="M90 0V149H247V504L128 436L61 569L301 705H430V149H577V0H90Z" />
<glyph unicode="2" glyph-name="two" horiz-adv-x="600" d="M69 0V135L281 357Q320 399 336 429T353 489Q353 565 256 565Q216 565 175 550T92 504L35 638Q81 674 146 695T282 716Q404 716 468 663T533 510Q533 446 504 388T407 263L293 149H559V0H69Z" />
<glyph unicode="3" glyph-name="three" horiz-adv-x="600" d="M279 -11Q204 -11 135 9T25 64L81 201Q168 140 272 140Q380 140 380 214Q380 282 284 282H161V428H266Q309 428 333 446T358 498Q358 565 265 565Q170 565 93 504L36 638Q81 675 146 695T283 716Q401
716 467 665T533 522Q533 468 506 427T431 367Q490 350 522 305T555 196Q555 100 482 45T279 -11Z" />
<glyph unicode="4" glyph-name="four" horiz-adv-x="600" d="M317 0V118H31V247L346 705H494V257H586V118H494V0H317ZM317 257V446L190 257H317Z" />
<glyph unicode="5" glyph-name="five" horiz-adv-x="600" d="M295 -11Q225 -11 157 9T48 64L104 201Q193 140 291 140Q342 140 370 162T398 224Q398 263 371 286T299 310Q234 310 183 264H68V705H528V556H241V431Q287 456 347 456Q414 456 465 428T544 348T573
229Q573 157 539 103T443 19T295 -11Z" />
<glyph unicode="6" glyph-name="six" horiz-adv-x="600" d="M328 -11Q189 -11 114 82T38 346Q38 462 76 545T188 672T362 716Q420 716 476 698T575 644L519 509Q482 537 442 551T360 565Q210 565 210 379V372Q231 415 272 439T367 463Q425 463 471 434T545 352T572
234Q572 162 541 107T455 21T328 -11ZM318 129Q357 129 380 155T404 226Q404 270 381 297T318 324Q280 324 256 297T232 226Q232 182 256 156T318 129Z" />
<glyph unicode="7" glyph-name="seven" horiz-adv-x="600" d="M54 0L360 555H40V705H561V567L255 0H54Z" />
<glyph unicode="8" glyph-name="eight" horiz-adv-x="600" d="M300 -11Q172 -11 99 43T25 193Q25 255 55 299T136 364Q94 386 69 428T44 523Q44 613 113 664T300 716Q418 716 487 665T556 523Q556 468 532 426T466 363Q515 343 545 299T575 193Q575 97 502 43T300
-11ZM300 426Q342 426 366 446T390 502Q390 537 366 557T300 578Q258 578 235 558T211 502Q211 467 234 447T300 426ZM300 127Q409 127 409 207Q409 287 300 287Q247 287 219 267T191 207Q191 168 219 148T300 127Z" />
<glyph unicode="9" glyph-name="nine" horiz-adv-x="600" d="M238 -11Q180 -11 125 7T25 62L82 196Q154 140 240 140Q391 140 391 326V334Q369 290 328 266T233 242Q175 242 129 271T55 353T28 471Q28 543 59 598T146 684T272 716Q411 716 486 623T562 359Q562
243 524 160T413 33T238 -11ZM282 382Q321 382 344 408T368 479Q368 523 345 549T282 576Q243 576 220 550T196 479Q196 435 219 409T282 382Z" />
<glyph unicode=":" glyph-name="colon" horiz-adv-x="272" d="M43 310V492H228V310H43ZM43 0V182H228V0H43Z" />
<glyph unicode=";" glyph-name="semicolon" horiz-adv-x="272" d="M43 310V492H228V310H43ZM127 -155L60 -102Q114 -48 127 0H43V182H228V67Q228 4 206 -47T127 -155Z" />
<glyph unicode="&lt;" glyph-name="less" horiz-adv-x="600" d="M544 30L56 221V354L544 545V414L213 287L544 160V30Z" />
<glyph unicode="=" glyph-name="equal" horiz-adv-x="600" d="M56 328V446H544V328H56ZM56 128V246H544V128H56Z" />
<glyph unicode="&gt;" glyph-name="greater" horiz-adv-x="600" d="M56 30V160L387 287L56 414V545L544 354V221L56 30Z" />
<glyph unicode="?" glyph-name="question" horiz-adv-x="478" d="M184 238V292Q184 333 199 368T250 440Q274 465 283 482T293 518Q293 565 227 565Q139 565 58 504L1 638Q47 674 112 695T241 716Q310 716 362 694T444 632T473 540Q473 495 453 457T379 379Q332
345 316 319T295 271L289 238H184ZM144 0V182H329V0H144Z" />
<glyph unicode="@" glyph-name="at" horiz-adv-x="954" d="M487 -167Q390 -167 309 -136T169 -48T78 87T46 262Q46 399 103 501T265 660T508 716Q630 716 720 670T859 539T909 339Q909 253 884 190T815 93T710 58Q610 58 576 140Q550 99 514 79T435 58Q351 58
306 110T260 252Q260 325 287 381T362 470T472 503Q553 503 587 440L598 492H723L684 273Q681 253 679 238T677 210Q677 181 687 169T719 157Q757 157 781 207T806 339Q806 474 729 544T508 615Q402 615 324 572T204 450T161 262Q161 160 201 87T314 -26T487 -66Q624
-66 716 2L764 -86Q717 -125 645 -146T487 -167ZM463 164Q509 164 537 205T565 318Q565 397 498 397Q451 397 423 358T394 254Q394 164 463 164Z" />
<glyph unicode="A" glyph-name="A" horiz-adv-x="763" d="M-21 0L309 705H454L784 0H600L539 143H224L163 0H-21ZM380 513L284 284H478L382 513H380Z" />
<glyph unicode="B" glyph-name="B" horiz-adv-x="702" d="M64 0V705H404Q518 705 580 656T643 523Q643 468 616 427T539 366Q598 348 630 306T662 200Q662 107 596 54T414 0H64ZM240 425H371Q421 425 444 443T468 498Q468 535 445 552T371 570H240V425ZM240 135H389Q440
135 463 154T487 213Q487 252 464 271T389 290H240V135Z" />
<glyph unicode="C" glyph-name="C" horiz-adv-x="687" d="M420 -11Q303 -11 219 34T91 161T46 353Q46 463 90 544T219 671T420 716Q490 716 555 695T660 638L605 493Q561 525 517 540T427 556Q334 556 287 504T240 353Q240 254 287 202T427 149Q473 149 517 164T605
212L660 67Q620 32 555 11T420 -11Z" />
<glyph unicode="D" glyph-name="D" horiz-adv-x="786" d="M64 0V705H356Q539 705 640 613T741 353Q741 185 640 93T356 0H64ZM248 149H344Q449 149 499 199T550 353Q550 456 499 506T344 556H248V149Z" />
<glyph unicode="E" glyph-name="E" horiz-adv-x="614" d="M64 0V705H562V563H240V429H539V287H240V142H562V0H64Z" />
<glyph unicode="F" glyph-name="F" horiz-adv-x="579" d="M64 0V705H556V563H248V421H534V280H248V0H64Z" />
<glyph unicode="G" glyph-name="G" horiz-adv-x="747" d="M424 -11Q303 -11 219 34T90 160T46 349Q46 461 92 543T226 671T436 716Q510 716 577 697T686 644L630 502Q584 532 537 545T437 559Q336 559 287 505T237 349Q237 247 287 195T435 143Q481 143 538 157V268H397V397H688V43Q632
17 563 3T424 -11Z" />
<glyph unicode="H" glyph-name="H" horiz-adv-x="786" d="M64 0V705H248V433H539V705H722V0H539V282H248V0H64Z" />
<glyph unicode="I" glyph-name="I" horiz-adv-x="312" d="M64 0V705H248V0H64Z" />
<glyph unicode="J" glyph-name="J" horiz-adv-x="391" d="M2 -11L-9 136L73 141Q110 143 126 158T143 210V705H327V213Q327 7 104 -6L2 -11Z" />
<glyph unicode="K" glyph-name="K" horiz-adv-x="712" d="M64 0V705H248V403H250L524 705H742L428 370L753 0H534L250 318H248V0H64Z" />
<glyph unicode="L" glyph-name="L" horiz-adv-x="585" d="M64 0V705H248V153H562V0H64Z" />
<glyph unicode="M" glyph-name="M" horiz-adv-x="884" d="M66 0V705H219L444 301L669 705H818V0H652V383L491 104H391L232 379V0H66Z" />
<glyph unicode="N" glyph-name="N" horiz-adv-x="758" d="M64 0V705H199L523 301V705H693V0H559L235 404V0H64Z" />
<glyph unicode="O" glyph-name="O" horiz-adv-x="807" d="M404 -11Q297 -11 217 34T91 162T46 353Q46 463 90 544T216 671T404 716Q511 716 591 671T717 545T762 353Q762 244 717 162T592 35T404 -11ZM404 143Q482 143 526 198T571 353Q571 452 527 507T404 562Q325
562 281 507T237 353Q237 254 281 199T404 143Z" />
<glyph unicode="P" glyph-name="P" horiz-adv-x="676" d="M64 0V705H403Q523 705 588 644T654 474Q654 366 589 305T403 243H248V0H64ZM248 384H371Q479 384 479 474Q479 564 371 564H248V384Z" />
<glyph unicode="Q" glyph-name="Q" horiz-adv-x="807" d="M592 -228L479 -45Q457 -11 403 -11V-11Q296 -11 216 34T91 162T46 353Q46 463 90 544T216 671T404 716Q511 716 591 671T717 545T762 353Q762 243 717 161T590 34Q639 20 669 -30L749 -157L592 -228ZM404
143Q482 143 526 198T571 353Q571 452 527 507T404 562Q325 562 281 507T237 353Q237 254 281 199T404 143Z" />
<glyph unicode="R" glyph-name="R" horiz-adv-x="706" d="M64 0V705H403Q523 705 588 647T654 484Q654 405 615 352T500 277Q556 262 590 200L700 0H498L376 224Q364 245 346 254T303 263H248V0H64ZM248 393H370Q479 393 479 479Q479 564 370 564H248V393Z" />
<glyph unicode="S" glyph-name="S" horiz-adv-x="651" d="M326 -11Q243 -11 167 9T42 64L93 207Q139 176 201 158T326 140Q392 140 418 157T445 201Q445 224 427 238T361 262L244 287Q54 328 54 486Q54 555 91 607T196 687T352 716Q425 716 490 696T597 640L546
506Q508 534 458 549T350 565Q294 565 264 546T234 495Q234 473 252 459T316 435L432 410Q625 369 625 216Q625 147 588 96T484 17T326 -11Z" />
<glyph unicode="T" glyph-name="T" horiz-adv-x="644" d="M230 0V555H6V705H638V555H414V0H230Z" />
<glyph unicode="U" glyph-name="U" horiz-adv-x="748" d="M376 -11Q222 -11 141 67T59 300V705H243V298Q243 221 277 182T376 143Q440 143 474 182T508 298V705H689V300Q689 145 610 67T376 -11Z" />
<glyph unicode="V" glyph-name="V" horiz-adv-x="742" d="M298 0L-23 705H173L375 236L577 705H766L444 0H298Z" />
<glyph unicode="W" glyph-name="W" horiz-adv-x="1128" d="M264 0L11 705H199L346 263L505 705H635L787 254L941 705H1118L863 0H716L565 424L411 0H264Z" />
<glyph unicode="X" glyph-name="X" horiz-adv-x="698" d="M-25 0L245 356L-19 705H194L349 489L504 705H718L454 356L723 0H509L349 222L189 0H-25Z" />
<glyph unicode="Y" glyph-name="Y" horiz-adv-x="645" d="M230 0V312L-41 705H170L325 476L480 705H685L414 312V0H230Z" />
<glyph unicode="Z" glyph-name="Z" horiz-adv-x="625" d="M45 0V135L376 554H45V705H589V570L258 151H604V0H45Z" />
<glyph unicode="[" glyph-name="bracketleft" horiz-adv-x="401" d="M102 -180V705H384V574H280V-49H384V-180H102Z" />
<glyph unicode="\" glyph-name="backslash" horiz-adv-x="349" d="M240 -81L-21 731L109 770L370 -43L240 -81Z" />
<glyph unicode="]" glyph-name="bracketright" horiz-adv-x="401" d="M17 -180V-49H120V574H17V705H298V-180H17Z" />
<glyph unicode="^" glyph-name="asciicircum" horiz-adv-x="600" d="M43 140L234 628H366L557 140H427L300 472L173 140H43Z" />
<glyph unicode="_" glyph-name="underscore" horiz-adv-x="500" d="M20 -101V0H480V-101H20Z" />
<glyph unicode="`" glyph-name="grave" horiz-adv-x="500" d="M193 557L39 762H206L307 557H193Z" />
<glyph unicode="a" glyph-name="a" horiz-adv-x="568" d="M223 -11Q166 -11 123 10T55 67T30 151Q30 204 58 235T148 280T313 294H351V308Q351 344 333 359T269 374Q231 374 185 362T95 325L50 442Q75 460 114 474T196 495T277 503Q400 503 459 450T519 283V0H353V70Q340
32 306 11T223 -11ZM263 105Q300 105 325 129T351 192V210H313Q254 210 227 198T199 158Q199 135 215 120T263 105Z" />
<glyph unicode="b" glyph-name="b" horiz-adv-x="620" d="M376 -11Q327 -11 286 10T225 67V0H52V705H230V433Q251 465 290 484T376 503Q440 503 488 472T564 384T591 246Q591 167 564 109T488 20T376 -11ZM320 120Q360 120 386 150T412 246Q412 313 386 342T320
372Q279 372 253 343T227 246Q227 180 253 150T320 120Z" />
<glyph unicode="c" glyph-name="c" horiz-adv-x="484" d="M303 -11Q220 -11 159 20T63 109T29 247Q29 327 63 384T158 472T303 503Q352 503 400 490T480 452L433 330Q410 348 380 358T322 369Q269 369 240 337T211 247Q211 188 240 156T322 123Q349 123 379 133T433
162L480 40Q449 16 400 3T303 -11Z" />
<glyph unicode="d" glyph-name="d" horiz-adv-x="620" d="M244 -11Q181 -11 133 20T57 109T29 246Q29 326 56 383T132 472T244 503Q291 503 330 484T391 433V705H569V0H395V68Q376 32 335 11T244 -11ZM301 120Q341 120 367 150T393 246Q393 313 367 342T301 372Q260
372 234 343T208 246Q208 180 234 150T301 120Z" />
<glyph unicode="e" glyph-name="e" horiz-adv-x="555" d="M320 -11Q230 -11 165 20T64 110T29 247Q29 322 62 380T154 470T288 503Q362 503 416 472T500 384T530 249V210H199Q208 162 239 141T325 120Q363 120 404 131T478 165L522 48Q484 21 429 5T320 -11ZM296
388Q256 388 231 364T198 294H384Q381 341 359 364T296 388Z" />
<glyph unicode="f" glyph-name="f" horiz-adv-x="402" d="M94 0V361H1V492H94Q99 596 161 648T349 708L409 711L419 584L373 581Q315 577 294 560T272 507V492H396V361H272V0H94Z" />
<glyph unicode="g" glyph-name="g" horiz-adv-x="626" d="M296 -191Q222 -191 158 -177T47 -131L93 -11Q131 -34 183 -47T279 -60Q340 -60 370 -35T401 45V91Q380 55 338 34T248 13Q182 13 133 43T57 129T29 258Q29 332 56 387T133 472T248 503Q298 503 339 482T400
425V492H574V66Q574 -63 502 -127T296 -191ZM303 144Q347 144 373 174T399 258Q399 312 373 342T303 372Q260 372 234 342T208 258Q208 204 234 174T303 144Z" />
<glyph unicode="h" glyph-name="h" horiz-adv-x="606" d="M52 0V705H230V431Q283 503 384 503Q472 503 514 451T557 291V0H379V284Q379 329 364 348T318 367Q278 367 254 342T230 273V0H52Z" />
<glyph unicode="i" glyph-name="i" horiz-adv-x="281" d="M47 577V738H234V577H47ZM52 0V492H230V0H52Z" />
<glyph unicode="j" glyph-name="j" horiz-adv-x="287" d="M51 577V738H239V577H51ZM-39 -193L-51 -68L-2 -62Q29 -58 43 -43T57 3V492H235V28Q235 -46 214 -92T142 -161T5 -190L-39 -193Z" />
<glyph unicode="k" glyph-name="k" horiz-adv-x="580" d="M52 0V705H230V294H232L394 492H603L408 258L610 0H397L232 205H230V0H52Z" />
<glyph unicode="l" glyph-name="l" horiz-adv-x="348" d="M246 -11Q144 -11 98 40T52 196V705H230V202Q230 132 294 132Q304 132 314 133T335 136L333 0Q293 -11 246 -11Z" />
<glyph unicode="m" glyph-name="m" horiz-adv-x="902" d="M54 0V492H227V426Q250 461 288 482T377 503Q427 503 463 481T519 413Q544 456 587 479T682 503Q768 503 809 452T851 291V0H673V286Q673 329 660 348T617 367Q580 367 561 341T541 267V0H363V286Q363
329 350 348T307 367Q271 367 252 341T232 267V0H54Z" />
<glyph unicode="n" glyph-name="n" horiz-adv-x="606" d="M52 0V492H225V425Q251 463 292 483T384 503Q472 503 514 451T557 291V0H379V284Q379 329 364 348T318 367Q278 367 254 342T230 273V0H52Z" />
<glyph unicode="o" glyph-name="o" horiz-adv-x="602" d="M301 -11Q219 -11 158 20T63 109T29 246Q29 326 63 383T158 472T301 503Q383 503 444 472T538 384T572 246Q572 167 539 109T444 20T301 -11ZM301 120Q341 120 367 150T393 246Q393 313 367 342T301 372Q260
372 234 343T208 246Q208 180 234 150T301 120Z" />
<glyph unicode="p" glyph-name="p" horiz-adv-x="620" d="M52 -180V492H225V425Q245 461 286 482T376 503Q439 503 487 472T563 384T591 246Q591 167 564 109T489 20T376 -11Q330 -11 291 8T230 59V-180H52ZM320 120Q360 120 386 150T412 246Q412 313 386 342T320
372Q279 372 253 343T227 246Q227 180 253 150T320 120Z" />
<glyph unicode="q" glyph-name="q" horiz-adv-x="620" d="M391 -180V60Q370 28 331 9T244 -11Q181 -11 133 20T57 109T29 246Q29 326 56 383T132 472T244 503Q294 503 335 482T395 424V492H569V-180H391ZM301 120Q341 120 367 150T393 246Q393 313 367 342T301
372Q260 372 234 343T208 246Q208 180 234 150T301 120Z" />
<glyph unicode="r" glyph-name="r" horiz-adv-x="434" d="M52 0V492H225V409Q259 494 372 502L421 506L431 356L334 347Q281 342 257 318T233 245V0H52Z" />
<glyph unicode="s" glyph-name="s" horiz-adv-x="496" d="M248 -11Q180 -11 123 3T25 42L66 157Q103 136 152 123T249 109Q286 109 302 119T318 147Q318 162 308 169T278 181L167 199Q105 209 71 244T37 335Q37 387 66 424T147 482T266 503Q319 503 371 491T462
450L418 337Q389 357 346 370T269 384Q228 384 211 373T194 345Q194 318 231 312L342 293Q406 283 440 250T475 159Q475 78 413 34T248 -11Z" />
<glyph unicode="t" glyph-name="t" horiz-adv-x="426" d="M310 -11Q198 -11 144 41T90 198V361H-2V492H90V635H268V492H408V361H268V204Q268 132 341 132Q353 132 367 134T400 142L424 14Q401 2 370 -4T310 -11Z" />
<glyph unicode="u" glyph-name="u" horiz-adv-x="601" d="M236 -11Q140 -11 95 41T49 202V492H227V197Q227 125 289 125Q325 125 348 151T371 220V492H549V0H375V61Q327 -11 236 -11Z" />
<glyph unicode="v" glyph-name="v" horiz-adv-x="542" d="M197 0L-19 492H168L275 213L388 492H563L343 0H197Z" />
<glyph unicode="w" glyph-name="w" horiz-adv-x="868" d="M193 0L-14 492H166L275 207L383 492H494L603 202L712 492H881L676 0H529L432 242L340 0H193Z" />
<glyph unicode="x" glyph-name="x" horiz-adv-x="572" d="M-23 0L186 254L-10 492H197L287 376L377 492H583L387 254L598 0H390L286 131L183 0H-23Z" />
<glyph unicode="y" glyph-name="y" horiz-adv-x="541" d="M82 -180L181 34L-20 492H167L275 213L387 492H563L262 -180H82Z" />
<glyph unicode="z" glyph-name="z" horiz-adv-x="487" d="M42 0V114L261 361H42V492H454V379L235 131H465V0H42Z" />
<glyph unicode="{" glyph-name="braceleft" horiz-adv-x="438" d="M284 -180Q216 -180 178 -142T139 -35V118Q139 157 127 174T83 194L36 198V325L83 330Q114 333 126 349T139 406V560Q139 628 177 666T284 705H421V574H358Q317 574 317 531V384Q317 341 292 306T232
261Q267 253 292 218T317 140V-6Q317 -49 358 -49H421V-180H284Z" />
<glyph unicode="|" glyph-name="bar" horiz-adv-x="316" d="M69 -180V705H247V-180H69Z" />
<glyph unicode="}" glyph-name="braceright" horiz-adv-x="438" d="M17 -180V-49H80Q120 -49 120 -6V140Q120 183 145 218T206 261Q171 269 146 305T120 384V531Q120 574 80 574H17V705H153Q221 705 259 667T298 560V406Q298 367 310 350T355 330L401 325V198L355
194Q323 191 311 174T298 118V-35Q298 -104 260 -142T153 -180H17Z" />
<glyph unicode="~" glyph-name="asciitilde" horiz-adv-x="600" d="M403 199Q382 199 357 206T295 232Q232 263 206 263Q162 263 143 206L56 263Q72 313 110 344T197 376Q219 376 245 368T307 342Q339 326 359 319T393 312Q438 312 458 368L544 310Q529 261 490
230T403 199Z" />
<glyph unicode="&#xa0;" glyph-name="uni00A0" horiz-adv-x="286" />
<glyph unicode="&#xa1;" glyph-name="exclamdown" horiz-adv-x="272" d="M43 310V492H228V310H43ZM27 -180L82 254H189L245 -180H27Z" />
<glyph unicode="&#xa2;" glyph-name="cent" horiz-adv-x="600" d="M249 -115V4Q165 30 118 93T71 246Q71 330 119 394T249 484V612H387V496Q433 491 472 477T537 440L492 319Q466 339 432 351T365 364Q311 364 282 332T253 250Q253 200 281 166T365 131Q397 131
431 144T492 176L537 56Q510 34 472 18T387 -5V-115H249Z" />
<glyph unicode="&#xa3;" glyph-name="sterling" horiz-adv-x="600" d="M39 0V147H106V300H39V407H106V480Q106 549 134 602T219 686T366 716Q429 716 487 699T586 650L528 521Q488 550 451 562T381 574Q332 574 311 551T289 488V407H438V300H289V147H571V0H39Z" />
<glyph unicode="&#xa4;" glyph-name="currency" horiz-adv-x="600" d="M86 -34L26 26L98 101Q77 132 66 168T54 245Q54 286 65 322T98 390L26 464L87 525L160 451Q190 470 225 481T297 493Q373 493 433 451L508 528L574 461L498 385Q539 323 539 245Q539 206 528
170T497 103L571 26L511 -33L438 42Q376 -3 297 -3Q259 -3 224 8T159 40L86 -34ZM298 134Q326 134 349 149T387 189T401 245Q401 291 371 323T298 356Q269 356 245 341T207 301T193 245Q193 200 223 167T298 134Z" />
<glyph unicode="&#xa5;" glyph-name="yen" horiz-adv-x="600" d="M208 0V149H63V252H208V309H63V412H164L-29 705H167L299 488L433 705H629L435 412H537V309H391V252H537V149H391V0H208Z" />
<glyph unicode="&#xa6;" glyph-name="brokenbar" horiz-adv-x="316" d="M69 371V705H247V371H69ZM69 -180V154H247V-180H69Z" />
<glyph unicode="&#xa7;" glyph-name="section" horiz-adv-x="599" d="M281 -191Q209 -191 148 -175T47 -132L93 -16Q115 -31 146 -43T213 -63T280 -71Q319 -71 341 -56T363 -13Q363 5 350 19T306 49L161 113Q92 144 60 187T27 286Q27 374 99 431Q68 471 68 524Q68
613 135 664T317 716Q459 716 533 663L489 550Q453 570 406 583T319 596Q280 596 258 581T236 538Q236 520 249 506T293 476L439 412Q508 381 540 338T573 239Q573 151 500 93Q532 53 532 1Q532 -88 464 -139T281 -191ZM182 320Q182 268 253 236L380 178Q394 172
407 164Q417 184 417 205Q417 258 347 289L219 347Q207 353 193 361Q182 341 182 320Z" />
<glyph unicode="&#xa8;" glyph-name="dieresis" horiz-adv-x="500" d="M278 582V732H428V582H278ZM72 582V732H222V582H72Z" />
<glyph unicode="&#xa9;" glyph-name="copyright" horiz-adv-x="815" d="M408 -11Q330 -11 264 16T149 93T72 209T44 353Q44 430 71 496T148 611T264 688T408 716Q485 716 551 689T666 612T743 496T771 353Q771 276 744 210T667 94T551 17T408 -11ZM408 53Q494
53 560 92T665 200T703 353Q703 438 665 506T561 613T408 652Q322 652 255 613T150 506T112 353Q112 268 150 200T255 93T408 53ZM431 137Q328 137 266 195T204 353Q204 453 266 510T431 568Q471 568 511 557T578 525L538 422Q520 437 496 446T445 455Q402 455
377 428T351 353Q351 304 376 277T445 250Q499 250 538 283L578 180Q552 160 512 149T431 137Z" />
<glyph unicode="&#xaa;" glyph-name="ordfeminine" horiz-adv-x="354" d="M133 404Q80 404 48 432T15 503Q15 551 56 571T189 592H220V596Q220 617 207 626T162 636Q140 636 111 630T56 611L31 686Q56 699 96 707T172 716Q329 716 329 590V411H225V467H223Q208
437 187 421T133 404ZM164 475Q187 475 203 491T220 537H192Q154 537 140 530T125 505Q125 492 134 484T164 475Z" />
<glyph unicode="&#xab;" glyph-name="guillemotleft" horiz-adv-x="558" d="M169 61L63 223V310L167 472L283 418L214 267L283 114L169 61ZM407 61L301 223V310L405 472L521 418L452 267L521 114L407 61Z" />
<glyph unicode="&#xac;" glyph-name="logicalnot" horiz-adv-x="600" d="M420 129V327H56V446H544V129H420Z" />
<glyph unicode="&#xad;" glyph-name="uni00AD" horiz-adv-x="445" d="M63 199V338H383V199H63Z" />
<glyph unicode="&#xae;" glyph-name="registered" horiz-adv-x="815" d="M408 -11Q330 -11 264 16T149 93T72 209T44 353Q44 430 71 496T148 611T264 688T408 716Q485 716 551 689T666 612T743 496T771 353Q771 276 744 210T667 94T551 17T408 -11ZM408 53Q494
53 560 92T665 200T703 353Q703 438 665 506T561 613T408 652Q322 652 255 613T150 506T112 353Q112 268 150 200T255 93T408 53ZM240 142V566H437Q510 566 550 529T590 438Q590 395 569 367T508 327Q530 321 544 302T568 242L593 142H461L432 261Q427 279 418
285T394 292H371V142H240ZM370 386H418Q466 386 466 429Q466 472 418 472H370V386Z" />
<glyph unicode="&#xaf;" glyph-name="overscore" horiz-adv-x="500" d="M82 605V702H419V605H82Z" />
<glyph unicode="&#xb0;" glyph-name="degree" horiz-adv-x="389" d="M194 391Q146 391 109 412T49 470T27 554Q27 600 49 636T109 694T194 716Q242 716 280 695T339 637T361 554Q361 507 340 471T280 413T194 391ZM194 482Q223 482 242 503T262 554Q262 583 243
604T194 625Q165 625 146 604T127 554Q127 524 146 503T194 482Z" />
<glyph unicode="&#xb1;" glyph-name="plusminus" horiz-adv-x="600" d="M238 153V283H56V403H238V532H362V403H544V283H362V153H238ZM56 0V119H544V0H56Z" />
<glyph unicode="&#xb2;" glyph-name="uni00B2" horiz-adv-x="380" d="M41 282V383L151 493Q188 531 188 561Q188 597 145 597Q125 597 103 588T63 562L21 661Q47 682 91 695T181 709Q253 709 295 675T338 583Q338 551 323 521T272 456L209 395H358V282H41Z" />
<glyph unicode="&#xb3;" glyph-name="uni00B3" horiz-adv-x="380" d="M183 276Q126 276 84 289T13 325L55 417Q74 401 101 392T163 382Q222 382 222 418Q222 443 182 443H92V545H168Q208 545 208 573Q208 603 156 603Q100 603 63 568L21 661Q47 682 90 695T184
709Q258 709 300 679T342 596Q342 565 325 540T279 501Q314 491 333 465T353 400Q353 343 306 310T183 276Z" />
<glyph unicode="&#xb4;" glyph-name="acute" horiz-adv-x="500" d="M193 557L294 762H461L307 557H193Z" />
<glyph unicode="&#xb5;" glyph-name="uni00B5" horiz-adv-x="600" d="M51 -180V492H229V197Q229 126 290 126Q326 126 349 151T373 220V492H551V0H377V90H376Q369 41 343 15T286 -11Q260 -11 244 -1T215 31V31L229 -180H51Z" />
<glyph unicode="&#xb6;" glyph-name="paragraph" horiz-adv-x="668" d="M255 -180V248Q186 248 135 276T54 356T25 477Q25 546 54 597T135 677T258 705H604V-180H481V583H377V-180H255Z" />
<glyph unicode="&#xb7;" glyph-name="middot" horiz-adv-x="272" d="M43 178V360H228V178H43Z" />
<glyph unicode="&#xb8;" glyph-name="cedilla" horiz-adv-x="500" d="M248 -198Q215 -198 184 -193T130 -175L154 -105Q192 -122 229 -122Q278 -122 278 -101Q278 -83 242 -83Q226 -83 207 -87L186 -66L198 20H283L275 -31H276Q323 -31 349 -51T375 -107Q375 -149
340 -173T248 -198Z" />
<glyph unicode="&#xb9;" glyph-name="uni00B9" horiz-adv-x="380" d="M41 282V395H147V553L71 515L17 616L188 705H287V395H367V282H41Z" />
<glyph unicode="&#xba;" glyph-name="ordmasculine" horiz-adv-x="370" d="M185 406Q136 406 98 425T37 480T15 562Q15 634 63 675T185 716Q259 716 307 675T356 562Q356 515 334 480T273 426T185 406ZM185 489Q211 489 227 508T243 562Q243 598 227 616T185 634Q159
634 144 617T128 562Q128 526 143 508T185 489Z" />
<glyph unicode="&#xbb;" glyph-name="guillemotright" horiz-adv-x="558" d="M151 61L37 114L106 267L37 418L153 472L257 310V223L151 61ZM389 61L275 114L344 267L275 418L391 472L495 310V223L389 61Z" />
<glyph unicode="&#xbc;" glyph-name="onequarter" horiz-adv-x="934" d="M41 282V395H147V553L71 515L17 616L188 705H287V395H367V282H41ZM353 -32L241 33L649 737L761 672L353 -32ZM748 0V61H567V153L757 423H876V165H925V61H876V0H748ZM752 165V274L678 165H752Z" />
<glyph unicode="&#xbd;" glyph-name="onehalf" horiz-adv-x="986" d="M41 282V395H147V553L71 515L17 616L188 705H287V395H367V282H41ZM353 -32L241 33L649 737L761 672L353 -32ZM647 0V101L757 211Q794 249 794 279Q794 315 751 315Q731 315 709 306T669 280L627
379Q653 400 697 413T787 427Q859 427 901 393T944 301Q944 269 929 239T878 174L815 113H964V0H647Z" />
<glyph unicode="&#xbe;" glyph-name="threequarters" horiz-adv-x="934" d="M183 276Q126 276 84 289T13 325L55 417Q74 401 101 392T163 382Q222 382 222 418Q222 443 182 443H92V545H168Q208 545 208 573Q208 603 156 603Q100 603 63 568L21 661Q47 682 90 695T184
709Q258 709 300 679T342 596Q342 565 325 540T279 501Q314 491 333 465T353 400Q353 343 306 310T183 276ZM353 -32L241 33L649 737L761 672L353 -32ZM748 0V61H567V153L757 423H876V165H925V61H876V0H748ZM752 165V274L678 165H752Z" />
<glyph unicode="&#xbf;" glyph-name="questiondown" horiz-adv-x="478" d="M149 310V492H334V310H149ZM237 -191Q168 -191 116 -171T34 -113T5 -26Q5 16 26 53T99 125Q146 156 162 179T183 223L190 254H294V206Q294 169 280 137T229 73Q204 52 195 37T185 5Q185
-40 251 -40Q339 -40 420 15L477 -118Q431 -152 367 -171T237 -191Z" />
<glyph unicode="&#xc0;" glyph-name="Agrave" horiz-adv-x="763" d="M-21 0L309 705H454L784 0H600L539 143H224L163 0H-21ZM380 513L284 284H478L382 513H380ZM320 765L146 941H324L442 765H320Z" />
<glyph unicode="&#xc1;" glyph-name="Aacute" horiz-adv-x="763" d="M-21 0L309 705H454L784 0H600L539 143H224L163 0H-21ZM380 513L284 284H478L382 513H380ZM320 765L438 941H616L442 765H320Z" />
<glyph unicode="&#xc2;" glyph-name="Acircumflex" horiz-adv-x="763" d="M-21 0L309 705H454L784 0H600L539 143H224L163 0H-21ZM380 513L284 284H478L382 513H380ZM182 765L308 941H454L580 765H460L381 851L302 765H182Z" />
<glyph unicode="&#xc3;" glyph-name="Atilde" horiz-adv-x="763" d="M-21 0L309 705H454L784 0H600L539 143H224L163 0H-21ZM380 513L284 284H478L382 513H380ZM222 759L141 765Q146 844 187 887T292 930Q316 930 340 923T397 900Q425 886 442 881T473 876Q528
876 540 935L621 930Q616 850 575 808T470 765Q444 765 420 772T363 795Q336 808 320 813T289 818Q234 818 222 759Z" />
<glyph unicode="&#xc4;" glyph-name="Adieresis" horiz-adv-x="763" d="M-21 0L309 705H454L784 0H600L539 143H224L163 0H-21ZM380 513L284 284H478L382 513H380ZM409 771V920H559V771H409ZM203 771V920H353V771H203Z" />
<glyph unicode="&#xc5;" glyph-name="Aring" horiz-adv-x="763" d="M-21 0L309 705H454L784 0H600L539 143H224L163 0H-21ZM380 513L284 284H478L382 513H380ZM381 752Q343 752 313 769T264 815T246 882Q246 920 264 949T312 995T381 1013Q419 1013 449 996T498
949T516 882Q516 845 498 816T450 769T381 752ZM381 825Q405 825 421 841T438 882Q438 907 422 923T381 939Q357 939 341 923T324 882Q324 857 340 841T381 825Z" />
<glyph unicode="&#xc6;" glyph-name="AE" horiz-adv-x="1006" d="M-60 0L389 705H954V563H585L614 429H931V287H645L678 142H954V0H546L515 143H217L132 0H-60ZM433 507L300 284H484L435 507H433Z" />
<glyph unicode="&#xc7;" glyph-name="Ccedilla" horiz-adv-x="687" d="M420 -11Q303 -11 219 34T91 161T46 353Q46 463 90 544T219 671T420 716Q490 716 555 695T660 638L605 493Q561 525 517 540T427 556Q334 556 287 504T240 353Q240 254 287 202T427 149Q473
149 517 164T605 212L660 67Q620 32 555 11T420 -11ZM396 -198Q363 -198 332 -193T278 -175L302 -105Q340 -122 377 -122Q426 -122 426 -101Q426 -83 390 -83Q374 -83 355 -87L334 -66L346 20H431L423 -31H424Q471 -31 497 -51T523 -107Q523 -149 488 -173T396
-198Z" />
<glyph unicode="&#xc8;" glyph-name="Egrave" horiz-adv-x="614" d="M64 0V705H562V563H240V429H539V287H240V142H562V0H64ZM272 765L98 941H276L394 765H272Z" />
<glyph unicode="&#xc9;" glyph-name="Eacute" horiz-adv-x="614" d="M64 0V705H562V563H240V429H539V287H240V142H562V0H64ZM272 765L390 941H568L394 765H272Z" />
<glyph unicode="&#xca;" glyph-name="Ecircumflex" horiz-adv-x="614" d="M64 0V705H562V563H240V429H539V287H240V142H562V0H64ZM134 765L260 941H406L532 765H412L333 851L254 765H134Z" />
<glyph unicode="&#xcb;" glyph-name="Edieresis" horiz-adv-x="614" d="M64 0V705H562V563H240V429H539V287H240V142H562V0H64ZM361 771V920H511V771H361ZM155 771V920H305V771H155Z" />
<glyph unicode="&#xcc;" glyph-name="Igrave" horiz-adv-x="312" d="M64 0V705H248V0H64ZM95 765L-79 941H99L217 765H95Z" />
<glyph unicode="&#xcd;" glyph-name="Iacute" horiz-adv-x="312" d="M64 0V705H248V0H64ZM95 765L213 941H391L217 765H95Z" />
<glyph unicode="&#xce;" glyph-name="Icircumflex" horiz-adv-x="312" d="M64 0V705H248V0H64ZM-43 765L83 941H229L355 765H235L156 851L77 765H-43Z" />
<glyph unicode="&#xcf;" glyph-name="Idieresis" horiz-adv-x="312" d="M64 0V705H248V0H64ZM184 771V920H334V771H184ZM-22 771V920H128V771H-22Z" />
<glyph unicode="&#xd0;" glyph-name="Eth" horiz-adv-x="786" d="M64 0V705H356Q539 705 640 613T741 353Q741 185 640 93T356 0H64ZM248 149H344Q449 149 499 199T550 353Q550 456 499 506T344 556H248V149ZM-20 291V421H430V291H-20Z" />
<glyph unicode="&#xd1;" glyph-name="Ntilde" horiz-adv-x="758" d="M64 0V705H199L523 301V705H693V0H559L235 404V0H64ZM219 759L138 765Q143 844 184 887T289 930Q313 930 337 923T394 900Q422 886 439 881T470 876Q525 876 537 935L618 930Q613 850 572 808T467
765Q441 765 417 772T360 795Q333 808 317 813T286 818Q231 818 219 759Z" />
<glyph unicode="&#xd2;" glyph-name="Ograve" horiz-adv-x="807" d="M404 -11Q297 -11 217 34T91 162T46 353Q46 463 90 544T216 671T404 716Q511 716 591 671T717 545T762 353Q762 244 717 162T592 35T404 -11ZM404 143Q482 143 526 198T571 353Q571 452 527
507T404 562Q325 562 281 507T237 353Q237 254 281 199T404 143ZM341 765L167 941H345L463 765H341Z" />
<glyph unicode="&#xd3;" glyph-name="Oacute" horiz-adv-x="807" d="M404 -11Q297 -11 217 34T91 162T46 353Q46 463 90 544T216 671T404 716Q511 716 591 671T717 545T762 353Q762 244 717 162T592 35T404 -11ZM404 143Q482 143 526 198T571 353Q571 452 527
507T404 562Q325 562 281 507T237 353Q237 254 281 199T404 143ZM341 765L459 941H637L463 765H341Z" />
<glyph unicode="&#xd4;" glyph-name="Ocircumflex" horiz-adv-x="807" d="M404 -11Q297 -11 217 34T91 162T46 353Q46 463 90 544T216 671T404 716Q511 716 591 671T717 545T762 353Q762 244 717 162T592 35T404 -11ZM404 143Q482 143 526 198T571 353Q571 452
527 507T404 562Q325 562 281 507T237 353Q237 254 281 199T404 143ZM203 765L329 941H475L601 765H481L402 851L323 765H203Z" />
<glyph unicode="&#xd5;" glyph-name="Otilde" horiz-adv-x="807" d="M404 -11Q297 -11 217 34T91 162T46 353Q46 463 90 544T216 671T404 716Q511 716 591 671T717 545T762 353Q762 244 717 162T592 35T404 -11ZM404 143Q482 143 526 198T571 353Q571 452 527
507T404 562Q325 562 281 507T237 353Q237 254 281 199T404 143ZM243 759L162 765Q167 844 208 887T313 930Q337 930 361 923T418 900Q446 886 463 881T494 876Q549 876 561 935L642 930Q637 850 596 808T491 765Q465 765 441 772T384 795Q357 808 341 813T310
818Q255 818 243 759Z" />
<glyph unicode="&#xd6;" glyph-name="Odieresis" horiz-adv-x="807" d="M404 -11Q297 -11 217 34T91 162T46 353Q46 463 90 544T216 671T404 716Q511 716 591 671T717 545T762 353Q762 244 717 162T592 35T404 -11ZM404 143Q482 143 526 198T571 353Q571 452 527
507T404 562Q325 562 281 507T237 353Q237 254 281 199T404 143ZM430 771V920H580V771H430ZM224 771V920H374V771H224Z" />
<glyph unicode="&#xd7;" glyph-name="multiply" horiz-adv-x="600" d="M150 53L66 136L216 286L66 436L150 521L300 370L450 521L534 436L384 286L534 136L450 53L300 202L150 53Z" />
<glyph unicode="&#xd8;" glyph-name="Oslash" horiz-adv-x="807" d="M404 -11Q297 -11 217 34T91 162T46 353Q46 463 90 544T216 671T404 716Q511 716 591 671T717 545T762 353Q762 244 717 162T592 35T404 -11ZM404 143Q482 143 526 198T571 353Q571 452 527
507T404 562Q325 562 281 507T237 353Q237 254 281 199T404 143ZM232 -75L116 -7L191 121L248 197L472 582L500 653L574 780L690 712L615 584L558 508L334 124L306 52L232 -75Z" />
<glyph unicode="&#xd9;" glyph-name="Ugrave" horiz-adv-x="748" d="M376 -11Q222 -11 141 67T59 300V705H243V298Q243 221 277 182T376 143Q440 143 474 182T508 298V705H689V300Q689 145 610 67T376 -11ZM315 765L141 941H319L437 765H315Z" />
<glyph unicode="&#xda;" glyph-name="Uacute" horiz-adv-x="748" d="M376 -11Q222 -11 141 67T59 300V705H243V298Q243 221 277 182T376 143Q440 143 474 182T508 298V705H689V300Q689 145 610 67T376 -11ZM315 765L433 941H611L437 765H315Z" />
<glyph unicode="&#xdb;" glyph-name="Ucircumflex" horiz-adv-x="748" d="M376 -11Q222 -11 141 67T59 300V705H243V298Q243 221 277 182T376 143Q440 143 474 182T508 298V705H689V300Q689 145 610 67T376 -11ZM177 765L303 941H449L575 765H455L376 851L297 765H177Z" />
<glyph unicode="&#xdc;" glyph-name="Udieresis" horiz-adv-x="748" d="M376 -11Q222 -11 141 67T59 300V705H243V298Q243 221 277 182T376 143Q440 143 474 182T508 298V705H689V300Q689 145 610 67T376 -11ZM404 771V920H554V771H404ZM198 771V920H348V771H198Z" />
<glyph unicode="&#xdd;" glyph-name="Yacute" horiz-adv-x="645" d="M230 0V312L-41 705H170L325 476L480 705H685L414 312V0H230ZM261 765L379 941H557L383 765H261Z" />
<glyph unicode="&#xde;" glyph-name="Thorn" horiz-adv-x="679" d="M64 0V705H248V598H407Q526 598 591 537T657 368Q657 260 592 198T407 136H248V0H64ZM248 278H374Q482 278 482 368Q482 457 374 457H248V278Z" />
<glyph unicode="&#xdf;" glyph-name="germandbls" horiz-adv-x="700" d="M476 -11Q418 -11 362 5T265 50L311 168Q351 144 396 131T478 117Q527 117 527 152Q527 168 511 178T446 202Q368 225 336 259T304 345Q304 377 317 406T370 479Q389 501 397 516T405 548Q405
567 391 579T344 592Q287 592 259 558T230 463V0H52V433Q52 571 127 643T346 716Q453 716 511 675T570 565Q570 532 558 502T512 440Q483 410 474 396T464 369Q464 354 481 343T552 316Q623 295 654 257T686 164Q686 84 629 37T476 -11Z" />
<glyph unicode="&#xe0;" glyph-name="agrave" horiz-adv-x="568" d="M223 -11Q166 -11 123 10T55 67T30 151Q30 204 58 235T148 280T313 294H351V308Q351 344 333 359T269 374Q231 374 185 362T95 325L50 442Q75 460 114 474T196 495T277 503Q400 503 459 450T519
283V0H353V70Q340 32 306 11T223 -11ZM263 105Q300 105 325 129T351 192V210H313Q254 210 227 198T199 158Q199 135 215 120T263 105ZM231 557L77 762H244L345 557H231Z" />
<glyph unicode="&#xe1;" glyph-name="aacute" horiz-adv-x="568" d="M223 -11Q166 -11 123 10T55 67T30 151Q30 204 58 235T148 280T313 294H351V308Q351 344 333 359T269 374Q231 374 185 362T95 325L50 442Q75 460 114 474T196 495T277 503Q400 503 459 450T519
283V0H353V70Q340 32 306 11T223 -11ZM263 105Q300 105 325 129T351 192V210H313Q254 210 227 198T199 158Q199 135 215 120T263 105ZM231 557L332 762H499L345 557H231Z" />
<glyph unicode="&#xe2;" glyph-name="acircumflex" horiz-adv-x="568" d="M223 -11Q166 -11 123 10T55 67T30 151Q30 204 58 235T148 280T313 294H351V308Q351 344 333 359T269 374Q231 374 185 362T95 325L50 442Q75 460 114 474T196 495T277 503Q400 503 459
450T519 283V0H353V70Q340 32 306 11T223 -11ZM263 105Q300 105 325 129T351 192V210H313Q254 210 227 198T199 158Q199 135 215 120T263 105ZM103 557L214 762H362L473 557H365L288 670L211 557H103Z" />
<glyph unicode="&#xe3;" glyph-name="atilde" horiz-adv-x="568" d="M223 -11Q166 -11 123 10T55 67T30 151Q30 204 58 235T148 280T313 294H351V308Q351 344 333 359T269 374Q231 374 185 362T95 325L50 442Q75 460 114 474T196 495T277 503Q400 503 459 450T519
283V0H353V70Q340 32 306 11T223 -11ZM263 105Q300 105 325 129T351 192V210H313Q254 210 227 198T199 158Q199 135 215 120T263 105ZM159 577L77 582Q82 661 119 704T213 747Q236 747 255 740T297 718Q318 704 331 699T358 694Q407 694 417 753L499 747Q495 668
458 625T364 582Q341 582 322 589T277 613Q242 636 219 636Q192 636 178 621T159 577Z" />
<glyph unicode="&#xe4;" glyph-name="adieresis" horiz-adv-x="568" d="M223 -11Q166 -11 123 10T55 67T30 151Q30 204 58 235T148 280T313 294H351V308Q351 344 333 359T269 374Q231 374 185 362T95 325L50 442Q75 460 114 474T196 495T277 503Q400 503 459 450T519
283V0H353V70Q340 32 306 11T223 -11ZM263 105Q300 105 325 129T351 192V210H313Q254 210 227 198T199 158Q199 135 215 120T263 105ZM316 582V732H466V582H316ZM110 582V732H260V582H110Z" />
<glyph unicode="&#xe5;" glyph-name="aring" horiz-adv-x="568" d="M223 -11Q166 -11 123 10T55 67T30 151Q30 204 58 235T148 280T313 294H351V308Q351 344 333 359T269 374Q231 374 185 362T95 325L50 442Q75 460 114 474T196 495T277 503Q400 503 459 450T519
283V0H353V70Q340 32 306 11T223 -11ZM263 105Q300 105 325 129T351 192V210H313Q254 210 227 198T199 158Q199 135 215 120T263 105ZM288 545Q250 545 220 562T171 608T153 675Q153 712 171 741T219 788T288 806Q326 806 356 789T405 742T423 675Q423 638 405
609T357 562T288 545ZM288 618Q312 618 328 634T345 675Q345 700 329 716T288 732Q264 732 248 716T231 675Q231 650 247 634T288 618Z" />
<glyph unicode="&#xe6;" glyph-name="ae" horiz-adv-x="870" d="M237 -11Q141 -11 86 35T30 151Q30 204 58 235T149 280T317 294H347V310Q347 344 330 359T270 374Q231 374 185 362T95 325L50 442Q75 460 114 474T196 495T278 503Q332 503 376 490T449 446Q479
475 519 489T604 503Q677 503 731 472T815 384T845 249V210H520Q527 162 556 141T641 119Q681 119 720 131T792 165L837 48Q798 21 744 5T635 -11Q563 -11 507 12T417 83Q368 -11 237 -11ZM611 388Q531 388 519 294H699Q693 388 611 388ZM264 105Q301 105 324 129T347
195V210H313Q254 210 227 198T199 158Q199 135 215 120T264 105Z" />
<glyph unicode="&#xe7;" glyph-name="ccedilla" horiz-adv-x="484" d="M303 -11Q220 -11 159 20T63 109T29 247Q29 327 63 384T158 472T303 503Q352 503 400 490T480 452L433 330Q410 348 380 358T322 369Q269 369 240 337T211 247Q211 188 240 156T322 123Q349
123 379 133T433 162L480 40Q449 16 400 3T303 -11ZM288 -198Q255 -198 224 -193T170 -175L194 -105Q232 -122 269 -122Q318 -122 318 -101Q318 -83 282 -83Q266 -83 247 -87L226 -66L238 20H323L315 -31H316Q363 -31 389 -51T415 -107Q415 -149 380 -173T288 -198Z"
/>
<glyph unicode="&#xe8;" glyph-name="egrave" horiz-adv-x="555" d="M320 -11Q230 -11 165 20T64 110T29 247Q29 322 62 380T154 470T288 503Q362 503 416 472T500 384T530 249V210H199Q208 162 239 141T325 120Q363 120 404 131T478 165L522 48Q484 21 429 5T320
-11ZM296 388Q256 388 231 364T198 294H384Q381 341 359 364T296 388ZM233 557L79 762H246L347 557H233Z" />
<glyph unicode="&#xe9;" glyph-name="eacute" horiz-adv-x="555" d="M320 -11Q230 -11 165 20T64 110T29 247Q29 322 62 380T154 470T288 503Q362 503 416 472T500 384T530 249V210H199Q208 162 239 141T325 120Q363 120 404 131T478 165L522 48Q484 21 429 5T320
-11ZM296 388Q256 388 231 364T198 294H384Q381 341 359 364T296 388ZM233 557L334 762H501L347 557H233Z" />
<glyph unicode="&#xea;" glyph-name="ecircumflex" horiz-adv-x="555" d="M320 -11Q230 -11 165 20T64 110T29 247Q29 322 62 380T154 470T288 503Q362 503 416 472T500 384T530 249V210H199Q208 162 239 141T325 120Q363 120 404 131T478 165L522 48Q484 21 429
5T320 -11ZM296 388Q256 388 231 364T198 294H384Q381 341 359 364T296 388ZM105 557L216 762H364L475 557H367L290 670L213 557H105Z" />
<glyph unicode="&#xeb;" glyph-name="edieresis" horiz-adv-x="555" d="M320 -11Q230 -11 165 20T64 110T29 247Q29 322 62 380T154 470T288 503Q362 503 416 472T500 384T530 249V210H199Q208 162 239 141T325 120Q363 120 404 131T478 165L522 48Q484 21 429
5T320 -11ZM296 388Q256 388 231 364T198 294H384Q381 341 359 364T296 388ZM318 582V732H468V582H318ZM112 582V732H262V582H112Z" />
<glyph unicode="&#xec;" glyph-name="igrave" horiz-adv-x="281" d="M52 0V492H230V0H52ZM83 557L-71 762H96L197 557H83Z" />
<glyph unicode="&#xed;" glyph-name="iacute" horiz-adv-x="281" d="M52 0V492H230V0H52ZM83 557L184 762H351L197 557H83Z" />
<glyph unicode="&#xee;" glyph-name="icircumflex" horiz-adv-x="281" d="M52 0V492H230V0H52ZM-45 557L66 762H214L325 557H217L140 670L63 557H-45Z" />
<glyph unicode="&#xef;" glyph-name="idieresis" horiz-adv-x="281" d="M52 0V492H230V0H52ZM168 582V732H318V582H168ZM-38 582V732H112V582H-38Z" />
<glyph unicode="&#xf0;" glyph-name="eth" horiz-adv-x="606" d="M293 -11Q215 -11 156 18T63 100T29 221Q29 287 60 338T147 418T275 447Q313 447 345 438T401 405Q388 444 362 476T302 533L134 454L97 532L205 583Q162 598 118 606L148 718Q209 708 259 691T351
651L492 718L529 640L433 595Q506 532 542 452T579 292Q579 199 546 131T448 26T293 -11ZM300 122Q345 122 368 149T392 221Q392 265 369 291T300 318Q257 318 233 292T208 221Q208 175 233 149T300 122Z" />
<glyph unicode="&#xf1;" glyph-name="ntilde" horiz-adv-x="606" d="M52 0V492H225V425Q251 463 292 483T384 503Q472 503 514 451T557 291V0H379V284Q379 329 364 348T318 367Q278 367 254 342T230 273V0H52ZM176 577L94 582Q99 661 136 704T230 747Q253 747
272 740T314 718Q335 704 348 699T375 694Q424 694 434 753L516 747Q512 668 475 625T381 582Q358 582 339 589T294 613Q259 636 236 636Q209 636 195 621T176 577Z" />
<glyph unicode="&#xf2;" glyph-name="ograve" horiz-adv-x="602" d="M301 -11Q219 -11 158 20T63 109T29 246Q29 326 63 383T158 472T301 503Q383 503 444 472T538 384T572 246Q572 167 539 109T444 20T301 -11ZM301 120Q341 120 367 150T393 246Q393 313 367
342T301 372Q260 372 234 343T208 246Q208 180 234 150T301 120ZM244 557L90 762H257L358 557H244Z" />
<glyph unicode="&#xf3;" glyph-name="oacute" horiz-adv-x="602" d="M301 -11Q219 -11 158 20T63 109T29 246Q29 326 63 383T158 472T301 503Q383 503 444 472T538 384T572 246Q572 167 539 109T444 20T301 -11ZM301 120Q341 120 367 150T393 246Q393 313 367
342T301 372Q260 372 234 343T208 246Q208 180 234 150T301 120ZM244 557L345 762H512L358 557H244Z" />
<glyph unicode="&#xf4;" glyph-name="ocircumflex" horiz-adv-x="602" d="M301 -11Q219 -11 158 20T63 109T29 246Q29 326 63 383T158 472T301 503Q383 503 444 472T538 384T572 246Q572 167 539 109T444 20T301 -11ZM301 120Q341 120 367 150T393 246Q393 313
367 342T301 372Q260 372 234 343T208 246Q208 180 234 150T301 120ZM116 557L227 762H375L486 557H378L301 670L224 557H116Z" />
<glyph unicode="&#xf5;" glyph-name="otilde" horiz-adv-x="602" d="M301 -11Q219 -11 158 20T63 109T29 246Q29 326 63 383T158 472T301 503Q383 503 444 472T538 384T572 246Q572 167 539 109T444 20T301 -11ZM301 120Q341 120 367 150T393 246Q393 313 367
342T301 372Q260 372 234 343T208 246Q208 180 234 150T301 120ZM172 577L90 582Q95 661 132 704T226 747Q249 747 268 740T310 718Q331 704 344 699T371 694Q420 694 430 753L512 747Q508 668 471 625T377 582Q354 582 335 589T290 613Q255 636 232 636Q205 636
191 621T172 577Z" />
<glyph unicode="&#xf6;" glyph-name="odieresis" horiz-adv-x="602" d="M301 -11Q219 -11 158 20T63 109T29 246Q29 326 63 383T158 472T301 503Q383 503 444 472T538 384T572 246Q572 167 539 109T444 20T301 -11ZM301 120Q341 120 367 150T393 246Q393 313 367
342T301 372Q260 372 234 343T208 246Q208 180 234 150T301 120ZM329 582V732H479V582H329ZM123 582V732H273V582H123Z" />
<glyph unicode="&#xf7;" glyph-name="divide" horiz-adv-x="600" d="M231 419V545H357V419H231ZM56 228V346H544V228H56ZM231 29V155H357V29H231Z" />
<glyph unicode="&#xf8;" glyph-name="oslash" horiz-adv-x="602" d="M171 -70L89 -22L125 40Q79 73 54 125T29 246Q29 326 63 383T158 472T301 503Q349 503 391 492L432 562L514 514L477 452Q522 419 547 367T572 246Q572 167 539 109T444 20T301 -11Q253 -11
212 0L171 -70ZM193 247Q193 205 205 176L325 379Q313 382 301 382Q252 382 223 349T193 247ZM301 111Q350 111 379 144T408 247Q408 287 397 316L278 113Q289 111 301 111Z" />
<glyph unicode="&#xf9;" glyph-name="ugrave" horiz-adv-x="601" d="M236 -11Q140 -11 95 41T49 202V492H227V197Q227 125 289 125Q325 125 348 151T371 220V492H549V0H375V61Q327 -11 236 -11ZM243 557L89 762H256L357 557H243Z" />
<glyph unicode="&#xfa;" glyph-name="uacute" horiz-adv-x="601" d="M236 -11Q140 -11 95 41T49 202V492H227V197Q227 125 289 125Q325 125 348 151T371 220V492H549V0H375V61Q327 -11 236 -11ZM243 557L344 762H511L357 557H243Z" />
<glyph unicode="&#xfb;" glyph-name="ucircumflex" horiz-adv-x="601" d="M236 -11Q140 -11 95 41T49 202V492H227V197Q227 125 289 125Q325 125 348 151T371 220V492H549V0H375V61Q327 -11 236 -11ZM115 557L226 762H374L485 557H377L300 670L223 557H115Z" />
<glyph unicode="&#xfc;" glyph-name="udieresis" horiz-adv-x="601" d="M236 -11Q140 -11 95 41T49 202V492H227V197Q227 125 289 125Q325 125 348 151T371 220V492H549V0H375V61Q327 -11 236 -11ZM328 582V732H478V582H328ZM122 582V732H272V582H122Z" />
<glyph unicode="&#xfd;" glyph-name="yacute" horiz-adv-x="541" d="M82 -180L181 34L-20 492H167L275 213L387 492H563L262 -180H82ZM214 557L315 762H482L328 557H214Z" />
<glyph unicode="&#xfe;" glyph-name="thorn" horiz-adv-x="620" d="M52 -180V705H230V432Q251 465 290 484T376 503Q439 503 487 472T563 384T591 246Q591 167 564 109T489 20T376 -11Q330 -11 291 8T230 59V-180H52ZM320 120Q360 120 386 150T412 246Q412 313
386 342T320 372Q279 372 253 343T227 246Q227 180 253 150T320 120Z" />
<glyph unicode="&#xff;" glyph-name="ydieresis" horiz-adv-x="541" d="M82 -180L181 34L-20 492H167L275 213L387 492H563L262 -180H82ZM299 582V732H449V582H299ZM93 582V732H243V582H93Z" />
<glyph unicode="&#x2013;" glyph-name="endash" horiz-adv-x="500" d="M0 218V319H500V218H0Z" />
<glyph unicode="&#x2014;" glyph-name="emdash" horiz-adv-x="1000" d="M0 218V319H1000V218H0Z" />
<glyph unicode="&#x2018;" glyph-name="quoteleft" horiz-adv-x="272" d="M43 377V491Q43 554 66 606T144 714L212 661Q158 607 145 559H228V377H43Z" />
<glyph unicode="&#x2019;" glyph-name="quoteright" horiz-adv-x="272" d="M127 367L60 421Q114 475 127 523H43V705H228V590Q228 527 206 475T127 367Z" />
<glyph unicode="&#x201a;" glyph-name="quotesinglbase" horiz-adv-x="272" d="M127 -155L60 -102Q87 -75 103 -51T127 0H43V182H228V67Q228 4 206 -48T127 -155Z" />
<glyph unicode="&#x201c;" glyph-name="quotedblleft" horiz-adv-x="502" d="M43 377V491Q43 554 66 606T144 714L212 661Q158 607 145 559H228V377H43ZM273 377V491Q273 554 296 606T374 714L442 661Q388 607 375 559H458V377H273Z" />
<glyph unicode="&#x201d;" glyph-name="quotedblright" horiz-adv-x="502" d="M127 367L60 421Q114 475 127 523H43V705H228V590Q228 527 206 475T127 367ZM357 367L290 421Q344 475 357 523H273V705H458V590Q458 527 436 475T357 367Z" />
<glyph unicode="&#x201e;" glyph-name="quotedblbase" horiz-adv-x="502" d="M127 -155L60 -102Q87 -75 103 -51T127 0H43V182H228V67Q228 4 206 -48T127 -155ZM357 -155L290 -102Q317 -75 333 -51T357 0H273V182H458V67Q458 4 436 -48T357 -155Z" />
<glyph unicode="&#x2022;" glyph-name="bullet" horiz-adv-x="524" d="M262 88Q213 88 172 111T106 175T81 265Q81 311 104 351T169 417T262 443Q310 443 351 420T418 357T443 265Q443 216 419 176T353 112T262 88Z" />
<glyph unicode="&#x2039;" glyph-name="guilsinglleft" horiz-adv-x="320" d="M169 61L63 223V310L167 472L283 418L214 267L283 114L169 61Z" />
<glyph unicode="&#x203a;" glyph-name="guilsinglright" horiz-adv-x="320" d="M151 61L37 114L106 267L37 418L153 472L257 310V223L151 61Z" />
</font>
</defs>
</svg>
