<?xml version="1.0" standalone="no"?>
<!DOCTYPE svg PUBLIC "-//W3C//DTD SVG 1.1//EN" "http://www.w3.org/Graphics/SVG/1.1/DTD/svg11.dtd">
<svg xmlns="http://www.w3.org/2000/svg">
<defs >
<font id="EBGaramond" horiz-adv-x="528" ><font-face
    font-family="EB Garamond Medium"
    units-per-em="1000"
    panose-1="0 0 0 0 0 0 0 0 0 0"
    ascent="1007"
    descent="-298"
    alphabetic="0" />
<glyph unicode=" " glyph-name="space" horiz-adv-x="213" />
<glyph unicode="!" glyph-name="exclam" horiz-adv-x="264" d="M130 195Q121 195 116 204T108 238Q102 286 96 335T86 432T80 518T77 583Q76 609 92 629T134 649Q158 649 173 630T188 583Q188 557 185 518T176 432T164 335T152 238Q150 220 145 208T130 195ZM131
-14Q104 -14 85 5T66 50Q66 77 85 96T131 115Q158 115 176 96T195 50Q195 24 177 5T131 -14Z" />
<glyph unicode="&quot;" glyph-name="quotedbl" horiz-adv-x="354" d="M75 431Q70 431 68 440T66 456Q67 473 67 487T66 516Q66 536 65 558T63 597T62 619Q62 631 69 641T84 656Q98 667 108 673T133 679Q142 679 146 669T151 645Q151 617 142 581T120 512T97 458Q93
449 86 440T75 431ZM216 431Q211 431 209 440T207 456Q208 473 208 487T207 516Q207 536 206 558T204 597T203 619Q203 631 210 641T225 656Q239 667 249 673T274 679Q283 679 287 669T292 645Q292 617 283 581T261 512T238 458Q234 449 227 440T216 431Z" />
<glyph unicode="#" glyph-name="numbersign" horiz-adv-x="474" d="M63 -84Q59 -84 56 -80T52 -70V-66L94 105L33 102Q26 102 21 106T16 117Q16 128 19 141T28 163T45 172L111 175L143 304L78 301Q71 300 66 305T61 315Q61 327 63 339T72 361T89 371L160 374L200
536Q202 549 212 552T235 556Q240 556 242 552T245 542Q245 541 245 540T244 536L205 376L318 381L359 547Q361 560 371 563T394 567Q399 567 401 563T404 553Q404 552 403 551T402 547L362 384L421 387Q429 387 433 383T438 372Q438 364 434 351T423 328T404 317L345
314L313 185L377 188Q384 188 389 184T394 173Q394 164 390 151T378 129T360 118L296 115L255 -54Q252 -66 243 -68T223 -71Q218 -71 215 -67T211 -57V-54L252 113L138 107L96 -66Q93 -78 84 -81T63 -84ZM155 177L269 182L300 311L187 306L155 177Z" />
<glyph unicode="$" glyph-name="dollar" horiz-adv-x="448" d="M173 -82Q165 -82 160 -76T156 -60L164 8Q165 13 163 15T157 17Q130 22 106 32T60 58Q56 62 52 67T46 78Q39 99 37 130T34 186Q34 198 52 198Q59 198 63 196T69 187Q83 138 107 108T161 64Q164 63
167 63T170 68L194 277Q195 282 193 286T183 294Q150 314 120 337T70 390T51 463Q51 507 72 544T133 604T229 632Q239 633 239 639L246 694Q247 704 256 708T277 712Q283 712 287 706T291 693Q290 688 289 677T286 655T284 638Q284 632 291 631Q312 627 330 621T360
609Q369 607 374 601T381 585Q386 566 392 541T398 490Q398 485 394 483T383 480Q374 480 366 483T356 492Q342 529 324 552T281 585Q276 585 276 580L254 397Q253 390 255 387T271 375Q310 352 340 328T389 271T407 195Q407 115 355 67T216 14Q209 14 208 8L199
-68Q198 -75 190 -78T173 -82ZM223 56Q264 60 287 86T311 152Q311 193 294 215T244 259Q237 263 237 254L214 66Q214 56 223 56ZM204 418Q212 413 212 419L231 582Q232 591 224 590Q190 586 168 566T145 500Q145 476 161 457T204 418Z" />
<glyph unicode="%" glyph-name="percent" horiz-adv-x="668" d="M151 263Q109 263 80 288T35 353T19 437Q19 485 37 525T88 590T166 615Q207 615 235 592T279 530T295 448Q295 398 278 356T228 289T151 263ZM161 288Q188 288 201 311T218 368T222 436Q222 471
217 505T198 563T155 587Q130 587 117 566T98 512T93 448Q93 421 95 393T105 342T125 303T161 288ZM512 646Q520 658 530 661T555 665Q561 665 566 661T571 650Q571 647 570 646L142 -32Q135 -43 125 -45T102 -48Q95 -48 89 -44T83 -35Q83 -33 84 -32L512 646ZM504
-17Q462 -17 433 8T388 73T372 157Q372 205 390 245T441 310T519 335Q560 335 588 312T632 250T648 168Q648 118 631 76T581 9T504 -17ZM514 8Q541 8 554 31T571 88T575 156Q575 191 570 225T551 283T508 307Q483 307 470 286T451 232T446 168Q446 141 448 113T458
62T478 23T514 8Z" />
<glyph unicode="&amp;" glyph-name="ampersand" horiz-adv-x="771" d="M211 -15Q163 -15 123 2T60 52T36 128Q36 201 81 253T199 340L219 349L207 363Q198 374 182 390T154 429T141 481Q141 516 162 543T219 584T295 599Q339 599 369 582T416 537T432 482Q433
441 405 414T327 369L310 363L325 346Q360 310 390 280T449 211L463 193L479 210Q502 233 523 261T559 312T573 345Q573 354 565 363T545 375Q541 377 536 380T530 388Q530 397 539 399T555 401Q561 401 576 400T607 397T634 395Q651 395 671 399T710 407T742 412Q746
412 751 409T756 402Q756 395 747 388T728 380Q702 377 682 366T648 341Q641 336 624 318T583 277T538 230T500 191T479 171L496 147Q528 104 558 77T624 50Q643 50 663 53T702 66Q706 68 711 70T721 72Q728 72 731 70T735 59Q735 49 714 31T660 -1T594 -15Q556
-15 530 -4T482 31T434 92L420 113L414 107Q383 73 353 45T289 1T211 -15ZM253 60Q294 60 327 76T394 126L402 134L389 153Q362 192 326 231T249 314L237 328L217 319Q181 304 163 281T138 230T132 176Q132 126 165 93T253 60ZM294 382L306 389Q330 401 341 428T352
484Q352 517 337 543T290 570Q264 570 244 553T224 510Q224 487 228 470T245 437T277 400L294 382Z" />
<glyph unicode="&apos;" glyph-name="quotesingle" horiz-adv-x="213" d="M75 431Q70 431 68 440T66 456Q67 473 67 487T66 516Q66 536 65 558T63 597T62 619Q62 631 69 641T84 656Q98 667 108 673T133 679Q142 679 146 669T151 645Q151 617 142 581T120 512T97
458Q93 449 86 440T75 431Z" />
<glyph unicode="(" glyph-name="parenleft" horiz-adv-x="311" d="M238 -214Q225 -214 217 -206Q196 -185 172 -146T124 -57T81 49T50 161T39 268Q39 332 55 396T98 517T155 619T212 692Q218 698 227 701T246 705Q252 705 262 700T273 686Q273 684 270 679T262
669T257 662Q228 628 200 570T153 438T134 278Q134 216 144 150T171 22T209 -88T252 -163Q254 -164 258 -169T267 -180T271 -187Q271 -199 261 -206T238 -214Z" />
<glyph unicode=")" glyph-name="parenright" horiz-adv-x="311" d="M74 -214Q61 -214 51 -207T40 -187Q40 -185 44 -180T53 -170T59 -163Q81 -137 102 -89T140 22T167 150T178 278Q178 363 159 437T112 570T54 662Q53 663 50 668T42 679T38 686Q38 694 48 699T66
705Q75 705 84 702T99 692Q126 665 156 620T212 517T256 396T273 268Q273 218 262 162T231 49T188 -57T140 -146T95 -206Q86 -214 74 -214Z" />
<glyph unicode="*" glyph-name="asterisk" horiz-adv-x="346" d="M188 365Q180 365 174 371T166 388L153 473Q139 464 120 452T79 427Q76 424 72 423T64 422Q56 422 50 427T43 440Q43 452 54 462L121 515Q106 523 86 533T45 554Q39 557 35 564T30 577Q30 590 41
594T62 594Q84 585 104 577T143 562Q141 582 140 603T138 648Q138 658 143 666T159 676Q168 675 174 669T181 653L193 568Q207 577 226 589T266 614Q269 617 273 618T281 620Q289 620 296 616T303 601Q303 590 292 580L225 526Q241 518 260 509T301 488Q308 485
312 479T317 465Q317 453 306 449T285 447Q263 457 243 464T204 479Q206 462 207 439T210 392Q210 382 205 374T188 365Z" />
<glyph unicode="+" glyph-name="plus" horiz-adv-x="594" d="M283 -9Q279 -9 275 -5T270 6V214Q270 221 264 221H59Q53 221 49 225T44 233Q44 239 46 249T54 267T70 275H261Q268 275 269 277T270 285V459Q270 470 279 477T300 487T317 491Q322 491 326 486T331
475V283Q331 275 336 275H541Q547 275 552 272T557 263Q557 250 548 236T525 221H338Q331 221 331 215V16Q331 6 321 1T300 -7T283 -9Z" />
<glyph unicode="," glyph-name="comma" horiz-adv-x="236" d="M41 -153Q21 -153 21 -140Q21 -135 25 -132T37 -127Q61 -121 82 -109T116 -77T130 -25Q130 -11 119 3T90 19Q70 22 58 34T45 66Q45 88 63 103T105 118Q144 118 169 90T194 19Q194 -20 179 -51T141
-106T91 -141T41 -153Z" />
<glyph unicode="-" glyph-name="hyphen" horiz-adv-x="289" d="M35 168Q28 168 28 175Q28 197 33 214T46 232Q96 240 148 247T250 258Q256 259 258 257T261 249Q261 227 257 212T240 195Q192 187 140 180T35 168Z" />
<glyph unicode="." glyph-name="period" horiz-adv-x="236" d="M118 -20Q92 -20 73 -1T54 44Q54 72 73 90T118 109Q145 109 163 91T182 44Q182 18 164 -1T118 -20Z" />
<glyph unicode="/" glyph-name="slash" horiz-adv-x="401" d="M37 -62Q26 -62 21 -57T19 -46L321 647Q326 659 337 662T362 666Q373 666 377 660T378 647L76 -46Q71 -56 60 -59T37 -62Z" />
<glyph unicode="0" glyph-name="zero" horiz-adv-x="497" d="M506 -14Q452 -14 413 14T347 88T307 191T294 302Q294 359 307 417T347 523T416 600T517 630Q571 630 611 602T677 528T716 426T729 316Q729 260 717 202T677 95T608 16T506 -14ZM523 19Q560 19 582
58T615 161T626 298Q626 353 618 406T594 502T554 570T499 596Q462 596 440 558T408 456T398 320Q398 265 406 211T429 114T468 45T523 19Z" />
<glyph unicode="1" glyph-name="one" horiz-adv-x="497" d="M110 -3Q104 -3 100 1T95 10Q95 21 111 25Q145 35 168 42T202 64T214 106V481Q214 501 202 512T171 527T129 534Q120 535 112 539T103 553Q103 562 111 567T130 574Q180 580 219 591T298 635Q299 636
301 636T305 637Q311 637 315 634T320 627Q318 613 317 596T315 556V97Q315 74 325 62T358 42T418 25Q425 23 430 20T435 9Q435 -3 421 -3Q395 -3 369 -2T317 1T266 2Q241 2 215 1T163 -1T110 -3Z" />
<glyph unicode="2" glyph-name="two" horiz-adv-x="497" d="M430 -3Q424 -3 406 -3T365 -1T316 1T270 2Q250 2 218 1T152 0T94 -1T62 -2Q59 -2 51 4T42 15Q42 21 45 24T52 31L214 203Q265 257 295 319T326 449Q326 498 298 527T228 557Q189 557 156 536T101 482Q97
476 91 471T78 466Q73 466 69 474T64 494Q64 507 79 529T121 575T185 614T265 630Q315 630 351 609T406 550T425 464Q425 437 415 405T387 343T349 288Q336 272 312 247T260 195T207 143T167 102T151 84Q151 80 165 78Q183 76 205 75T254 74Q281 74 307 75T359
78Q386 80 402 84T429 99T452 130Q456 136 463 144T478 152Q484 152 486 147T487 137Q484 125 477 105T463 63T452 20Q450 6 443 2T430 -3Z" />
<glyph unicode="3" glyph-name="three" horiz-adv-x="497" d="M165 -38Q143 -38 118 -31T76 -14T58 7Q58 16 64 28T81 49T99 58Q109 58 117 53T134 40Q147 27 164 15T209 2Q244 2 274 20T324 72T344 147Q344 186 332 221T295 277T235 299Q219 299 202 294T170
281Q164 278 156 282T150 292Q154 308 163 318T184 333Q200 341 221 353T262 383T295 423T308 471Q308 509 283 537T219 566Q183 566 161 553T125 523T103 493T90 480Q85 480 79 486T72 501Q72 512 83 533T117 577T178 614T268 630Q303 630 334 615T384 574T404
513Q404 490 393 463T356 410T288 365Q285 364 285 362T289 359Q335 359 371 339T428 283T450 203Q450 147 426 103T361 27T270 -21T165 -38Z" />
<glyph unicode="4" glyph-name="four" horiz-adv-x="497" d="M211 -3Q206 -3 199 0T192 11Q192 17 198 20T212 25Q256 32 271 45T286 85V165Q286 170 279 172T270 174Q232 174 195 173T119 170T31 167Q27 167 23 170T19 177Q19 179 22 182Q33 196 38 202T48 213T58
227L315 611Q322 622 332 632T351 642H367Q373 642 372 635T369 626L111 243Q109 239 109 236T114 232H275Q279 232 282 234T286 240V382Q286 396 287 400T297 409Q316 419 338 422T369 425Q383 425 385 408T388 356V236Q388 229 393 229Q405 228 413 228T432 228Q446
228 460 228T490 230Q501 230 501 223Q501 215 497 204T488 184T480 176Q469 176 457 176T431 177Q422 177 415 177T402 175Q398 174 394 172T389 169V88Q389 59 402 48T455 25Q462 24 468 20T475 9Q475 5 470 1T458 -3Q432 -3 413 -2T376 1T335 2Q311 2 293 1T256
-1T211 -3Z" />
<glyph unicode="5" glyph-name="five" horiz-adv-x="497" d="M117 -38Q105 -38 91 -36T76 -25Q76 -16 89 -11T114 -5Q186 -3 236 24T311 91T337 172Q337 210 315 239T245 293T114 339Q95 350 88 361T80 387Q80 401 85 423T99 469T114 516T126 552Q132 570 143
579T170 593Q191 598 218 603T275 613T333 622T383 628Q391 629 395 623T396 609Q393 599 387 588T376 565Q369 549 358 540T330 528Q312 526 287 524T237 520T192 517T161 513Q154 512 146 499T131 471T124 449Q123 442 126 438T136 432Q192 418 237 402T316 368Q375
338 403 296T431 196Q431 140 398 91T308 10Q284 -3 253 -14T188 -31T117 -38Z" />
<glyph unicode="6" glyph-name="six" horiz-adv-x="497" d="M261 -15Q203 -15 156 9T81 79T53 193Q53 249 66 294T98 375T138 436T172 476Q196 502 234 533T324 592T434 638Q445 642 454 640T461 633Q459 624 450 619T432 609Q369 582 325 546T244 457Q229 433
208 392T172 300T157 196Q158 141 177 103T225 45T283 25Q320 24 347 54T375 145Q375 176 364 201T334 243T291 260Q270 260 255 258T225 248Q213 242 211 248T215 264Q222 271 227 276T241 286Q253 296 283 309T340 323Q376 323 406 306T456 260T475 193Q475 149
458 111T410 45T342 1T261 -15Z" />
<glyph unicode="7" glyph-name="seven" horiz-adv-x="497" d="M142 -31Q130 -31 124 -23T118 -3Q118 1 126 15T141 41L409 521Q412 526 411 528T399 532H154Q129 532 113 524T79 489Q77 485 72 477T60 462T47 455Q42 455 39 460T36 470Q36 476 39 486T43 501Q48
527 54 559T62 613Q62 622 67 624T76 626Q81 626 107 622T164 617Q183 617 203 617T244 616T288 615Q333 615 375 615T450 617T493 620Q496 620 498 615T500 604Q500 597 494 585T478 560T463 535L162 -2Q158 -11 152 -21T142 -31Z" />
<glyph unicode="8" glyph-name="eight" horiz-adv-x="497" d="M250 -14Q200 -14 158 6T89 61T63 142Q63 184 86 213T141 262T199 297Q207 301 205 303T196 311Q166 336 140 360T97 415T80 486Q80 528 108 560T181 611T273 630Q315 630 353 613T416 566T440 493Q440
456 422 433T385 396Q372 386 361 379T335 360Q321 351 321 347T330 338Q367 312 396 288T442 235T459 167Q459 114 429 73T352 9T250 -14ZM265 20Q306 20 333 50T361 122Q361 152 344 179T300 230T248 273Q242 278 238 280T229 283Q226 283 217 276Q188 252 175
226T162 155Q162 121 174 91T209 40T265 20ZM299 366Q328 390 337 424T346 499Q346 540 327 569T265 599Q243 599 223 587T189 555T175 509Q175 475 189 453T227 413T283 368Q287 365 291 364T299 366Z" />
<glyph unicode="9" glyph-name="nine" horiz-adv-x="497" d="M72 -38Q62 -38 58 -35T54 -27Q54 -20 60 -16T73 -12Q105 -11 143 9T220 63T289 134Q317 171 337 210T369 294T381 389Q381 424 371 459T342 523T301 570T253 588Q224 588 204 572T173 531T163 476Q163
446 176 418T211 371T256 352Q282 352 295 359T323 373Q333 377 336 370T334 357Q329 348 321 340T305 326Q298 320 283 312T249 298T212 291Q177 291 143 308T88 356T66 425Q66 459 82 494T127 560T196 610T283 629Q321 629 357 610T421 559T466 485T482 400Q482
338 463 284T412 183T337 91Q311 64 277 41T206 0T134 -28T72 -38Z" />
<glyph unicode=":" glyph-name="colon" horiz-adv-x="260" d="M128 256Q102 256 83 275T64 320Q64 348 83 366T128 385Q155 385 173 367T192 320Q192 294 174 275T128 256ZM128 -20Q102 -20 83 -1T64 44Q64 72 83 90T128 109Q155 109 173 91T192 44Q192 18 174
-1T128 -20Z" />
<glyph unicode=";" glyph-name="semicolon" horiz-adv-x="235" d="M108 257Q82 257 63 276T44 321Q44 349 63 367T108 386Q135 386 153 368T172 321Q172 295 154 276T108 257ZM41 -153Q21 -153 21 -140Q21 -135 25 -132T37 -127Q61 -121 82 -109T116 -77T130 -25Q130
-11 119 3T90 19Q70 22 58 34T45 66Q45 88 63 103T105 118Q144 118 169 90T194 19Q194 -20 179 -51T141 -106T91 -141T41 -153Z" />
<glyph unicode="&lt;" glyph-name="less" horiz-adv-x="553" d="M484 -1L91 193Q78 200 63 208T48 221Q48 229 57 245T83 269L486 467Q491 470 494 470Q500 470 502 466T505 456Q505 445 497 429T472 405L133 235Q131 234 131 232T134 229L478 60Q493 53 499 37T506
11Q506 0 498 -2T484 -1Z" />
<glyph unicode="=" glyph-name="equal" horiz-adv-x="588" d="M63 315Q58 315 54 319T49 327Q49 332 51 341T59 359T74 367H523Q530 367 535 364T540 354Q540 344 530 330T508 315H63ZM63 140Q58 140 54 144T49 152Q49 158 51 167T59 184T74 192H523Q530 192 535
189T540 180Q540 167 530 154T508 140H63Z" />
<glyph unicode="&gt;" glyph-name="greater" horiz-adv-x="553" d="M69 466L462 272Q476 266 491 258T506 244Q506 237 496 221T471 196L68 -2Q64 -5 60 -5Q54 -5 51 -1T48 9Q48 20 57 36T81 60L420 230Q422 231 422 233T419 236L76 405Q61 412 55 428T48 454Q48
465 55 467T69 466Z" />
<glyph unicode="?" glyph-name="question" horiz-adv-x="383" d="M139 178Q134 178 126 186T114 208Q108 224 102 243T95 295Q95 324 123 346T202 393Q226 405 245 423T264 466Q264 509 240 535T172 562Q160 562 153 561T140 557Q134 556 128 555T113 554Q101
554 90 564T72 590T64 620Q64 636 80 648T115 661Q145 661 177 646T236 603Q263 576 282 543T312 476T323 416Q323 378 309 357T279 328Q259 318 246 310T221 295T192 277Q170 265 165 246T157 201Q157 193 153 186T139 178ZM148 -14Q122 -14 103 5T84 50Q84 77
103 96T148 115Q175 115 194 96T213 50Q213 24 194 5T148 -14Z" />
<glyph unicode="@" glyph-name="at" horiz-adv-x="760" d="M388 -139Q319 -139 257 -116T147 -49T72 52T44 182Q44 264 74 327T157 432T277 495T418 517Q477 517 530 496T626 436T692 347T716 238Q716 178 686 134T609 65T508 40Q485 40 474 49T457 68T446 78Q440
78 424 69T382 49T322 38Q270 38 233 68T196 154Q196 218 227 265T308 339T417 365Q433 365 453 362T484 356Q494 353 500 351T509 349Q514 349 518 355T526 366T535 371Q538 371 544 370T555 367T558 362Q551 342 544 316T534 276L513 142Q512 136 511 130T510
116Q510 105 514 96T528 87Q563 87 593 103T642 150T661 222Q661 294 626 350T533 438T400 471Q340 471 286 452T190 396T124 308T99 192Q99 132 123 81T188 -10T284 -70T399 -92Q432 -92 470 -82T545 -55T607 -18Q613 -13 619 -10T631 -6Q649 -6 649 -20Q649 -31
624 -50T560 -89T476 -124T388 -139ZM360 79Q377 79 390 85T419 101Q428 107 434 117T445 151L465 258Q466 260 466 263T466 270Q466 298 446 314T393 330Q365 330 339 313T295 261T278 177Q278 140 291 119T322 89T360 79Z" />
<glyph unicode="A" glyph-name="A" horiz-adv-x="702" d="M25 -5Q13 -5 5 -2T-3 9Q-3 17 5 22T27 32Q54 40 76 56T112 105Q139 166 162 221T206 331T249 442T294 565Q303 588 307 603T312 631Q325 634 336 637T360 648Q372 654 378 665T389 682Q391 683 393 683T398
680Q401 675 402 669T406 656Q429 583 453 508T502 360T547 227T583 119Q594 86 609 69T641 43T678 30Q693 27 700 21T708 7Q708 1 701 -1T682 -4Q666 -4 640 -3T586 0T535 1Q516 1 493 1T450 0T414 -1Q402 -1 395 2T387 12Q387 20 396 25T417 32Q451 38 466 50T479
82Q478 99 472 124T458 178T443 231Q441 239 436 241T419 243H234Q229 243 225 240T217 226Q214 214 208 196T195 157T185 119T179 93Q176 68 191 54T238 31Q268 23 268 11Q268 4 261 2T241 -1Q222 -1 197 0T144 1Q112 1 82 -2T25 -5ZM262 284H408Q422 284 422
289Q422 292 422 294T420 300L346 537Q341 553 338 553Q336 553 331 538L244 300Q242 294 242 292Q242 287 247 286T262 284Z" />
<glyph unicode="B" glyph-name="B" horiz-adv-x="601" d="M44 -5Q32 -5 25 -2T18 7Q18 20 47 26Q84 34 102 48T120 98V550Q120 584 106 600T55 621Q40 623 33 628T26 641Q26 647 33 650T52 654Q81 654 98 653T130 652T167 651Q188 651 203 652T238 655T289 657Q407
657 466 624T525 508Q525 475 513 449T485 409Q469 394 455 385T416 368Q412 367 412 364T416 358Q440 351 465 341T514 313T550 267T564 194Q564 139 547 107T505 57T460 29Q428 13 387 5T288 -4Q268 -4 240 -2T178 0Q154 0 134 -1T92 -3T44 -5ZM297 42Q337 42
370 61T424 113T445 188Q445 226 434 250T407 290T380 312Q368 320 343 328T278 336Q252 336 239 325T225 301V110Q225 72 244 57T297 42ZM269 370Q295 370 322 376T377 399Q387 405 402 427T417 492Q417 526 407 555T368 603T286 622Q250 622 238 611T225 578V407Q225
383 241 377T269 370Z" />
<glyph unicode="C" glyph-name="C" horiz-adv-x="710" d="M406 -15Q334 -15 268 9T150 77T70 183T40 321Q40 392 70 454T153 563T278 636T432 663Q469 663 498 660T554 650T612 634Q625 630 631 623T639 602Q642 576 644 548T648 486Q648 477 641 473T624 471T612
485Q603 518 591 544T556 587Q533 605 498 615T418 625Q362 625 315 602T235 540T184 450T165 346Q165 283 182 225T233 122T315 51T423 24Q495 24 542 56T621 150Q628 164 642 164T656 148Q656 138 653 121T643 83T631 45Q625 32 620 27T601 17Q563 1 512 -7T406
-15Z" />
<glyph unicode="D" glyph-name="D" horiz-adv-x="758" d="M375 -7Q356 -7 320 -5T242 -2T169 0Q149 0 132 -1T95 -3T51 -4Q40 -4 33 -1T25 9Q25 17 32 20T54 27Q92 34 106 49T121 98V550Q121 584 107 598T54 621Q39 624 32 628T25 640Q25 647 32 650T51 654Q76
654 95 653T132 652T173 651Q189 651 214 652T267 655T319 658T356 659Q448 659 517 635T633 568T702 466T726 340Q726 270 701 208T628 97T516 21T375 -7ZM362 34Q436 34 491 70T576 170T606 319Q606 390 585 445T529 540T447 599T349 620Q310 620 283 618T241
604T227 567V125Q227 87 245 68T295 41T362 34Z" />
<glyph unicode="E" glyph-name="E" horiz-adv-x="568" d="M57 -5Q45 -5 38 -2T31 7Q31 20 60 26Q97 34 113 48T130 98V550Q130 584 116 599T65 621Q50 624 43 629T36 641Q36 647 43 650T62 654Q95 654 121 653T173 651T229 650Q269 650 313 650T394 652Q428 652
450 653T477 655Q483 655 489 653T497 643Q502 612 507 583T513 531Q513 521 509 518T499 514Q494 514 491 517T485 526Q478 546 472 562T458 587Q445 601 428 608T390 615H278Q265 615 251 606T236 579V375Q236 365 242 359T256 353H351Q380 353 391 366T409 406Q416
426 428 426Q433 426 437 422T441 408Q441 402 440 388T438 359T437 335Q437 324 437 309T439 278T440 256Q441 247 439 242T431 236Q415 236 407 265Q401 291 391 304T360 317H267Q251 317 244 312T236 291V100Q236 65 251 52T297 38H376Q404 38 425 42T461 57Q478
69 491 88T518 135Q522 141 526 144T535 147Q541 147 543 143T546 131Q546 120 541 98T529 52T515 11Q512 4 508 0T498 -5Q462 -5 423 -4T343 -2T261 0T180 1Q159 1 140 0T102 -3T57 -5Z" />
<glyph unicode="F" glyph-name="F" horiz-adv-x="524" d="M51 -4Q40 -4 33 -2T26 8Q26 21 55 27Q93 34 107 49T121 99V530Q121 572 110 593T61 621Q45 624 38 629T31 641Q31 647 38 650T57 654Q90 654 115 653T166 651T221 650Q254 650 292 650T365 650Q400 650
427 655T474 660Q480 660 487 658T495 648Q497 633 498 610T499 566T500 535Q500 514 490 514Q485 514 480 518T473 528Q468 547 462 562T446 587Q432 602 415 607T377 613H268Q244 613 236 599T227 564Q227 546 227 520T227 470Q227 446 227 420T227 374Q227 365
230 359T242 352Q271 352 301 353T351 354Q375 354 389 367T411 399Q414 404 420 410T430 416Q435 416 439 411T443 398Q442 379 441 365T439 337Q439 320 440 306T443 269Q443 259 441 254T433 248Q424 248 418 256T410 272Q403 297 390 306T362 315Q350 315 338
315T313 316Q297 316 282 316T250 315Q240 314 234 309T227 290Q227 245 227 197T230 100Q231 68 245 51T299 27Q314 24 321 20T328 8Q328 2 321 -1T303 -4Q277 -4 258 -3T221 0T184 2Q162 2 141 1T99 -2T51 -4Z" />
<glyph unicode="G" glyph-name="G" horiz-adv-x="726" d="M387 -14Q317 -14 255 10T144 78T67 182T39 312Q39 384 67 448T146 560T264 635T411 663Q429 663 457 660T517 652T573 641T611 629Q617 627 620 624T624 613Q628 582 631 553T634 503Q634 495 630 489T619
483Q608 483 603 491T594 508Q587 525 579 539T557 569Q549 579 531 590T483 611T410 620Q353 620 307 597T229 532T180 439T163 330Q163 260 181 204T232 109T309 50T402 29Q449 29 472 41T505 61Q516 71 524 90T533 134Q533 143 533 155T534 179T535 201Q535
212 533 220T524 233Q515 242 498 247T465 256T438 260Q432 260 424 265T416 279Q416 286 424 290T437 295Q461 295 482 294T526 292T573 291Q599 291 622 293T674 295Q679 295 686 292T693 279Q693 271 686 266T673 260Q649 253 640 242T627 211Q624 189 623 172T622
136V107Q622 102 624 99T630 90Q633 85 637 81T642 71Q642 67 640 61T626 52Q619 51 599 41T548 18T477 -4T387 -14Z" />
<glyph unicode="H" glyph-name="H" horiz-adv-x="807" d="M56 -4Q45 -4 38 -1T31 9Q31 21 59 27Q96 34 108 49T120 98V551Q120 585 111 599T65 621Q36 627 36 640Q36 646 42 650T61 654Q87 654 105 653T139 651T176 650Q197 650 214 650T251 652T296 653Q322 653
322 640Q322 632 315 628T293 621Q255 612 241 596T226 551V360Q226 353 230 351T240 349H574Q583 349 583 362V551Q583 579 570 595T517 621Q502 624 495 628T488 640Q488 653 513 653Q538 653 559 652T599 651T640 650Q659 650 673 651T704 653T747 654Q759 654
766 650T773 640Q773 627 744 621Q707 613 698 598T689 552V99Q689 64 699 49T746 27Q774 21 774 9Q774 3 767 0T748 -4Q724 -4 706 -3T670 0T633 1Q612 1 595 0T557 -2T512 -4Q500 -4 494 -1T487 9Q487 17 493 20T515 27Q549 34 566 50T583 97V290Q583 296 582
300T575 305H234Q226 305 226 293V104Q226 74 246 54T301 27Q316 24 323 21T330 9Q330 3 323 0T304 -4Q279 -4 258 -3T218 0T176 1Q156 1 138 0T101 -2T56 -4Z" />
<glyph unicode="I" glyph-name="I" horiz-adv-x="348" d="M44 -4Q33 -4 26 -2T18 8Q18 21 47 27Q85 34 103 49T121 98V550Q121 584 107 598T55 621Q26 627 26 641Q26 648 33 651T51 654Q77 654 97 653T137 651T178 650Q199 650 217 650T255 652T300 653Q312 653
319 651T326 641Q326 633 319 629T297 621Q258 612 243 598T227 550V98Q227 65 246 50T302 27Q317 24 324 20T331 8Q331 2 325 -1T306 -4Q281 -4 260 -3T220 0T178 1Q154 1 134 0T91 -2T44 -4Z" />
<glyph unicode="J" glyph-name="J" horiz-adv-x="350" d="M42 -200Q-74 -200 -74 -148Q-74 -130 -59 -114T-30 -97Q-18 -97 -7 -102T15 -121Q30 -140 40 -149T63 -159Q96 -159 112 -118T128 2V551Q128 585 114 599T62 621Q33 627 33 641Q33 648 40 651T59 654Q84
654 104 653T144 651T185 650Q204 650 220 650T254 652T297 653Q308 653 315 651T322 641Q322 633 315 629T293 621Q255 612 245 598T234 551V61Q234 24 222 -11T192 -78T154 -132Q131 -161 103 -180T42 -200Z" />
<glyph unicode="K" glyph-name="K" horiz-adv-x="710" d="M55 -5Q43 -5 35 -2T26 8Q26 21 57 27Q95 34 108 49T122 100V551Q122 585 108 599T55 621Q26 627 26 641Q26 648 33 651T52 654Q78 654 97 653T135 652T175 651Q194 651 210 651T245 652T289 653Q301 653
307 651T314 641Q314 633 307 629T285 621Q247 612 238 596T228 551V358Q228 353 229 347T235 340Q240 340 247 345T261 357L458 562Q466 571 470 578T475 593Q475 612 448 618Q433 622 427 626T420 639Q420 645 427 648T446 651H505Q536 651 570 652T634 654T680
655Q690 655 696 652T703 643Q703 635 695 630T671 622Q630 615 591 600T519 558Q485 530 455 502T396 445T333 379Q324 371 337 357L578 96Q597 75 610 63T641 42T685 27Q700 23 709 20T718 8Q718 2 709 -1T685 -5Q656 -5 632 -4T585 -1T532 1Q508 1 489 0T436
-2Q425 -2 418 1T410 11Q410 23 435 29Q467 36 467 52Q467 58 463 64T452 79L257 298Q251 304 245 309T234 314Q230 314 229 308T228 295Q228 248 229 205T232 107Q233 86 238 70T256 44T294 27Q309 24 317 20T325 8Q325 2 317 -1T296 -5Q268 -5 251 -3T219 1T185
3Q162 3 144 1T105 -3T55 -5Z" />
<glyph unicode="L" glyph-name="L" horiz-adv-x="585" d="M50 -5Q39 -5 32 -1T25 8Q25 16 33 20T46 26Q84 35 102 49T121 96V557Q121 581 116 592T98 610T59 621Q30 627 30 641Q30 648 37 651T56 654Q81 654 101 653T139 651T179 650Q202 650 223 650T266 652T313
653Q325 653 331 651T338 641Q338 633 331 629T309 621Q271 612 249 602T227 562V99Q227 68 240 55T296 41H412Q438 41 457 49T488 67Q507 84 517 99T540 141Q545 152 551 162T564 172Q571 172 574 166T577 153Q577 151 576 148T575 142Q568 115 562 94T553 54T547
13Q546 6 543 1T532 -5Q493 -5 449 -4T360 -3T272 -1T188 0Q164 0 135 -1T81 -3T50 -5Z" />
<glyph unicode="M" glyph-name="M" horiz-adv-x="907" d="M47 -4Q34 -4 27 -2T19 8Q19 15 27 18T51 26Q75 32 91 51T113 104Q123 179 131 255T145 401T153 525Q153 532 153 541T152 558Q152 569 149 578T134 595Q118 608 102 613T66 623Q55 625 49 630T42 643Q42
652 51 654T74 656Q86 656 107 655T153 653T200 650T238 649Q245 649 251 645T259 632Q264 614 269 595T282 556L436 173Q439 167 445 166T455 171L633 554Q639 577 643 598T652 635Q655 648 664 648H702Q736 648 774 652T832 657Q839 657 847 655T855 645Q855
637 849 633T830 624Q819 620 806 615T782 605Q766 598 757 587T749 556Q749 485 752 427T757 315T764 209T771 96Q773 67 792 51T846 27Q860 24 867 20T875 8Q875 2 868 -1T849 -4Q824 -4 803 -3T762 0T719 1Q699 1 682 0T646 -2T601 -4Q590 -4 583 -2T575 8Q575
15 582 20T604 27Q636 32 648 47T660 96Q659 165 658 224T653 340T647 462Q647 471 643 471T633 461L417 -3Q414 -11 406 -11T396 -3Q353 114 306 227T206 465Q203 471 198 470T191 462Q184 399 179 340T171 223T168 103Q168 75 185 55T236 27Q251 24 259 20T268
8Q268 2 260 -1T240 -4Q213 -4 199 -3T174 -1T143 0Q124 0 110 -1T81 -3T47 -4Z" />
<glyph unicode="N" glyph-name="N" horiz-adv-x="798" d="M672 -18Q662 -18 635 -3T581 48Q570 60 548 86T495 148T430 223T361 302T296 377T242 439T206 478Q201 485 197 489T188 493Q184 493 182 486T180 472Q179 424 179 361T179 232T178 107Q178 78 194 57T248
27Q262 24 270 20T279 8Q279 2 271 -1T251 -4Q224 -4 210 -3T183 -1T151 0Q132 0 119 -1T92 -3T60 -4Q49 -4 41 -2T32 8Q32 15 40 19T63 28Q90 36 103 57T118 109Q122 147 126 209T134 348T137 507Q137 560 110 583T41 620Q36 622 24 628T11 643Q11 652 20 655T35
658Q61 657 80 657T118 655T156 654T203 653Q212 653 217 649T226 638Q237 625 260 597T315 531T383 451T455 365T523 284T578 219T612 179Q616 175 622 168T634 161Q643 161 644 180Q644 200 644 240T644 333T645 444T644 561Q643 583 623 598T580 619Q566 621
554 626T542 639Q542 645 554 648T577 651Q592 651 603 651T626 651T648 651Q671 651 685 651T715 653T761 654Q773 654 780 651T788 641Q788 627 757 621Q721 614 708 603T694 565Q694 549 693 513T692 427T690 324T689 218T689 124Q689 100 691 78T694 39T696
14Q696 -5 689 -11T672 -18Z" />
<glyph unicode="O" glyph-name="O" horiz-adv-x="762" d="M376 -14Q309 -14 249 9T141 76T67 180T39 315Q39 383 61 445T127 557T236 635T385 664Q453 664 513 641T621 574T695 470T723 335Q723 268 701 205T635 93T526 15T376 -14ZM392 28Q462 28 508 60T578
151T602 285Q602 352 588 412T544 519T471 593T368 620Q300 620 254 588T184 499T160 366Q160 298 174 238T217 131T289 56T392 28Z" />
<glyph unicode="P" glyph-name="P" horiz-adv-x="571" d="M47 -4Q36 -4 29 -2T21 8Q21 21 50 27Q88 34 104 49T121 99V530Q121 572 110 593T61 621Q45 624 38 629T31 641Q31 647 38 650T57 654Q83 654 100 654T133 652T169 651Q190 651 210 653T249 657T289 659Q406
659 476 610T546 475Q546 414 522 362T446 279T316 247Q293 247 281 254T268 268Q268 274 274 278T285 283Q292 283 301 282T329 280Q383 280 410 329T438 462Q438 546 397 585T289 625Q261 625 245 615T228 580L227 107Q227 73 243 54T298 27Q312 24 319 20T327
8Q327 2 320 -1T301 -4Q276 -4 257 -3T220 0T183 2Q159 2 138 1T95 -2T47 -4Z" />
<glyph unicode="Q" glyph-name="Q" horiz-adv-x="762" d="M739 -248Q671 -248 616 -228T512 -172Q474 -145 441 -121T362 -59Q333 -33 304 -17T248 10Q210 27 173 52T105 114T57 201T39 315Q39 383 61 445T127 557T236 635T385 664Q453 664 513 641T621 574T695
470T723 335Q723 262 697 195T619 77T491 3Q482 1 482 -5Q482 -10 487 -14Q514 -42 542 -67T607 -120Q657 -157 700 -171T795 -186Q811 -186 824 -185T844 -181Q849 -179 854 -179T864 -178Q881 -178 881 -190Q881 -199 877 -204T862 -217Q836 -233 804 -240T739
-248ZM392 29Q497 29 549 98T602 285Q602 352 588 412T544 519T471 592T368 619Q265 619 213 551T160 366Q160 298 174 238T217 130T289 56T392 29Z" />
<glyph unicode="R" glyph-name="R" horiz-adv-x="730" d="M640 -21Q604 -21 576 -14T525 9T484 46Q461 76 440 104T395 167T341 254Q328 279 304 291Q287 300 270 303T241 308Q234 308 231 303T227 288V107Q227 75 243 55T298 27Q312 24 319 20T327 8Q327 2 320
-1T301 -4Q276 -4 257 -3T220 0T183 2Q159 2 138 1T95 -2T47 -4Q36 -4 29 -2T21 8Q21 21 50 27Q88 34 104 49T121 99V533Q121 567 117 584T101 609T61 621Q45 623 38 628T31 641Q31 647 38 650T57 654Q86 654 102 653T132 652T169 651Q189 651 205 652T241 655T292
657Q404 657 463 617T523 494Q523 449 505 417T458 364T402 331Q398 330 398 327T401 318Q432 272 460 231T521 151T596 73Q624 47 654 42T720 37Q735 37 735 23Q735 6 720 -3T682 -17T640 -21ZM275 334Q318 334 348 353T395 405T412 476Q412 519 401 552T361 603T278
622Q250 622 240 603T229 529Q228 505 228 465T227 370Q227 346 240 340T275 334Z" />
<glyph unicode="S" glyph-name="S" horiz-adv-x="475" d="M209 -15Q167 -15 130 -4T62 31Q58 35 54 40T47 52Q40 75 38 109T34 171Q34 178 40 181T54 185Q61 185 65 183T72 173Q93 97 134 60T223 22Q257 22 281 37T320 77T334 135Q334 173 321 197T283 240T221
281Q181 305 143 331T79 392T54 478Q54 532 79 573T154 639T272 664Q308 664 337 657T385 641Q394 638 399 631T408 614Q413 593 419 565T425 508Q425 497 409 497Q400 497 392 501T382 511Q362 567 333 596T258 625Q228 625 204 615T165 581T150 519Q150 492 168
469T218 424T289 379Q330 354 363 327T415 266T434 183Q434 120 406 76T328 8T209 -15Z" />
<glyph unicode="T" glyph-name="T" horiz-adv-x="679" d="M211 -4Q200 -4 192 -2T184 8Q184 15 192 19T214 27Q252 34 271 50T290 101V497Q290 541 288 563T282 594T271 605Q259 608 244 608T209 609H170Q144 609 119 598T80 565Q76 559 69 549T52 531T34 523Q29
523 27 527T24 537Q24 548 30 559Q46 591 53 615T64 672Q66 688 72 692T84 696Q89 696 97 684T111 663Q119 654 141 649T182 644L543 645Q574 645 594 649T628 659Q642 666 650 674T671 683Q675 683 677 677T679 662Q679 658 678 650T676 637Q672 618 669 607T664
587T662 562V548Q662 536 658 525T646 514Q638 514 633 524T623 555Q617 581 597 595T529 609H445Q425 609 414 603T400 573T396 497V101Q396 67 415 51T473 27Q487 24 494 20T502 8Q502 2 495 -1T476 -4Q451 -4 430 -3T389 0T347 1Q323 1 302 0T259 -2T211 -4Z"
/>
<glyph unicode="U" glyph-name="U" horiz-adv-x="740" d="M372 -14Q282 -14 221 18T129 108T98 245V544Q98 577 85 596T51 619Q19 628 19 641Q19 648 27 651T47 654Q73 654 100 652T155 650Q180 650 207 651T255 653Q268 653 275 650T283 640Q283 632 273 628T245
617Q232 612 219 594T205 543V269Q205 193 230 144T299 72T398 49Q497 49 543 114T590 295Q590 318 590 353T590 427T588 501Q587 534 583 557T568 597T542 618Q532 622 520 627T507 640Q507 646 515 649T536 652Q564 652 580 651T619 650Q636 650 649 651T676
653T703 654Q715 654 723 651T731 641Q731 628 700 621Q671 614 660 594T646 541Q641 459 640 391T637 254Q636 176 601 115T506 20T372 -14Z" />
<glyph unicode="V" glyph-name="V" horiz-adv-x="684" d="M329 -14Q319 -14 314 -4Q309 9 302 30T288 66L101 548Q91 575 74 593T30 619Q16 624 8 628T0 641Q0 648 7 650T26 653Q44 653 65 652T111 651T157 650Q177 650 199 651T243 652T278 653Q289 653 297 650T306
641Q306 633 298 628T275 620Q246 616 229 607T212 581Q212 568 215 557T221 539L360 166Q362 161 365 160T371 167L500 508Q520 560 505 587T453 619Q439 621 430 626T421 640Q421 646 429 649T450 652Q466 652 481 652T512 651T548 650Q577 650 607 652T660 654Q673
654 681 652T690 641Q690 634 682 630T659 621Q624 613 601 589T564 531L389 107Q382 91 374 71T359 32T343 -4Q341 -9 338 -11T329 -14Z" />
<glyph unicode="W" glyph-name="W" horiz-adv-x="953" d="M347 -16Q343 -16 339 -8T331 11L102 554Q91 579 75 595T32 619Q18 624 9 628T0 641Q0 648 8 650T28 653Q53 653 79 652T132 650Q161 650 188 651T236 653Q249 653 257 650T265 641Q265 633 257 629T233
620Q219 617 216 608T212 588Q212 575 215 563T219 550Q241 496 260 449T298 357T337 266T380 166Q385 155 388 155T396 165L466 326Q469 333 470 338T472 348Q472 353 470 359T465 373L392 543Q380 572 355 592T302 619Q288 624 280 628T272 641Q272 648 279 650T298
653Q316 653 334 652T372 651T409 650Q434 650 457 651T501 653Q515 653 523 650T532 641Q532 633 524 629T506 619T492 605Q486 602 486 597T487 587Q490 581 495 565T508 531T522 495T533 470Q539 457 542 458T551 470Q558 487 567 509T583 553T593 583Q595 588
595 595Q595 608 585 614T565 625T554 640Q554 646 560 649T581 652Q604 652 612 651T635 650Q651 650 664 652T699 654Q711 654 719 651T728 641Q728 633 720 629T697 621Q666 614 654 602T628 568Q622 555 612 533T590 486T570 439Q566 430 565 418T567 397L660
163Q663 156 666 158T672 167Q701 240 734 339T801 540Q806 555 807 564T809 581Q808 595 802 605T779 619Q769 622 758 627T747 640Q747 646 755 649T776 652Q800 652 815 651T847 650Q869 651 890 652T933 654Q946 654 955 652T964 641Q964 634 955 630T932 621Q909
616 893 603T868 572T852 540L656 9Q654 3 649 -5T638 -13Q633 -13 628 -8T619 6Q598 54 580 96T544 186T499 292Q496 299 494 298T487 288Q465 237 446 195T409 108T369 12Q365 2 360 -7T347 -16Z" />
<glyph unicode="X" glyph-name="X" horiz-adv-x="722" d="M24 -6Q12 -6 4 -3T-5 7Q-5 15 3 19T26 29Q44 34 67 46T115 77T162 124L286 280Q297 295 300 309T289 344L152 536Q132 565 115 582T82 607T48 621Q34 625 26 630T18 643Q18 649 25 652T44 655Q76 655
119 652T203 649Q234 649 263 651T312 653Q324 653 332 650T341 641Q341 633 333 629T309 620Q283 613 269 607T255 586Q255 571 283 534L375 405Q386 390 392 390T407 402L505 534Q517 550 523 563T530 586Q530 598 520 606T486 619Q476 622 465 627T453 640Q453
646 461 649T483 652Q498 652 511 652T537 651T568 650Q597 650 625 653T677 656Q690 656 699 654T708 644Q708 636 699 632T676 624Q650 617 619 588T560 526L437 378Q424 363 422 355T427 333L587 105Q607 76 632 56T681 29Q696 25 705 20T715 7Q715 1 708 -2T687
-5Q665 -5 637 -4T581 -1T526 1Q495 1 467 0T417 -1Q405 -1 397 2T389 12Q389 19 399 24T420 32Q437 37 453 47T469 77Q469 84 467 91T458 106L352 258Q343 272 337 273T322 262L202 102Q195 92 193 84T190 69Q191 55 203 45T235 31Q250 27 258 23T267 10Q267 4
259 1T238 -2Q220 -2 195 -1T145 0Q112 0 82 -3T24 -6Z" />
<glyph unicode="Y" glyph-name="Y" horiz-adv-x="605" d="M186 -5Q173 -5 165 -2T157 7Q157 15 165 19T189 27Q227 34 245 54T263 109V253Q263 278 253 301T236 337L115 531Q107 544 94 563T64 598T30 619Q16 624 8 628T0 641Q0 648 7 650T26 653Q56 653 89 651T159
649Q186 649 209 651T255 653Q267 653 275 650T283 641Q283 633 275 629T252 620Q233 615 223 610T213 591Q213 577 225 555L321 382Q337 352 346 352Q351 352 357 359T373 382Q397 420 416 455T459 535Q467 550 471 561T475 582Q475 602 460 610T429 619Q419 621
408 626T397 640Q397 646 405 649T426 652Q451 652 469 651T510 650Q540 650 566 652T613 654Q626 654 634 652T643 641Q643 634 629 629T598 618Q570 611 552 591T510 535Q492 506 478 484T451 441T425 400T395 351Q384 333 379 320T372 293T370 259V109Q370 74
388 55T445 27Q460 24 468 20T477 8Q477 1 469 -2T448 -5Q423 -5 403 -4T362 -1T320 1Q297 1 276 0T233 -3T186 -5Z" />
<glyph unicode="Z" glyph-name="Z" horiz-adv-x="601" d="M529 -5Q497 -5 462 -5T389 -4T314 -2T241 -1Q209 -2 177 -2T112 -3L35 -4Q30 -4 28 5T26 16Q29 24 38 40T61 75T84 109Q129 175 170 233T249 347T327 461T411 587Q413 590 414 593T415 598Q415 602 412
604T397 607Q373 608 341 608T275 609Q250 609 227 609T184 607Q155 606 124 587T76 529Q71 520 63 509T43 497Q38 497 35 501T32 510Q32 516 34 523T39 537Q46 552 51 571T61 613T67 659Q68 671 73 675T84 679Q90 679 101 672T122 661Q135 656 159 652T208 647Q235
647 267 647T331 647Q358 647 387 647T447 648T507 649T561 651Q567 651 572 643T574 631L510 540Q465 476 426 420T351 309T277 198T199 77Q193 68 193 60Q193 54 197 50T208 44Q227 42 254 41T308 40Q344 40 378 42T445 49Q518 60 554 154Q556 160 562 166T575
172Q586 172 586 159Q586 152 582 133T573 91T561 46T550 13Q547 6 543 1T529 -5Z" />
<glyph unicode="[" glyph-name="bracketleft" horiz-adv-x="340" d="M144 -200Q131 -200 124 -199T113 -190T110 -166V661Q110 682 113 690T124 700T149 702L303 701Q310 701 316 699T323 687Q323 678 313 675T294 670L214 662Q207 661 200 653T193 637V-122Q193
-133 199 -141T214 -152L292 -164Q303 -166 312 -170T322 -183Q322 -193 314 -196T297 -200H144Z" />
<glyph unicode="\" glyph-name="backslash" horiz-adv-x="401" d="M365 -62Q353 -62 342 -59T325 -46L24 647Q21 654 25 660T39 666Q54 666 64 663T81 647L382 -46Q385 -52 380 -57T365 -62Z" />
<glyph unicode="]" glyph-name="bracketright" horiz-adv-x="340" d="M196 -200H43Q34 -200 26 -197T18 -183Q18 -174 27 -170T48 -164L126 -152Q135 -150 141 -142T147 -122V637Q147 645 140 653T126 662L46 670Q37 671 27 674T17 687Q17 696 23 698T37 701L191
702Q207 702 215 700T227 690T230 661V-166Q230 -183 227 -190T217 -198T196 -200Z" />
<glyph unicode="^" glyph-name="asciicircum" horiz-adv-x="505" d="M56 272Q51 272 47 275T43 285Q43 290 45 294L249 605H254L459 294Q464 287 461 280T449 272Q437 272 425 279T405 295L256 510Q252 515 251 515T246 510L100 296Q93 285 80 279T56 272Z" />
<glyph unicode="_" glyph-name="underscore" horiz-adv-x="532" d="M515 -131Q522 -131 527 -134T532 -143Q532 -154 522 -169T500 -184H15Q9 -184 5 -180T0 -171Q0 -166 2 -156T10 -139T25 -131H515Z" />
<glyph unicode="`" glyph-name="grave" horiz-adv-x="213" d="M179 456Q169 456 150 475Q134 491 113 515T71 564T35 608Q31 615 28 619T25 630Q25 642 41 647T78 652Q89 652 97 647T111 632Q119 618 133 590T162 533T184 485Q186 479 187 474T188 466Q188 456 179 456Z" />
<glyph unicode="a" glyph-name="a" horiz-adv-x="413" d="M121 -14Q100 -14 80 -1T47 33T34 74Q34 107 52 127T110 163L207 204Q227 212 231 218T236 245L238 306Q239 333 225 351T184 369Q170 369 156 364T132 351Q127 347 126 340T124 325Q124 320 124 314T125
303Q125 297 112 289T81 273T51 266Q45 266 42 269T38 279Q38 295 48 312T80 348Q104 369 132 385T188 411T237 420Q279 420 305 392T330 318L325 92Q324 70 334 56T359 42Q382 42 395 54Q399 58 402 58Q407 58 410 55T414 47Q414 35 400 22Q383 5 364 -4T326 -14Q276
-14 246 40H243Q210 12 181 -1T121 -14ZM173 40Q190 40 201 45T222 61Q227 66 229 73T233 97L235 154Q236 164 234 168T226 173Q224 173 220 172T209 168Q164 151 146 133T128 92Q128 65 142 53T173 40Z" />
<glyph unicode="b" glyph-name="b" horiz-adv-x="525" d="M265 -14Q240 -14 217 -10T174 0Q155 5 140 9T119 14Q111 14 105 10T92 1Q85 -5 81 -5Q75 -5 70 -1T65 8Q65 17 69 40T74 89L72 560Q72 586 61 605T29 633Q24 635 20 638T16 648Q16 653 19 656T28 660Q44
663 69 671T116 689T149 702Q156 705 159 705Q163 705 165 703T167 696Q167 691 166 666T164 606L163 398Q163 381 165 374T172 367Q203 391 241 405T312 420Q363 420 404 394T469 323T494 220Q494 151 465 98T385 16T265 -14ZM286 21Q320 21 344 44T382 108T396
196Q396 236 383 277T342 345T271 373Q239 373 211 363T163 336V135Q163 101 180 75T226 35T286 21Z" />
<glyph unicode="c" glyph-name="c" horiz-adv-x="408" d="M212 -15Q161 -15 120 11T55 84T31 187Q31 252 60 305T138 389T246 420Q317 420 368 379Q379 369 379 360Q379 353 372 343T354 325T334 317Q328 317 322 321T309 330Q285 349 259 363T213 378Q168 378
142 338T115 224Q115 176 133 139T184 81T259 60Q288 60 309 69T355 102Q358 104 361 106T368 108Q379 108 379 93Q379 88 376 81T367 64Q353 44 330 26T277 -4T212 -15Z" />
<glyph unicode="d" glyph-name="d" horiz-adv-x="523" d="M357 -19Q355 -19 350 -14T345 -7Q346 5 348 22T350 51V57Q333 31 300 9T219 -14Q162 -14 120 15T55 92T31 192Q31 253 59 305T139 388T261 420Q279 420 298 417T329 409Q340 406 342 406Q349 406 349
427V560Q349 599 337 614T302 633Q292 635 292 647Q292 657 301 660Q343 670 373 681T421 699Q428 703 432 703T438 704Q446 704 446 696Q446 693 445 680T442 643T440 584L438 113Q438 79 443 64T460 49Q465 49 475 50T502 52Q518 53 518 42Q518 35 513 29T503
22Q472 18 441 10T374 -13Q366 -17 363 -18T357 -19ZM260 44Q282 44 306 55T348 86V281Q348 304 334 327T294 365T237 380Q214 380 188 365T144 313T126 216Q126 165 140 132T175 79T220 52T260 44Z" />
<glyph unicode="e" glyph-name="e" horiz-adv-x="400" d="M212 -15Q158 -15 117 12T51 89T27 204Q27 263 54 312T128 390T229 420Q270 420 302 404T353 358T372 290Q372 257 341 257H134Q120 257 114 249T108 220Q108 176 128 140T181 81T254 59Q284 59 308 70T354
103Q357 107 359 109T365 111Q374 111 374 100Q374 84 360 62Q346 41 325 24T275 -4T212 -15ZM135 291H215Q241 291 256 292T284 296Q289 298 291 304T293 321Q293 349 270 368T215 388Q193 388 172 375T136 343T123 303Q123 291 135 291Z" />
<glyph unicode="f" glyph-name="f" horiz-adv-x="333" d="M43 -3Q34 -3 29 0T23 9Q23 17 29 20T44 26Q69 32 78 41T87 69V352Q77 352 64 352T35 354Q31 355 26 362T21 376Q21 378 24 380T29 383Q45 391 58 397T87 411Q89 496 112 553T170 643T245 691T320 706Q380
706 408 689T437 640Q437 619 427 608T401 596Q392 596 384 603T366 621Q352 636 332 649T278 663Q233 663 206 625T179 504V418Q179 411 183 409T192 407H312Q318 407 322 403T326 394Q326 386 325 378T320 363Q316 355 311 355H204Q188 355 184 351T179 338V75Q179
53 191 43T245 27Q266 23 266 10Q266 4 261 1T248 -3Q218 -3 190 -1T135 2Q118 2 105 1T77 -1T43 -3Z" />
<glyph unicode="g" glyph-name="g" horiz-adv-x="458" d="M202 -290Q113 -290 62 -258T10 -172Q10 -144 18 -126T45 -93Q61 -81 82 -64T125 -31L170 -38Q127 -64 109 -89T91 -151Q91 -192 126 -219T213 -246Q276 -246 309 -219Q332 -201 344 -173T357 -115Q357
-95 343 -82T298 -61T214 -49Q117 -41 78 -19T39 44Q39 54 44 63T63 82Q83 98 95 107T113 122T125 138L164 121Q143 113 129 100T115 77Q115 64 129 55T173 40T249 31Q347 25 393 0T439 -71Q439 -111 419 -149T364 -220T288 -271T202 -290ZM215 141Q251 141 273
178T296 273Q296 305 284 331T253 372T209 388Q187 388 168 372T138 330T127 271Q127 235 138 206T170 159T215 141ZM207 103Q165 103 126 124T62 180T37 259Q37 308 63 344T131 401T221 422Q251 422 274 415T323 402Q346 396 361 395T395 393Q408 393 425 394T450
396Q464 396 464 378Q464 365 453 353Q447 347 443 347H416Q390 347 385 339Q383 336 382 331T380 316T379 293Q379 241 355 198T293 129T207 103Z" />
<glyph unicode="h" glyph-name="h" horiz-adv-x="531" d="M38 -3Q18 -3 18 9Q18 19 41 27Q56 32 69 39T82 67V560Q82 587 74 607T40 632Q31 634 31 647Q31 657 39 660Q56 665 79 672T126 687T165 703Q171 705 174 705Q178 705 180 703T182 696Q182 691 180 681T176
648T174 584V390Q174 376 175 369T180 356Q196 368 218 383T269 409T330 420Q381 420 414 382T448 282V69Q448 49 460 41T488 27Q498 23 504 20T510 9Q510 -3 489 -3Q468 -3 456 -2T433 1T403 2Q384 2 374 1T352 -1T318 -3Q297 -3 297 9Q297 17 303 20T319 27Q333
31 345 40T357 70V272Q357 296 344 315T313 346T274 357Q256 357 234 352T196 335Q183 325 179 314T174 276V67Q175 47 186 40T211 27Q221 24 227 20T233 9Q233 -3 213 -3Q193 -3 181 -2T157 1T127 2Q110 2 98 1T72 -1T38 -3Z" />
<glyph unicode="i" glyph-name="i" horiz-adv-x="263" d="M42 -3Q34 -3 29 0T23 9Q23 17 29 20T44 26Q67 32 78 39T89 64V280Q89 310 79 328T44 351Q39 352 37 355T34 366Q34 378 43 379Q87 389 118 405T166 432Q177 439 182 439Q190 439 190 431Q190 420 188
396T183 344T180 292V64Q180 48 191 40T225 26Q233 24 239 21T246 9Q246 -3 228 -3Q209 -3 194 -2T166 1T134 2Q117 2 103 1T76 -1T42 -3ZM132 508Q107 508 90 525T72 568Q72 594 89 611T132 629Q158 629 176 612T194 568Q194 543 176 526T132 508Z" />
<glyph unicode="j" glyph-name="j" horiz-adv-x="240" d="M2 -287Q-8 -287 -17 -284T-26 -275Q-26 -268 -21 -264T-12 -257Q6 -251 21 -238T51 -196Q62 -173 68 -140T77 -69T82 3T83 63V280Q83 310 73 328T37 351Q33 352 31 356T28 366Q28 377 37 379Q79 389 110
405T158 432Q164 435 168 437T174 439Q183 439 183 431Q180 401 177 358T174 279L175 91Q175 60 173 19T165 -67T142 -152Q129 -186 105 -217T53 -267T2 -287ZM122 508Q97 508 80 525T62 568Q62 594 79 611T122 629Q148 629 166 612T184 568Q184 543 166 526T122
508Z" />
<glyph unicode="k" glyph-name="k" horiz-adv-x="496" d="M40 -3Q18 -3 18 9Q18 17 25 20T41 27Q56 32 69 39T82 67V560Q82 593 73 610T39 633Q30 635 30 647Q30 658 38 660Q64 665 86 673T128 688T163 702Q170 705 174 705Q178 705 179 703T181 695Q181 686 178
660T174 584V240Q174 230 180 230Q185 230 193 234T209 245Q249 279 277 309T315 352Q319 358 321 361T324 368Q324 373 316 377T296 384Q284 386 284 394Q284 400 290 403T306 407H355Q371 407 392 409T434 415T464 418Q477 418 477 407Q477 401 471 396T453 388Q435
384 416 375T380 355Q370 349 349 333T304 297T259 258Q253 253 253 248Q253 246 254 244T257 240Q283 208 310 176T361 118T400 76Q417 59 439 46T477 27Q487 24 496 21T506 9Q506 -3 486 -3Q439 -3 388 -2T285 0Q266 0 266 11Q266 17 271 21T285 28Q295 32 301
36T308 49Q308 52 306 56T300 65L187 201Q183 207 179 207Q174 206 174 200Q173 185 173 169T173 136Q173 120 173 102T174 66Q174 48 183 40T207 27Q215 24 222 21T229 9Q229 2 221 0T208 -3Q189 -3 177 -2T155 1T127 2Q110 2 98 1T73 -1T40 -3Z" />
<glyph unicode="l" glyph-name="l" horiz-adv-x="256" d="M38 -3Q31 -3 25 -1T18 8Q18 16 25 19T41 27Q56 32 69 38T82 65V560Q82 589 73 608T38 633Q30 635 30 647Q30 658 37 660Q63 665 86 673T129 689T165 703Q171 705 174 705Q177 705 178 702T180 696Q180
688 177 662T174 584V65Q174 45 187 39T215 27Q224 24 231 20T238 8Q238 2 232 0T218 -2Q199 -2 185 -1T158 1T127 2Q110 2 97 1T71 -1T38 -3Z" />
<glyph unicode="m" glyph-name="m" horiz-adv-x="788" d="M43 -3Q35 -3 29 -1T23 9Q23 16 29 20T46 27Q60 32 73 38T87 65V285Q87 310 81 328T52 351Q48 352 45 355T42 365Q42 377 51 379Q77 386 97 394T134 411T170 432Q172 433 174 434T180 436Q187 436 187
428Q187 420 185 400T182 365Q182 355 184 353H186Q211 378 248 399T339 420Q373 420 398 403T438 348H441Q472 380 512 400T600 420Q633 420 656 401T691 350T704 280V64Q704 44 717 38T745 27Q755 24 761 20T767 9Q767 3 763 0T748 -3Q728 -3 715 -2T690 1T660
2Q643 2 631 1T605 -1T572 -3Q564 -3 559 0T553 9Q553 17 559 20T575 27Q590 31 601 37T612 62V271Q612 295 603 315T577 348T541 361Q520 361 501 355T464 335Q441 317 441 274V64Q441 44 453 38T481 27Q490 24 496 20T503 9Q503 3 498 0T484 -3Q464 -3 451 -2T426
1T396 2Q379 2 367 1T341 -1T308 -3Q301 -3 295 0T289 9Q289 17 296 20T311 27Q326 31 337 37T349 62V271Q349 295 340 315T314 348T278 361Q258 361 239 355T201 335Q179 319 179 275V64Q179 45 190 39T216 27Q224 24 231 21T238 9Q238 3 233 0T219 -3Q199 -3
186 -2T162 1T133 2Q116 2 103 1T77 -1T43 -3Z" />
<glyph unicode="n" glyph-name="n" horiz-adv-x="541" d="M43 -3Q35 -3 29 0T23 9Q23 17 29 20T46 27Q61 31 74 38T87 65V285Q87 310 82 327T52 351Q48 352 45 355T42 365Q42 378 51 379Q86 388 114 401T167 430Q170 432 173 434T180 436Q184 436 185 434T187
427Q187 420 185 400T182 366Q182 362 182 358T184 353Q219 386 256 403T341 420Q391 420 424 381T457 280V64Q457 44 470 38T499 27Q507 24 514 20T521 8Q521 1 515 -1T502 -3Q482 -3 469 -2T443 1T412 2Q395 2 382 1T356 -1T322 -3Q317 -3 310 -1T303 8Q303 16
310 20T325 27Q340 32 353 38T366 64V271Q366 313 344 336T285 360Q254 360 231 351T187 325Q183 321 181 315T179 304V64Q179 44 192 38T219 27Q241 20 241 9Q241 3 236 0T222 -3Q202 -3 189 -2T164 1T134 2Q117 2 104 1T77 -1T43 -3Z" />
<glyph unicode="o" glyph-name="o" horiz-adv-x="498" d="M235 -14Q178 -14 132 12T58 85T31 190Q31 234 48 275T96 349T168 401T256 421Q315 421 363 393T439 318T467 217Q467 157 441 104T364 19T235 -14ZM256 21Q285 21 308 32T344 68Q356 91 360 124T365 193Q365
243 349 287T305 358T239 385Q216 385 198 378T164 352Q145 329 139 293T133 213Q133 165 149 121T192 49T256 21Z" />
<glyph unicode="p" glyph-name="p" horiz-adv-x="530" d="M39 -277Q33 -277 26 -275T18 -266Q18 -258 25 -254T41 -247Q58 -242 70 -235T82 -209V288Q82 297 78 312T63 340T38 355Q33 357 31 360T28 370Q28 376 30 379T37 384Q73 393 105 404T162 427Q165 427
166 428T170 430Q173 430 175 427T177 420Q177 411 175 392T172 360Q172 352 173 351Q183 361 209 376T269 405T334 418Q386 418 423 390T480 318T500 227Q500 181 483 138T434 61T361 6T272 -15Q259 -15 241 -12T206 -2T178 13Q177 13 176 5T175 -13T174 -27V-206Q174
-219 183 -227T204 -239T230 -248Q239 -251 246 -254T253 -266Q253 -272 246 -274T232 -277Q203 -277 179 -275T129 -272Q112 -272 99 -273T73 -275T39 -277ZM281 21Q295 21 314 29T352 58T385 111T398 193Q398 250 385 284T351 335T311 359T276 365Q254 365 231
356T192 334T176 315Q176 297 176 275T175 229T174 186T174 159Q174 125 189 93T229 41T281 21Z" />
<glyph unicode="q" glyph-name="q" horiz-adv-x="527" d="M316 -286Q311 -286 304 -284T297 -275Q297 -267 304 -263T320 -256Q339 -250 352 -243T366 -215V14Q366 29 364 35T360 41Q358 41 356 41T351 38Q341 31 321 18T277 -4T227 -14Q174 -14 130 10T58 78T31
183Q31 251 60 304T146 389T278 421Q312 421 340 415T387 404T411 398Q422 398 428 404T441 419Q443 421 445 422T451 424Q457 424 462 421T467 413Q467 404 462 374T456 300V-218Q456 -237 471 -243T504 -256Q513 -259 520 -263T527 -275Q527 -281 521 -283T507
-286Q477 -286 457 -284T410 -281Q393 -281 380 -282T351 -284T316 -286ZM271 44Q299 44 326 55T367 80Q367 95 367 122T367 181T367 239T366 277Q365 323 333 354T256 385Q223 385 195 364T151 303T134 210Q134 166 146 135T179 83T223 54T271 44Z" />
<glyph unicode="r" glyph-name="r" horiz-adv-x="362" d="M46 -3Q37 -3 32 0T26 9Q26 17 32 20T49 27Q70 32 78 41T87 65V285Q87 310 80 327T50 350Q46 351 43 355T39 365Q39 376 49 379Q77 387 109 401T161 427Q167 431 172 433T179 435Q186 435 186 427Q186
423 186 410T184 381T183 350Q183 346 185 346Q201 366 220 383T262 410T304 421Q330 421 344 411T358 383Q358 372 352 358T335 333T312 322Q305 322 297 325T280 333Q272 337 264 340T247 344Q222 344 201 326T180 256V68Q180 52 193 43T232 26Q243 23 249 20T255
9Q255 -3 236 -3Q206 -3 185 -1T137 2Q120 2 107 1T80 -1T46 -3Z" />
<glyph unicode="s" glyph-name="s" horiz-adv-x="336" d="M152 -14Q120 -14 92 -5T42 21Q35 34 32 62T29 113Q29 123 44 123Q50 123 54 121T60 114Q75 67 102 43T161 19Q189 19 207 37T225 82Q225 109 206 127T148 170Q116 189 93 207T58 248T46 300Q46 335 63
362T113 405T190 421Q222 421 244 415T277 401Q285 390 290 365T296 315Q296 307 283 307Q277 307 271 310T262 318Q249 353 230 371T182 389Q158 389 139 375T120 333Q120 310 136 293T189 255Q249 222 277 193T306 114Q306 56 265 21T152 -14Z" />
<glyph unicode="t" glyph-name="t" horiz-adv-x="335" d="M200 -14Q145 -14 116 17T86 108V340Q86 348 80 351T54 355H46Q40 355 36 363T32 380Q32 382 34 385T39 390Q60 403 80 418T118 450T148 478Q154 483 158 487T168 491Q174 491 178 488T182 476L176 427Q175
415 181 411T200 407H316Q319 407 322 400T325 386Q325 375 322 365T315 355H218Q193 355 186 350T178 327V133Q178 91 195 69T243 46Q272 46 287 51T314 63Q317 65 319 65Q324 65 325 60T327 49Q327 43 309 28T262 0T200 -14Z" />
<glyph unicode="u" glyph-name="u" horiz-adv-x="535" d="M359 -20Q351 -20 351 -11Q351 0 353 19T356 51Q356 54 356 56T356 59Q321 23 281 5T193 -14Q162 -14 136 1T96 44T81 112V310Q81 332 72 345T39 366Q34 368 30 371T25 383Q25 392 29 395T40 400Q77 402
101 406T155 419Q159 420 162 420T168 421Q180 421 179 407Q176 384 174 369T172 330V136Q172 112 182 93T211 61T248 48Q271 48 289 51T324 69Q333 76 346 93T360 140V315Q360 335 350 345T325 361T298 367Q288 367 282 371T276 385Q276 395 282 398T298 402Q336
404 359 406T400 411T437 419Q439 420 442 420T448 421Q461 421 461 410Q461 408 461 405T459 399Q458 395 457 382T454 353T452 329V98Q452 73 457 63T470 52Q477 52 490 53T510 54Q516 54 521 51T526 39Q526 31 522 28T511 23Q469 18 437 7T381 -13Q377 -15 371
-17T359 -20Z" />
<glyph unicode="v" glyph-name="v" horiz-adv-x="454" d="M223 -21Q218 -21 212 -7T202 19Q195 36 188 56T174 93Q151 154 125 212T74 330Q66 350 53 364T23 384Q14 388 10 391T5 402Q5 409 13 410T26 412Q48 412 58 411T79 409T108 407Q128 407 139 408T163 411T197
412Q202 412 210 410T218 402Q218 394 211 391T195 383Q185 379 180 368T174 342Q174 334 174 327T178 313L253 119Q254 118 254 118T256 119L326 301Q330 310 331 320T333 339Q333 358 327 368T305 383Q293 387 288 390T282 401Q282 408 289 410T303 412Q320 411
336 410T375 408Q397 408 408 409T437 412Q445 412 452 410T459 402Q459 390 437 383Q421 378 404 360T377 317L299 126Q296 121 291 108T279 79T269 51T263 37Q261 34 256 23T246 -1T235 -21H223Z" />
<glyph unicode="w" glyph-name="w" horiz-adv-x="709" d="M229 -26Q227 -26 224 -24T219 -17L78 330Q71 351 57 364T27 383Q18 386 12 390T5 402Q5 409 13 410T26 412Q43 412 55 411T80 409T108 407Q124 407 138 408T167 411T198 412Q203 412 211 410T219 402Q219
394 212 391T196 383Q186 380 181 370T175 344Q175 329 181 314L252 129Q253 126 256 126Q259 126 260 129L328 289Q332 300 333 310T335 331Q335 349 320 362T288 383Q279 386 273 390T266 402Q266 408 274 410T289 412Q307 412 326 410T368 407Q396 407 417 409T458
412Q464 412 471 410T479 401Q479 394 472 390T456 383Q445 379 436 372T426 348Q426 340 427 332T433 314L503 134Q506 126 509 126Q512 126 515 133L584 298Q588 307 589 318T591 338Q591 355 581 366T558 382Q550 385 543 389T535 401Q535 407 543 409T556 411Q581
411 593 409T629 407Q645 407 653 408T668 410T690 411Q696 411 703 410T711 401Q711 394 705 390T690 382Q673 377 659 359T635 318L497 -17Q493 -25 485 -25Q479 -25 474 -17L363 251Q361 257 358 257Q355 257 353 250L241 -17Q237 -26 229 -26Z" />
<glyph unicode="x" glyph-name="x" horiz-adv-x="456" d="M30 -4Q24 -4 17 -3T9 6Q9 14 15 18T30 25Q44 30 58 41T92 80L175 193Q182 201 182 206T177 217L97 337Q85 357 75 367T50 382Q41 385 35 389T28 401Q28 409 37 410T52 411Q73 411 82 410T103 408T138
407Q160 407 172 408T207 410Q212 410 221 409T230 399Q230 393 224 390T210 384Q202 381 195 377T187 364Q187 359 190 351T200 333L246 264Q250 257 255 264L299 333Q303 340 306 348T309 363Q309 376 294 381Q286 385 279 388T272 400Q272 408 281 409T295 410Q309
410 323 409T350 408Q374 408 385 410T413 412Q420 412 427 411T435 402Q435 395 429 391T413 383Q400 379 382 368T348 335L282 240Q279 235 279 231T282 222L375 73Q387 54 400 43T430 26Q438 23 444 19T451 7Q451 0 444 -1T430 -3Q408 -3 396 -2T372 0T335 1Q313
1 292 0T248 -2Q224 -2 224 9Q224 18 230 22T249 29Q260 32 268 38T277 58Q277 64 276 69T269 82L213 171Q210 174 207 171L147 78Q146 74 143 67T139 51Q139 43 143 37T155 27Q163 24 170 21T177 9Q177 1 168 0T154 -2Q140 -2 125 -1T98 0Q75 0 62 -1T30 -4Z"
/>
<glyph unicode="y" glyph-name="y" horiz-adv-x="453" d="M72 -284Q50 -284 31 -272T12 -236Q12 -217 21 -202T48 -187Q61 -187 73 -190T96 -194Q106 -193 111 -190T121 -177Q131 -161 142 -140T167 -90T194 -27Q200 -12 200 5Q200 15 198 24T192 42L74 330Q66
349 55 363T27 382Q19 386 13 390T6 402Q6 408 14 409T27 411Q49 411 61 410T83 408T109 407Q128 407 139 408T162 410T196 411Q203 411 210 409T217 400Q217 392 208 387T191 378Q180 375 175 368T169 344Q169 337 172 328T179 310L253 127Q255 122 258 122Q260
122 262 127L325 300Q328 307 330 318T332 338Q332 356 325 364T309 377Q301 381 292 386T282 400Q282 406 289 408T303 411Q321 411 336 409T374 407Q390 407 399 408T416 410T437 411Q442 411 450 410T458 402Q458 394 452 390T437 382Q421 377 405 359T378 317L237
-19Q234 -28 225 -51T202 -105T175 -170T146 -237Q136 -260 117 -272T72 -284Z" />
<glyph unicode="z" glyph-name="z" horiz-adv-x="398" d="M41 -5Q37 -5 31 2T24 16Q24 20 30 30T46 54T62 77Q87 114 108 146T151 209T195 277T246 359Q248 362 248 365T236 369L153 372Q139 372 128 366T109 353Q103 347 97 338T83 319T69 300T58 284Q52 278
41 282T33 294Q36 304 41 324T50 366T54 403Q54 412 60 417T71 423Q77 423 88 414Q93 410 106 409T133 408Q144 408 154 408T172 409Q222 409 270 410T366 412Q371 412 374 408T378 399T377 391Q367 377 358 366T338 339L153 54Q149 47 152 43T164 39H262Q274 39
286 44T309 62Q322 75 334 93T364 138Q369 147 379 144T390 131Q390 127 387 112T378 76T368 38T359 10Q356 -5 342 -5Q319 -5 264 -3T124 0Q102 0 78 -2T41 -5Z" />
<glyph unicode="{" glyph-name="braceleft" horiz-adv-x="375" d="M335 -152Q285 -150 240 -137T166 -96T138 -20Q139 28 147 70T155 157Q155 185 144 206T115 241T71 263Q63 266 56 270T49 281Q49 288 55 293T73 302Q97 310 115 322T143 354T153 405Q153 450
146 489T137 575Q136 622 165 652T241 698T337 715Q346 715 352 711T358 699Q358 690 348 687T328 682Q295 676 275 666T246 637T236 584Q236 556 240 528T249 472T253 417Q253 383 232 356T181 311T125 283Q122 282 123 281T127 279Q147 273 169 260T210 229T242
189T254 142Q254 115 250 88T242 32T237 -25Q237 -60 246 -80T276 -109T327 -122Q336 -123 345 -125T355 -137Q355 -145 349 -149T335 -152Z" />
<glyph unicode="|" glyph-name="bar" horiz-adv-x="266" d="M110 -289Q104 -289 99 -283T94 -271V667Q94 677 102 684T121 697T141 704T153 706Q160 706 165 701T171 690V-258Q171 -268 164 -274T145 -283T124 -288T110 -289Z" />
<glyph unicode="}" glyph-name="braceright" horiz-adv-x="375" d="M40 -152Q32 -153 26 -149T20 -137Q20 -128 29 -126T48 -122Q79 -119 99 -110T128 -80T138 -25Q138 4 134 32T126 87T121 142Q121 167 133 189T164 229T206 260T248 279Q250 280 251 281T250
283Q224 292 195 310T144 356T122 417Q122 444 126 471T134 527T138 584Q138 618 129 637T100 666T47 682Q38 684 28 687T17 699Q17 707 23 711T38 715Q88 713 134 698T209 653T237 575Q236 528 229 489T222 405Q222 374 231 354T259 322T302 302Q313 299 319 294T326
281Q326 274 319 270T304 263Q279 255 261 241T231 206T220 157Q220 112 228 70T237 -20Q238 -67 210 -95T136 -137T40 -152Z" />
<glyph unicode="~" glyph-name="asciitilde" horiz-adv-x="516" d="M347 256Q322 256 299 266T254 287Q232 299 210 308T163 318Q138 318 117 304T82 276T66 262Q60 262 53 269T46 281Q46 292 55 310T83 347T123 378T172 391Q198 391 220 381T263 360Q285 347
307 337T351 327Q369 327 386 336T416 358T438 379T449 389Q455 389 462 382T470 365Q470 350 459 332T430 296T389 268T347 256Z" />
<glyph unicode="&#xa0;" glyph-name="uni00A0" horiz-adv-x="213" />
<glyph unicode="&#xa1;" glyph-name="exclamdown" horiz-adv-x="264" d="M130 285Q139 285 144 273T152 242Q158 195 164 145T175 48T184 -38T188 -103Q188 -130 173 -149T134 -169Q109 -169 93 -149T77 -103Q77 -76 79 -38T86 48T96 144T108 242Q110 266 115
275T130 285ZM131 494Q158 494 176 475T195 430Q195 403 177 384T131 365Q104 365 85 384T66 430Q66 456 85 475T131 494Z" />
<glyph unicode="&#xa2;" glyph-name="cent" horiz-adv-x="426" d="M203 -40Q196 -40 191 -36T186 -23L193 52Q150 60 113 88T54 160T31 257Q31 314 57 363T130 445T237 483L242 543Q243 552 250 557T266 562Q273 562 277 556T280 543L276 484Q306 482 336 470T389
433Q394 427 394 419Q394 405 380 392T350 379Q333 379 325 391Q314 410 301 422T271 440L239 131Q244 130 248 130T258 129Q292 129 324 138T373 175Q377 181 384 181Q397 181 397 168Q397 166 397 163T394 157Q369 108 330 81T231 50L224 -23Q223 -31 217 -35T203
-40ZM202 140L234 447H232Q194 447 168 425T128 368T114 295Q114 235 138 196T202 140Z" />
<glyph unicode="&#xa3;" glyph-name="sterling" horiz-adv-x="518" d="M48 296Q42 296 37 300T32 309Q32 317 40 325T59 334L378 355Q384 355 388 351T393 342Q393 336 382 327T358 317L48 296ZM329 -36Q283 -36 249 -18T178 26Q167 35 153 42T128 55T110 60Q107
60 99 52T80 31T63 6Q44 -26 17 -25Q6 -24 -1 -16T-9 11Q-9 33 4 52T41 84T91 103Q97 104 100 108T105 116Q114 137 120 175T130 260T136 350Q139 398 153 447T194 537T265 603T369 629Q424 629 450 603T476 544Q476 527 469 512T449 489T422 480Q414 480 411 484T407
496Q407 502 408 508T409 523Q408 552 394 574T353 596Q321 596 300 568T266 483T244 337Q240 290 227 245T195 165T158 118Q155 117 156 112T161 107Q205 107 238 96T301 72Q329 61 354 51T404 41Q430 41 442 52T455 83Q455 96 451 110T443 138T438 160Q438 168
443 174T459 181Q481 181 492 163T503 122Q503 93 490 65T452 15T396 -22T329 -36Z" />
<glyph unicode="&#xa4;" glyph-name="currency" horiz-adv-x="507" d="M68 53Q57 53 47 64T36 85Q36 90 39 93L96 150Q78 175 68 205T58 269Q58 302 68 332T97 387L39 445Q36 448 36 452Q36 462 47 473T69 485Q74 485 77 482L133 426Q159 446 189 457T255 468Q290
468 320 458T375 428L430 483Q433 486 438 486Q448 486 459 476T471 453Q471 448 467 444L413 389Q432 364 442 333T453 269Q453 235 443 205T413 149L469 94Q472 90 472 86Q472 75 461 64T438 53Q433 53 430 56L376 110Q324 69 255 69Q220 69 189 80T133 111L77
56Q73 53 68 53ZM255 122Q296 122 328 142T380 195T400 269Q400 309 381 342T329 395T255 415Q216 415 183 395T130 342T111 269Q111 229 130 196T182 142T255 122Z" />
<glyph unicode="&#xa5;" glyph-name="yen" horiz-adv-x="599" d="M186 -5Q173 -5 165 -2T157 7Q157 15 165 19T189 27Q227 34 245 54T263 109L264 192H143Q137 192 132 196T127 206Q128 214 136 223T155 232H264V253Q264 260 264 266T262 278H143Q137 278 132
282T127 292Q128 299 136 308T155 318H252L115 531Q105 546 92 565T63 599T30 619Q16 624 8 628T0 641Q0 648 7 650T26 653Q56 653 89 651T159 649Q186 649 209 651T255 653Q267 653 275 650T283 641Q283 633 275 629T252 620Q237 616 227 609T216 585Q216 579
218 571T225 555L317 387Q336 355 343 355Q349 355 355 363T370 387Q373 393 383 409T406 446T432 490T456 535Q464 551 464 571Q464 590 453 603T426 619Q416 622 405 627T394 640Q394 646 402 649T423 652Q448 652 466 651T508 650Q537 650 562 652T608 654Q620
654 628 652T637 641Q637 634 629 630T606 621Q588 618 570 603T536 569T510 535Q492 506 473 476T438 420T411 375T395 348Q389 340 385 332T378 318L492 317Q498 317 502 313T506 304Q506 297 495 288T471 278H370V232H491Q497 232 501 228T505 219Q505 212 494
202T470 192H370V109Q370 74 388 55T445 27Q460 24 468 20T477 8Q477 1 469 -2T448 -5Q423 -5 403 -4T362 -1T320 1Q297 1 276 0T233 -3T186 -5Z" />
<glyph unicode="&#xa6;" glyph-name="brokenbar" horiz-adv-x="266" d="M110 -290Q105 -290 100 -284T95 -272V147Q95 154 102 160T121 171T141 178T154 181Q161 181 166 174T172 158V-259Q172 -269 164 -275T145 -284T124 -289T110 -290ZM110 269Q104 269 99
277T94 293V665Q94 676 102 683T121 695T141 702T153 705Q160 705 165 700T171 688V298Q171 290 164 285T145 276T124 271T110 269Z" />
<glyph unicode="&#xa7;" glyph-name="section" horiz-adv-x="415" d="M130 -148Q101 -148 82 -138T62 -113Q62 -106 67 -89T92 -57Q98 -52 105 -56T117 -63Q131 -75 152 -82T193 -89Q218 -89 231 -69T244 -12Q244 13 226 40T180 94T124 149Q75 196 51 240T26 329Q26
374 35 406T61 462T97 509Q106 541 126 571T177 621T244 640Q265 640 289 634T323 618Q328 614 332 610T336 598Q336 596 330 583T315 558T294 545Q287 545 280 552Q264 568 245 579T212 590Q181 590 167 571T152 528Q152 510 166 486T206 436T262 381Q301 347
324 313T358 242T368 157Q368 96 345 40T282 -63T190 -136Q177 -143 161 -145T130 -148ZM300 55Q302 51 305 51T310 55Q315 74 317 90T319 125Q319 174 295 215T228 300Q208 321 183 347T136 401T107 450Q106 454 103 453T97 450Q91 432 88 416T85 380Q85 332 108
291T176 206Q196 186 222 159T270 105T300 55Z" />
<glyph unicode="&#xa8;" glyph-name="dieresis" horiz-adv-x="319" d="M251 503Q229 503 212 520T194 560Q194 583 211 600T251 618Q275 618 292 601T310 560Q310 538 293 521T251 503ZM68 503Q46 503 29 520T11 560Q11 583 28 600T68 618Q92 618 109 601T127
560Q127 538 110 521T68 503Z" />
<glyph unicode="&#xa9;" glyph-name="copyright" horiz-adv-x="671" d="M344 21Q281 21 226 45T129 111T63 208T39 327Q39 391 63 446T129 543T226 609T345 633Q408 633 463 609T561 543T626 446T650 327Q650 264 627 209T561 111T463 45T344 21ZM358 148Q308
148 267 173T202 238T178 326Q178 376 204 415T276 476T377 499Q398 499 422 495T464 483Q472 481 475 479T479 469Q482 454 482 436T482 405Q482 400 478 395T469 391Q465 391 461 395T455 406Q451 417 446 426T430 442Q419 451 404 456T370 462Q319 462 291 424T262
331Q262 293 274 260T310 206T373 185Q403 185 425 195T461 233Q465 242 470 245T480 248Q487 247 487 233Q487 222 483 208T473 181Q469 173 467 173T457 166Q439 158 413 153T358 148ZM344 61Q398 61 445 82T529 139T585 224T605 327Q605 380 585 428T529 512T446
570T345 591Q291 591 244 570T161 513T105 428T85 327Q85 273 104 225T160 140T243 82T344 61Z" />
<glyph unicode="&#xaa;" glyph-name="ordfeminine" horiz-adv-x="324" d="M275 199Q280 199 285 196T290 186Q290 185 290 185T289 183Q283 173 275 167T255 160H48Q42 160 38 164T33 174Q33 181 40 190T59 199H275ZM106 273Q90 273 76 282T52 306T43 334Q43 354
52 367T88 391L159 417Q172 423 175 426T178 442V467Q178 483 170 493T145 503Q134 503 122 500T106 491Q103 486 104 479T105 465Q105 460 95 456T73 448T51 442Q46 440 45 444T45 455Q50 466 54 475T73 496Q84 505 101 514T139 531T177 539Q206 539 228 520T250
472L247 353Q247 341 251 329T267 316Q274 316 277 318T284 322Q286 324 287 325T291 326Q295 326 298 322T301 313Q301 310 298 305T289 295Q281 287 269 280T243 273Q217 273 205 286T187 307H183Q173 296 155 285T106 273ZM139 317Q149 317 156 322T170 331Q173
334 174 337T176 349L177 387Q177 394 174 396T163 396Q133 387 122 375T110 349Q110 331 119 324T139 317Z" />
<glyph unicode="&#xab;" glyph-name="guillemotleft" horiz-adv-x="591" d="M316 18Q305 18 297 25T284 37Q256 63 231 84T180 122T129 154T77 181Q68 186 62 195T56 213Q56 221 61 223Q102 248 132 267T188 304T237 342T288 388Q292 392 301 399T319 407Q325
407 325 397Q325 393 324 390T320 382Q290 337 265 308T217 258T172 220Q166 215 166 213T172 205Q194 187 217 167T265 116T320 41Q322 38 323 35T324 30Q324 18 316 18ZM527 18Q516 18 508 25T495 37Q467 63 442 84T391 122T340 154T288 181Q279 186 273 195T267
213Q267 221 272 223Q313 248 343 267T399 304T448 342T499 388Q503 392 512 399T530 407Q536 407 536 397Q536 393 535 390T531 382Q501 337 476 308T428 258T383 220Q377 215 377 213T383 205Q405 187 428 167T476 116T531 41Q533 38 534 35T535 30Q535 18 527
18Z" />
<glyph unicode="&#xac;" glyph-name="logicalnot" horiz-adv-x="608" d="M501 43Q496 43 492 48T488 58V303Q488 320 473 320H60Q54 320 49 324T44 333Q44 339 46 351T54 373T71 384H537Q544 384 548 379T552 368V70Q552 59 542 53T519 45T501 43Z" />
<glyph unicode="&#xad;" glyph-name="uni00AD" horiz-adv-x="289" d="M35 168Q28 168 28 175Q28 197 33 214T46 232Q96 240 148 247T250 258Q256 259 258 257T261 249Q261 227 257 212T240 195Q192 187 140 180T35 168Z" />
<glyph unicode="&#xae;" glyph-name="registered" horiz-adv-x="672" d="M345 21Q281 21 226 45T129 111T64 208T40 327Q40 391 64 446T130 543T227 609T346 633Q409 633 464 609T561 543T627 446T651 327Q651 264 628 209T562 111T464 45T345 21ZM345 61Q399
61 446 82T529 139T585 224T606 327Q606 380 586 427T530 510T447 566T346 587Q292 587 245 567T162 511T106 428T86 327Q86 273 105 225T160 140T243 82T345 61ZM479 172Q461 172 442 185T405 218T373 262T350 305Q348 311 341 315T320 319Q315 319 311 317T307
309V230Q307 214 317 208T343 198Q350 196 355 193T360 183Q360 178 356 175T346 171Q324 171 309 173T274 175Q261 175 252 174T233 172T208 171Q204 171 199 175T194 183Q194 189 199 192T211 198Q225 202 231 208T238 230V430Q238 448 236 455T229 465T213 470Q196
474 196 485Q196 497 213 495Q230 494 243 492T272 490Q294 490 314 492T359 495Q405 497 437 477T470 416Q470 384 451 365T409 336Q403 334 405 330T408 322Q421 291 441 265T482 222T517 206Q520 206 525 206T530 201Q530 188 515 180T479 172ZM331 349Q360
349 380 366T401 410Q401 435 384 449T340 464Q320 464 313 457T306 437V368Q306 356 313 353T331 349Z" />
<glyph unicode="&#xaf;" glyph-name="overscore" horiz-adv-x="319" d="M43 503Q37 503 32 507T27 517Q27 526 30 537T40 558T56 567H278Q284 567 288 563T293 553Q293 534 284 519T259 503H43Z" />
<glyph unicode="&#xb0;" glyph-name="degree" horiz-adv-x="310" d="M155 394Q120 394 90 413T43 462T25 527Q25 562 42 590T90 636T155 654Q191 654 220 637T267 592T285 529Q285 495 268 464T221 414T155 394ZM155 442Q188 442 211 466T234 524Q234 558 211
581T155 605Q123 605 100 582T76 524Q76 490 99 466T155 442Z" />
<glyph unicode="&#xb1;" glyph-name="plusminus" horiz-adv-x="593" d="M283 122Q279 122 275 127T270 137V345Q270 353 264 353H59Q53 353 49 357T44 365Q44 373 50 389T70 405H261Q268 405 269 407T270 415V586Q270 596 278 602T295 613T308 618Q314 618 318
613T323 602V414Q323 408 324 407T330 405H533Q539 405 544 402T549 393Q549 382 539 368T517 353H330Q323 353 323 346V148Q323 134 307 128T283 122ZM60 35Q54 35 49 39T44 48Q44 54 47 63T55 81T71 89H532Q539 89 544 86T550 76Q550 65 540 50T516 35H60Z" />
<glyph unicode="&#xb2;" glyph-name="uni00B2" horiz-adv-x="314" d="M251 437Q234 437 215 438T176 440T136 441Q119 441 98 441T59 440T34 439Q30 439 26 442T22 448Q22 452 29 458L67 495Q91 519 116 547T159 605T177 664Q177 692 163 707T124 723Q100 723
84 713T51 683Q46 675 39 675Q35 675 33 679T30 690Q30 701 44 722T86 760T152 777Q199 777 224 750T249 685Q249 665 238 642T209 597Q198 583 184 569T155 541T129 517T112 502Q110 500 114 499T122 498H203Q224 498 239 511T268 545Q271 550 274 553T283 556Q289
556 289 553T289 546Q285 534 276 505T261 451Q260 443 257 440T251 437Z" />
<glyph unicode="&#xb3;" glyph-name="uni00B3" horiz-adv-x="288" d="M96 434Q73 434 52 443T31 472Q31 483 36 492T49 501Q54 501 58 499T64 493Q78 481 91 473T122 464Q146 464 161 484T176 538Q176 559 160 579T117 600Q104 600 94 596T77 591Q72 591 68 593T63
600Q63 608 74 615T99 627T118 635Q144 647 155 661T167 696Q167 712 153 723T121 735Q100 735 84 726T54 701Q52 698 50 695T44 692Q40 692 37 698T33 707Q33 717 47 733T86 763T140 776Q173 776 201 757T229 707Q229 682 214 667T170 639Q168 638 168 637T170
634Q200 628 223 610T246 559Q246 522 225 494T169 450T96 434Z" />
<glyph unicode="&#xb4;" glyph-name="acute" horiz-adv-x="213" d="M35 456Q26 456 26 466Q26 469 27 474T30 485Q37 504 51 533T80 590T103 632Q109 642 117 647T136 652Q157 652 173 647T189 630Q189 624 187 620T179 608Q164 589 144 564T102 515T64 475Q45
456 35 456Z" />
<glyph unicode="&#xb5;" glyph-name="uni03BC.1" horiz-adv-x="545" d="M149 -285Q132 -285 121 -277T104 -256T93 -226Q90 -217 88 -192T85 -133T83 -64T82 0Q82 44 82 90T82 182T80 268T79 341T79 392Q79 407 86 413T115 420Q143 420 164 410T186 387Q186 368
181 333T168 257T154 184T148 137Q148 123 154 107T173 78T204 66Q241 66 266 93T319 185Q325 214 328 252T334 330T337 402Q338 413 342 417T360 421Q383 421 401 414T430 397T441 378Q441 342 426 286T388 165Q388 147 396 129T419 98T456 85Q475 85 490 93T515
110T528 118Q533 118 536 115T540 108Q540 68 525 41T488 -1T442 -15Q417 -15 397 13T370 85Q369 94 369 103T367 122H365Q362 116 349 95T318 48T279 5T242 -14Q224 -14 209 -7T180 12T157 34Q146 46 138 57T126 68Q117 68 117 37Q117 27 117 7T118 -38T120 -85T121
-120Q122 -148 135 -167T166 -199T197 -221T210 -238Q210 -250 200 -261T175 -278T149 -285Z" />
<glyph unicode="&#xb6;" glyph-name="paragraph" horiz-adv-x="607" d="M291 -297Q256 -297 226 -283T178 -242T160 -181Q160 -146 177 -119T222 -77T276 -62Q310 -62 328 -77T346 -117Q346 -141 332 -155T300 -170Q289 -170 282 -165T268 -154Q261 -148 255 -143T241
-137Q229 -137 218 -150T206 -189Q206 -218 231 -239T296 -260Q320 -260 342 -248T379 -206T394 -129V74Q394 82 391 91T380 100Q310 100 248 117T138 169T63 254T35 373Q35 473 82 533T215 621T418 648Q447 648 477 647T532 644T563 641Q571 640 575 633T579 618Q579
610 575 598T564 586Q560 586 528 594T455 602Q448 602 442 596T436 581V-128Q436 -182 417 -219T365 -277T291 -297Z" />
<glyph unicode="&#xb7;" glyph-name="middot" horiz-adv-x="219" d="M110 143Q84 143 65 162T46 207Q46 235 65 253T110 272Q137 272 155 254T174 207Q174 181 156 162T110 143Z" />
<glyph unicode="&#xb8;" glyph-name="cedilla" horiz-adv-x="226" d="M67 -274Q49 -274 41 -265T33 -231Q33 -220 36 -215T47 -210Q56 -210 69 -216T105 -222Q123 -222 131 -210T140 -179Q140 -153 123 -140T82 -127Q71 -127 66 -131T54 -135Q48 -135 42 -130T35
-116Q35 -111 43 -101L131 8H167L130 -39Q125 -46 125 -50Q125 -55 136 -61Q160 -71 177 -91T195 -139Q195 -168 181 -192T147 -235T105 -263T67 -274Z" />
<glyph unicode="&#xb9;" glyph-name="uni00B9" horiz-adv-x="256" d="M48 440Q43 440 39 444T35 453Q35 459 38 463T48 469Q62 470 73 472T90 482T97 506V667Q97 688 82 699T50 713Q44 714 40 717T36 725Q36 738 48 740Q86 744 111 756T151 779Q152 781 155 782T160
783Q171 783 169 771Q169 762 167 747T164 710V507Q164 485 172 480T210 469Q216 467 219 463T222 454Q222 449 220 445T211 440Q188 440 175 441T153 442T129 443Q115 443 105 443T83 441T48 440Z" />
<glyph unicode="&#xba;" glyph-name="ordmasculine" horiz-adv-x="315" d="M280 199Q285 199 290 196T295 186Q295 185 295 185T294 183Q288 173 280 167T260 160H37Q31 160 27 164T22 174Q22 181 29 190T48 199H280ZM159 273Q123 273 93 289T44 333T26 398Q26
437 45 469T98 520T172 539Q209 539 240 522T290 477T309 414Q309 377 292 345T242 293T159 273ZM172 305Q192 305 204 319T222 354T227 399Q227 426 220 450T198 489T162 505Q141 505 129 492T112 457T107 412Q107 385 115 361T137 321T172 305Z" />
<glyph unicode="&#xbb;" glyph-name="guillemotright" horiz-adv-x="591" d="M275 18Q267 18 267 30Q267 32 268 35T270 41Q301 86 326 116T373 166T419 205Q425 211 425 213T419 220Q396 238 374 258T326 307T270 382Q268 386 267 389T265 397Q265 407 271 407Q281
407 290 400T303 388Q330 362 354 342T403 304T458 267T529 223Q535 221 535 213Q535 205 530 196T514 181Q487 169 462 155T411 123T360 84T307 37Q303 33 294 26T275 18ZM64 18Q56 18 56 30Q56 32 57 35T59 41Q90 86 115 116T162 166T208 205Q214 211 214 213T208
220Q185 238 163 258T115 307T59 382Q57 386 56 389T54 397Q54 407 60 407Q70 407 79 400T92 388Q119 362 143 342T192 304T247 267T318 223Q324 221 324 213Q324 205 319 196T303 181Q276 169 251 155T200 123T149 84T96 37Q92 33 83 26T64 18Z" />
<glyph unicode="&#xbc;" glyph-name="onequarter" horiz-adv-x="653" d="M48 278Q43 278 39 282T35 291Q35 297 38 301T48 307Q62 308 73 310T90 320T97 344V505Q97 526 82 537T50 551Q44 552 40 555T36 563Q36 576 48 578Q86 582 111 594T151 617Q152 619 155
620T160 621Q171 621 169 609Q169 600 167 585T164 548V345Q164 323 172 318T210 307Q216 305 219 301T222 292Q222 287 220 283T211 278Q188 278 175 279T153 280T129 281Q115 281 105 281T83 279T48 278ZM542 646Q550 658 560 661T585 665Q591 665 596 661T601
650Q601 647 600 646L172 -32Q165 -43 155 -45T132 -48Q125 -48 119 -44T113 -35Q113 -33 114 -32L542 646ZM522 -8Q512 -8 512 0V89Q512 92 508 93T503 95Q466 95 435 94T358 91Q356 91 353 93T350 97Q350 99 350 99T351 100Q385 142 420 184T490 267Q500 279
516 297T551 333Q556 338 561 342T571 346Q573 346 574 343T575 337V139Q575 132 582 132H602Q611 132 618 132T635 133Q641 133 641 126Q641 118 636 108T626 97H587Q580 97 578 96T575 90V22Q575 15 563 8T538 -4T522 -8ZM417 133H505Q507 133 509 134T512 138V243Q512
245 511 245T507 244Q491 226 475 207T444 171T416 138Q414 133 417 133Z" />
<glyph unicode="&#xbd;" glyph-name="onehalf" horiz-adv-x="718" d="M48 278Q43 278 39 282T35 291Q35 297 38 301T48 307Q62 308 73 310T90 320T97 344V505Q97 526 82 537T50 551Q44 552 40 555T36 563Q36 576 48 578Q86 582 111 594T151 617Q152 619 155 620T160
621Q171 621 169 609Q169 600 167 585T164 548V345Q164 323 172 318T210 307Q216 305 219 301T222 292Q222 287 220 283T211 278Q188 278 175 279T153 280T129 281Q115 281 105 281T83 279T48 278ZM542 646Q550 658 560 661T585 665Q591 665 596 661T601 650Q601
647 600 646L172 -32Q165 -43 155 -45T132 -48Q125 -48 119 -44T113 -35Q113 -33 114 -32L542 646ZM654 -17Q637 -17 618 -16T579 -14T539 -13Q522 -13 501 -13T462 -14T437 -15Q433 -15 429 -12T425 -6Q425 -2 432 4L470 41Q494 65 519 93T562 151T580 210Q580
238 566 253T527 269Q503 269 487 259T454 229Q449 221 442 221Q438 221 436 225T433 236Q433 247 447 268T489 306T555 323Q602 323 627 296T652 231Q652 211 641 188T612 143Q601 129 587 115T558 87T532 63T515 48Q513 46 517 45T525 44H606Q627 44 642 57T671
91Q674 96 677 99T686 102Q692 102 692 99T692 92Q688 80 679 51T664 -3Q663 -11 660 -14T654 -17Z" />
<glyph unicode="&#xbe;" glyph-name="threequarters" horiz-adv-x="643" d="M96 274Q73 274 52 283T31 312Q31 323 36 332T49 341Q54 341 58 339T64 333Q78 321 91 313T122 304Q146 304 161 324T176 378Q176 399 160 419T117 440Q104 440 94 436T77 431Q72 431
68 433T63 440Q63 448 74 455T99 467T118 475Q144 487 155 501T167 536Q167 552 153 563T121 575Q100 575 84 566T54 541Q52 538 50 535T44 532Q40 532 37 538T33 547Q33 557 47 573T86 603T140 616Q173 616 201 597T229 547Q229 522 214 507T170 479Q168 478 168
477T170 474Q200 468 223 450T246 399Q246 362 225 334T169 290T96 274ZM532 646Q540 658 550 661T575 665Q581 665 586 661T591 650Q591 647 590 646L162 -32Q155 -43 145 -45T122 -48Q115 -48 109 -44T103 -35Q103 -33 104 -32L532 646ZM513 -8Q503 -8 503 0V89Q503
92 499 93T494 95Q457 95 426 94T349 91Q347 91 344 93T341 97Q341 99 341 99T342 100Q376 142 411 184T481 267Q491 279 507 297T542 333Q547 338 552 342T562 346Q564 346 565 343T566 337V139Q566 132 573 132H593Q602 132 609 132T626 133Q632 133 632 126Q632
118 627 108T617 97H578Q571 97 569 96T566 90V22Q566 15 554 8T529 -4T513 -8ZM408 133H496Q498 133 500 134T503 138V243Q503 245 502 245T498 244Q482 226 466 207T435 171T407 138Q405 133 408 133Z" />
<glyph unicode="&#xbf;" glyph-name="questiondown" horiz-adv-x="383" d="M243 302Q249 302 256 294T269 272Q275 256 281 237T288 185Q288 156 260 134T181 87Q157 75 138 57T119 14Q119 -28 143 -55T211 -82Q223 -82 230 -81T243 -77Q249 -76 255 -75T270 -74Q282
-74 293 -84T311 -110T318 -140Q318 -156 302 -168T268 -181Q238 -181 206 -166T146 -123Q120 -96 101 -63T70 4T59 64Q59 102 73 123T104 152Q123 162 136 170T162 185T191 203Q212 216 218 234T226 279Q226 288 230 295T243 302ZM234 494Q261 494 280 475T299
430Q299 403 280 384T234 365Q208 365 189 384T170 430Q170 456 189 475T234 494Z" />
<glyph unicode="&#xc0;" glyph-name="Agrave" horiz-adv-x="702" d="M398 684Q396 684 391 686T378 693Q346 716 307 742T235 794Q221 805 220 814Q220 821 232 827T260 837T283 842Q302 843 312 829Q336 800 357 770T399 708Q407 698 407 691Q407 685 398 684ZM25
-5Q13 -5 5 -2T-3 9Q-3 17 5 22T27 32Q54 40 76 56T112 105Q139 166 162 221T206 331T249 442T294 565Q303 588 307 603T312 631Q325 634 336 637T360 648Q372 654 378 665T389 682Q391 683 393 683T398 680Q401 675 402 669T406 656Q429 583 453 508T502 360T547
227T583 119Q594 86 609 69T641 43T678 30Q693 27 700 21T708 7Q708 1 701 -1T682 -4Q666 -4 640 -3T586 0T535 1Q516 1 493 1T450 0T414 -1Q402 -1 395 2T387 12Q387 20 396 25T417 32Q451 38 466 50T479 82Q478 99 472 124T458 178T443 231Q441 239 436 241T419
243H234Q229 243 225 240T217 226Q214 214 208 196T195 157T185 119T179 93Q176 68 191 54T238 31Q268 23 268 11Q268 4 261 2T241 -1Q222 -1 197 0T144 1Q112 1 82 -2T25 -5ZM262 284H408Q422 284 422 289Q422 292 422 294T420 300L346 537Q341 553 338 553Q336
553 331 538L244 300Q242 294 242 292Q242 287 247 286T262 284Z" />
<glyph unicode="&#xc1;" glyph-name="Aacute" horiz-adv-x="702" d="M25 -5Q13 -5 5 -2T-3 9Q-3 17 5 22T27 32Q54 40 76 56T112 105Q139 166 162 221T206 331T249 442T294 565Q303 588 307 603T312 631Q325 634 336 637T360 648Q372 654 378 665T389 682Q391
683 393 683T398 680Q401 675 402 669T406 656Q429 583 453 508T502 360T547 227T583 119Q594 86 609 69T641 43T678 30Q693 27 700 21T708 7Q708 1 701 -1T682 -4Q666 -4 640 -3T586 0T535 1Q516 1 493 1T450 0T414 -1Q402 -1 395 2T387 12Q387 20 396 25T417
32Q451 38 466 50T479 82Q478 99 472 124T458 178T443 231Q441 239 436 241T419 243H234Q229 243 225 240T217 226Q214 214 208 196T195 157T185 119T179 93Q176 68 191 54T238 31Q268 23 268 11Q268 4 261 2T241 -1Q222 -1 197 0T144 1Q112 1 82 -2T25 -5ZM262
284H408Q422 284 422 289Q422 292 422 294T420 300L346 537Q341 553 338 553Q336 553 331 538L244 300Q242 294 242 292Q242 287 247 286T262 284ZM329 684Q321 685 321 691Q321 698 328 708Q349 739 370 769T416 829Q426 843 445 842Q452 841 467 837T495 827T508
814Q507 805 493 794Q460 768 422 742T350 693Q342 688 337 686T329 684Z" />
<glyph unicode="&#xc2;" glyph-name="Acircumflex" horiz-adv-x="702" d="M25 -5Q13 -5 5 -2T-3 9Q-3 17 5 22T27 32Q54 40 76 56T112 105Q139 166 162 221T206 331T249 442T294 565Q303 588 307 603T312 631Q325 634 336 637T360 648Q372 654 378 665T389 682Q391
683 393 683T398 680Q401 675 402 669T406 656Q429 583 453 508T502 360T547 227T583 119Q594 86 609 69T641 43T678 30Q693 27 700 21T708 7Q708 1 701 -1T682 -4Q666 -4 640 -3T586 0T535 1Q516 1 493 1T450 0T414 -1Q402 -1 395 2T387 12Q387 20 396 25T417
32Q451 38 466 50T479 82Q478 99 472 124T458 178T443 231Q441 239 436 241T419 243H234Q229 243 225 240T217 226Q214 214 208 196T195 157T185 119T179 93Q176 68 191 54T238 31Q268 23 268 11Q268 4 261 2T241 -1Q222 -1 197 0T144 1Q112 1 82 -2T25 -5ZM262
284H408Q422 284 422 289Q422 292 422 294T420 300L346 537Q341 553 338 553Q336 553 331 538L244 300Q242 294 242 292Q242 287 247 286T262 284ZM232 695Q216 695 216 706Q216 713 223 719L324 806Q339 819 347 824T368 830Q380 830 388 825T412 806L513 719Q519
714 519 706Q519 694 504 694Q499 694 483 700T447 715T409 733T379 748Q372 752 368 752T357 748Q347 742 328 733T290 716T254 701T232 695Z" />
<glyph unicode="&#xc3;" glyph-name="Atilde" horiz-adv-x="702" d="M25 -5Q13 -5 5 -2T-3 9Q-3 17 5 22T27 32Q54 40 76 56T112 105Q139 166 162 221T206 331T249 442T294 565Q303 588 307 603T312 631Q325 634 336 637T360 648Q372 654 378 665T389 682Q391
683 393 683T398 680Q401 675 402 669T406 656Q429 583 453 508T502 360T547 227T583 119Q594 86 609 69T641 43T678 30Q693 27 700 21T708 7Q708 1 701 -1T682 -4Q666 -4 640 -3T586 0T535 1Q516 1 493 1T450 0T414 -1Q402 -1 395 2T387 12Q387 20 396 25T417
32Q451 38 466 50T479 82Q478 99 472 124T458 178T443 231Q441 239 436 241T419 243H234Q229 243 225 240T217 226Q214 214 208 196T195 157T185 119T179 93Q176 68 191 54T238 31Q268 23 268 11Q268 4 261 2T241 -1Q222 -1 197 0T144 1Q112 1 82 -2T25 -5ZM262
284H408Q422 284 422 289Q422 292 422 294T420 300L346 537Q341 553 338 553Q336 553 331 538L244 300Q242 294 242 292Q242 287 247 286T262 284ZM247 692Q242 692 236 697T230 708Q230 712 239 726T261 756T288 785T310 798Q328 798 347 797T384 794Q401 793
419 792T455 791Q466 791 475 797T492 810Q500 817 504 823T512 830Q519 830 526 825T533 813Q533 810 529 804T517 791Q506 778 494 762T473 734Q467 726 457 723T443 720Q436 720 418 721T376 724T331 727T299 729Q292 729 283 725T267 714Q259 707 254 700T247
692Z" />
<glyph unicode="&#xc4;" glyph-name="Adieresis" horiz-adv-x="702" d="M25 -5Q13 -5 5 -2T-3 9Q-3 17 5 22T27 32Q54 40 76 56T112 105Q139 166 162 221T206 331T249 442T294 565Q303 588 307 603T312 631Q325 634 336 637T360 648Q372 654 378 665T389 682Q391
683 393 683T398 680Q401 675 402 669T406 656Q429 583 453 508T502 360T547 227T583 119Q594 86 609 69T641 43T678 30Q693 27 700 21T708 7Q708 1 701 -1T682 -4Q666 -4 640 -3T586 0T535 1Q516 1 493 1T450 0T414 -1Q402 -1 395 2T387 12Q387 20 396 25T417
32Q451 38 466 50T479 82Q478 99 472 124T458 178T443 231Q441 239 436 241T419 243H234Q229 243 225 240T217 226Q214 214 208 196T195 157T185 119T179 93Q176 68 191 54T238 31Q268 23 268 11Q268 4 261 2T241 -1Q222 -1 197 0T144 1Q112 1 82 -2T25 -5ZM262
284H408Q422 284 422 289Q422 292 422 294T420 300L346 537Q341 553 338 553Q336 553 331 538L244 300Q242 294 242 292Q242 287 247 286T262 284ZM466 692Q442 692 425 709T408 750Q408 774 425 791T466 808Q490 808 507 791T524 750Q524 726 507 709T466 692ZM270
692Q246 692 229 709T212 750Q212 774 229 791T270 808Q295 808 312 791T329 750Q329 726 312 709T270 692Z" />
<glyph unicode="&#xc5;" glyph-name="Aring" horiz-adv-x="702" d="M25 -5Q13 -5 5 -2T-3 9Q-3 17 5 22T27 32Q54 40 76 56T112 105Q139 166 162 221T206 331T249 442T294 565Q303 588 307 603T312 631Q325 634 336 637T360 648Q372 654 378 665T389 682Q391 683
393 683T398 680Q401 675 402 669T406 656Q429 583 453 508T502 360T547 227T583 119Q594 86 609 69T641 43T678 30Q693 27 700 21T708 7Q708 1 701 -1T682 -4Q666 -4 640 -3T586 0T535 1Q516 1 493 1T450 0T414 -1Q402 -1 395 2T387 12Q387 20 396 25T417 32Q451
38 466 50T479 82Q478 99 472 124T458 178T443 231Q441 239 436 241T419 243H234Q229 243 225 240T217 226Q214 214 208 196T195 157T185 119T179 93Q176 68 191 54T238 31Q268 23 268 11Q268 4 261 2T241 -1Q222 -1 197 0T144 1Q112 1 82 -2T25 -5ZM262 284H408Q422
284 422 289Q422 292 422 294T420 300L346 537Q341 553 338 553Q336 553 331 538L244 300Q242 294 242 292Q242 287 247 286T262 284ZM318 772Q318 751 333 736T369 721Q389 721 399 737T410 772Q410 792 396 807T361 822Q341 822 330 807T318 772ZM369 848Q404
848 431 830T459 777Q459 753 445 735T409 706T360 696Q325 696 297 715T269 769Q269 793 283 811T320 838T369 848Z" />
<glyph unicode="&#xc6;" glyph-name="AE" horiz-adv-x="885" d="M23 -5Q11 -5 3 -2T-5 8Q-5 16 3 20T25 30Q52 38 78 62T124 118L404 595Q408 601 404 605T391 611L322 624Q315 626 312 630T309 639Q309 652 322 652Q354 652 398 651T488 649Q530 649 577 649T669
651T748 652T797 653Q803 653 809 651T817 641Q823 610 826 583T831 529Q831 523 827 520T817 516Q812 516 809 519T803 528Q796 550 790 565T773 590Q760 604 744 609T707 615H596Q583 615 569 608T554 584V357Q554 348 559 342T574 335Q603 335 625 335T667 336Q684
337 695 346T715 367Q726 378 731 390T746 402Q750 402 754 397T758 384Q757 365 756 349T755 318Q755 300 756 282T758 242Q759 232 757 227T749 222Q740 222 734 230T725 245Q718 270 705 282T677 295Q649 297 627 297T577 297Q567 297 561 291T554 274V107Q554
79 568 59T615 38H714Q720 38 735 40T765 47T788 57Q804 69 815 90T835 128Q838 135 841 138T850 140Q863 139 863 128Q863 100 856 69T842 11Q841 5 837 0T825 -5Q793 -5 755 -4T674 -2T588 0T500 1Q478 1 460 0T421 -3T376 -5Q365 -5 358 -2T350 7Q350 20 380
26Q415 34 432 48T449 96V258Q449 265 446 270T428 276H287Q277 276 271 271T259 254Q241 221 223 186T185 111Q177 95 177 81Q177 59 196 48T242 31Q271 23 271 11Q271 4 264 2T245 -1Q226 -1 200 0T146 1Q113 1 82 -2T23 -5ZM318 323H433Q442 323 445 326T449
337V569Q449 584 446 585T434 571L305 339Q301 332 302 328Q302 325 306 324T318 323Z" />
<glyph unicode="&#xc7;" glyph-name="Ccedilla" horiz-adv-x="710" d="M406 -15Q334 -15 268 9T150 77T70 183T40 321Q40 392 70 454T153 563T278 636T432 663Q469 663 498 660T554 650T612 634Q625 630 631 623T639 602Q642 576 644 548T648 486Q648 477 641
473T624 471T612 485Q603 518 591 544T556 587Q533 605 498 615T418 625Q362 625 315 602T235 540T184 450T165 346Q165 283 182 225T233 122T315 51T423 24Q495 24 542 56T621 150Q628 164 642 164T656 148Q656 138 653 121T643 83T631 45Q625 32 620 27T601 17Q563
1 512 -7T406 -15ZM332 -275Q309 -275 297 -267T284 -239Q284 -222 290 -214T302 -206Q308 -206 318 -212T364 -219Q384 -219 395 -209T407 -180Q407 -155 394 -143T359 -131Q351 -131 346 -133T334 -135Q320 -135 314 -128T307 -116Q307 -111 308 -107T313 -100L397
8H434L397 -45Q386 -60 403 -67Q425 -75 446 -97T468 -153Q468 -188 445 -215T390 -259T332 -275Z" />
<glyph unicode="&#xc8;" glyph-name="Egrave" horiz-adv-x="568" d="M329 684Q327 684 322 686T308 693Q276 716 237 742T166 794Q152 805 151 814Q150 821 162 827T190 837T213 842Q232 843 243 829Q266 800 287 770T330 708Q337 698 337 691Q337 685 329 684ZM57
-5Q45 -5 38 -2T31 7Q31 20 60 26Q97 34 113 48T130 98V550Q130 584 116 599T65 621Q50 624 43 629T36 641Q36 647 43 650T62 654Q95 654 121 653T173 651T229 650Q269 650 313 650T394 652Q428 652 450 653T477 655Q483 655 489 653T497 643Q502 612 507 583T513
531Q513 521 509 518T499 514Q494 514 491 517T485 526Q478 546 472 562T458 587Q445 601 428 608T390 615H278Q265 615 251 606T236 579V375Q236 365 242 359T256 353H351Q380 353 391 366T409 406Q416 426 428 426Q433 426 437 422T441 408Q441 402 440 388T438
359T437 335Q437 324 437 309T439 278T440 256Q441 247 439 242T431 236Q415 236 407 265Q401 291 391 304T360 317H267Q251 317 244 312T236 291V100Q236 65 251 52T297 38H376Q404 38 425 42T461 57Q478 69 491 88T518 135Q522 141 526 144T535 147Q541 147 543
143T546 131Q546 120 541 98T529 52T515 11Q512 4 508 0T498 -5Q462 -5 423 -4T343 -2T261 0T180 1Q159 1 140 0T102 -3T57 -5Z" />
<glyph unicode="&#xc9;" glyph-name="Eacute" horiz-adv-x="568" d="M57 -5Q45 -5 38 -2T31 7Q31 20 60 26Q97 34 113 48T130 98V550Q130 584 116 599T65 621Q50 624 43 629T36 641Q36 647 43 650T62 654Q95 654 121 653T173 651T229 650Q269 650 313 650T394
652Q428 652 450 653T477 655Q483 655 489 653T497 643Q502 612 507 583T513 531Q513 521 509 518T499 514Q494 514 491 517T485 526Q478 546 472 562T458 587Q445 601 428 608T390 615H278Q265 615 251 606T236 579V375Q236 365 242 359T256 353H351Q380 353 391
366T409 406Q416 426 428 426Q433 426 437 422T441 408Q441 402 440 388T438 359T437 335Q437 324 437 309T439 278T440 256Q441 247 439 242T431 236Q415 236 407 265Q401 291 391 304T360 317H267Q251 317 244 312T236 291V100Q236 65 251 52T297 38H376Q404
38 425 42T461 57Q478 69 491 88T518 135Q522 141 526 144T535 147Q541 147 543 143T546 131Q546 120 541 98T529 52T515 11Q512 4 508 0T498 -5Q462 -5 423 -4T343 -2T261 0T180 1Q159 1 140 0T102 -3T57 -5ZM260 684Q252 685 252 691Q252 698 259 708Q280 739
301 769T347 829Q357 843 376 842Q383 841 398 837T426 827T439 814Q438 805 424 794Q391 768 353 742T281 693Q273 688 268 686T260 684Z" />
<glyph unicode="&#xca;" glyph-name="Ecircumflex" horiz-adv-x="568" d="M57 -5Q45 -5 38 -2T31 7Q31 20 60 26Q97 34 113 48T130 98V550Q130 584 116 599T65 621Q50 624 43 629T36 641Q36 647 43 650T62 654Q95 654 121 653T173 651T229 650Q269 650 313 650T394
652Q428 652 450 653T477 655Q483 655 489 653T497 643Q502 612 507 583T513 531Q513 521 509 518T499 514Q494 514 491 517T485 526Q478 546 472 562T458 587Q445 601 428 608T390 615H278Q265 615 251 606T236 579V375Q236 365 242 359T256 353H351Q380 353 391
366T409 406Q416 426 428 426Q433 426 437 422T441 408Q441 402 440 388T438 359T437 335Q437 324 437 309T439 278T440 256Q441 247 439 242T431 236Q415 236 407 265Q401 291 391 304T360 317H267Q251 317 244 312T236 291V100Q236 65 251 52T297 38H376Q404
38 425 42T461 57Q478 69 491 88T518 135Q522 141 526 144T535 147Q541 147 543 143T546 131Q546 120 541 98T529 52T515 11Q512 4 508 0T498 -5Q462 -5 423 -4T343 -2T261 0T180 1Q159 1 140 0T102 -3T57 -5ZM162 695Q146 695 146 706Q146 713 153 719L254 806Q269
819 277 824T298 830Q310 830 318 825T342 806L443 719Q449 714 449 706Q449 694 434 694Q429 694 413 700T377 715T339 733T309 748Q302 752 298 752T287 748Q277 742 258 733T220 716T184 701T162 695Z" />
<glyph unicode="&#xcb;" glyph-name="Edieresis" horiz-adv-x="568" d="M57 -5Q45 -5 38 -2T31 7Q31 20 60 26Q97 34 113 48T130 98V550Q130 584 116 599T65 621Q50 624 43 629T36 641Q36 647 43 650T62 654Q95 654 121 653T173 651T229 650Q269 650 313 650T394
652Q428 652 450 653T477 655Q483 655 489 653T497 643Q502 612 507 583T513 531Q513 521 509 518T499 514Q494 514 491 517T485 526Q478 546 472 562T458 587Q445 601 428 608T390 615H278Q265 615 251 606T236 579V375Q236 365 242 359T256 353H351Q380 353 391
366T409 406Q416 426 428 426Q433 426 437 422T441 408Q441 402 440 388T438 359T437 335Q437 324 437 309T439 278T440 256Q441 247 439 242T431 236Q415 236 407 265Q401 291 391 304T360 317H267Q251 317 244 312T236 291V100Q236 65 251 52T297 38H376Q404
38 425 42T461 57Q478 69 491 88T518 135Q522 141 526 144T535 147Q541 147 543 143T546 131Q546 120 541 98T529 52T515 11Q512 4 508 0T498 -5Q462 -5 423 -4T343 -2T261 0T180 1Q159 1 140 0T102 -3T57 -5ZM397 692Q373 692 356 709T339 750Q339 774 356 791T397
808Q421 808 438 791T455 750Q455 726 438 709T397 692ZM201 692Q177 692 160 709T143 750Q143 774 160 791T201 808Q226 808 243 791T260 750Q260 726 243 709T201 692Z" />
<glyph unicode="&#xcc;" glyph-name="Igrave" horiz-adv-x="348" d="M206 684Q203 684 198 686T185 693Q153 716 114 742T43 794Q29 805 28 814Q27 821 39 827T67 837T90 842Q109 843 120 829Q143 800 164 770T207 708Q214 698 214 691Q214 685 206 684ZM44 -4Q33
-4 26 -2T18 8Q18 21 47 27Q85 34 103 49T121 98V550Q121 584 107 598T55 621Q26 627 26 641Q26 648 33 651T51 654Q77 654 97 653T137 651T178 650Q199 650 217 650T255 652T300 653Q312 653 319 651T326 641Q326 633 319 629T297 621Q258 612 243 598T227 550V98Q227
65 246 50T302 27Q317 24 324 20T331 8Q331 2 325 -1T306 -4Q281 -4 260 -3T220 0T178 1Q154 1 134 0T91 -2T44 -4Z" />
<glyph unicode="&#xcd;" glyph-name="Iacute" horiz-adv-x="348" d="M44 -4Q33 -4 26 -2T18 8Q18 21 47 27Q85 34 103 49T121 98V550Q121 584 107 598T55 621Q26 627 26 641Q26 648 33 651T51 654Q77 654 97 653T137 651T178 650Q199 650 217 650T255 652T300
653Q312 653 319 651T326 641Q326 633 319 629T297 621Q258 612 243 598T227 550V98Q227 65 246 50T302 27Q317 24 324 20T331 8Q331 2 325 -1T306 -4Q281 -4 260 -3T220 0T178 1Q154 1 134 0T91 -2T44 -4ZM137 684Q129 685 129 691Q129 698 136 708Q157 739 178
769T224 829Q234 843 253 842Q260 841 275 837T303 827T316 814Q315 805 301 794Q268 768 230 742T158 693Q150 688 145 686T137 684Z" />
<glyph unicode="&#xce;" glyph-name="Icircumflex" horiz-adv-x="348" d="M44 -4Q33 -4 26 -2T18 8Q18 21 47 27Q85 34 103 49T121 98V550Q121 584 107 598T55 621Q26 627 26 641Q26 648 33 651T51 654Q77 654 97 653T137 651T178 650Q199 650 217 650T255 652T300
653Q312 653 319 651T326 641Q326 633 319 629T297 621Q258 612 243 598T227 550V98Q227 65 246 50T302 27Q317 24 324 20T331 8Q331 2 325 -1T306 -4Q281 -4 260 -3T220 0T178 1Q154 1 134 0T91 -2T44 -4ZM39 695Q23 695 23 706Q23 713 30 719L131 806Q146 819
154 824T175 830Q187 830 195 825T219 806L320 719Q326 714 326 706Q326 694 311 694Q306 694 290 700T254 715T216 733T186 748Q179 752 175 752T164 748Q154 742 135 733T97 716T61 701T39 695Z" />
<glyph unicode="&#xcf;" glyph-name="Idieresis" horiz-adv-x="348" d="M44 -4Q33 -4 26 -2T18 8Q18 21 47 27Q85 34 103 49T121 98V550Q121 584 107 598T55 621Q26 627 26 641Q26 648 33 651T51 654Q77 654 97 653T137 651T178 650Q199 650 217 650T255 652T300
653Q312 653 319 651T326 641Q326 633 319 629T297 621Q258 612 243 598T227 550V98Q227 65 246 50T302 27Q317 24 324 20T331 8Q331 2 325 -1T306 -4Q281 -4 260 -3T220 0T178 1Q154 1 134 0T91 -2T44 -4ZM274 692Q250 692 233 709T216 750Q216 774 233 791T274
808Q298 808 315 791T332 750Q332 726 315 709T274 692ZM78 692Q54 692 37 709T20 750Q20 774 37 791T78 808Q103 808 120 791T137 750Q137 726 120 709T78 692Z" />
<glyph unicode="&#xd0;" glyph-name="Eth" horiz-adv-x="758" d="M59 313Q50 313 46 321T42 335Q42 344 50 350T68 357H373Q379 357 384 353T389 343Q389 342 389 342T388 340Q384 329 376 321T354 313H59ZM375 -7Q356 -7 320 -5T242 -2T169 0Q149 0 132 -1T95
-3T51 -4Q40 -4 33 -1T25 9Q25 17 32 20T54 27Q92 34 106 49T121 98V550Q121 584 107 598T54 621Q39 624 32 628T25 640Q25 647 32 650T51 654Q76 654 95 653T132 652T173 651Q189 651 214 652T267 655T319 658T356 659Q448 659 517 635T633 568T702 466T726 340Q726
270 701 208T628 97T516 21T375 -7ZM362 34Q436 34 491 70T576 170T606 319Q606 390 585 445T529 540T447 599T349 620Q310 620 283 618T241 604T227 567V125Q227 87 245 68T295 41T362 34Z" />
<glyph unicode="&#xd1;" glyph-name="Ntilde" horiz-adv-x="798" d="M672 -18Q662 -18 635 -3T581 48Q570 60 548 86T495 148T430 223T361 302T296 377T242 439T206 478Q201 485 197 489T188 493Q184 493 182 486T180 472Q179 424 179 361T179 232T178 107Q178
78 194 57T248 27Q262 24 270 20T279 8Q279 2 271 -1T251 -4Q224 -4 210 -3T183 -1T151 0Q132 0 119 -1T92 -3T60 -4Q49 -4 41 -2T32 8Q32 15 40 19T63 28Q90 36 103 57T118 109Q122 147 126 209T134 348T137 507Q137 560 110 583T41 620Q36 622 24 628T11 643Q11
652 20 655T35 658Q61 657 80 657T118 655T156 654T203 653Q212 653 217 649T226 638Q237 625 260 597T315 531T383 451T455 365T523 284T578 219T612 179Q616 175 622 168T634 161Q643 161 644 180Q644 200 644 240T644 333T645 444T644 561Q643 583 623 598T580
619Q566 621 554 626T542 639Q542 645 554 648T577 651Q592 651 603 651T626 651T648 651Q671 651 685 651T715 653T761 654Q773 654 780 651T788 641Q788 627 757 621Q721 614 708 603T694 565Q694 549 693 513T692 427T690 324T689 218T689 124Q689 100 691 78T694
39T696 14Q696 -5 689 -11T672 -18ZM292 692Q287 692 281 697T275 708Q275 712 284 726T306 756T333 785T355 798Q373 798 392 797T429 794Q446 793 464 792T500 791Q511 791 520 797T537 810Q545 817 549 823T557 830Q564 830 571 825T578 813Q578 810 574 804T562
791Q551 778 539 762T518 734Q512 726 502 723T488 720Q481 720 463 721T421 724T376 727T344 729Q337 729 328 725T312 714Q304 707 299 700T292 692Z" />
<glyph unicode="&#xd2;" glyph-name="Ograve" horiz-adv-x="762" d="M422 684Q420 684 415 686T401 693Q369 716 330 742T259 794Q245 805 244 814Q243 821 255 827T283 837T306 842Q325 843 336 829Q359 800 380 770T423 708Q430 698 430 691Q430 685 422 684ZM376
-14Q309 -14 249 9T141 76T67 180T39 315Q39 383 61 445T127 557T236 635T385 664Q453 664 513 641T621 574T695 470T723 335Q723 268 701 205T635 93T526 15T376 -14ZM392 28Q462 28 508 60T578 151T602 285Q602 352 588 412T544 519T471 593T368 620Q300 620
254 588T184 499T160 366Q160 298 174 238T217 131T289 56T392 28Z" />
<glyph unicode="&#xd3;" glyph-name="Oacute" horiz-adv-x="762" d="M376 -14Q309 -14 249 9T141 76T67 180T39 315Q39 383 61 445T127 557T236 635T385 664Q453 664 513 641T621 574T695 470T723 335Q723 268 701 205T635 93T526 15T376 -14ZM392 28Q462 28 508
60T578 151T602 285Q602 352 588 412T544 519T471 593T368 620Q300 620 254 588T184 499T160 366Q160 298 174 238T217 131T289 56T392 28ZM353 684Q345 685 345 691Q345 698 352 708Q373 739 394 769T440 829Q450 843 469 842Q476 841 491 837T519 827T532 814Q531
805 517 794Q484 768 446 742T374 693Q366 688 361 686T353 684Z" />
<glyph unicode="&#xd4;" glyph-name="Ocircumflex" horiz-adv-x="762" d="M376 -14Q309 -14 249 9T141 76T67 180T39 315Q39 383 61 445T127 557T236 635T385 664Q453 664 513 641T621 574T695 470T723 335Q723 268 701 205T635 93T526 15T376 -14ZM392 28Q462
28 508 60T578 151T602 285Q602 352 588 412T544 519T471 593T368 620Q300 620 254 588T184 499T160 366Q160 298 174 238T217 131T289 56T392 28ZM255 695Q239 695 239 706Q239 713 246 719L347 806Q362 819 370 824T391 830Q403 830 411 825T435 806L536 719Q542
714 542 706Q542 694 527 694Q522 694 506 700T470 715T432 733T402 748Q395 752 391 752T380 748Q370 742 351 733T313 716T277 701T255 695Z" />
<glyph unicode="&#xd5;" glyph-name="Otilde" horiz-adv-x="762" d="M376 -14Q309 -14 249 9T141 76T67 180T39 315Q39 383 61 445T127 557T236 635T385 664Q453 664 513 641T621 574T695 470T723 335Q723 268 701 205T635 93T526 15T376 -14ZM392 28Q462 28 508
60T578 151T602 285Q602 352 588 412T544 519T471 593T368 620Q300 620 254 588T184 499T160 366Q160 298 174 238T217 131T289 56T392 28ZM270 692Q265 692 259 697T253 708Q253 712 262 726T284 756T311 785T333 798Q351 798 370 797T407 794Q424 793 442 792T478
791Q489 791 498 797T515 810Q523 817 527 823T535 830Q542 830 549 825T556 813Q556 810 552 804T540 791Q529 778 517 762T496 734Q490 726 480 723T466 720Q459 720 441 721T399 724T354 727T322 729Q315 729 306 725T290 714Q282 707 277 700T270 692Z" />
<glyph unicode="&#xd6;" glyph-name="Odieresis" horiz-adv-x="762" d="M376 -14Q309 -14 249 9T141 76T67 180T39 315Q39 383 61 445T127 557T236 635T385 664Q453 664 513 641T621 574T695 470T723 335Q723 268 701 205T635 93T526 15T376 -14ZM392 28Q462 28
508 60T578 151T602 285Q602 352 588 412T544 519T471 593T368 620Q300 620 254 588T184 499T160 366Q160 298 174 238T217 131T289 56T392 28ZM490 692Q466 692 449 709T432 750Q432 774 449 791T490 808Q514 808 531 791T548 750Q548 726 531 709T490 692ZM294
692Q270 692 253 709T236 750Q236 774 253 791T294 808Q319 808 336 791T353 750Q353 726 336 709T294 692Z" />
<glyph unicode="&#xd7;" glyph-name="multiply" horiz-adv-x="579" d="M449 57Q442 57 436 62L294 205Q289 210 284 204L143 64Q139 60 134 59T125 60Q120 63 111 76T102 101Q102 109 108 115L240 246Q244 250 244 252T239 259L109 389Q104 394 104 403Q104 415
111 427T121 444Q125 448 131 448T141 443L283 301Q288 297 289 297T293 300L437 443Q442 448 448 448Q454 448 457 444Q462 435 468 424T475 403Q475 395 468 389L336 257Q332 253 336 248L472 113Q477 108 477 99Q477 87 468 72T449 57Z" />
<glyph unicode="&#xd8;" glyph-name="Oslash" horiz-adv-x="769" d="M72 -14Q60 -14 49 -6T38 11Q38 24 50 36L691 657Q697 664 707 663T720 653Q721 649 722 644T724 634Q724 628 722 622T715 611L84 -10Q82 -11 79 -12T72 -14ZM376 -14Q309 -14 249 9T141 76T67
180T39 315Q39 383 61 445T127 557T236 635T385 664Q453 664 513 641T621 574T695 470T723 335Q723 268 701 205T635 93T526 15T376 -14ZM392 28Q462 28 508 60T578 151T602 285Q602 352 588 412T544 519T471 593T368 620Q300 620 254 588T184 499T160 366Q160
298 174 238T217 131T289 56T392 28Z" />
<glyph unicode="&#xd9;" glyph-name="Ugrave" horiz-adv-x="740" d="M426 684Q424 684 419 686T406 693Q374 716 335 742T263 794Q249 805 248 814Q248 821 260 827T288 837T311 842Q330 843 340 829Q364 800 385 770T427 708Q434 698 434 691Q434 685 426 684ZM372
-14Q282 -14 221 18T129 108T98 245V544Q98 577 85 596T51 619Q19 628 19 641Q19 648 27 651T47 654Q73 654 100 652T155 650Q180 650 207 651T255 653Q268 653 275 650T283 640Q283 632 273 628T245 617Q232 612 219 594T205 543V269Q205 193 230 144T299 72T398
49Q497 49 543 114T590 295Q590 318 590 353T590 427T588 501Q587 534 583 557T568 597T542 618Q532 622 520 627T507 640Q507 646 515 649T536 652Q564 652 580 651T619 650Q636 650 649 651T676 653T703 654Q715 654 723 651T731 641Q731 628 700 621Q671 614
660 594T646 541Q641 459 640 391T637 254Q636 176 601 115T506 20T372 -14Z" />
<glyph unicode="&#xda;" glyph-name="Uacute" horiz-adv-x="740" d="M372 -14Q282 -14 221 18T129 108T98 245V544Q98 577 85 596T51 619Q19 628 19 641Q19 648 27 651T47 654Q73 654 100 652T155 650Q180 650 207 651T255 653Q268 653 275 650T283 640Q283 632
273 628T245 617Q232 612 219 594T205 543V269Q205 193 230 144T299 72T398 49Q497 49 543 114T590 295Q590 318 590 353T590 427T588 501Q587 534 583 557T568 597T542 618Q532 622 520 627T507 640Q507 646 515 649T536 652Q564 652 580 651T619 650Q636 650
649 651T676 653T703 654Q715 654 723 651T731 641Q731 628 700 621Q671 614 660 594T646 541Q641 459 640 391T637 254Q636 176 601 115T506 20T372 -14ZM357 684Q349 685 349 691Q349 698 356 708Q377 739 398 769T444 829Q454 843 473 842Q480 841 495 837T523
827T536 814Q535 805 521 794Q488 768 450 742T378 693Q370 688 365 686T357 684Z" />
<glyph unicode="&#xdb;" glyph-name="Ucircumflex" horiz-adv-x="740" d="M372 -14Q282 -14 221 18T129 108T98 245V544Q98 577 85 596T51 619Q19 628 19 641Q19 648 27 651T47 654Q73 654 100 652T155 650Q180 650 207 651T255 653Q268 653 275 650T283 640Q283
632 273 628T245 617Q232 612 219 594T205 543V269Q205 193 230 144T299 72T398 49Q497 49 543 114T590 295Q590 318 590 353T590 427T588 501Q587 534 583 557T568 597T542 618Q532 622 520 627T507 640Q507 646 515 649T536 652Q564 652 580 651T619 650Q636
650 649 651T676 653T703 654Q715 654 723 651T731 641Q731 628 700 621Q671 614 660 594T646 541Q641 459 640 391T637 254Q636 176 601 115T506 20T372 -14ZM260 695Q244 695 244 706Q244 713 251 719L352 806Q367 819 375 824T396 830Q408 830 416 825T440 806L541
719Q547 714 547 706Q547 694 532 694Q527 694 511 700T475 715T437 733T407 748Q400 752 396 752T385 748Q375 742 356 733T318 716T282 701T260 695Z" />
<glyph unicode="&#xdc;" glyph-name="Udieresis" horiz-adv-x="740" d="M372 -14Q282 -14 221 18T129 108T98 245V544Q98 577 85 596T51 619Q19 628 19 641Q19 648 27 651T47 654Q73 654 100 652T155 650Q180 650 207 651T255 653Q268 653 275 650T283 640Q283
632 273 628T245 617Q232 612 219 594T205 543V269Q205 193 230 144T299 72T398 49Q497 49 543 114T590 295Q590 318 590 353T590 427T588 501Q587 534 583 557T568 597T542 618Q532 622 520 627T507 640Q507 646 515 649T536 652Q564 652 580 651T619 650Q636
650 649 651T676 653T703 654Q715 654 723 651T731 641Q731 628 700 621Q671 614 660 594T646 541Q641 459 640 391T637 254Q636 176 601 115T506 20T372 -14ZM494 692Q470 692 453 709T436 750Q436 774 453 791T494 808Q518 808 535 791T552 750Q552 726 535 709T494
692ZM298 692Q274 692 257 709T240 750Q240 774 257 791T298 808Q323 808 340 791T357 750Q357 726 340 709T298 692Z" />
<glyph unicode="&#xdd;" glyph-name="Yacute" horiz-adv-x="605" d="M186 -5Q173 -5 165 -2T157 7Q157 15 165 19T189 27Q227 34 245 54T263 109V253Q263 278 253 301T236 337L115 531Q107 544 94 563T64 598T30 619Q16 624 8 628T0 641Q0 648 7 650T26 653Q56
653 89 651T159 649Q186 649 209 651T255 653Q267 653 275 650T283 641Q283 633 275 629T252 620Q233 615 223 610T213 591Q213 577 225 555L321 382Q337 352 346 352Q351 352 357 359T373 382Q397 420 416 455T459 535Q467 550 471 561T475 582Q475 602 460 610T429
619Q419 621 408 626T397 640Q397 646 405 649T426 652Q451 652 469 651T510 650Q540 650 566 652T613 654Q626 654 634 652T643 641Q643 634 629 629T598 618Q570 611 552 591T510 535Q492 506 478 484T451 441T425 400T395 351Q384 333 379 320T372 293T370 259V109Q370
74 388 55T445 27Q460 24 468 20T477 8Q477 1 469 -2T448 -5Q423 -5 403 -4T362 -1T320 1Q297 1 276 0T233 -3T186 -5ZM300 684Q292 685 292 691Q292 698 299 708Q320 739 341 769T387 829Q397 843 416 842Q423 841 438 837T466 827T479 814Q478 805 464 794Q431
768 393 742T321 693Q313 688 308 686T300 684Z" />
<glyph unicode="&#xde;" glyph-name="Thorn" horiz-adv-x="570" d="M46 -4Q35 -4 28 -2T20 8Q20 21 49 27Q87 34 105 49T124 98V550Q124 579 114 596T65 621Q36 627 36 641Q36 648 43 651T61 654Q87 654 105 653T141 651T179 650Q201 650 221 650T262 652T308
653Q320 653 326 651T333 641Q333 633 326 629T304 621Q267 613 249 599T230 552V538Q230 531 231 527T236 522Q238 522 243 523T254 526T259 527Q275 531 294 532T333 534Q389 534 435 512T509 448T536 341Q536 269 500 222T404 152T274 129Q264 129 255 130T238
132Q230 132 230 123V97Q230 66 249 51T305 27Q320 24 327 20T334 8Q334 2 327 -1T309 -4Q284 -4 263 -3T223 0T181 1Q157 1 136 0T93 -2T46 -4ZM277 161Q350 161 388 208T426 335Q426 381 413 418T374 478T307 501Q277 501 261 495T237 473T230 425V222Q230 187
245 174T277 161Z" />
<glyph unicode="&#xdf;" glyph-name="germandbls" horiz-adv-x="531" d="M342 -15Q307 -15 284 -1T261 38Q261 57 267 73T288 90Q295 90 304 85T321 72Q337 56 351 50T388 43Q406 43 423 55T441 94Q441 113 432 129T402 165T352 211Q317 244 297 264T269 300T260
335Q260 359 275 377T312 413T356 452Q374 471 387 497T400 552Q400 600 374 632T289 665Q239 665 209 622T178 474V71Q178 50 192 41T224 27Q232 24 238 20T245 8Q245 1 237 -1T224 -3Q205 -3 191 -2T165 1T134 2Q117 2 104 1T78 -1T45 -3Q40 -3 32 -1T23 8Q23
16 30 20T46 27Q61 32 73 40T86 70V352Q76 352 63 352T34 354Q31 355 27 362T23 375Q23 381 28 383Q48 389 60 395T86 408Q88 492 111 549T170 641T247 691T328 706Q368 706 399 689T449 643T467 580Q467 543 452 516T398 454Q376 433 364 417T351 368Q351 353
358 342T382 315T427 272Q455 246 472 226T496 187T504 146Q504 113 489 84T450 33T398 -2T342 -15Z" />
<glyph unicode="&#xe0;" glyph-name="agrave" horiz-adv-x="413" d="M236 456Q226 456 207 475Q191 491 170 515T128 564T92 608Q88 615 85 619T82 630Q82 642 98 647T135 652Q146 652 154 647T168 632Q176 618 190 590T219 533T241 485Q243 479 244 474T245 466Q245
456 236 456ZM121 -14Q100 -14 80 -1T47 33T34 74Q34 107 52 127T110 163L207 204Q227 212 231 218T236 245L238 306Q239 333 225 351T184 369Q170 369 156 364T132 351Q127 347 126 340T124 325Q124 320 124 314T125 303Q125 297 112 289T81 273T51 266Q45 266
42 269T38 279Q38 295 48 312T80 348Q104 369 132 385T188 411T237 420Q279 420 305 392T330 318L325 92Q324 70 334 56T359 42Q382 42 395 54Q399 58 402 58Q407 58 410 55T414 47Q414 35 400 22Q383 5 364 -4T326 -14Q276 -14 246 40H243Q210 12 181 -1T121 -14ZM173
40Q190 40 201 45T222 61Q227 66 229 73T233 97L235 154Q236 164 234 168T226 173Q224 173 220 172T209 168Q164 151 146 133T128 92Q128 65 142 53T173 40Z" />
<glyph unicode="&#xe1;" glyph-name="aacute" horiz-adv-x="413" d="M121 -14Q100 -14 80 -1T47 33T34 74Q34 107 52 127T110 163L207 204Q227 212 231 218T236 245L238 306Q239 333 225 351T184 369Q170 369 156 364T132 351Q127 347 126 340T124 325Q124 320
124 314T125 303Q125 297 112 289T81 273T51 266Q45 266 42 269T38 279Q38 295 48 312T80 348Q104 369 132 385T188 411T237 420Q279 420 305 392T330 318L325 92Q324 70 334 56T359 42Q382 42 395 54Q399 58 402 58Q407 58 410 55T414 47Q414 35 400 22Q383 5
364 -4T326 -14Q276 -14 246 40H243Q210 12 181 -1T121 -14ZM173 40Q190 40 201 45T222 61Q227 66 229 73T233 97L235 154Q236 164 234 168T226 173Q224 173 220 172T209 168Q164 151 146 133T128 92Q128 65 142 53T173 40ZM184 456Q175 456 175 466Q175 469 176
474T179 485Q186 504 200 533T229 590T252 632Q258 642 266 647T285 652Q306 652 322 647T338 630Q338 624 336 620T328 608Q313 589 293 564T251 515T213 475Q194 456 184 456Z" />
<glyph unicode="&#xe2;" glyph-name="acircumflex" horiz-adv-x="413" d="M209 656Q216 656 222 649T234 631Q243 618 255 596T282 550T306 506T319 477Q322 467 320 461T310 455Q304 455 295 463T277 480Q267 492 249 515T213 559Q211 563 210 563T205 559Q188
538 170 515T141 480Q133 471 124 463T108 455Q98 455 97 461T98 477Q101 486 111 505T135 549T162 595T183 631Q190 642 196 649T209 656ZM121 -14Q100 -14 80 -1T47 33T34 74Q34 107 52 127T110 163L207 204Q227 212 231 218T236 245L238 306Q239 333 225 351T184
369Q170 369 156 364T132 351Q127 347 126 340T124 325Q124 320 124 314T125 303Q125 297 112 289T81 273T51 266Q45 266 42 269T38 279Q38 295 48 312T80 348Q104 369 132 385T188 411T237 420Q279 420 305 392T330 318L325 92Q324 70 334 56T359 42Q382 42 395
54Q399 58 402 58Q407 58 410 55T414 47Q414 35 400 22Q383 5 364 -4T326 -14Q276 -14 246 40H243Q210 12 181 -1T121 -14ZM173 40Q190 40 201 45T222 61Q227 66 229 73T233 97L235 154Q236 164 234 168T226 173Q224 173 220 172T209 168Q164 151 146 133T128 92Q128
65 142 53T173 40Z" />
<glyph unicode="&#xe3;" glyph-name="atilde" horiz-adv-x="413" d="M121 -14Q100 -14 80 -1T47 33T34 74Q34 107 52 127T110 163L207 204Q227 212 231 218T236 245L238 306Q239 333 225 351T184 369Q170 369 156 364T132 351Q127 347 126 340T124 325Q124 320
124 314T125 303Q125 297 112 289T81 273T51 266Q45 266 42 269T38 279Q38 295 48 312T80 348Q104 369 132 385T188 411T237 420Q279 420 305 392T330 318L325 92Q324 70 334 56T359 42Q382 42 395 54Q399 58 402 58Q407 58 410 55T414 47Q414 35 400 22Q383 5
364 -4T326 -14Q276 -14 246 40H243Q210 12 181 -1T121 -14ZM173 40Q190 40 201 45T222 61Q227 66 229 73T233 97L235 154Q236 164 234 168T226 173Q224 173 220 172T209 168Q164 151 146 133T128 92Q128 65 142 53T173 40ZM90 461Q83 461 78 466T72 477Q72 482
83 497T110 531T142 563T166 577Q181 577 192 576T223 572Q242 571 256 570T283 568Q293 568 303 573T321 587Q332 598 338 606T347 614Q354 614 361 609T368 596Q368 593 362 587T346 568Q334 556 322 539T300 509Q294 501 285 498T270 495Q264 495 249 496T215
499T178 502T147 503Q138 503 130 498T114 484Q105 475 99 468T90 461Z" />
<glyph unicode="&#xe4;" glyph-name="adieresis" horiz-adv-x="413" d="M121 -14Q100 -14 80 -1T47 33T34 74Q34 107 52 127T110 163L207 204Q227 212 231 218T236 245L238 306Q239 333 225 351T184 369Q170 369 156 364T132 351Q127 347 126 340T124 325Q124
320 124 314T125 303Q125 297 112 289T81 273T51 266Q45 266 42 269T38 279Q38 295 48 312T80 348Q104 369 132 385T188 411T237 420Q279 420 305 392T330 318L325 92Q324 70 334 56T359 42Q382 42 395 54Q399 58 402 58Q407 58 410 55T414 47Q414 35 400 22Q383
5 364 -4T326 -14Q276 -14 246 40H243Q210 12 181 -1T121 -14ZM173 40Q190 40 201 45T222 61Q227 66 229 73T233 97L235 154Q236 164 234 168T226 173Q224 173 220 172T209 168Q164 151 146 133T128 92Q128 65 142 53T173 40ZM299 503Q277 503 260 520T242 560Q242
583 259 600T299 618Q323 618 340 601T358 560Q358 538 341 521T299 503ZM116 503Q94 503 77 520T59 560Q59 583 76 600T116 618Q140 618 157 601T175 560Q175 538 158 521T116 503Z" />
<glyph unicode="&#xe5;" glyph-name="aring" horiz-adv-x="413" d="M121 -14Q100 -14 80 -1T47 33T34 74Q34 107 52 127T110 163L207 204Q227 212 231 218T236 245L238 306Q239 333 225 351T184 369Q170 369 156 364T132 351Q127 347 126 340T124 325Q124 320
124 314T125 303Q125 297 112 289T81 273T51 266Q45 266 42 269T38 279Q38 295 48 312T80 348Q104 369 132 385T188 411T237 420Q279 420 305 392T330 318L325 92Q324 70 334 56T359 42Q382 42 395 54Q399 58 402 58Q407 58 410 55T414 47Q414 35 400 22Q383 5
364 -4T326 -14Q276 -14 246 40H243Q210 12 181 -1T121 -14ZM173 40Q190 40 201 45T222 61Q227 66 229 73T233 97L235 154Q236 164 234 168T226 173Q224 173 220 172T209 168Q164 151 146 133T128 92Q128 65 142 53T173 40ZM204 480Q169 480 143 505T116 567Q116
591 129 611T165 644T212 657Q247 657 273 634T300 574Q300 546 287 525T251 492T204 480ZM212 509Q234 509 243 526T252 567Q252 589 238 607T203 625Q182 625 173 609T164 571Q164 546 177 528T212 509Z" />
<glyph unicode="&#xe6;" glyph-name="ae" horiz-adv-x="580" d="M127 -14Q104 -14 83 -2T48 29T34 69Q34 102 53 124T111 163L210 205Q230 214 235 220T240 240V304Q240 331 226 349T186 368Q169 368 153 359T130 339Q125 333 125 320Q125 316 126 312T127 302Q127
295 112 287T78 272T50 265Q45 265 42 269T39 279Q39 312 81 348Q98 362 124 379T180 408T237 421Q255 421 275 411T306 389Q309 384 311 384Q313 384 319 388Q338 401 367 410T425 420Q457 420 486 408T535 374T555 317Q555 301 549 294T531 283Q525 280 501 271T444
249T383 225T340 208Q336 207 333 201T329 190V144Q329 115 342 96T376 68T421 58Q450 58 479 69T531 108Q535 112 542 112Q554 112 554 101Q554 99 554 96T552 90Q520 41 482 14T380 -14Q347 -14 317 -3T262 31Q260 33 256 37T250 41Q246 41 242 36Q231 27 217
16T181 -4T127 -14ZM174 39Q191 39 203 45T226 62Q230 66 234 72T238 95V150Q238 161 237 166T231 172Q227 172 217 169Q201 164 181 153T145 127T129 92Q129 64 145 52T174 39ZM344 252Q377 265 411 276T464 294Q471 297 472 301T474 312Q474 340 456 361T404
383Q393 383 376 376T346 355T331 324V261Q331 255 335 253T344 252Z" />
<glyph unicode="&#xe7;" glyph-name="ccedilla" horiz-adv-x="408" d="M212 -15Q161 -15 120 11T55 84T31 187Q31 252 60 305T138 389T246 420Q317 420 368 379Q379 369 379 360Q379 353 372 343T354 325T334 317Q328 317 322 321T309 330Q285 349 259 363T213
378Q168 378 142 338T115 224Q115 176 133 139T184 81T259 60Q288 60 309 69T355 102Q358 104 361 106T368 108Q379 108 379 93Q379 88 376 81T367 64Q353 44 330 26T277 -4T212 -15ZM160 -274Q142 -274 134 -265T126 -231Q126 -220 129 -215T140 -210Q149 -210
162 -216T198 -222Q216 -222 224 -210T233 -179Q233 -153 216 -140T175 -127Q164 -127 159 -131T147 -135Q141 -135 135 -130T128 -116Q128 -111 136 -101L224 8H260L223 -39Q218 -46 218 -50Q218 -55 229 -61Q253 -71 270 -91T288 -139Q288 -168 274 -192T240
-235T198 -263T160 -274Z" />
<glyph unicode="&#xe8;" glyph-name="egrave" horiz-adv-x="400" d="M255 456Q244 456 225 475Q209 491 188 515T146 564T110 608Q106 615 103 619T100 630Q100 642 116 647T153 652Q164 652 172 647T186 632Q194 618 208 590T237 533T259 485Q261 479 262 474T263
466Q263 456 255 456ZM212 -15Q158 -15 117 12T51 89T27 204Q27 263 54 312T128 390T229 420Q270 420 302 404T353 358T372 290Q372 257 341 257H134Q120 257 114 249T108 220Q108 176 128 140T181 81T254 59Q284 59 308 70T354 103Q357 107 359 109T365 111Q374
111 374 100Q374 84 360 62Q346 41 325 24T275 -4T212 -15ZM135 291H215Q241 291 256 292T284 296Q289 298 291 304T293 321Q293 349 270 368T215 388Q193 388 172 375T136 343T123 303Q123 291 135 291Z" />
<glyph unicode="&#xe9;" glyph-name="eacute" horiz-adv-x="400" d="M212 -15Q158 -15 117 12T51 89T27 204Q27 263 54 312T128 390T229 420Q270 420 302 404T353 358T372 290Q372 257 341 257H134Q120 257 114 249T108 220Q108 176 128 140T181 81T254 59Q284
59 308 70T354 103Q357 107 359 109T365 111Q374 111 374 100Q374 84 360 62Q346 41 325 24T275 -4T212 -15ZM135 291H215Q241 291 256 292T284 296Q289 298 291 304T293 321Q293 349 270 368T215 388Q193 388 172 375T136 343T123 303Q123 291 135 291ZM202 456Q193
456 193 466Q193 469 194 474T197 485Q204 504 218 533T247 590T270 632Q276 642 284 647T303 652Q324 652 340 647T356 630Q356 624 354 620T346 608Q331 589 311 564T269 515T231 475Q212 456 202 456Z" />
<glyph unicode="&#xea;" glyph-name="ecircumflex" horiz-adv-x="400" d="M227 656Q234 656 240 649T252 631Q261 618 273 596T300 550T324 506T338 477Q340 467 338 461T328 455Q322 455 313 463T295 480Q285 492 267 515T232 559Q229 563 228 563T223 559Q206
538 188 515T159 480Q151 471 142 463T126 455Q116 455 115 461T116 477Q119 486 129 505T153 549T180 595T201 631Q208 642 214 649T227 656ZM212 -15Q158 -15 117 12T51 89T27 204Q27 263 54 312T128 390T229 420Q270 420 302 404T353 358T372 290Q372 257 341
257H134Q120 257 114 249T108 220Q108 176 128 140T181 81T254 59Q284 59 308 70T354 103Q357 107 359 109T365 111Q374 111 374 100Q374 84 360 62Q346 41 325 24T275 -4T212 -15ZM135 291H215Q241 291 256 292T284 296Q289 298 291 304T293 321Q293 349 270 368T215
388Q193 388 172 375T136 343T123 303Q123 291 135 291Z" />
<glyph unicode="&#xeb;" glyph-name="edieresis" horiz-adv-x="400" d="M212 -15Q158 -15 117 12T51 89T27 204Q27 263 54 312T128 390T229 420Q270 420 302 404T353 358T372 290Q372 257 341 257H134Q120 257 114 249T108 220Q108 176 128 140T181 81T254 59Q284
59 308 70T354 103Q357 107 359 109T365 111Q374 111 374 100Q374 84 360 62Q346 41 325 24T275 -4T212 -15ZM135 291H215Q241 291 256 292T284 296Q289 298 291 304T293 321Q293 349 270 368T215 388Q193 388 172 375T136 343T123 303Q123 291 135 291ZM317 503Q295
503 278 520T260 560Q260 583 277 600T317 618Q341 618 358 601T376 560Q376 538 359 521T317 503ZM134 503Q112 503 95 520T77 560Q77 583 94 600T134 618Q158 618 175 601T193 560Q193 538 176 521T134 503Z" />
<glyph unicode="&#xec;" glyph-name="igrave" horiz-adv-x="263" d="M160 456Q150 456 130 475Q115 491 94 515T51 564T16 608Q11 615 9 619T6 630Q6 642 22 647T58 652Q70 652 78 647T92 632Q100 618 114 590T143 533T165 485Q167 479 168 474T169 466Q169 456
160 456ZM42 -3Q34 -3 29 0T23 9Q23 17 29 20T44 26Q67 32 78 39T89 64V280Q89 310 79 328T44 351Q39 352 37 355T34 366Q34 378 43 379Q87 389 118 405T166 432Q177 439 182 439Q190 439 190 431Q190 420 188 396T183 344T180 292V64Q180 48 191 40T225 26Q233
24 239 21T246 9Q246 -3 228 -3Q209 -3 194 -2T166 1T134 2Q117 2 103 1T76 -1T42 -3Z" />
<glyph unicode="&#xed;" glyph-name="iacute" horiz-adv-x="263" d="M42 -3Q34 -3 29 0T23 9Q23 17 29 20T44 26Q67 32 78 39T89 64V280Q89 310 79 328T44 351Q39 352 37 355T34 366Q34 378 43 379Q87 389 118 405T166 432Q177 439 182 439Q190 439 190 431Q190
420 188 396T183 344T180 292V64Q180 48 191 40T225 26Q233 24 239 21T246 9Q246 -3 228 -3Q209 -3 194 -2T166 1T134 2Q117 2 103 1T76 -1T42 -3ZM108 456Q99 456 99 466Q99 469 100 474T103 485Q110 504 124 533T153 590T176 632Q182 642 190 647T209 652Q230
652 246 647T262 630Q262 624 260 620T252 608Q237 589 217 564T175 515T137 475Q118 456 108 456Z" />
<glyph unicode="&#xee;" glyph-name="icircumflex" horiz-adv-x="263" d="M132 656Q140 656 146 649T158 631Q166 618 179 596T206 550T230 506T243 477Q246 467 244 461T234 455Q227 455 218 463T201 480Q191 492 173 515T137 559Q134 563 133 563T129 559Q112
538 94 515T65 480Q56 471 47 463T31 455Q21 455 20 461T22 477Q24 486 34 505T59 549T86 595T107 631Q114 642 119 649T132 656ZM42 -3Q34 -3 29 0T23 9Q23 17 29 20T44 26Q67 32 78 39T89 64V280Q89 310 79 328T44 351Q39 352 37 355T34 366Q34 378 43 379Q87
389 118 405T166 432Q177 439 182 439Q190 439 190 431Q190 420 188 396T183 344T180 292V64Q180 48 191 40T225 26Q233 24 239 21T246 9Q246 -3 228 -3Q209 -3 194 -2T166 1T134 2Q117 2 103 1T76 -1T42 -3Z" />
<glyph unicode="&#xef;" glyph-name="idieresis" horiz-adv-x="263" d="M42 -3Q34 -3 29 0T23 9Q23 17 29 20T44 26Q67 32 78 39T89 64V280Q89 310 79 328T44 351Q39 352 37 355T34 366Q34 378 43 379Q87 389 118 405T166 432Q177 439 182 439Q190 439 190 431Q190
420 188 396T183 344T180 292V64Q180 48 191 40T225 26Q233 24 239 21T246 9Q246 -3 228 -3Q209 -3 194 -2T166 1T134 2Q117 2 103 1T76 -1T42 -3ZM223 503Q201 503 184 520T166 560Q166 583 183 600T223 618Q247 618 264 601T282 560Q282 538 265 521T223 503ZM40
503Q18 503 1 520T-17 560Q-17 583 0 600T40 618Q64 618 81 601T99 560Q99 538 82 521T40 503Z" />
<glyph unicode="&#xf0;" glyph-name="eth" horiz-adv-x="497" d="M236 -14Q179 -14 131 11T53 83T24 189Q24 252 56 305T142 389T260 421Q279 421 295 417T327 404Q333 401 334 403T334 411Q324 449 310 486T276 548L132 473Q124 469 119 473T114 483Q114 493
116 504T126 519L248 582Q212 620 171 643T90 674Q82 676 74 679T65 691Q65 699 74 702T97 705Q147 705 204 682T314 616L418 671Q424 675 434 675T444 666Q444 653 441 643T424 625L349 586Q381 553 407 506T449 396T466 250Q466 206 452 160T409 75T337 11T236
-14ZM255 22Q288 22 312 47T351 117T366 222Q366 255 359 285T337 335Q317 357 293 369T241 382Q204 382 179 359T141 297T127 213Q127 165 144 121T191 50T255 22Z" />
<glyph unicode="&#xf1;" glyph-name="ntilde" horiz-adv-x="541" d="M43 -3Q35 -3 29 0T23 9Q23 17 29 20T46 27Q61 31 74 38T87 65V285Q87 310 82 327T52 351Q48 352 45 355T42 365Q42 378 51 379Q86 388 114 401T167 430Q170 432 173 434T180 436Q184 436 185
434T187 427Q187 420 185 400T182 366Q182 362 182 358T184 353Q219 386 256 403T341 420Q391 420 424 381T457 280V64Q457 44 470 38T499 27Q507 24 514 20T521 8Q521 1 515 -1T502 -3Q482 -3 469 -2T443 1T412 2Q395 2 382 1T356 -1T322 -3Q317 -3 310 -1T303
8Q303 16 310 20T325 27Q340 32 353 38T366 64V271Q366 313 344 336T285 360Q254 360 231 351T187 325Q183 321 181 315T179 304V64Q179 44 192 38T219 27Q241 20 241 9Q241 3 236 0T222 -3Q202 -3 189 -2T164 1T134 2Q117 2 104 1T77 -1T43 -3ZM149 461Q142 461
137 466T131 477Q131 482 142 497T169 531T201 563T225 577Q240 577 251 576T282 572Q301 571 315 570T342 568Q352 568 362 573T380 587Q391 598 397 606T406 614Q413 614 420 609T427 596Q427 593 421 587T405 568Q393 556 381 539T359 509Q353 501 344 498T329
495Q323 495 308 496T274 499T237 502T206 503Q197 503 189 498T173 484Q164 475 158 468T149 461Z" />
<glyph unicode="&#xf2;" glyph-name="ograve" horiz-adv-x="498" d="M283 456Q273 456 254 475Q238 491 217 515T175 564T139 608Q135 615 132 619T129 630Q129 642 145 647T182 652Q193 652 201 647T215 632Q223 618 237 590T266 533T288 485Q290 479 291 474T292
466Q292 456 283 456ZM235 -14Q178 -14 132 12T58 85T31 190Q31 234 48 275T96 349T168 401T256 421Q315 421 363 393T439 318T467 217Q467 157 441 104T364 19T235 -14ZM256 21Q285 21 308 32T344 68Q356 91 360 124T365 193Q365 243 349 287T305 358T239 385Q216
385 198 378T164 352Q145 329 139 293T133 213Q133 165 149 121T192 49T256 21Z" />
<glyph unicode="&#xf3;" glyph-name="oacute" horiz-adv-x="498" d="M235 -14Q178 -14 132 12T58 85T31 190Q31 234 48 275T96 349T168 401T256 421Q315 421 363 393T439 318T467 217Q467 157 441 104T364 19T235 -14ZM256 21Q285 21 308 32T344 68Q356 91 360
124T365 193Q365 243 349 287T305 358T239 385Q216 385 198 378T164 352Q145 329 139 293T133 213Q133 165 149 121T192 49T256 21ZM231 456Q222 456 222 466Q222 469 223 474T226 485Q233 504 247 533T276 590T299 632Q305 642 313 647T332 652Q353 652 369 647T385
630Q385 624 383 620T375 608Q360 589 340 564T298 515T260 475Q241 456 231 456Z" />
<glyph unicode="&#xf4;" glyph-name="ocircumflex" horiz-adv-x="498" d="M256 656Q263 656 269 649T281 631Q290 618 302 596T329 550T353 506T366 477Q369 467 367 461T357 455Q351 455 342 463T324 480Q314 492 296 515T260 559Q258 563 257 563T252 559Q235
538 217 515T188 480Q180 471 171 463T154 455Q145 455 144 461T145 477Q148 486 158 505T182 549T209 595T230 631Q237 642 243 649T256 656ZM235 -14Q178 -14 132 12T58 85T31 190Q31 234 48 275T96 349T168 401T256 421Q315 421 363 393T439 318T467 217Q467
157 441 104T364 19T235 -14ZM256 21Q285 21 308 32T344 68Q356 91 360 124T365 193Q365 243 349 287T305 358T239 385Q216 385 198 378T164 352Q145 329 139 293T133 213Q133 165 149 121T192 49T256 21Z" />
<glyph unicode="&#xf5;" glyph-name="otilde" horiz-adv-x="498" d="M235 -14Q178 -14 132 12T58 85T31 190Q31 234 48 275T96 349T168 401T256 421Q315 421 363 393T439 318T467 217Q467 157 441 104T364 19T235 -14ZM256 21Q285 21 308 32T344 68Q356 91 360
124T365 193Q365 243 349 287T305 358T239 385Q216 385 198 378T164 352Q145 329 139 293T133 213Q133 165 149 121T192 49T256 21ZM125 461Q118 461 113 466T107 477Q107 482 118 497T145 531T177 563T201 577Q216 577 227 576T258 572Q277 571 291 570T318 568Q328
568 338 573T356 587Q367 598 373 606T382 614Q389 614 396 609T403 596Q403 593 397 587T381 568Q369 556 357 539T335 509Q329 501 320 498T305 495Q299 495 284 496T250 499T213 502T182 503Q173 503 165 498T149 484Q140 475 134 468T125 461Z" />
<glyph unicode="&#xf6;" glyph-name="odieresis" horiz-adv-x="498" d="M235 -14Q178 -14 132 12T58 85T31 190Q31 234 48 275T96 349T168 401T256 421Q315 421 363 393T439 318T467 217Q467 157 441 104T364 19T235 -14ZM256 21Q285 21 308 32T344 68Q356 91
360 124T365 193Q365 243 349 287T305 358T239 385Q216 385 198 378T164 352Q145 329 139 293T133 213Q133 165 149 121T192 49T256 21ZM346 503Q324 503 307 520T289 560Q289 583 306 600T346 618Q370 618 387 601T405 560Q405 538 388 521T346 503ZM163 503Q141
503 124 520T106 560Q106 583 123 600T163 618Q187 618 204 601T222 560Q222 538 205 521T163 503Z" />
<glyph unicode="&#xf7;" glyph-name="divide" horiz-adv-x="593" d="M74 239Q68 239 63 242T58 250Q58 255 60 265T68 283T84 292H521Q527 292 532 289T537 281Q537 267 529 253T505 239H74ZM297 66Q275 66 259 82T243 121Q243 144 259 160T298 176Q321 176 337
160T353 121Q353 99 337 83T297 66ZM296 351Q274 351 258 367T242 406Q242 429 258 445T297 461Q320 461 336 445T352 406Q352 384 336 368T296 351Z" />
<glyph unicode="&#xf8;" glyph-name="oslash" horiz-adv-x="491" d="M51 -15Q41 -15 33 -9T25 6Q25 21 36 30L439 416Q445 421 454 421Q469 421 469 403Q469 396 466 388T457 374L64 -9Q61 -12 58 -13T51 -15ZM235 -14Q178 -14 132 12T58 85T31 190Q31 234 48
275T96 349T168 401T256 421Q315 421 363 393T439 318T467 217Q467 157 441 104T364 19T235 -14ZM256 21Q285 21 308 32T344 68Q356 91 360 124T365 193Q365 243 349 287T305 358T239 385Q216 385 198 378T164 352Q145 329 139 293T133 213Q133 165 149 121T192
49T256 21Z" />
<glyph unicode="&#xf9;" glyph-name="ugrave" horiz-adv-x="535" d="M291 456Q280 456 261 475Q245 491 224 515T182 564T146 608Q142 615 139 619T136 630Q136 642 152 647T189 652Q200 652 208 647T222 632Q230 618 244 590T273 533T295 485Q298 479 299 474T300
466Q300 456 291 456ZM359 -20Q351 -20 351 -11Q351 0 353 19T356 51Q356 54 356 56T356 59Q321 23 281 5T193 -14Q162 -14 136 1T96 44T81 112V310Q81 332 72 345T39 366Q34 368 30 371T25 383Q25 392 29 395T40 400Q77 402 101 406T155 419Q159 420 162 420T168
421Q180 421 179 407Q176 384 174 369T172 330V136Q172 112 182 93T211 61T248 48Q271 48 289 51T324 69Q333 76 346 93T360 140V315Q360 335 350 345T325 361T298 367Q288 367 282 371T276 385Q276 395 282 398T298 402Q336 404 359 406T400 411T437 419Q439 420
442 420T448 421Q461 421 461 410Q461 408 461 405T459 399Q458 395 457 382T454 353T452 329V98Q452 73 457 63T470 52Q477 52 490 53T510 54Q516 54 521 51T526 39Q526 31 522 28T511 23Q469 18 437 7T381 -13Q377 -15 371 -17T359 -20Z" />
<glyph unicode="&#xfa;" glyph-name="uacute" horiz-adv-x="535" d="M359 -20Q351 -20 351 -11Q351 0 353 19T356 51Q356 54 356 56T356 59Q321 23 281 5T193 -14Q162 -14 136 1T96 44T81 112V310Q81 332 72 345T39 366Q34 368 30 371T25 383Q25 392 29 395T40
400Q77 402 101 406T155 419Q159 420 162 420T168 421Q180 421 179 407Q176 384 174 369T172 330V136Q172 112 182 93T211 61T248 48Q271 48 289 51T324 69Q333 76 346 93T360 140V315Q360 335 350 345T325 361T298 367Q288 367 282 371T276 385Q276 395 282 398T298
402Q336 404 359 406T400 411T437 419Q439 420 442 420T448 421Q461 421 461 410Q461 408 461 405T459 399Q458 395 457 382T454 353T452 329V98Q452 73 457 63T470 52Q477 52 490 53T510 54Q516 54 521 51T526 39Q526 31 522 28T511 23Q469 18 437 7T381 -13Q377
-15 371 -17T359 -20ZM238 456Q229 456 229 466Q229 469 230 474T233 485Q240 504 254 533T283 590T306 632Q312 642 320 647T339 652Q360 652 376 647T392 630Q392 624 390 620T382 608Q367 589 347 564T305 515T267 475Q248 456 238 456Z" />
<glyph unicode="&#xfb;" glyph-name="ucircumflex" horiz-adv-x="535" d="M263 656Q270 656 276 649T288 631Q297 618 309 596T336 550T360 506T374 477Q377 467 375 461T364 455Q358 455 349 463T331 480Q321 492 303 515T268 559Q265 563 264 563T259 559Q242
538 224 515T195 480Q187 471 178 463T162 455Q152 455 151 461T152 477Q155 486 165 505T189 549T216 595T238 631Q244 642 250 649T263 656ZM359 -20Q351 -20 351 -11Q351 0 353 19T356 51Q356 54 356 56T356 59Q321 23 281 5T193 -14Q162 -14 136 1T96 44T81
112V310Q81 332 72 345T39 366Q34 368 30 371T25 383Q25 392 29 395T40 400Q77 402 101 406T155 419Q159 420 162 420T168 421Q180 421 179 407Q176 384 174 369T172 330V136Q172 112 182 93T211 61T248 48Q271 48 289 51T324 69Q333 76 346 93T360 140V315Q360
335 350 345T325 361T298 367Q288 367 282 371T276 385Q276 395 282 398T298 402Q336 404 359 406T400 411T437 419Q439 420 442 420T448 421Q461 421 461 410Q461 408 461 405T459 399Q458 395 457 382T454 353T452 329V98Q452 73 457 63T470 52Q477 52 490 53T510
54Q516 54 521 51T526 39Q526 31 522 28T511 23Q469 18 437 7T381 -13Q377 -15 371 -17T359 -20Z" />
<glyph unicode="&#xfc;" glyph-name="udieresis" horiz-adv-x="535" d="M359 -20Q351 -20 351 -11Q351 0 353 19T356 51Q356 54 356 56T356 59Q321 23 281 5T193 -14Q162 -14 136 1T96 44T81 112V310Q81 332 72 345T39 366Q34 368 30 371T25 383Q25 392 29 395T40
400Q77 402 101 406T155 419Q159 420 162 420T168 421Q180 421 179 407Q176 384 174 369T172 330V136Q172 112 182 93T211 61T248 48Q271 48 289 51T324 69Q333 76 346 93T360 140V315Q360 335 350 345T325 361T298 367Q288 367 282 371T276 385Q276 395 282 398T298
402Q336 404 359 406T400 411T437 419Q439 420 442 420T448 421Q461 421 461 410Q461 408 461 405T459 399Q458 395 457 382T454 353T452 329V98Q452 73 457 63T470 52Q477 52 490 53T510 54Q516 54 521 51T526 39Q526 31 522 28T511 23Q469 18 437 7T381 -13Q377
-15 371 -17T359 -20ZM353 503Q331 503 314 520T296 560Q296 583 313 600T353 618Q377 618 394 601T412 560Q412 538 395 521T353 503ZM170 503Q148 503 131 520T113 560Q113 583 130 600T170 618Q194 618 211 601T229 560Q229 538 212 521T170 503Z" />
<glyph unicode="&#xfd;" glyph-name="yacute" horiz-adv-x="453" d="M72 -284Q50 -284 31 -272T12 -236Q12 -217 21 -202T48 -187Q61 -187 73 -190T96 -194Q106 -193 111 -190T121 -177Q131 -161 142 -140T167 -90T194 -27Q200 -12 200 5Q200 15 198 24T192 42L74
330Q66 349 55 363T27 382Q19 386 13 390T6 402Q6 408 14 409T27 411Q49 411 61 410T83 408T109 407Q128 407 139 408T162 410T196 411Q203 411 210 409T217 400Q217 392 208 387T191 378Q180 375 175 368T169 344Q169 337 172 328T179 310L253 127Q255 122 258
122Q260 122 262 127L325 300Q328 307 330 318T332 338Q332 356 325 364T309 377Q301 381 292 386T282 400Q282 406 289 408T303 411Q321 411 336 409T374 407Q390 407 399 408T416 410T437 411Q442 411 450 410T458 402Q458 394 452 390T437 382Q421 377 405 359T378
317L237 -19Q234 -28 225 -51T202 -105T175 -170T146 -237Q136 -260 117 -272T72 -284ZM230 456Q221 456 221 466Q221 469 222 474T225 485Q232 504 246 533T275 590T298 632Q304 642 312 647T331 652Q352 652 368 647T384 630Q384 624 382 620T374 608Q359 589
339 564T297 515T259 475Q240 456 230 456Z" />
<glyph unicode="&#xfe;" glyph-name="thorn" horiz-adv-x="520" d="M38 -277Q31 -277 24 -275T16 -266Q16 -258 23 -254T39 -247Q56 -242 69 -235T82 -209V560Q82 586 73 607T38 633Q30 635 30 647Q30 658 37 660Q63 665 86 673T130 689T167 703Q169 704 170 704T173
705Q176 705 178 702T180 696Q180 688 178 662T174 584V394Q174 379 174 368T176 353Q187 364 212 379T270 406T332 418Q384 418 421 390T478 318T498 227Q498 181 481 138T432 61T359 6T270 -15Q251 -15 222 -7T177 13Q176 13 175 5T174 -13T174 -27V-205Q174
-227 186 -234T217 -248Q226 -251 233 -254T240 -266Q240 -273 233 -275T219 -277Q199 -277 185 -276T158 -273T127 -272Q110 -272 97 -273T71 -275T38 -277ZM279 21Q292 21 311 29T350 58T383 111T396 193Q396 250 383 284T349 335T309 359T273 365Q251 365 232
358T196 336Q186 329 180 313T174 267V117Q174 103 178 81T195 45Q205 36 227 29T279 21Z" />
<glyph unicode="&#xff;" glyph-name="ydieresis" horiz-adv-x="453" d="M72 -284Q50 -284 31 -272T12 -236Q12 -217 21 -202T48 -187Q61 -187 73 -190T96 -194Q106 -193 111 -190T121 -177Q131 -161 142 -140T167 -90T194 -27Q200 -12 200 5Q200 15 198 24T192
42L74 330Q66 349 55 363T27 382Q19 386 13 390T6 402Q6 408 14 409T27 411Q49 411 61 410T83 408T109 407Q128 407 139 408T162 410T196 411Q203 411 210 409T217 400Q217 392 208 387T191 378Q180 375 175 368T169 344Q169 337 172 328T179 310L253 127Q255 122
258 122Q260 122 262 127L325 300Q328 307 330 318T332 338Q332 356 325 364T309 377Q301 381 292 386T282 400Q282 406 289 408T303 411Q321 411 336 409T374 407Q390 407 399 408T416 410T437 411Q442 411 450 410T458 402Q458 394 452 390T437 382Q421 377 405
359T378 317L237 -19Q234 -28 225 -51T202 -105T175 -170T146 -237Q136 -260 117 -272T72 -284ZM345 503Q323 503 306 520T288 560Q288 583 305 600T345 618Q369 618 386 601T404 560Q404 538 387 521T345 503ZM162 503Q140 503 123 520T105 560Q105 583 122 600T162
618Q186 618 203 601T221 560Q221 538 204 521T162 503Z" />
<glyph unicode="&#x2013;" glyph-name="endash" horiz-adv-x="579" d="M61 184Q55 184 51 188T46 196Q46 202 48 212T56 231T71 240H517Q524 240 528 236T533 227Q533 212 524 198T501 184H61Z" />
<glyph unicode="&#x2014;" glyph-name="emdash" horiz-adv-x="953" d="M56 184Q51 184 46 188T41 196Q41 202 43 212T51 231T67 240H896Q903 240 907 236T912 227Q912 212 903 198T880 184H56Z" />
<glyph unicode="&#x2018;" glyph-name="quoteleft" horiz-adv-x="241" d="M185 694Q205 694 205 681Q205 676 201 673T188 667Q166 663 145 651T110 617T96 566Q96 552 108 539T136 522Q156 519 168 507T181 474Q181 452 163 438T121 423Q82 423 57 451T32 522Q32
561 47 592T85 646T135 681T185 694Z" />
<glyph unicode="&#x2019;" glyph-name="quoteright" horiz-adv-x="241" d="M56 420Q36 420 36 433Q36 438 40 441T52 446Q76 452 97 464T131 496T145 548Q145 562 134 576T105 592Q85 595 73 607T60 639Q60 661 78 676T120 691Q159 691 184 663T209 592Q209 553
194 522T156 467T106 432T56 420Z" />
<glyph unicode="&#x201a;" glyph-name="quotesinglbase" horiz-adv-x="241" d="M56 -153Q36 -153 36 -140Q36 -135 40 -132T52 -127Q76 -121 97 -109T131 -77T145 -25Q145 -11 134 3T105 19Q85 22 73 34T60 66Q60 88 78 103T120 118Q159 118 184 90T209 19Q209
-20 194 -51T156 -106T106 -141T56 -153Z" />
<glyph unicode="&#x201c;" glyph-name="quotedblleft" horiz-adv-x="426" d="M373 693Q394 693 394 680Q394 675 390 672T377 667Q354 662 333 650T298 617T284 565Q284 551 296 538T324 521Q345 518 357 506T370 474Q370 452 352 437T310 422Q270 422 245 450T220
522Q220 560 235 591T273 646T323 681T373 693ZM188 693Q209 693 209 680Q209 675 205 672T192 667Q169 662 148 650T113 617T100 565Q100 551 112 538T140 521Q160 518 172 506T185 474Q185 452 167 437T125 422Q86 422 61 450T35 522Q35 560 50 591T89 646T139
681T188 693Z" />
<glyph unicode="&#x201d;" glyph-name="quotedblright" horiz-adv-x="426" d="M56 420Q36 420 36 433Q36 438 40 441T52 446Q76 452 97 464T131 496T145 548Q145 562 134 576T105 592Q85 595 73 607T60 639Q60 661 78 676T120 691Q159 691 184 663T209 592Q209
553 194 522T156 467T106 432T56 420ZM241 420Q221 420 221 433Q221 438 225 441T237 446Q261 452 282 464T316 496T330 548Q330 562 319 576T290 592Q270 595 258 607T245 639Q245 661 263 676T305 691Q344 691 369 663T394 592Q394 553 379 522T341 467T291 432T241
420Z" />
<glyph unicode="&#x201e;" glyph-name="quotedblbase" horiz-adv-x="426" d="M56 -153Q36 -153 36 -140Q36 -135 40 -132T52 -127Q76 -121 97 -109T131 -77T145 -25Q145 -11 134 3T105 19Q85 22 73 34T60 66Q60 88 78 103T120 118Q159 118 184 90T209 19Q209 -20
194 -51T156 -106T106 -141T56 -153ZM241 -153Q221 -153 221 -140Q221 -135 225 -132T237 -127Q261 -121 282 -109T316 -77T330 -25Q330 -11 319 3T290 19Q270 22 258 34T245 66Q245 88 263 103T305 118Q344 118 369 90T394 19Q394 -20 379 -51T341 -106T291 -141T241
-153Z" />
<glyph unicode="&#x2022;" glyph-name="bullet" horiz-adv-x="357" d="M179 222Q141 222 110 240T61 289T42 358Q42 396 60 427T110 476T179 495Q217 495 248 477T297 427T315 358Q315 320 297 290T248 241T179 222Z" />
<glyph unicode="&#x2039;" glyph-name="guilsinglleft" horiz-adv-x="380" d="M316 18Q305 18 297 25T284 37Q256 63 231 84T180 122T129 154T77 181Q68 186 62 195T56 213Q56 221 61 223Q102 248 132 267T188 304T237 342T288 388Q292 392 301 399T319 407Q325
407 325 397Q325 393 324 390T320 382Q290 337 265 308T217 258T172 220Q166 215 166 213T172 205Q194 187 217 167T265 116T320 41Q322 38 323 35T324 30Q324 18 316 18Z" />
<glyph unicode="&#x203a;" glyph-name="guilsinglright" horiz-adv-x="380" d="M64 18Q56 18 56 30Q56 32 57 35T59 41Q90 86 115 116T162 166T208 205Q214 211 214 213T208 220Q185 238 163 258T115 307T59 382Q57 386 56 389T54 397Q54 407 60 407Q70 407 79
400T92 388Q119 362 143 342T192 304T247 267T318 223Q324 221 324 213Q324 205 319 196T303 181Q276 169 251 155T200 123T149 84T96 37Q92 33 83 26T64 18Z" />
</font>
</defs>
</svg>
