<?xml version="1.0" standalone="no"?>
<!DOCTYPE svg PUBLIC "-//W3C//DTD SVG 1.1//EN" "http://www.w3.org/Graphics/SVG/1.1/DTD/svg11.dtd">
<svg xmlns="http://www.w3.org/2000/svg">
<defs >
<font id="PlayfairDisplay" horiz-adv-x="582" ><font-face
    font-family="Playfair Display ExtraBold"
    units-per-em="1000"
    panose-1="0 0 0 0 0 0 0 0 0 0"
    ascent="1082"
    descent="-251"
    alphabetic="0" />
<glyph unicode=" " glyph-name="space" horiz-adv-x="256" />
<glyph unicode="!" glyph-name="exclam" horiz-adv-x="331" d="M128 199Q144 268 148 334T153 464T155 587Q156 619 162 653T183 717T220 764T279 782Q316 782 336 760T354 696Q352 646 328 590T269 472T201 341T146 196L128 199ZM30 49Q30 93 60 121T135 149Q170
149 189 133T208 84Q208 59 194 37T156 0T103 -14Q68 -14 49 2T30 49Z" />
<glyph unicode="&quot;" glyph-name="quotedbl" horiz-adv-x="422" d="M289 678Q289 646 269 614T223 549T178 478H164Q161 518 155 545T144 593T140 637Q141 674 166 702T231 730Q257 730 272 716T289 678ZM469 678Q469 646 449 614T403 549T358 478H344Q341
518 335 545T324 593T320 637Q321 674 346 702T411 730Q437 730 452 716T469 678Z" />
<glyph unicode="#" glyph-name="numbersign" horiz-adv-x="621" d="M624 454L616 434H115L123 454H624ZM538 267L528 247H28L37 267H538ZM318 101H294L526 602H550L318 101ZM131 101H107L339 602H363L131 101Z" />
<glyph unicode="$" glyph-name="dollar" horiz-adv-x="629" d="M425 840L155 -132H133L403 840H425ZM513 840L243 -132H221L491 840H513ZM391 700Q345 700 311 676T277 602Q277 569 297 539T350 478T419 417T488 352T541 282T562 203Q562 151 543 114T492 53T420
13T340 -8T262 -14Q219 -14 186 -8T126 8T75 34Q41 56 23 86T4 155Q4 202 26 234T87 266Q122 266 143 241T165 175Q165 147 157 122T136 76T115 41Q139 25 172 17T248 8Q301 8 331 21T374 57T387 112Q387 143 368 173T319 232T256 292T192 356T143 426T124 505Q124
566 147 608T209 675T291 711T378 722Q423 722 456 716T515 700T566 674Q600 653 618 623T636 553Q636 506 615 474T554 442Q518 442 497 467T476 533Q476 561 484 586T504 632T525 667Q502 683 468 691T391 700Z" />
<glyph unicode="%" glyph-name="percent" horiz-adv-x="806" d="M335 747Q309 747 289 723T255 662T234 584T227 513Q227 484 234 467T255 450Q281 450 301 474T335 536T356 614T363 685Q363 715 356 731T335 747ZM112 556Q112 593 129 629T177 695T251 743T343
761Q406 761 442 730T478 641Q478 604 461 568T413 503T340 455T248 436Q185 436 149 467T112 556ZM594 297Q568 297 548 273T514 211T493 134T486 63Q486 33 493 17T514 0Q541 0 561 24T594 85T615 163T622 235Q622 264 615 280T594 297ZM371 106Q371 143 388
179T436 244T510 292T602 311Q666 311 701 280T737 191Q737 154 720 118T673 52T600 4T507 -14Q444 -14 408 17T371 106ZM842 824L857 811L24 -55L9 -42L842 824Z" />
<glyph unicode="&amp;" glyph-name="ampersand" horiz-adv-x="879" d="M572 210Q565 194 549 177T507 147T447 134Q416 134 388 146T341 184T323 253Q323 315 367 360T501 434Q531 444 563 454T630 474T698 496T764 518Q793 528 822 540T872 571T892 623Q892 662
863 683T793 705Q775 705 765 700Q791 690 803 674T816 635Q816 611 802 594T765 567T719 557Q683 557 660 577T637 628Q637 657 655 677T703 708Q724 717 747 719T787 722Q826 722 858 709T908 666T926 582Q926 524 902 484T830 416T714 365Q686 355 656 345T595
326T533 306T474 287Q446 278 426 267T395 240T384 206Q384 177 405 166T451 154Q480 154 501 165T536 191T556 217L572 210ZM465 574Q487 574 502 587T517 621Q517 641 500 654T454 667Q420 667 390 650T340 601T320 527Q320 517 322 507T327 486Q345 489 363
490T390 492Q426 492 426 471Q426 460 416 455T395 450Q376 450 357 458T326 472Q294 459 268 428T228 354T213 262Q213 201 238 160T313 97T431 76Q480 76 527 87T613 120T674 178T697 262Q697 300 679 335T613 392L624 402Q669 382 693 343T717 254Q717 207 695
160T627 74T511 10T346 -14Q256 -14 184 10T69 84T26 208Q26 275 61 330T160 424T313 480Q264 495 242 522T219 582Q219 622 248 648T321 688T413 702Q479 702 509 680T540 624Q540 589 515 573T465 556V574Z" />
<glyph unicode="&apos;" glyph-name="quotesingle" horiz-adv-x="242" d="M289 678Q289 646 269 614T223 549T178 478H164Q161 518 155 545T144 593T140 637Q141 674 166 702T231 730Q257 730 272 716T289 678Z" />
<glyph unicode="(" glyph-name="parenleft" horiz-adv-x="408" d="M252 -182Q186 -124 138 -65T62 65T35 223Q35 307 71 388T172 546T325 688T516 806L526 793Q425 719 350 632T234 434T192 184Q192 116 200 58T226 -56T270 -169L252 -182Z" />
<glyph unicode=")" glyph-name="parenright" horiz-adv-x="409" d="M166 806Q232 749 280 689T356 559T383 401Q383 317 347 236T246 78T93 -64T-98 -182L-108 -169Q-7 -95 68 -8T184 190T226 440Q226 508 218 567T192 681T148 793L166 806Z" />
<glyph unicode="*" glyph-name="asterisk" horiz-adv-x="481" d="M300 518Q333 574 357 610T388 675Q396 705 382 717T349 729Q329 729 310 717T283 675Q277 647 283 609T297 518H300ZM299 519Q271 565 255 596T218 642Q196 657 176 649T141 623Q127 606 125 586T144
550Q164 537 204 532T296 516L299 519ZM298 518Q237 508 197 504T128 485Q98 469 91 450T90 412Q95 395 112 387T159 393Q186 407 219 440T298 516V518ZM297 517Q264 462 240 426T208 361Q201 331 214 319T248 307Q267 307 286 319T313 361Q321 390 314 427T301
518L297 517ZM455 413Q469 430 472 450T452 486Q432 500 393 505T300 520L297 517Q325 472 341 440T378 394Q401 379 421 387T455 413ZM506 624Q501 641 484 649T437 643Q410 629 378 596T298 520V517Q360 528 400 532T468 551Q498 566 505 586T506 624Z" />
<glyph unicode="+" glyph-name="plus" horiz-adv-x="572" d="M57 370H290L357 606H393L326 370H558L549 340H317L250 105H214L281 340H48L57 370Z" />
<glyph unicode="," glyph-name="comma" horiz-adv-x="298" d="M179 72Q179 5 140 -50T30 -137L25 -120Q67 -101 99 -65T134 16Q121 2 104 -6T68 -14Q35 -14 17 1T-2 46Q-2 75 12 98T51 135T106 149Q141 149 160 131T179 72Z" />
<glyph unicode="-" glyph-name="hyphen" horiz-adv-x="506" d="M78 313H439L414 223H53L78 313Z" />
<glyph unicode="." glyph-name="period" horiz-adv-x="290" d="M-1 49Q-1 93 29 121T103 149Q138 149 157 133T177 84Q177 59 163 37T125 0T71 -14Q37 -14 18 2T-1 49Z" />
<glyph unicode="/" glyph-name="slash" horiz-adv-x="458" d="M-46 -14L502 722H535L-13 -14H-46Z" />
<glyph unicode="0" glyph-name="zero" horiz-adv-x="640" d="M390 532Q488 532 543 483T599 348Q599 281 570 217T491 100T374 17T233 -14Q136 -14 79 35T21 170Q21 238 50 302T131 419T248 501T390 532ZM375 514Q332 514 297 482T237 395T199 276T185 147Q185
71 203 38T248 4Q291 4 325 37T384 125T422 245T435 373Q435 448 418 481T375 514Z" />
<glyph unicode="1" glyph-name="one" horiz-adv-x="381" d="M364 529L205 0H46L171 419Q146 410 117 402T44 383L47 404Q123 422 177 443T271 486T344 529H364Z" />
<glyph unicode="2" glyph-name="two" horiz-adv-x="545" d="M323 532Q402 532 447 503T492 425Q492 388 468 355T404 292T321 237T234 187T162 143Q185 143 213 136T273 122T336 115Q375 115 401 127T427 163Q427 191 393 210L403 223Q433 207 446 186T459 136Q459
102 442 69T389 15T293 -6Q261 -6 230 1T166 15T94 24Q55 26 30 20T-26 0L-21 21Q-1 37 32 61T105 116T186 184T260 259T314 340T335 423Q335 464 315 483T259 502Q229 502 199 489T143 454T103 405T87 349Q87 325 100 313T144 301Q173 301 193 311T237 342L249
328Q221 302 192 291T138 280Q122 280 105 285T75 305T63 348Q63 381 82 413T135 473T217 516T323 532Z" />
<glyph unicode="3" glyph-name="three" horiz-adv-x="528" d="M312 533Q392 533 438 506T485 432Q485 396 463 367T405 314T328 275T246 250Q303 249 348 237T420 197T446 124Q446 74 411 32T319 -44T191 -101T48 -137T-89 -151L-84 -133Q-25 -129 38 -110T157
-57T247 27T281 143Q281 183 268 207T228 234Q212 227 198 222T170 217Q162 217 156 220T153 232Q156 246 175 249T220 250Q253 264 279 286T320 338T336 405Q336 447 311 471T239 495Q212 495 186 485T139 459T106 422T93 380Q93 356 106 344T151 332Q185 332
213 347L224 332Q203 321 183 316T144 311Q128 311 111 316T81 336T69 379Q69 416 101 451T189 509T312 533Z" />
<glyph unicode="4" glyph-name="four" horiz-adv-x="542" d="M440 532L445 509L-37 60L-32 78H473L465 50H-60L-54 71L440 532ZM466 532L285 -141H126L260 355L440 532H466Z" />
<glyph unicode="5" glyph-name="five" horiz-adv-x="476" d="M434 538L446 531Q421 463 383 422T293 381Q271 381 246 391T197 410T153 416L66 225Q98 243 138 252T225 261Q318 261 360 229T402 141Q402 86 370 41T285 -38T166 -97T34 -133T-91 -148L-86 -130Q-33
-130 23 -112T127 -60T205 25T235 139Q235 181 215 206T146 231Q131 231 108 227T51 204L41 209L176 518Q205 520 229 514T280 500T338 493Q370 493 393 502T434 538Z" />
<glyph unicode="6" glyph-name="six" horiz-adv-x="580" d="M553 722L559 702Q507 687 454 653T354 567T269 447T210 296T188 118Q188 51 200 29T233 6Q264 6 290 36T336 112T365 209T376 301Q376 349 363 367T332 385Q311 385 289 363T250 288L233 293Q248 347
272 379T327 424T395 438Q458 438 500 400T542 286Q542 228 516 174T443 78T336 11T205 -14Q120 -14 73 30T25 171Q25 258 60 336T154 481T281 597T422 680T553 722Z" />
<glyph unicode="7" glyph-name="seven" horiz-adv-x="509" d="M202 523Q247 523 284 513T360 491T448 478Q476 477 500 484T544 517H572Q520 458 478 410T401 317T340 226T291 127T252 6Q245 -23 243 -35T240 -54T236 -73Q229 -104 205 -126T137 -148Q102 -148
87 -133T70 -93T74 -44Q88 11 127 69T219 185T330 298T441 401T531 490Q531 490 538 491T546 493Q501 465 467 442T406 403T353 379T298 370Q265 370 242 378T197 394T149 402Q120 402 100 389T80 346Q80 308 111 285T195 249L190 232Q123 246 82 280T40 377Q40
413 56 446T108 501T202 523Z" />
<glyph unicode="8" glyph-name="eight" horiz-adv-x="585" d="M425 722Q474 722 514 711T577 675T600 614Q600 578 577 546T517 486T438 437T358 398L354 404Q380 426 401 460T434 536T447 623Q447 704 398 704Q372 704 348 684T310 632T295 563Q295 517 317 483T371
421T435 363T490 299T512 215Q512 165 486 123T416 51T315 3T197 -14Q142 -14 96 0T21 43T-7 117Q-7 160 17 197T83 266T174 323T274 366L278 360Q244 336 216 296T170 207T153 102Q153 59 167 32T220 4Q255 4 287 27T340 88T360 172Q360 221 339 257T288 322T226
380T174 444T153 524Q153 569 175 605T236 668T323 708T425 722Z" />
<glyph unicode="9" glyph-name="nine" horiz-adv-x="568" d="M352 532Q438 532 485 488T532 347Q532 263 498 187T407 47T281 -67T143 -147T14 -188L8 -168Q59 -154 110 -121T208 -36T290 81T348 228T369 400Q369 467 358 489T324 512Q293 512 267 482T221 406T192
310T181 217Q181 170 194 152T226 133Q247 133 269 155T308 230L324 225Q310 171 286 139T231 94T162 80Q100 80 58 118T15 232Q15 291 41 344T114 440T222 507T352 532Z" />
<glyph unicode=":" glyph-name="colon" horiz-adv-x="322" d="M113 432Q113 476 143 504T217 532Q252 532 271 516T291 467Q291 442 277 420T239 383T185 369Q151 369 132 385T113 432ZM13 49Q13 93 43 121T117 149Q152 149 171 133T191 84Q191 59 177 37T139
0T85 -14Q51 -14 32 2T13 49Z" />
<glyph unicode=";" glyph-name="semicolon" horiz-adv-x="328" d="M119 432Q119 476 149 504T223 532Q258 532 277 516T297 467Q297 442 283 420T245 383T191 369Q157 369 138 385T119 432ZM189 72Q189 5 150 -50T40 -137L35 -120Q77 -101 109 -65T144 16Q131
2 114 -6T78 -14Q45 -14 27 1T8 46Q8 75 22 98T61 135T116 149Q151 149 170 131T189 72Z" />
<glyph unicode="&lt;" glyph-name="less" horiz-adv-x="591" d="M599 582L609 553L122 351L453 177L437 145L47 355L599 582Z" />
<glyph unicode="=" glyph-name="equal" horiz-adv-x="645" d="M61 270L70 300H571L562 270H61ZM101 410L110 440H611L602 410H101Z" />
<glyph unicode="&gt;" glyph-name="greater" horiz-adv-x="593" d="M56 155L46 184L506 376L136 574L152 603L581 372L56 155Z" />
<glyph unicode="?" glyph-name="question" horiz-adv-x="502" d="M297 759Q286 759 272 757T242 749T217 734Q238 736 257 727T288 701T301 663Q301 630 277 607T216 583Q185 583 160 603T135 659Q135 695 155 718T208 756T277 776T349 782Q402 782 448 768T524
727T554 656Q554 627 535 598T476 533T371 449Q307 403 272 374T224 321T211 271Q211 245 227 227T278 208Q296 208 315 213T348 228Q329 235 311 252T293 300Q293 331 314 352T370 373Q396 373 416 355T436 309Q436 276 417 253T368 215T305 194T242 187Q197 187
159 199T99 238T77 304Q77 343 98 375T155 437T232 500Q279 537 311 565T360 619T377 677Q377 713 357 736T297 759ZM112 49Q112 93 142 121T216 149Q251 149 270 133T290 84Q290 59 276 37T238 0T184 -14Q149 -14 131 2T112 49Z" />
<glyph unicode="@" glyph-name="at" horiz-adv-x="868" d="M596 61Q611 61 638 72T695 107T754 167T799 252T817 364Q817 452 779 508T673 591T517 618Q430 618 357 593T226 522T129 419T69 294T48 163Q48 84 76 28T151 -62T258 -112T384 -128Q452 -128 516 -112T635
-65L641 -78Q596 -107 531 -126T385 -145Q316 -145 252 -129T138 -77T57 17T27 161Q27 230 48 298T110 427T210 535T347 609T517 636Q613 636 685 607T797 517T838 364Q838 280 807 217T728 112T627 48T528 26Q490 26 472 40T449 75T449 121T460 167L549 464Q583
464 620 467T688 478L582 119Q572 87 575 74T596 61ZM484 212Q464 142 438 101T379 43T309 26Q277 26 250 38T208 78T192 149Q192 190 206 235T244 323T302 401T376 457T460 478Q509 478 523 449T530 369L519 361Q521 377 520 395T512 426T487 439Q465 439 439
414T389 346T350 252T335 147Q335 113 343 97T371 80Q403 80 428 118T479 229L484 212Z" />
<glyph unicode="A" glyph-name="A" horiz-adv-x="661" d="M54 137Q25 96 25 71T50 35T113 20L109 0Q62 2 31 2T-27 3Q-49 3 -63 3T-94 0L-90 20Q-71 25 -55 36T-20 71T28 133L440 713Q455 711 472 711T503 713L543 84Q546 48 561 35T592 20L588 0Q561 2 516 2T431
3Q383 3 340 3T271 0L275 20Q323 22 343 37T361 104L337 553L381 600L54 137ZM151 288H443L435 268H133L151 288Z" />
<glyph unicode="B" glyph-name="B" horiz-adv-x="694" d="M450 707Q574 707 628 671T682 573Q682 521 647 477T547 405T391 371Q511 369 574 326T637 218Q637 166 613 125T544 56T436 14T297 0Q268 0 228 1T121 3Q95 3 64 3T4 2T-45 0L-41 20Q-7 22 12 28T42 52T62
106L194 602Q202 633 202 651T189 678T135 688L140 708Q160 707 188 707T248 706T303 705Q353 705 385 706T450 707ZM266 359L270 376H339Q394 376 430 408T486 491T505 597Q505 637 492 662T439 688Q413 688 401 674T378 617L243 106Q238 86 236 67T242 36T279
23Q332 23 369 53T426 133T447 237Q447 270 437 297T404 342T342 359H266Z" />
<glyph unicode="C" glyph-name="C" horiz-adv-x="700" d="M757 708Q742 669 726 614T693 478H671Q680 528 680 567T663 635Q644 669 616 682T549 696Q500 696 455 671T371 599T305 493T260 362T244 218Q244 116 280 68T377 20Q412 20 450 36T517 82Q544 111 563
146T607 240H629Q604 149 591 94T570 0H548Q551 21 551 34Q551 55 543 59T518 51Q492 33 461 18T396 -5T320 -14Q176 -14 108 52T40 238Q40 309 63 378T130 510T235 620T372 695T533 722Q573 722 600 713T647 689T681 657Q694 641 707 653T736 708H757Z" />
<glyph unicode="D" glyph-name="D" horiz-adv-x="787" d="M774 463Q774 401 756 336T699 211T602 103T462 28T274 0Q258 0 236 1T186 2T120 3Q97 3 66 3T7 2T-40 0L-37 20Q-5 22 13 28T43 52T63 106L194 602Q201 629 200 647T185 676T136 688L139 708Q158 707
188 706T253 705T317 705Q332 706 360 706T417 707T465 708Q611 708 692 647T774 463ZM278 18Q338 18 387 46T474 124T537 235T576 364T590 497Q590 591 556 640T445 690Q422 690 410 684T391 660T375 604L244 104Q235 71 233 53T240 26T278 18Z" />
<glyph unicode="E" glyph-name="E" horiz-adv-x="632" d="M234 346L238 366H444L439 346H234ZM340 366Q365 366 387 376T427 403T458 440T480 482H502Q488 439 481 413T466 356Q462 337 458 321T450 285T439 230H417Q418 248 415 268T403 306T375 335T327 346L340
366ZM608 528Q611 587 599 621T561 670T493 685H476Q442 685 424 680T395 657T375 602L243 106Q234 70 235 52T251 29T300 23H325Q376 23 413 40T481 95T543 200H565Q560 187 555 168T544 128Q539 109 531 74T517 0Q466 2 404 2T291 3Q265 3 225 3T139 3T45 2T-45
0L-41 20Q-7 22 12 28T42 52T62 106L194 602Q204 639 202 656T185 680T135 688L140 708Q182 707 229 707T323 706T410 705T476 705Q521 705 578 705T681 708Q668 673 660 647T643 590Q639 572 636 556T630 528H608Z" />
<glyph unicode="F" glyph-name="F" horiz-adv-x="596" d="M241 344L245 364H457L452 344H241ZM598 498Q605 569 594 610T554 668T481 685H468Q438 685 421 680T394 657T375 602L243 106Q234 70 237 52T260 28T322 20L317 0Q285 2 234 2T129 3Q75 3 29 3T-45 0L-41
20Q-7 22 12 28T42 52T62 106L194 602Q204 639 202 656T185 680T135 688L140 708Q182 707 229 707T323 706T410 705T476 705Q521 705 578 705T681 708Q668 672 660 646T643 588Q636 562 630 539T620 498H598ZM348 364Q373 364 394 373T432 398T464 435T488 480H511Q496
437 490 411T475 354Q468 324 461 290T444 204H422Q422 237 418 262T404 306T377 334T336 344L348 364Z" />
<glyph unicode="G" glyph-name="G" horiz-adv-x="750" d="M348 6Q366 6 383 10T412 23Q429 35 436 52T452 100L475 188Q486 229 484 249T462 276T400 284L405 304Q427 303 458 303T523 302T585 301Q632 301 672 302T738 304L733 284Q711 283 699 277T678 253T659
198L606 0H586Q588 29 580 43T552 57Q529 57 503 44T453 20Q415 1 383 -6T316 -14Q184 -14 109 46T34 215Q34 283 57 354T123 491T227 609T364 691T528 722Q593 722 628 703T692 657Q707 642 720 652T749 708H771Q756 669 740 614T707 478H685Q687 498 688 516T690
553Q690 574 688 591T676 626Q657 664 618 684T522 704Q462 704 414 669T328 575T266 447T228 308T215 182Q215 92 248 49T348 6Z" />
<glyph unicode="H" glyph-name="H" horiz-adv-x="828" d="M248 346L255 366H608L600 346H248ZM616 602Q626 639 625 656T607 680T557 688L562 708Q590 707 636 706T728 705Q781 705 828 706T905 708L900 688Q866 687 847 681T818 657T797 602L665 106Q656 70 657
52T674 28T724 20L720 0Q692 2 645 2T544 3Q498 3 452 3T377 0L381 20Q415 22 434 28T464 52T484 106L616 602ZM243 106Q234 70 235 52T252 28T302 20L298 0Q268 2 223 2T131 3Q77 3 31 3T-44 0L-39 20Q-6 22 12 28T42 52T62 106L194 602Q204 639 202 656T185 680T135
688L140 708Q167 707 214 706T315 705Q362 705 406 706T483 708L478 688Q444 687 425 681T396 657T375 602L243 106Z" />
<glyph unicode="I" glyph-name="I" horiz-adv-x="406" d="M243 106Q234 70 235 52T252 28T302 20L298 0Q268 2 220 2T123 3Q72 3 28 3T-44 0L-39 20Q-6 22 12 28T42 52T62 106L194 602Q204 639 202 656T185 680T135 688L140 708Q166 707 211 706T307 705Q356 705
402 706T483 708L478 688Q444 687 425 681T396 657T375 602L243 106Z" />
<glyph unicode="J" glyph-name="J" horiz-adv-x="699" d="M668 366L665 346H256L259 366H668ZM422 555Q392 555 365 562T313 579T265 595T218 603Q193 603 176 590T159 549Q159 517 188 497T284 470Q284 470 283 461T282 452Q225 456 181 474T112 524T87 602Q86
663 123 701T237 739Q278 739 309 729T367 705T421 675T480 650T554 640Q590 640 635 649T720 677Q741 709 761 726T796 730Q808 720 795 703T729 666Q662 609 622 516T552 307L490 65Q473 -3 435 -61T334 -153T173 -188Q132 -188 97 -180T42 -154T21 -106Q21 -71
45 -48T115 -24Q152 -24 178 -41T204 -91Q205 -117 189 -136T144 -169Q152 -170 158 -170T170 -171Q196 -171 215 -157T248 -116T274 -48T302 45L363 262Q384 338 416 394T490 495T583 577T695 653Q651 640 618 623T556 591T495 565T422 555Z" />
<glyph unicode="K" glyph-name="K" horiz-adv-x="761" d="M243 106Q234 70 235 52T252 28T302 20L298 0Q268 2 223 2T131 3Q77 3 31 3T-44 0L-39 20Q-6 22 12 28T42 52T62 106L194 602Q204 639 202 656T185 680T135 688L140 708Q167 707 214 706T315 705Q362 705
406 706T483 708L478 688Q444 687 425 681T396 657T375 602L243 106ZM617 65Q634 65 645 79T666 119L683 170H703L677 93Q658 37 621 12T539 -14Q469 -14 438 22T415 116L439 265Q443 295 442 314T433 345T410 365L412 375Q475 373 516 362T578 330T606 277T607
199L593 97Q591 83 597 74T617 65ZM424 360Q370 346 351 348T335 369Q338 385 356 388T424 378V360ZM632 679Q614 659 603 628T581 562T559 493T528 430T481 384T411 368L413 378Q460 383 487 408T531 471T557 551T581 630T617 691Q634 710 653 716T692 722Q740
722 769 694T798 621Q798 595 787 570T753 529T696 512Q666 512 643 531T620 587Q621 621 644 652T709 700Q706 702 701 703T688 704Q668 704 655 698T632 679Z" />
<glyph unicode="L" glyph-name="L" horiz-adv-x="611" d="M571 210Q565 194 559 173T547 128Q542 109 534 74T521 0Q470 2 407 2T294 3Q268 3 228 3T141 3T45 2T-45 0L-41 20Q-7 22 12 28T42 52T62 106L194 602Q204 639 202 656T185 680T135 688L140 708Q168 707
216 706T317 705Q364 705 407 706T482 708L477 688Q443 687 424 681T395 657T374 602L242 106Q233 70 234 52T250 29T299 23H328Q368 23 408 41T484 100T549 210H571Z" />
<glyph unicode="M" glyph-name="M" horiz-adv-x="933" d="M749 705H837Q886 705 930 706T1010 708L1005 688Q971 687 952 681T923 657T902 602L770 106Q761 70 762 52T780 28T829 20L825 0Q791 2 747 2T653 3Q602 3 556 3T483 0L487 20Q522 22 540 28T570 52T590
106L735 645L320 -5H298L213 594L92 133Q84 103 85 78T104 38T170 20L166 0Q154 1 134 1T91 2T50 3Q25 3 -1 3T-44 0L-40 20Q-5 22 16 37T49 78T70 133L195 602Q205 639 203 656T186 680T136 688L141 708Q166 707 207 706T294 705Q318 705 342 706T385 708L442
225L749 705Z" />
<glyph unicode="N" glyph-name="N" horiz-adv-x="843" d="M534 -5L273 517Q273 517 274 530T275 559T277 589T278 602Q286 639 284 656T264 680T207 688L212 708Q228 707 251 706T301 705Q348 705 382 708L600 247Q600 247 597 229T589 182T578 121T568 60T559
13T556 -5H534ZM842 736Q816 736 795 721T757 682Q711 614 663 443T556 -5L542 23Q557 90 574 167T610 323T650 472T693 599T739 690Q758 717 784 735T847 754Q897 754 925 726T953 658Q953 615 924 588T851 560Q815 560 794 578T773 627Q773 666 798 694T862 730Q859
733 854 734T842 736ZM29 -56Q57 -56 77 -41T114 -1Q143 45 172 143T232 380T294 685L311 664Q295 582 278 498T242 333T205 183T167 64T130 -11Q112 -35 88 -54T23 -74Q-26 -74 -54 -46T-82 22Q-82 65 -53 92T19 120Q56 120 77 102T98 53Q98 14 72 -13T8 -50Q12
-53 17 -54T29 -56Z" />
<glyph unicode="O" glyph-name="O" horiz-adv-x="793" d="M494 704Q454 704 416 677T344 601T285 490T246 356T232 213Q232 115 259 60T330 4Q370 4 408 31T480 107T539 218T578 352T592 495Q592 593 565 648T494 704ZM38 226Q38 292 59 362T121 496T218 611T347
692T503 722Q636 722 711 660T787 481Q787 415 766 346T704 212T606 97T477 16T321 -14Q188 -14 113 48T38 226Z" />
<glyph unicode="P" glyph-name="P" horiz-adv-x="661" d="M239 284L244 304H289Q353 304 396 329T465 396T503 486T515 581Q515 633 495 660T428 688Q411 688 403 681T389 656T374 602L242 106Q235 77 235 59T251 31T301 20L297 0Q265 2 223 2T133 3Q80 3 32 3T-45
0L-41 20Q-7 22 12 28T42 52T62 106L194 602Q201 632 201 650T187 677T135 688L140 708Q167 707 215 706T311 705Q347 705 383 706T457 707Q583 707 643 669T704 556Q704 478 651 417T501 320T279 284H239Z" />
<glyph unicode="Q" glyph-name="Q" horiz-adv-x="848" d="M314 243Q248 243 197 264T116 325T86 422Q86 486 122 541T219 636T359 699T524 722Q615 722 685 697T796 627T837 521Q837 467 807 409T725 292T607 179T467 77T321 -6T183 -62T68 -82Q21 -82 -7 -62T-36
1Q-36 36 -17 62T35 105T110 121Q162 121 211 99T308 45T406 -20T507 -75T614 -97Q651 -97 675 -86T714 -58T737 -25Q722 -38 703 -45T663 -52Q626 -52 601 -31T575 28Q575 68 603 94T676 120Q715 120 742 97T769 28Q769 -11 749 -49T690 -119T599 -169T483 -188Q423
-188 376 -172T291 -131T221 -77T159 -23T102 19T41 35Q15 35 1 24T-14 -8Q-14 -35 9 -50T75 -65Q107 -65 149 -53T238 -23T323 15Q378 42 426 79T515 162T584 261T629 374T645 499Q645 596 608 650T501 704Q449 704 408 677T337 603T292 502T276 391Q276 356 285
329T315 288T375 274Q415 274 448 290T505 332T539 390Q543 403 545 416T547 441Q536 405 508 391T454 376Q417 376 396 400T374 460Q374 504 404 533T477 562Q521 562 546 531T571 447Q571 387 538 341T447 269T314 243Z" />
<glyph unicode="R" glyph-name="R" horiz-adv-x="726" d="M293 355Q314 354 330 353T358 351T384 348Q431 344 472 338T543 317T587 277T594 209L579 105Q575 73 582 56T610 39Q630 39 644 56T671 107L676 121H699L695 108Q676 45 637 16T531 -14Q455 -14 423
20T400 109L416 223Q422 261 415 287T380 327T291 341L293 355ZM275 342L280 358H309Q351 358 389 372T457 415T505 486T523 586Q523 639 503 663T442 688Q417 688 404 676T381 629L243 106Q235 76 234 58T247 31T301 20L297 0Q265 2 222 2T130 3Q80 3 32 3T-45
0L-41 20Q-7 22 12 28T42 52T62 106L193 602Q201 632 201 650T188 677T135 688L140 708Q159 707 187 707T245 706T301 705Q350 705 385 706T452 707Q581 707 642 675T704 568Q704 499 655 449T519 371T315 343L275 342Z" />
<glyph unicode="S" glyph-name="S" horiz-adv-x="598" d="M634 715Q624 689 608 640T575 511H555Q558 525 559 540T561 566Q561 607 545 635T496 680T418 697Q371 697 337 673T303 594Q303 559 319 527T362 463T418 399T473 334T515 265T532 187Q532 132 505 94T434
32T341 -3T249 -14Q199 -14 168 -9T113 7T65 32Q55 39 46 43T31 47Q18 47 10 36T-12 -7H-32Q-23 15 -13 44T9 118T36 233H56Q52 217 49 195T47 154Q50 82 92 45T210 8Q279 8 306 35T333 107Q333 149 319 185T280 252T230 314T180 376T141 443T126 521Q126 573 149
610T211 673T294 710T381 722Q446 722 485 706T548 677Q557 672 566 667T581 662Q595 662 614 715H634Z" />
<glyph unicode="T" glyph-name="T" horiz-adv-x="688" d="M786 872Q826 872 849 848T873 794Q873 760 853 734T796 692Q765 679 723 672T626 664Q592 664 549 667T460 675T370 682T289 686Q254 686 224 682T176 669Q208 663 229 640T251 580Q251 541 226 515T163
488Q124 488 103 514T82 576Q82 601 96 630T151 680Q175 692 200 697T249 703T285 704Q348 704 409 699T527 689T636 684Q673 684 698 687T743 697L741 688Q724 702 711 725T697 781Q697 822 721 847T786 872ZM408 688Q408 688 426 687T470 683T523 679T567 676T585
674L437 116Q428 80 431 60T453 32T512 20L508 0Q475 2 422 2T311 3Q256 3 206 3T125 0L129 20Q171 22 195 30T233 59T256 116L408 688Z" />
<glyph unicode="U" glyph-name="U" horiz-adv-x="698" d="M647 528Q663 589 665 621T650 668T589 688L595 708Q614 707 645 706T704 705Q727 705 750 706T790 708L784 688Q751 683 732 669T700 626T673 544L608 291Q572 153 510 79Q474 37 421 12T305 -14Q222
-14 171 10T96 73Q73 111 73 162T93 288L176 602Q186 639 184 656T167 680T117 688L123 708Q150 707 198 706T300 705Q347 705 389 706T465 708L459 688Q425 687 406 681T377 657T356 602L268 271Q251 206 246 159T247 81T274 36T324 21Q399 21 449 54T531 147T582
280L647 528Z" />
<glyph unicode="V" glyph-name="V" horiz-adv-x="670" d="M637 571Q665 614 664 638T639 674T577 688L582 708Q593 707 618 707T672 706T718 705Q740 705 758 706T793 708L788 688Q766 682 748 671T709 638T662 575L285 -5Q269 -3 254 -3T222 -5L143 624Q139 660
122 673T91 688L96 708Q123 707 166 706T252 705Q303 705 345 706T415 708L410 688Q379 687 360 681T334 657T330 604L380 153L343 120L637 571Z" />
<glyph unicode="W" glyph-name="W" horiz-adv-x="1008" d="M591 506L281 -5H218L139 624Q134 661 117 674T86 688L91 708Q118 707 160 706T245 705Q288 705 323 706T382 708L377 688Q346 686 334 671T326 604L374 167L337 128L585 532L591 506ZM969 571Q994 616
993 640T969 675T906 688L911 708Q923 707 948 707T1001 706T1048 705Q1070 705 1088 706T1123 708L1118 688Q1096 682 1077 672T1037 639T993 575L672 -5H609L526 624Q521 660 508 673T483 688L488 708Q513 707 553 706T632 705Q683 705 726 706T797 708L792 688Q743
686 725 671T713 604L764 171L726 135L969 571Z" />
<glyph unicode="X" glyph-name="X" horiz-adv-x="755" d="M519 115Q523 91 534 77T569 62Q591 62 606 75T632 119L649 170H669L643 93Q621 35 585 11T498 -14Q441 -14 408 5T358 59T335 142L279 597Q276 624 265 638T232 652Q210 652 194 637T167 589L150 538H130L156
615Q177 673 216 697T311 722Q363 722 394 704T442 652T465 566L519 115ZM719 704Q703 704 687 698T654 680Q625 656 586 602T506 467T427 278L439 354Q461 419 494 484T564 602T634 686Q679 722 725 722Q772 722 798 692T823 617Q823 571 795 542T724 512Q690
512 671 532T651 588Q652 626 676 656T741 698Q737 701 733 702T719 704ZM62 4Q80 4 96 10T129 28Q160 50 202 99T290 223T374 396L358 320Q335 262 300 204T225 97T149 19Q104 -14 56 -14Q9 -14 -17 16T-43 91Q-42 137 -14 166T56 196Q91 196 110 176T130 120Q129
82 105 52T40 10Q43 7 48 6T62 4Z" />
<glyph unicode="Y" glyph-name="Y" horiz-adv-x="755" d="M407 106Q398 70 403 52T428 28T482 20L477 0Q457 1 426 1T358 2T289 3Q238 3 192 3T118 0L123 20Q157 22 176 28T206 52T226 106L295 380L370 317L451 336L485 416L407 106ZM723 704Q707 704 693 699T661
681Q634 661 596 608T518 470T446 270L284 265Q280 312 273 363T256 464T233 554T203 618T165 642Q146 642 136 628T119 595L100 538Q100 538 89 538T78 538L101 609Q123 673 164 697T256 722Q329 722 367 681T423 560T455 367Q487 462 527 536T611 661Q634 687
664 704T730 722Q779 722 807 694T834 625Q834 582 805 555T733 528Q696 528 675 546T654 596Q654 635 680 662T744 698Q740 701 735 702T723 704Z" />
<glyph unicode="Z" glyph-name="Z" horiz-adv-x="660" d="M163 346L170 366H523L515 346H163ZM451 214Q451 214 453 223T455 233Q489 228 520 215T572 178T593 117Q593 60 552 23T440 -14Q395 -14 361 -2T297 27T233 56T155 69Q130 69 109 64T63 48Q41 16 15 -1T-25
-5Q-37 6 -23 28T44 70L624 640Q575 593 521 566T411 538Q373 538 345 544T293 558T248 572T206 578Q189 578 179 571T169 546Q169 529 185 516T242 494Q242 494 240 485T237 475Q204 481 172 494T120 531T99 591Q99 648 140 685T252 722Q297 722 331 710T395 681T459
652T537 639Q562 639 583 644T629 660Q652 692 677 709T717 713Q729 703 715 681T648 638L68 68Q117 115 171 142T282 170Q319 170 348 164T400 150T444 136T487 130Q504 130 514 137T524 162Q524 179 508 192T451 214Z" />
<glyph unicode="[" glyph-name="bracketleft" horiz-adv-x="383" d="M-22 -181L215 772H465L461 753H380L151 -162H232L228 -181H-22Z" />
<glyph unicode="\" glyph-name="backslash" horiz-adv-x="490" d="M162 722L390 -14H357L131 722H162Z" />
<glyph unicode="]" glyph-name="bracketright" horiz-adv-x="384" d="M406 772L169 -181H-81L-77 -162H4L233 753H152L156 772H406Z" />
<glyph unicode="^" glyph-name="asciicircum" horiz-adv-x="525" d="M258 378Q221 357 169 338T66 306L62 320Q141 354 208 410T316 528H334Q343 467 380 411T481 321L474 306Q417 316 361 335T258 378Z" />
<glyph unicode="_" glyph-name="underscore" horiz-adv-x="744" d="M-17 -74H515L480 -194H-52L-17 -74Z" />
<glyph unicode="`" glyph-name="grave" horiz-adv-x="325" d="M349 599Q310 646 281 673T231 719T197 760Q183 783 187 807T212 844Q235 859 261 850T300 820Q315 798 320 771T333 705T361 606L349 599Z" />
<glyph unicode="a" glyph-name="a" horiz-adv-x="570" d="M190 47Q202 47 217 59T248 98T281 165T314 264L289 156Q269 92 242 55T183 2T114 -14Q54 -14 25 19T-4 110Q-4 166 15 225T66 339T139 437T224 506T312 532Q345 532 362 509T374 433L363 427Q368 458
362 473T339 489Q320 489 297 467T251 406T208 318T176 213T164 105Q164 74 170 61T190 47ZM388 517Q437 518 475 521T551 532L418 85Q414 71 414 61T417 45T431 39Q442 39 457 52T489 110L508 162H527L502 89Q488 48 465 26T416 -5T364 -14Q308 -14 284 19Q269
41 269 74T282 152L388 517Z" />
<glyph unicode="b" glyph-name="b" horiz-adv-x="561" d="M340 472Q322 472 302 451T261 391T223 304T192 202L211 302Q241 383 270 434T332 508T404 532Q470 532 502 491T535 373Q535 327 521 274T481 170T416 78T329 11T218 -14Q189 -14 167 -4T132 22L139 36Q148
26 158 22T182 17Q210 17 237 42T288 109T330 202T359 307T369 409Q369 446 362 459T340 472ZM142 18Q106 23 65 12T-13 -16L-28 -9Q-21 5 -16 19T-6 50L176 667Q185 701 174 717T113 733L119 754Q196 755 255 765T369 795L142 18Z" />
<glyph unicode="c" glyph-name="c" horiz-adv-x="474" d="M370 512Q333 512 298 481T234 397T190 279T173 145Q173 91 194 68T251 44Q282 44 313 62T377 128L397 120Q377 87 346 56T272 6T174 -14Q101 -14 53 24T5 142Q5 193 21 247T67 352T141 443T239 508T359
532Q418 532 451 503T485 432Q485 402 471 375T432 329T377 311Q352 311 333 327T314 375Q314 420 343 453T411 496Q403 504 394 508T370 512Z" />
<glyph unicode="d" glyph-name="d" horiz-adv-x="591" d="M442 85Q433 60 438 50T455 39Q466 39 480 52T512 110L531 162H550L526 89Q512 47 489 25T440 -5T388 -14Q325 -14 303 28Q292 48 292 79T305 152L442 667Q452 701 440 717T379 733L386 754Q462 755 522
765T638 795L442 85ZM197 42Q212 42 232 61T275 122T322 226T365 376L350 268Q319 174 289 111T220 17T126 -14Q92 -14 64 1T19 47T2 129Q2 174 16 228T58 335T127 433T220 505T337 532Q373 532 387 519T404 482L396 462Q392 485 384 497T356 509Q334 509 309 487T259
425T214 334T181 224T169 105Q169 74 175 58T197 42Z" />
<glyph unicode="e" glyph-name="e" horiz-adv-x="483" d="M146 213Q183 229 217 249T277 294Q316 331 341 379T366 484Q366 501 362 507T350 513Q329 513 304 491T255 431T212 346T180 248T168 149Q168 92 190 72T249 52Q272 52 312 68T391 128L407 120Q386 87
351 56T269 6T165 -14Q119 -14 82 2T22 49T0 127Q0 183 18 240T69 349T148 443T251 508T372 532Q420 532 453 512T486 448Q486 410 465 377T409 315T329 265T237 227T145 202L146 213Z" />
<glyph unicode="f" glyph-name="f" horiz-adv-x="348" d="M51 498L57 518H400L394 498H51ZM430 763Q415 763 403 759T379 745Q368 735 359 718T341 677T324 621L111 -174Q63 -175 25 -178T-51 -188L135 506Q158 593 187 649T259 737Q289 760 325 771T404 782Q473
782 511 754T549 678Q549 656 537 634T502 598T449 584Q416 584 397 600T377 646Q377 681 399 710T460 753Q454 758 447 760T430 763Z" />
<glyph unicode="g" glyph-name="g" horiz-adv-x="479" d="M226 227L279 233Q238 217 210 204T167 180T152 158Q152 150 162 144T192 131L279 100Q307 90 333 76T376 40T393 -15Q393 -56 367 -88T295 -143T196 -177T84 -189Q34 -189 -9 -180T-78 -153T-105 -113Q-105
-93 -86 -78T-36 -53T28 -38T92 -32L94 -47Q61 -65 48 -84T34 -121Q34 -146 53 -159T106 -172Q132 -172 160 -165T213 -145T253 -113T269 -74Q269 -54 254 -47T214 -32L75 10Q50 18 32 34T13 77Q13 107 39 130T114 177T226 227ZM266 513Q252 513 239 500T216 465T198
414T187 355T183 292Q183 259 189 247T209 234Q229 234 244 253T271 305T287 376T292 454Q292 477 288 495T266 513ZM288 531Q356 531 400 505T445 418Q445 370 414 323T326 246T190 216Q123 216 78 243T32 329Q32 363 49 398T98 464T178 513T288 531ZM369 478L349
485Q364 526 398 551T471 577Q504 577 521 559T538 512Q538 483 523 468T490 453Q474 453 460 465T441 503T453 568L459 561Q423 548 403 529T369 478Z" />
<glyph unicode="h" glyph-name="h" horiz-adv-x="581" d="M138 0H-21L177 667Q187 701 175 717T114 733L121 754Q197 755 256 765T371 795L138 0ZM162 144Q202 263 236 338T304 456T372 515T446 532Q496 532 518 512T540 457T528 381L429 85Q419 57 425 48T442
39Q453 39 468 51T500 110L519 162H538L513 89Q499 47 476 25T427 -5T374 -14Q324 -14 301 8T277 69T291 152L379 416Q384 433 386 447T386 468T373 476Q355 476 332 450T283 378T231 272T182 144T140 6L162 144Z" />
<glyph unicode="i" glyph-name="i" horiz-adv-x="329" d="M173 680Q174 728 206 753T285 778Q326 778 346 761T366 710Q365 668 333 641T253 614Q214 614 193 631T173 680ZM133 433Q149 479 123 479Q107 479 93 463T63 408L42 352H23L51 429Q65 468 86 490T136
522T195 532Q232 532 253 519T283 486T291 441T282 392L177 85Q169 59 173 49T190 39Q201 39 216 52T248 110L267 162H286L261 89Q246 48 224 26T175 -5T122 -14Q78 -14 53 5T24 61T38 152L133 433Z" />
<glyph unicode="j" glyph-name="j" horiz-adv-x="310" d="M-139 -188L-134 -169Q-89 -168 -53 -136T1 -30L130 433Q137 458 135 468T119 479Q103 479 89 463T61 408L40 352H21L48 429Q69 488 109 510T193 532Q242 532 263 511T285 457T276 392L192 87Q179 30 162
-11T121 -82T66 -136Q34 -159 -14 -173T-139 -188ZM167 678Q167 727 199 753T280 779Q319 779 340 763T361 714Q361 671 329 643T248 615Q209 615 188 631T167 678Z" />
<glyph unicode="k" glyph-name="k" horiz-adv-x="565" d="M138 0H-21L177 667Q187 701 175 717T114 733L121 754Q197 755 256 765T371 795L138 0ZM413 81Q408 56 412 48T426 39Q438 39 452 52T484 110L503 162H522L497 89Q482 47 458 25T404 -5T345 -14Q290 -14
269 17T259 108L277 182Q290 235 273 257T200 286V290Q246 293 290 290T369 272T420 227T426 147L413 81ZM446 513Q432 513 422 509T401 497Q384 483 374 457T353 402T326 346T283 303T212 287L202 286L204 297Q247 300 272 317T312 360T336 414T356 467T386 509Q402
522 419 527T450 532Q503 532 528 502T553 429Q553 401 541 380T508 347T461 335Q425 335 407 354T388 399Q389 435 412 461T466 502Q463 507 457 510T446 513Z" />
<glyph unicode="l" glyph-name="l" horiz-adv-x="308" d="M156 85Q148 60 154 50T172 39Q180 39 195 51T228 110L247 162H266L241 89Q226 47 203 25T154 -5T103 -14Q71 -14 49 -3T16 30T5 81T17 152L172 667Q182 701 170 717T109 733L116 754Q193 755 252 765T366
795L156 85Z" />
<glyph unicode="m" glyph-name="m" horiz-adv-x="871" d="M168 0H9L131 433Q135 448 135 458T133 473T119 479Q104 479 90 463T61 408L40 352H21L49 429Q63 468 84 490T133 522T188 532Q224 532 243 520T270 487T277 441T269 392L168 0ZM396 416Q401 431 403 443T404
461T391 468Q370 468 347 443T298 371T247 261T198 118L194 156Q235 293 274 375T362 495T473 532Q505 532 523 521T549 489T555 442T544 381L435 0H275L396 416ZM668 416Q677 441 677 454T665 468Q649 468 628 449T580 387T526 278T468 113L464 142Q498 260 530
335T597 454T668 514T745 532Q789 532 809 513T831 459T817 381L719 85Q709 56 715 48T732 39Q743 39 757 51T789 110L809 162H828L803 89Q789 47 766 25T717 -5T664 -14Q633 -14 611 -4T577 25Q565 46 565 77T581 152L668 416Z" />
<glyph unicode="n" glyph-name="n" horiz-adv-x="611" d="M168 0H9L131 433Q136 448 137 458T135 473T121 479Q104 479 91 464T61 408L40 352H21L49 429Q68 484 101 508T182 532Q219 532 240 520T270 486T277 441T270 392L168 0ZM196 156Q236 272 270 345T336
459T403 516T477 532Q526 532 548 512T571 457T558 381L459 85Q450 57 456 48T472 39Q483 39 498 51T530 110L549 162H568L543 89Q529 47 507 25T458 -5T405 -14Q375 -14 354 -5T320 21Q306 41 306 72T321 152L409 416Q415 433 417 446T416 468T403 476Q385 476
362 450T314 379T263 275T214 150T173 16L196 156Z" />
<glyph unicode="o" glyph-name="o" horiz-adv-x="543" d="M340 512Q320 512 296 484T247 409T203 304T171 185T159 68Q159 34 165 20T186 6Q205 6 229 32T276 104T320 207T352 327T365 448Q365 488 358 500T340 512ZM9 153Q9 200 22 252T61 353T127 443T222 508T345
532Q427 532 471 489T515 365Q515 318 502 266T463 165T397 75T302 10T179 -14Q97 -14 53 29T9 153Z" />
<glyph unicode="p" glyph-name="p" horiz-adv-x="594" d="M372 472Q354 472 334 451T293 391T255 304T224 202L243 302Q270 383 300 434T363 508T436 532Q502 532 534 491T567 373Q567 327 554 274T516 170T455 78T371 11T266 -14Q232 -14 205 -4T164 22L171 36Q180
26 190 22T213 17Q242 17 269 40T320 101T362 188T390 289T401 390Q401 441 393 456T372 472ZM196 655Q243 659 284 667T363 688L149 -71Q134 -126 154 -142T225 -160L219 -181Q194 -180 149 -179T53 -177Q10 -177 -33 -178T-98 -181L-92 -160Q-56 -160 -40 -147T-14
-98L196 655ZM7 348Q43 387 74 426T134 518T195 652L198 636Q177 567 150 514T89 418T18 335L7 348Z" />
<glyph unicode="q" glyph-name="q" horiz-adv-x="566" d="M399 -86Q389 -125 404 -141T460 -160L454 -181Q430 -180 385 -179T292 -177Q246 -177 201 -178T133 -181L139 -160Q188 -158 209 -141T240 -88L398 498Q434 494 475 505T554 532L569 525Q562 512 557
497T547 467L399 -86ZM200 54Q217 54 236 73T275 124T312 199T341 290L321 190Q294 117 266 73T205 7T136 -14Q70 -14 38 27T5 145Q5 191 20 244T63 348T130 440T218 507T322 532Q351 532 373 522T408 496L401 482Q392 492 382 496T358 501Q330 501 303 475T252
405T210 309T181 205T171 109Q171 78 178 66T200 54Z" />
<glyph unicode="r" glyph-name="r" horiz-adv-x="484" d="M168 0H9L131 433Q138 458 136 468T121 479Q104 479 90 464T61 408L40 352H21L49 429Q63 468 84 490T133 522T192 532Q225 532 243 520T269 486T277 441T270 392L168 0ZM424 511Q404 511 382 502T336 465T286
383T230 238T170 12L192 150Q223 263 248 336T299 453T355 514T424 532Q467 532 490 507T513 443Q513 413 500 387T463 345T409 329Q376 329 359 346T341 396Q341 423 354 446T389 486T437 508Q434 509 431 510T424 511Z" />
<glyph unicode="s" glyph-name="s" horiz-adv-x="433" d="M79 14Q87 10 95 9T116 7Q150 7 172 28T194 88Q194 122 179 157T137 234Q113 271 95 305T76 383Q76 426 98 459T162 512T266 532Q306 532 343 523T404 490T428 423Q428 405 421 386T400 354T362 341Q335
341 319 362T303 417Q303 446 313 469T334 505Q324 511 304 511Q269 511 250 490T230 429Q230 407 238 386T260 343T289 296Q321 243 335 208T349 137Q349 95 327 61T261 7T155 -14Q110 -14 70 -3T5 35T-20 108Q-20 141 -4 164T42 188Q70 188 86 165T103 105Q103
77 94 53T79 14Z" />
<glyph unicode="t" glyph-name="t" horiz-adv-x="359" d="M411 518L408 498H49L54 518H411ZM179 85Q172 62 179 51T201 39Q221 39 241 60T276 120L292 162H311L292 105Q272 47 233 17T137 -14Q89 -14 63 8T32 68T40 152L188 666Q237 667 276 670T352 680L179 85Z" />
<glyph unicode="u" glyph-name="u" horiz-adv-x="607" d="M392 352Q354 239 320 167T254 56T187 2T113 -14Q73 -14 50 3T23 54T35 137L132 433Q142 462 135 470T119 479Q108 479 93 467T61 408L42 356H23L48 429Q63 471 85 493T134 523T186 532Q231 532 255 513T284
458T270 366L182 102Q162 42 188 42Q206 42 229 68T277 139T328 245T377 372T419 508L392 352ZM458 85Q451 61 452 50T468 39Q484 39 498 54T528 110L549 166H568L540 89Q527 51 505 28T457 -4T402 -14Q370 -14 350 -4T320 23Q309 42 310 68T319 126L421 518Q467
519 508 522T584 532L458 85Z" />
<glyph unicode="v" glyph-name="v" horiz-adv-x="522" d="M465 313Q420 334 389 371T359 458Q359 493 378 512T430 532Q469 532 486 504T501 426Q500 370 487 309T448 190T383 87T292 14T173 -14Q115 -14 82 4T36 51T23 110Q24 173 60 237T160 364T303 490Q275
488 255 475T217 445T184 416T147 403Q131 403 119 411T92 420Q79 420 71 410T56 377L48 353H29L51 426Q69 489 94 511T145 533Q164 533 178 526T208 510T252 502Q264 502 282 505T320 520L330 539L351 529Q317 476 289 420T240 307T208 201T195 111Q195 72 205
54T241 35Q275 35 305 51T361 95T407 159T442 234T465 313Z" />
<glyph unicode="w" glyph-name="w" horiz-adv-x="678" d="M299 50Q270 22 230 4T136 -14Q91 -14 61 3T15 48T-1 111Q-1 158 25 202T98 293T209 388T346 493L347 490Q314 489 289 476T244 445T206 416T166 403Q147 403 136 411T110 420Q96 420 89 410T73 377L65
353H46L69 426Q88 488 113 508T164 528Q184 528 200 522T235 509T286 502Q299 502 318 505T361 520L372 539L393 529Q345 477 305 421T234 309T187 200T170 103Q170 70 181 52T219 34Q237 34 255 42T291 64L299 50ZM468 58Q498 58 521 74T561 117T589 178T605 250T609
323Q578 337 545 355T489 402T466 470Q466 492 481 512T530 532Q559 532 578 512T608 462T624 399T630 340Q632 291 624 241T599 146T553 64T488 7T403 -14Q369 -14 337 -2T285 40T265 123Q265 169 281 211T323 287T377 340T430 359Q449 359 457 348T467 322T470
295Q470 232 442 173T360 66L353 83Q396 123 421 179T447 290Q447 311 443 324T431 337Q418 337 405 314T384 254T375 175Q375 142 385 116T416 74T468 58Z" />
<glyph unicode="x" glyph-name="x" horiz-adv-x="578" d="M381 86Q386 60 394 50T415 40Q429 40 443 56T474 124L487 161H506L481 88Q467 45 444 23T393 -6T340 -14Q292 -14 259 7T220 86L180 432Q176 458 167 465T145 472Q136 472 127 467T109 446T87 394L74
357H55L80 430Q94 473 118 495T170 524T225 532Q276 532 306 510T344 421L381 86ZM418 458Q395 430 378 396T348 327T327 263Q327 263 317 263T307 264Q310 274 317 297T335 350T364 411T402 471Q429 507 458 519T515 532Q551 532 574 513T598 457Q598 422 575
399T515 376Q486 376 459 394T418 458ZM136 60Q171 103 194 157T231 255Q231 255 240 254T250 253Q243 226 230 190T197 116T153 47Q124 12 95 -1T39 -14Q0 -14 -22 5T-44 57Q-44 96 -19 119T40 142Q77 142 100 120T136 60Z" />
<glyph unicode="y" glyph-name="y" horiz-adv-x="483" d="M315 68L195 -69L113 432Q109 458 104 467T90 477Q79 477 71 465T46 408L26 356H7L32 429Q53 490 85 511T159 532Q202 532 230 509T267 418L315 68ZM70 -138Q117 -116 167 -77T271 30Q325 98 365 174T426
317Q399 332 377 353T341 401T328 457Q328 492 347 512T400 532Q438 532 455 507T472 438Q472 392 456 337T413 222T350 107T275 4Q238 -41 197 -76T111 -137T21 -177Q2 -183 -14 -185T-44 -188Q-80 -188 -100 -172T-120 -127Q-120 -99 -100 -80T-45 -60Q-11 -60
17 -80T70 -138Z" />
<glyph unicode="z" glyph-name="z" horiz-adv-x="470" d="M36 61Q60 71 83 87T129 118T171 144T212 155Q236 155 250 147T278 131T309 123Q325 123 332 132T340 153Q340 175 324 187T289 205L295 220Q351 208 377 181T403 110Q403 77 389 49T346 5T273 -12Q241
-12 216 -4T169 16T122 36T64 45Q38 45 17 36T-26 0H-57L441 464Q413 452 386 434T333 398T284 367T239 354Q215 354 200 362T173 378T144 386Q128 386 120 378T112 356Q112 337 125 326T163 304L157 289Q105 301 77 327T49 395Q49 428 65 458T116 507T201 526Q234
526 258 518T303 499T347 480T402 472Q432 472 453 482T494 517H524L36 61Z" />
<glyph unicode="{" glyph-name="braceleft" horiz-adv-x="380" d="M233 -188Q150 -189 105 -175T43 -132T29 -60T48 43Q65 110 73 154T81 227Q80 258 69 271T34 286H29L32 304H37Q69 307 90 328T131 402T174 547Q198 643 235 693T331 763T473 782L468 763Q444
763 427 757T396 729T368 664T336 547Q313 457 277 407T187 332T59 295Q120 282 157 263T211 215T226 144T210 43Q195 -18 188 -57T181 -119Q181 -150 195 -159T238 -169L233 -188Z" />
<glyph unicode="|" glyph-name="bar" horiz-adv-x="386" d="M255 858V-195H151V858H255Z" />
<glyph unicode="}" glyph-name="braceright" horiz-adv-x="379" d="M148 782Q230 783 275 770T338 727T351 654T333 551Q317 484 309 440T300 367Q301 336 312 323T347 308H352L349 290H344Q313 288 291 266T249 193T207 47Q184 -49 146 -99T51 -169T-92 -188L-87
-169Q-63 -169 -46 -163T-16 -135T12 -70T45 47Q68 138 104 188T194 262T322 299Q260 312 223 331T170 379T154 450T171 551Q186 612 193 651T200 713Q200 744 186 753T143 763L148 782Z" />
<glyph unicode="~" glyph-name="asciitilde" horiz-adv-x="644" d="M394 205Q356 205 327 217T273 244T220 271T159 283Q129 283 103 270T56 225L42 230Q73 309 129 355T255 401Q293 401 322 389T376 362T429 335T491 323Q520 323 546 336T593 381L607 376Q578
298 522 252T394 205Z" />
<glyph unicode="&#xa0;" glyph-name="uni00A0" horiz-adv-x="256" />
<glyph unicode="&#xa1;" glyph-name="exclamdown" horiz-adv-x="312" d="M166 316Q149 249 147 183T148 53T149 -72Q148 -127 118 -157T32 -188Q-3 -188 -24 -171T-45 -118Q-43 -79 -20 -32T35 71T98 189T148 319L166 316ZM114 432Q114 475 144 503T218 532Q253
532 272 516T292 467Q292 442 278 420T240 383T186 369Q152 369 133 385T114 432Z" />
<glyph unicode="&#xa2;" glyph-name="cent" horiz-adv-x="492" d="M385 708L146 -181H124L363 708H385ZM373 512Q336 512 301 481T237 397T193 279T176 145Q176 91 197 68T254 44Q284 44 316 62T380 128L400 120Q379 87 348 56T275 6T177 -14Q104 -14 56 24T8
142Q8 193 24 247T70 352T143 443T242 508T362 532Q420 532 453 503T487 432Q487 402 473 375T434 329T380 311Q355 311 336 327T317 375Q317 420 346 453T414 496Q406 504 397 508T373 512Z" />
<glyph unicode="&#xa3;" glyph-name="sterling" horiz-adv-x="688" d="M472 317L466 297H53L59 317H472ZM499 417L493 397H80L86 417H499ZM536 721Q510 721 490 712T455 685T427 639T405 575L358 395Q344 340 321 304T268 242T207 192T146 140T89 70Q136 114 188
140T294 167Q342 167 377 158T439 139T495 129Q512 129 523 137T535 163Q535 180 519 193T464 214L468 233Q502 228 533 215T585 178T605 119Q605 82 586 52T531 4T448 -14Q403 -14 369 -2T305 26T241 54T163 66Q142 66 123 64T82 54Q63 19 36 3T-17 -14Q-30 -14
-30 -4Q-30 12 -6 36T69 69Q86 103 103 145T140 258L188 439Q210 523 254 590T369 697T538 736Q596 736 628 707T661 637Q661 586 633 555T561 524Q526 524 505 542T483 596Q483 637 507 668T572 707Q568 713 559 717T536 721Z" />
<glyph unicode="&#xa4;" glyph-name="currency" horiz-adv-x="687" d="M243 300Q243 265 257 240T295 200T347 186Q376 186 399 200T437 239T451 300Q451 335 437 361T400 401T347 415Q319 415 295 401T257 362T243 300ZM79 138L142 201Q130 223 125 248T119 300Q119
327 125 351T142 398L79 462L183 566L246 503Q268 515 293 521T345 528Q372 528 397 522T444 503L508 566L612 462L548 399Q560 376 566 352T573 300Q573 273 567 248T548 200L612 137L508 33L444 97Q421 86 397 80T345 73Q290 73 246 97L183 34L79 138Z" />
<glyph unicode="&#xa5;" glyph-name="yen" horiz-adv-x="801" d="M585 217L580 197H129L134 217H585ZM607 297L602 277H151L156 297H607ZM428 106Q419 70 424 52T449 28T503 20L498 0Q478 1 447 1T379 2T310 3Q259 3 213 3T139 0L144 20Q178 22 197 28T227 52T247
106L316 380L391 317L472 336L506 416L428 106ZM744 704Q728 704 714 699T682 681Q655 661 617 608T539 470T467 270L305 265Q301 312 294 363T277 464T253 554T223 618T185 642Q167 642 156 628T140 595L121 538Q121 538 110 538T99 538L122 609Q143 673 185 697T277
722Q349 722 387 681T444 560T476 367Q508 462 548 536T632 661Q655 687 684 704T750 722Q800 722 828 694T855 625Q855 582 826 555T754 528Q717 528 696 546T675 596Q675 635 701 662T765 698Q761 701 756 702T744 704Z" />
<glyph unicode="&#xa6;" glyph-name="brokenbar" horiz-adv-x="389" d="M153 -195V326H257V-195H153ZM257 858V384H153V858H257Z" />
<glyph unicode="&#xa7;" glyph-name="section" horiz-adv-x="598" d="M518 745Q515 750 505 754T481 760T451 763Q418 763 388 749T340 708T321 640Q321 613 334 592T373 550T432 499Q472 466 501 439T547 384T563 324Q563 281 545 247T495 187T427 140T353 105L346
116Q365 129 380 142T407 172T422 214Q427 242 418 265T379 315T297 384Q251 421 219 451T171 510T155 573Q155 625 182 664T252 730T347 769T447 782Q469 782 496 779T550 766T594 738T612 691Q612 664 599 641T562 604T508 589Q476 589 459 605T442 648Q442 680
465 706T518 745ZM148 -169Q182 -169 211 -155T260 -114T279 -46Q279 -18 265 3T226 45T167 95Q128 128 98 155T52 210T36 270Q36 313 54 347T104 407T172 454T247 489L254 478Q235 466 217 449T187 411T175 363Q175 341 187 320T228 272T303 210Q349 174 380 144T428
84T444 21Q444 -31 417 -70T347 -136T252 -175T152 -188Q131 -188 103 -185T49 -172T5 -145T-12 -97Q-12 -71 1 -48T38 -10T91 5Q123 5 140 -10T157 -50Q157 -85 135 -111T81 -151Q85 -155 95 -159T119 -166T148 -169Z" />
<glyph unicode="&#xa8;" glyph-name="dieresis" horiz-adv-x="497" d="M157 675Q157 721 185 743T249 766Q286 766 302 746T319 694Q319 663 306 643T271 614T226 604Q190 604 174 623T157 675ZM390 675Q390 721 418 743T482 766Q518 766 535 746T552 694Q552
663 539 643T504 614T459 604Q422 604 406 623T390 675Z" />
<glyph unicode="&#xa9;" glyph-name="copyright" horiz-adv-x="906" d="M79 384Q79 467 110 539T195 665T322 751T477 782Q560 782 632 751T758 666T844 539T875 384Q875 302 844 230T759 103T632 17T477 -14Q395 -14 323 17T196 102T110 229T79 384ZM119 384Q119
308 147 242T224 126T338 47T477 18Q551 18 616 46T730 125T807 242T835 384Q835 460 807 526T730 642T616 721T477 750Q403 750 338 722T224 643T147 526T119 384ZM547 183Q563 183 584 190T628 218T673 281L690 275Q678 237 653 199T586 136T486 111Q420 111
367 138T281 226T249 383Q249 476 282 537T372 628T501 658Q545 658 587 645T658 603T687 529Q687 490 663 465T600 440Q560 440 538 463T515 523Q515 557 537 581T589 613Q580 621 563 627T526 633Q493 633 469 613T431 542T418 396Q418 314 437 267T486 202T547
183Z" />
<glyph unicode="&#xaa;" glyph-name="ordfeminine" horiz-adv-x="558" d="M480 456Q474 439 476 427T493 415Q506 415 516 424T534 453L543 478H562L551 446Q535 401 503 381T424 360Q392 360 371 371T343 411T351 490L414 713Q498 713 564 722L480 456ZM276 414Q291
414 307 432T339 481T369 549T390 627L378 548Q357 472 329 432T269 376T203 360Q153 360 127 384T100 457Q100 504 123 550T183 636T268 698T363 722Q381 722 396 713T406 667L399 651Q400 677 393 687T375 698Q358 698 337 678T297 625T266 550T253 466Q253 440
259 427T276 414Z" />
<glyph unicode="&#xab;" glyph-name="guillemotleft" horiz-adv-x="609" d="M385 532Q370 501 347 462T297 383T242 310T192 256Q206 236 219 204T243 133T260 56T268 -14H250Q201 59 145 125T17 248L21 264Q118 323 201 390T367 532H385ZM583 500Q571 472 552
437T510 367T464 303T422 256Q432 239 443 211T462 148T476 79T482 18H464Q418 81 368 140T254 248L258 264Q343 315 418 375T565 500H583Z" />
<glyph unicode="&#xac;" glyph-name="logicalnot" horiz-adv-x="641" d="M83 340L92 370H593L534 165H498L548 340H83Z" />
<glyph unicode="&#xad;" glyph-name="uni00AD" horiz-adv-x="506" />
<glyph unicode="&#xae;" glyph-name="registered" horiz-adv-x="681" d="M396 782Q454 782 504 761T593 701T653 612T675 503Q675 445 654 395T594 306T505 246T396 224Q338 224 288 245T199 305T139 394T117 503Q117 561 138 611T198 700T287 760T396 782ZM331
524Q365 524 379 523T401 521T420 517Q475 513 495 500T520 458L536 390Q538 379 541 375T550 370Q556 370 561 374L568 364Q560 356 546 351T513 346Q480 346 462 357T439 391L426 463Q422 482 416 491T391 505T333 509L331 524ZM396 750Q330 750 276 717T191
627T159 503Q159 436 190 380T276 290T396 256Q462 256 516 289T601 379T633 503Q633 571 602 627T516 716T396 750ZM409 676Q477 676 505 656T533 597Q533 581 522 563T479 530T387 512L326 509Q326 509 326 517T326 525H379Q411 525 426 543T442 593Q442 626
430 643T393 661Q380 661 376 656T371 634V404Q371 381 375 375T394 367V352Q381 352 364 352T327 353Q306 353 287 353T256 352V367Q270 369 274 375T279 404V623Q279 647 275 653T256 661V676Q267 675 286 675T323 675Q351 675 375 675T409 676Z" />
<glyph unicode="&#xaf;" glyph-name="overscore" horiz-adv-x="444" d="M507 712L501 687H157L163 712H507Z" />
<glyph unicode="&#xb0;" glyph-name="degree" horiz-adv-x="333" d="M261 820Q310 820 346 788T383 700Q383 644 347 612T261 579Q213 579 177 611T140 700Q140 756 176 788T261 820ZM261 598Q284 598 306 609T344 643T359 700Q359 733 344 755T307 789T261 801Q239
801 217 789T179 755T164 700Q164 666 179 644T216 610T261 598Z" />
<glyph unicode="&#xb1;" glyph-name="plusminus" horiz-adv-x="612" d="M-28 0L-19 30H482L473 0H-28ZM80 370H313L380 606H416L349 370H581L572 340H340L273 105H237L304 340H71L80 370Z" />
<glyph unicode="&#xb2;" glyph-name="uni00B2" horiz-adv-x="361" d="M304 754Q345 754 371 741T398 698Q398 671 377 646T325 600T259 559T201 522Q218 522 240 518T284 509T323 504Q340 504 351 511T362 532Q362 542 358 550L375 557Q383 545 388 531T393 503Q393
474 371 454T300 433Q266 433 231 441T152 451Q128 452 113 450T74 437L78 455Q93 466 119 483T174 523T230 570T274 621T291 675Q291 697 278 706T243 715Q219 715 194 704T146 668L132 679Q157 708 200 731T304 754Z" />
<glyph unicode="&#xb3;" glyph-name="uni00B3" horiz-adv-x="344" d="M308 754Q350 754 377 741T404 700Q404 679 388 660T345 627T289 602T233 586Q294 585 334 569T374 512Q374 475 341 446T257 396T147 363T36 348V366Q76 369 116 380T191 411T245 458T266
520Q266 547 255 558T227 572Q216 566 208 564T195 562Q189 562 183 565T177 575Q177 585 189 589T221 592Q255 607 276 630T298 679Q298 698 286 707T256 717Q232 717 206 706T151 667L137 679Q152 696 178 713T237 742T308 754Z" />
<glyph unicode="&#xb4;" glyph-name="acute" horiz-adv-x="302" d="M137 609Q173 662 193 701T230 770T270 822Q289 842 318 848T370 832Q391 813 385 788T354 739Q334 718 305 700T237 659T147 599L137 609Z" />
<glyph unicode="&#xb6;" glyph-name="paragraph" horiz-adv-x="731" d="M411 329Q394 250 386 187T376 86T377 48Q377 48 385 80T408 167T440 285T475 415T506 534T530 621T540 656Q537 656 525 634T496 573T460 482T423 374Q348 374 285 370T185 360T147 351Q147
348 181 343T276 333T411 329ZM359 -13Q244 -13 174 17T73 102T41 229Q41 328 77 415T177 568T327 671T512 709Q565 709 611 708T702 706Q728 706 756 706T810 708L805 689Q756 687 738 671T710 621L566 71Q547 -5 509 -63T407 -154T247 -188Q206 -188 171 -180T116
-154T95 -106Q95 -71 119 -48T190 -24Q227 -24 252 -40T277 -89Q277 -115 262 -135T218 -169Q226 -170 232 -170T244 -171Q273 -171 293 -154T328 -101T359 -13Z" />
<glyph unicode="&#xb7;" glyph-name="middot" horiz-adv-x="300" d="M54 250Q54 294 84 322T158 350Q193 350 212 334T232 285Q232 260 218 238T180 201T126 187Q92 187 73 203T54 250Z" />
<glyph unicode="&#xb8;" glyph-name="cedilla" horiz-adv-x="355" d="M136 0L90 -68Q102 -63 117 -60T147 -57Q175 -57 194 -67T214 -99Q214 -132 187 -151T119 -179T36 -188Q4 -188 -20 -182T-57 -169L-50 -153Q-43 -156 -27 -160T10 -164Q22 -164 41 -161T75
-148T90 -120Q90 -97 62 -97Q57 -97 48 -98T31 -104L108 0H136Z" />
<glyph unicode="&#xb9;" glyph-name="uni00B9" horiz-adv-x="273" d="M342 753L241 437H134L209 666Q186 657 163 649T105 634L110 653Q166 668 204 684T271 719T323 753H342Z" />
<glyph unicode="&#xba;" glyph-name="ordmasculine" horiz-adv-x="518" d="M368 704Q346 704 325 680T287 615T260 529T249 437Q249 379 281 379Q302 379 323 403T361 467T389 554T400 646Q400 704 368 704ZM105 489Q105 522 122 562T172 638T256 698T373 722Q450
722 497 691T544 593Q544 560 527 520T476 444T393 384T276 361Q198 361 152 392T105 489Z" />
<glyph unicode="&#xbb;" glyph-name="guillemotright" horiz-adv-x="608" d="M340 532Q390 459 446 393T574 269L570 253Q473 195 389 128T223 -14H205Q220 18 243 57T293 135T348 208T397 261Q383 281 371 313T347 385T330 462T322 532H340ZM126 500Q172 437
222 378T336 269L332 253Q247 203 172 143T26 18H8Q20 46 39 80T81 150T126 214T168 261Q157 278 147 307T128 370T114 438T108 500H126Z" />
<glyph unicode="&#xbc;" glyph-name="onequarter" horiz-adv-x="688" d="M720 824L735 811L-98 -55L-113 -42L720 824ZM342 753L241 437H134L209 666Q186 657 163 649T105 634L110 653Q166 668 204 684T271 719T323 753H342ZM487 317L492 296L181 31L208 65H484L464
0H134L139 18L487 317ZM506 317L389 -85H305L395 225L487 317H506Z" />
<glyph unicode="&#xbd;" glyph-name="onehalf" horiz-adv-x="626" d="M720 824L735 811L-98 -55L-113 -42L720 824ZM342 753L241 437H134L209 666Q186 657 163 649T105 634L110 653Q166 668 204 684T271 719T323 753H342ZM471 317Q512 317 538 304T565 261Q565
234 544 209T492 163T426 122T368 85Q385 85 407 81T451 72T490 67Q507 67 518 74T529 95Q529 105 525 113L542 120Q550 108 555 94T560 66Q560 37 538 17T467 -4Q433 -4 398 4T319 14Q295 15 280 13T241 0L245 18Q260 29 286 46T341 86T397 133T441 184T458 238Q458
260 445 269T410 278Q386 278 361 267T313 231L299 242Q324 271 367 294T471 317Z" />
<glyph unicode="&#xbe;" glyph-name="threequarters" horiz-adv-x="764" d="M820 824L835 811L2 -55L-13 -42L820 824ZM308 754Q350 754 377 741T404 700Q404 679 388 660T345 627T289 602T233 586Q294 585 334 569T374 512Q374 475 341 446T257 396T147 363T36
348V366Q76 369 116 380T191 411T245 458T266 520Q266 547 255 558T227 572Q216 566 208 564T195 562Q189 562 183 565T177 575Q177 585 189 589T221 592Q255 607 276 630T298 679Q298 698 286 707T256 717Q232 717 206 706T151 667L137 679Q152 696 178 713T237
742T308 754ZM587 317L592 296L281 31L308 65H584L564 0H234L239 18L587 317ZM606 317L489 -85H405L495 225L587 317H606Z" />
<glyph unicode="&#xbf;" glyph-name="questiondown" horiz-adv-x="502" d="M208 -165Q218 -165 232 -163T260 -157T283 -148Q254 -144 233 -125T212 -76Q213 -45 237 -25T296 -5Q325 -5 347 -22T370 -74Q370 -106 350 -128T298 -164T228 -182T154 -188Q64 -188
10 -158T-45 -72Q-45 -42 -29 -18T22 33T108 94Q150 122 178 144T221 187T236 236Q236 259 222 277T171 295Q152 295 133 291T105 278Q125 277 143 261T162 218Q162 191 140 173T86 155Q59 155 41 169T23 212Q23 242 42 262T92 294T157 311T222 317Q273 317 314
305T380 269T404 211Q404 178 383 150T327 96T257 47Q190 2 158 -27T125 -96Q125 -130 148 -147T208 -165ZM212 432Q212 475 242 503T316 532Q351 532 370 516T390 467Q390 442 376 420T338 383T284 369Q250 369 231 385T212 432Z" />
<glyph unicode="&#xc0;" glyph-name="Agrave" horiz-adv-x="661" d="M54 137Q25 96 25 71T50 35T113 20L109 0Q62 2 31 2T-27 3Q-49 3 -63 3T-94 0L-90 20Q-71 25 -55 36T-20 71T28 133L440 713Q455 711 472 711T503 713L543 84Q546 48 561 35T592 20L588 0Q561
2 516 2T431 3Q383 3 340 3T271 0L275 20Q323 22 343 37T361 104L337 553L381 600L54 137ZM151 288H443L435 268H133L151 288ZM524 771Q470 792 433 801T371 817T323 836Q301 849 292 872T294 917Q308 942 335 946T383 939Q406 927 422 906T463 855T532 783L524
771Z" />
<glyph unicode="&#xc1;" glyph-name="Aacute" horiz-adv-x="661" d="M54 137Q25 96 25 71T50 35T113 20L109 0Q62 2 31 2T-27 3Q-49 3 -63 3T-94 0L-90 20Q-71 25 -55 36T-20 71T28 133L440 713Q455 711 472 711T503 713L543 84Q546 48 561 35T592 20L588 0Q561
2 516 2T431 3Q383 3 340 3T271 0L275 20Q323 22 343 37T361 104L337 553L381 600L54 137ZM151 288H443L435 268H133L151 288ZM457 784Q506 825 537 857T592 913T645 951Q661 960 680 962T717 958T745 932Q758 906 744 884T702 847Q677 833 644 824T567 804T464
772L457 784Z" />
<glyph unicode="&#xc2;" glyph-name="Acircumflex" horiz-adv-x="661" d="M54 137Q25 96 25 71T50 35T113 20L109 0Q62 2 31 2T-27 3Q-49 3 -63 3T-94 0L-90 20Q-71 25 -55 36T-20 71T28 133L440 713Q455 711 472 711T503 713L543 84Q546 48 561 35T592 20L588
0Q561 2 516 2T431 3Q383 3 340 3T271 0L275 20Q323 22 343 37T361 104L337 553L381 600L54 137ZM151 288H443L435 268H133L151 288ZM475 827Q431 811 374 797T254 770L249 784Q337 812 412 856T532 948H550Q571 893 601 854T689 784L685 770Q636 779 600 787T534
806T475 827Z" />
<glyph unicode="&#xc3;" glyph-name="Atilde" horiz-adv-x="661" d="M54 137Q25 96 25 71T50 35T113 20L109 0Q62 2 31 2T-27 3Q-49 3 -63 3T-94 0L-90 20Q-71 25 -55 36T-20 71T28 133L440 713Q455 711 472 711T503 713L543 84Q546 48 561 35T592 20L588 0Q561
2 516 2T431 3Q383 3 340 3T271 0L275 20Q323 22 343 37T361 104L337 553L381 600L54 137ZM151 288H443L435 268H133L151 288ZM443 937Q481 937 506 926T551 901T590 875T639 864Q661 864 680 877T718 922L736 917Q706 837 657 802T558 766Q520 766 495 777T451
802T411 828T363 839Q341 839 322 826T283 781L265 786Q296 867 345 902T443 937Z" />
<glyph unicode="&#xc4;" glyph-name="Adieresis" horiz-adv-x="661" d="M54 137Q25 96 25 71T50 35T113 20L109 0Q62 2 31 2T-27 3Q-49 3 -63 3T-94 0L-90 20Q-71 25 -55 36T-20 71T28 133L440 713Q455 711 472 711T503 713L543 84Q546 48 561 35T592 20L588 0Q561
2 516 2T431 3Q383 3 340 3T271 0L275 20Q323 22 343 37T361 104L337 553L381 600L54 137ZM151 288H443L435 268H133L151 288ZM283 835Q283 881 311 903T376 926Q412 926 429 906T446 854Q446 824 432 804T397 774T352 764Q316 764 300 783T283 835ZM532 835Q532
881 560 903T624 926Q661 926 677 906T694 854Q694 824 681 804T646 774T601 764Q565 764 549 783T532 835Z" />
<glyph unicode="&#xc5;" glyph-name="Aring" horiz-adv-x="661" d="M54 137Q25 96 25 71T50 35T113 20L109 0Q62 2 31 2T-27 3Q-49 3 -63 3T-94 0L-90 20Q-71 25 -55 36T-20 71T28 133L440 713Q455 711 472 711T503 713L543 84Q546 48 561 35T592 20L588 0Q561
2 516 2T431 3Q383 3 340 3T271 0L275 20Q323 22 343 37T361 104L337 553L381 600L54 137ZM151 288H443L435 268H133L151 288ZM501 941Q544 941 573 918T603 854Q603 823 585 798T538 757T474 742Q432 742 404 765T376 830Q376 861 392 886T437 926T501 941ZM479
763Q504 763 526 775T563 807T577 852Q577 887 551 903T497 920Q459 920 431 893T402 830Q402 797 426 780T479 763Z" />
<glyph unicode="&#xc6;" glyph-name="AE" horiz-adv-x="907" d="M601 773L32 94Q13 72 6 57T12 32T65 20V0Q52 2 28 2T-21 3Q-39 3 -57 3T-88 0V20Q-57 22 -2 84L575 773H601ZM228 346L247 366H727L723 346H228ZM656 366Q686 366 704 382T735 423T759 478H781Q768
439 762 414T747 356Q741 334 736 309T721 234H699Q699 251 702 270T704 305T692 333T652 346L656 366ZM519 106Q510 70 511 52T527 29T576 23H639Q687 23 718 40T773 95T818 200H840Q835 187 830 168T819 128Q814 109 806 74T793 0Q742 2 680 2T567 3Q541 3 502
3T415 3T321 2T231 0L235 20Q269 22 288 28T318 52T338 106L470 602Q480 639 478 656T461 680T411 688L416 708Q458 707 505 707T599 706T685 705T751 705Q797 705 854 705T958 708Q945 673 935 640T920 590Q915 572 912 556T907 528H885Q901 617 883 651T804 685H751Q718
685 700 680T671 657T651 602L519 106Z" />
<glyph unicode="&#xc7;" glyph-name="Ccedilla" horiz-adv-x="700" d="M757 708Q742 669 726 614T693 478H671Q680 528 680 567T663 635Q644 669 616 682T549 696Q500 696 455 671T371 599T305 493T260 362T244 218Q244 116 280 68T377 20Q412 20 450 36T517 82Q544
111 563 146T607 240H629Q604 149 591 94T570 0H548Q551 21 551 34Q551 55 543 59T518 51Q492 33 461 18T396 -5T320 -14Q176 -14 108 52T40 238Q40 309 63 378T130 510T235 620T372 695T533 722Q573 722 600 713T647 689T681 657Q694 641 707 653T736 708H757ZM342
6L313 -60Q326 -55 342 -52T372 -49Q405 -49 425 -61T445 -99Q445 -132 418 -151T351 -179T269 -188Q232 -188 202 -182T156 -169L163 -153Q171 -156 195 -160T243 -164Q259 -164 279 -161T314 -148T329 -120Q329 -97 299 -97Q294 -97 285 -98T266 -104L315 6H342Z"
/>
<glyph unicode="&#xc8;" glyph-name="Egrave" horiz-adv-x="632" d="M234 346L238 366H444L439 346H234ZM340 366Q365 366 387 376T427 403T458 440T480 482H502Q488 439 481 413T466 356Q462 337 458 321T450 285T439 230H417Q418 248 415 268T403 306T375 335T327
346L340 366ZM608 528Q611 587 599 621T561 670T493 685H476Q442 685 424 680T395 657T375 602L243 106Q234 70 235 52T251 29T300 23H325Q376 23 413 40T481 95T543 200H565Q560 187 555 168T544 128Q539 109 531 74T517 0Q466 2 404 2T291 3Q265 3 225 3T139
3T45 2T-45 0L-41 20Q-7 22 12 28T42 52T62 106L194 602Q204 639 202 656T185 680T135 688L140 708Q182 707 229 707T323 706T410 705T476 705Q521 705 578 705T681 708Q668 673 660 647T643 590Q639 572 636 556T630 528H608ZM482 771Q428 792 391 801T329 817T281
836Q259 849 250 872T252 917Q266 942 293 946T341 939Q364 927 380 906T421 855T490 783L482 771Z" />
<glyph unicode="&#xc9;" glyph-name="Eacute" horiz-adv-x="632" d="M234 346L238 366H444L439 346H234ZM340 366Q365 366 387 376T427 403T458 440T480 482H502Q488 439 481 413T466 356Q462 337 458 321T450 285T439 230H417Q418 248 415 268T403 306T375 335T327
346L340 366ZM608 528Q611 587 599 621T561 670T493 685H476Q442 685 424 680T395 657T375 602L243 106Q234 70 235 52T251 29T300 23H325Q376 23 413 40T481 95T543 200H565Q560 187 555 168T544 128Q539 109 531 74T517 0Q466 2 404 2T291 3Q265 3 225 3T139
3T45 2T-45 0L-41 20Q-7 22 12 28T42 52T62 106L194 602Q204 639 202 656T185 680T135 688L140 708Q182 707 229 707T323 706T410 705T476 705Q521 705 578 705T681 708Q668 673 660 647T643 590Q639 572 636 556T630 528H608ZM414 784Q463 825 494 857T549 913T602
951Q618 960 637 962T674 958T702 932Q715 906 701 884T659 847Q634 833 601 824T524 804T421 772L414 784Z" />
<glyph unicode="&#xca;" glyph-name="Ecircumflex" horiz-adv-x="632" d="M234 346L238 366H444L439 346H234ZM340 366Q365 366 387 376T427 403T458 440T480 482H502Q488 439 481 413T466 356Q462 337 458 321T450 285T439 230H417Q418 248 415 268T403 306T375
335T327 346L340 366ZM608 528Q611 587 599 621T561 670T493 685H476Q442 685 424 680T395 657T375 602L243 106Q234 70 235 52T251 29T300 23H325Q376 23 413 40T481 95T543 200H565Q560 187 555 168T544 128Q539 109 531 74T517 0Q466 2 404 2T291 3Q265 3 225
3T139 3T45 2T-45 0L-41 20Q-7 22 12 28T42 52T62 106L194 602Q204 639 202 656T185 680T135 688L140 708Q182 707 229 707T323 706T410 705T476 705Q521 705 578 705T681 708Q668 673 660 647T643 590Q639 572 636 556T630 528H608ZM433 827Q389 811 332 797T212
770L207 784Q295 812 370 856T490 948H508Q529 893 559 854T647 784L643 770Q594 779 558 787T492 806T433 827Z" />
<glyph unicode="&#xcb;" glyph-name="Edieresis" horiz-adv-x="632" d="M234 346L238 366H444L439 346H234ZM340 366Q365 366 387 376T427 403T458 440T480 482H502Q488 439 481 413T466 356Q462 337 458 321T450 285T439 230H417Q418 248 415 268T403 306T375
335T327 346L340 366ZM608 528Q611 587 599 621T561 670T493 685H476Q442 685 424 680T395 657T375 602L243 106Q234 70 235 52T251 29T300 23H325Q376 23 413 40T481 95T543 200H565Q560 187 555 168T544 128Q539 109 531 74T517 0Q466 2 404 2T291 3Q265 3 225
3T139 3T45 2T-45 0L-41 20Q-7 22 12 28T42 52T62 106L194 602Q204 639 202 656T185 680T135 688L140 708Q182 707 229 707T323 706T410 705T476 705Q521 705 578 705T681 708Q668 673 660 647T643 590Q639 572 636 556T630 528H608ZM241 835Q241 881 269 903T334
926Q370 926 387 906T404 854Q404 824 390 804T355 774T310 764Q274 764 258 783T241 835ZM490 835Q490 881 518 903T582 926Q619 926 635 906T652 854Q652 824 639 804T604 774T559 764Q523 764 507 783T490 835Z" />
<glyph unicode="&#xcc;" glyph-name="Igrave" horiz-adv-x="406" d="M243 106Q234 70 235 52T252 28T302 20L298 0Q268 2 220 2T123 3Q72 3 28 3T-44 0L-39 20Q-6 22 12 28T42 52T62 106L194 602Q204 639 202 656T185 680T135 688L140 708Q166 707 211 706T307
705Q356 705 402 706T483 708L478 688Q444 687 425 681T396 657T375 602L243 106ZM635 771Q581 792 544 801T482 817T434 836Q412 849 403 872T405 917Q419 942 446 946T494 939Q517 927 533 906T574 855T643 783L635 771Z" />
<glyph unicode="&#xcd;" glyph-name="Iacute" horiz-adv-x="406" d="M243 106Q234 70 235 52T252 28T302 20L298 0Q268 2 220 2T123 3Q72 3 28 3T-44 0L-39 20Q-6 22 12 28T42 52T62 106L194 602Q204 639 202 656T185 680T135 688L140 708Q166 707 211 706T307
705Q356 705 402 706T483 708L478 688Q444 687 425 681T396 657T375 602L243 106ZM312 784Q361 825 392 857T447 913T500 951Q516 960 535 962T572 958T600 932Q613 906 599 884T557 847Q532 833 499 824T422 804T319 772L312 784Z" />
<glyph unicode="&#xce;" glyph-name="Icircumflex" horiz-adv-x="406" d="M243 106Q234 70 235 52T252 28T302 20L298 0Q268 2 220 2T123 3Q72 3 28 3T-44 0L-39 20Q-6 22 12 28T42 52T62 106L194 602Q204 639 202 656T185 680T135 688L140 708Q166 707 211 706T307
705Q356 705 402 706T483 708L478 688Q444 687 425 681T396 657T375 602L243 106ZM586 827Q542 811 485 797T365 770L360 784Q448 812 523 856T643 948H661Q682 893 712 854T800 784L796 770Q747 779 711 787T645 806T586 827Z" />
<glyph unicode="&#xcf;" glyph-name="Idieresis" horiz-adv-x="406" d="M243 106Q234 70 235 52T252 28T302 20L298 0Q268 2 220 2T123 3Q72 3 28 3T-44 0L-39 20Q-6 22 12 28T42 52T62 106L194 602Q204 639 202 656T185 680T135 688L140 708Q166 707 211 706T307
705Q356 705 402 706T483 708L478 688Q444 687 425 681T396 657T375 602L243 106ZM394 835Q394 881 422 903T487 926Q523 926 540 906T557 854Q557 824 543 804T508 774T463 764Q427 764 411 783T394 835ZM643 835Q643 881 671 903T735 926Q772 926 788 906T805
854Q805 824 792 804T757 774T712 764Q676 764 660 783T643 835Z" />
<glyph unicode="&#xd0;" glyph-name="Eth" horiz-adv-x="787" d="M774 463Q774 401 756 336T699 211T602 103T462 28T274 0Q258 0 236 1T186 2T120 3Q97 3 66 3T7 2T-40 0L-37 20Q-5 22 13 28T43 52T63 106L194 602Q201 629 200 647T185 676T136 688L139 708Q158
707 188 706T253 705T317 705Q332 706 360 706T417 707T465 708Q611 708 692 647T774 463ZM278 18Q338 18 387 46T474 124T537 235T576 364T590 497Q590 591 556 640T445 690Q422 690 410 684T391 660T375 604L244 104Q235 71 233 53T240 26T278 18ZM709 622L703
597H275L281 622H709Z" />
<glyph unicode="&#xd1;" glyph-name="Ntilde" horiz-adv-x="843" d="M534 -5L273 517Q273 517 274 530T275 559T277 589T278 602Q286 639 284 656T264 680T207 688L212 708Q228 707 251 706T301 705Q348 705 382 708L600 247Q600 247 597 229T589 182T578 121T568
60T559 13T556 -5H534ZM842 736Q816 736 795 721T757 682Q711 614 663 443T556 -5L542 23Q557 90 574 167T610 323T650 472T693 599T739 690Q758 717 784 735T847 754Q897 754 925 726T953 658Q953 615 924 588T851 560Q815 560 794 578T773 627Q773 666 798 694T862
730Q859 733 854 734T842 736ZM29 -56Q57 -56 77 -41T114 -1Q143 45 172 143T232 380T294 685L311 664Q295 582 278 498T242 333T205 183T167 64T130 -11Q112 -35 88 -54T23 -74Q-26 -74 -54 -46T-82 22Q-82 65 -53 92T19 120Q56 120 77 102T98 53Q98 14 72 -13T8
-50Q12 -53 17 -54T29 -56ZM501 937Q539 937 564 926T609 901T648 875T697 864Q719 864 738 877T776 922L794 917Q764 837 715 802T616 766Q578 766 553 777T509 802T469 828T421 839Q399 839 380 826T341 781L323 786Q354 867 403 902T501 937Z" />
<glyph unicode="&#xd2;" glyph-name="Ograve" horiz-adv-x="793" d="M494 704Q454 704 416 677T344 601T285 490T246 356T232 213Q232 115 259 60T330 4Q370 4 408 31T480 107T539 218T578 352T592 495Q592 593 565 648T494 704ZM38 226Q38 292 59 362T121 496T218
611T347 692T503 722Q636 722 711 660T787 481Q787 415 766 346T704 212T606 97T477 16T321 -14Q188 -14 113 48T38 226ZM553 771Q499 792 462 801T400 817T352 836Q330 849 321 872T323 917Q337 942 364 946T412 939Q435 927 451 906T492 855T561 783L553 771Z"
/>
<glyph unicode="&#xd3;" glyph-name="Oacute" horiz-adv-x="793" d="M494 704Q454 704 416 677T344 601T285 490T246 356T232 213Q232 115 259 60T330 4Q370 4 408 31T480 107T539 218T578 352T592 495Q592 593 565 648T494 704ZM38 226Q38 292 59 362T121 496T218
611T347 692T503 722Q636 722 711 660T787 481Q787 415 766 346T704 212T606 97T477 16T321 -14Q188 -14 113 48T38 226ZM485 784Q534 825 565 857T620 913T673 951Q689 960 708 962T745 958T773 932Q786 906 772 884T730 847Q705 833 672 824T595 804T492 772L485
784Z" />
<glyph unicode="&#xd4;" glyph-name="Ocircumflex" horiz-adv-x="793" d="M494 704Q454 704 416 677T344 601T285 490T246 356T232 213Q232 115 259 60T330 4Q370 4 408 31T480 107T539 218T578 352T592 495Q592 593 565 648T494 704ZM38 226Q38 292 59 362T121
496T218 611T347 692T503 722Q636 722 711 660T787 481Q787 415 766 346T704 212T606 97T477 16T321 -14Q188 -14 113 48T38 226ZM504 827Q460 811 403 797T283 770L278 784Q366 812 441 856T561 948H579Q600 893 630 854T718 784L714 770Q665 779 629 787T563
806T504 827Z" />
<glyph unicode="&#xd5;" glyph-name="Otilde" horiz-adv-x="793" d="M494 704Q454 704 416 677T344 601T285 490T246 356T232 213Q232 115 259 60T330 4Q370 4 408 31T480 107T539 218T578 352T592 495Q592 593 565 648T494 704ZM38 226Q38 292 59 362T121 496T218
611T347 692T503 722Q636 722 711 660T787 481Q787 415 766 346T704 212T606 97T477 16T321 -14Q188 -14 113 48T38 226ZM472 937Q510 937 535 926T580 901T619 875T668 864Q690 864 709 877T747 922L765 917Q735 837 686 802T587 766Q549 766 524 777T480 802T440
828T392 839Q370 839 351 826T312 781L294 786Q325 867 374 902T472 937Z" />
<glyph unicode="&#xd6;" glyph-name="Odieresis" horiz-adv-x="793" d="M494 704Q454 704 416 677T344 601T285 490T246 356T232 213Q232 115 259 60T330 4Q370 4 408 31T480 107T539 218T578 352T592 495Q592 593 565 648T494 704ZM38 226Q38 292 59 362T121
496T218 611T347 692T503 722Q636 722 711 660T787 481Q787 415 766 346T704 212T606 97T477 16T321 -14Q188 -14 113 48T38 226ZM312 835Q312 881 340 903T405 926Q441 926 458 906T475 854Q475 824 461 804T426 774T381 764Q345 764 329 783T312 835ZM561 835Q561
881 589 903T653 926Q690 926 706 906T723 854Q723 824 710 804T675 774T630 764Q594 764 578 783T561 835Z" />
<glyph unicode="&#xd7;" glyph-name="multiply" horiz-adv-x="491" d="M16 182L239 355L114 530L140 548L263 373L490 550L506 528L279 352L404 179L379 161L255 334L31 160L16 182Z" />
<glyph unicode="&#xd8;" glyph-name="Oslash" horiz-adv-x="793" d="M494 704Q454 704 416 677T344 601T285 490T246 356T232 213Q232 115 259 60T330 4Q370 4 408 31T480 107T539 218T578 352T592 495Q592 593 565 648T494 704ZM38 226Q38 292 59 362T121 496T218
611T347 692T503 722Q636 722 711 660T787 481Q787 415 766 346T704 212T606 97T477 16T321 -14Q188 -14 113 48T38 226ZM660 632L795 773L810 760L670 612L660 632ZM164 75L20 -73L3 -59L150 93L164 75ZM186 96L645 632L655 612L199 78L186 96Z" />
<glyph unicode="&#xd9;" glyph-name="Ugrave" horiz-adv-x="698" d="M647 528Q663 589 665 621T650 668T589 688L595 708Q614 707 645 706T704 705Q727 705 750 706T790 708L784 688Q751 683 732 669T700 626T673 544L608 291Q572 153 510 79Q474 37 421 12T305
-14Q222 -14 171 10T96 73Q73 111 73 162T93 288L176 602Q186 639 184 656T167 680T117 688L123 708Q150 707 198 706T300 705Q347 705 389 706T465 708L459 688Q425 687 406 681T377 657T356 602L268 271Q251 206 246 159T247 81T274 36T324 21Q399 21 449 54T531
147T582 280L647 528ZM546 771Q492 792 455 801T393 817T345 836Q323 849 314 872T316 917Q330 942 357 946T405 939Q428 927 444 906T485 855T554 783L546 771Z" />
<glyph unicode="&#xda;" glyph-name="Uacute" horiz-adv-x="698" d="M647 528Q663 589 665 621T650 668T589 688L595 708Q614 707 645 706T704 705Q727 705 750 706T790 708L784 688Q751 683 732 669T700 626T673 544L608 291Q572 153 510 79Q474 37 421 12T305
-14Q222 -14 171 10T96 73Q73 111 73 162T93 288L176 602Q186 639 184 656T167 680T117 688L123 708Q150 707 198 706T300 705Q347 705 389 706T465 708L459 688Q425 687 406 681T377 657T356 602L268 271Q251 206 246 159T247 81T274 36T324 21Q399 21 449 54T531
147T582 280L647 528ZM479 784Q528 825 559 857T614 913T667 951Q683 960 702 962T739 958T767 932Q780 906 766 884T724 847Q699 833 666 824T589 804T486 772L479 784Z" />
<glyph unicode="&#xdb;" glyph-name="Ucircumflex" horiz-adv-x="698" d="M647 528Q663 589 665 621T650 668T589 688L595 708Q614 707 645 706T704 705Q727 705 750 706T790 708L784 688Q751 683 732 669T700 626T673 544L608 291Q572 153 510 79Q474 37 421
12T305 -14Q222 -14 171 10T96 73Q73 111 73 162T93 288L176 602Q186 639 184 656T167 680T117 688L123 708Q150 707 198 706T300 705Q347 705 389 706T465 708L459 688Q425 687 406 681T377 657T356 602L268 271Q251 206 246 159T247 81T274 36T324 21Q399 21
449 54T531 147T582 280L647 528ZM497 827Q453 811 396 797T276 770L271 784Q359 812 434 856T554 948H572Q593 893 623 854T711 784L707 770Q658 779 622 787T556 806T497 827Z" />
<glyph unicode="&#xdc;" glyph-name="Udieresis" horiz-adv-x="698" d="M647 528Q663 589 665 621T650 668T589 688L595 708Q614 707 645 706T704 705Q727 705 750 706T790 708L784 688Q751 683 732 669T700 626T673 544L608 291Q572 153 510 79Q474 37 421 12T305
-14Q222 -14 171 10T96 73Q73 111 73 162T93 288L176 602Q186 639 184 656T167 680T117 688L123 708Q150 707 198 706T300 705Q347 705 389 706T465 708L459 688Q425 687 406 681T377 657T356 602L268 271Q251 206 246 159T247 81T274 36T324 21Q399 21 449 54T531
147T582 280L647 528ZM305 835Q305 881 333 903T398 926Q434 926 451 906T468 854Q468 824 454 804T419 774T374 764Q338 764 322 783T305 835ZM554 835Q554 881 582 903T646 926Q683 926 699 906T716 854Q716 824 703 804T668 774T623 764Q587 764 571 783T554
835Z" />
<glyph unicode="&#xdd;" glyph-name="Yacute" horiz-adv-x="755" d="M407 106Q398 70 403 52T428 28T482 20L477 0Q457 1 426 1T358 2T289 3Q238 3 192 3T118 0L123 20Q157 22 176 28T206 52T226 106L295 380L370 317L451 336L485 416L407 106ZM723 704Q707 704
693 699T661 681Q634 661 596 608T518 470T446 270L284 265Q280 312 273 363T256 464T233 554T203 618T165 642Q146 642 136 628T119 595L100 538Q100 538 89 538T78 538L101 609Q123 673 164 697T256 722Q329 722 367 681T423 560T455 367Q487 462 527 536T611
661Q634 687 664 704T730 722Q779 722 807 694T834 625Q834 582 805 555T733 528Q696 528 675 546T654 596Q654 635 680 662T744 698Q740 701 735 702T723 704ZM470 784Q519 825 550 857T605 913T658 951Q674 960 693 962T730 958T758 932Q771 906 757 884T715
847Q690 833 657 824T580 804T477 772L470 784Z" />
<glyph unicode="&#xde;" glyph-name="Thorn" horiz-adv-x="679" d="M288 557Q324 557 360 558T434 559Q559 559 620 518T681 408Q681 330 628 269T478 172T256 136H216Q216 136 218 146T221 156H266Q324 156 366 178T436 239T478 325T492 424Q492 476 466 508T389
540Q364 540 349 539T321 537T288 534V557ZM243 106Q234 70 235 52T252 28T302 20L298 0Q268 2 220 2T123 3Q72 3 28 3T-44 0L-39 20Q-6 22 12 28T42 52T62 106L194 602Q204 639 202 656T185 680T135 688L140 708Q166 707 211 706T307 705Q356 705 402 706T483
708L478 688Q444 687 425 681T396 657T375 602L243 106Z" />
<glyph unicode="&#xdf;" glyph-name="germandbls" horiz-adv-x="628" d="M409 767Q374 767 352 732T310 627L99 -174Q54 -175 14 -178T-63 -188L123 513Q147 605 184 664T280 753T429 782Q503 782 547 768T611 731T631 683Q631 655 616 634T573 592T510 549T436
494Q411 474 399 461T384 439T381 422Q381 397 397 375T436 333T483 291Q509 267 530 246T562 202T574 149Q574 94 543 58T462 4T354 -14Q309 -14 277 0T228 41T211 100Q211 133 228 157T276 182Q296 182 310 170T332 138T340 92Q340 70 333 47T311 9Q314 8 318
7T330 6Q358 6 376 32T394 101Q394 135 387 163T365 225Q354 255 340 292T325 364Q325 395 337 415T370 456T417 502Q452 539 465 585T478 675Q478 726 457 746T409 767Z" />
<glyph unicode="&#xe0;" glyph-name="agrave" horiz-adv-x="570" d="M190 47Q202 47 217 59T248 98T281 165T314 264L289 156Q269 92 242 55T183 2T114 -14Q54 -14 25 19T-4 110Q-4 166 15 225T66 339T139 437T224 506T312 532Q345 532 362 509T374 433L363 427Q368
458 362 473T339 489Q320 489 297 467T251 406T208 318T176 213T164 105Q164 74 170 61T190 47ZM388 517Q437 518 475 521T551 532L418 85Q414 71 414 61T417 45T431 39Q442 39 457 52T489 110L508 162H527L502 89Q488 48 465 26T416 -5T364 -14Q308 -14 284 19Q269
41 269 74T282 152L388 517ZM380 599Q341 646 312 673T262 719T228 760Q214 783 218 807T243 844Q266 859 292 850T331 820Q346 798 351 771T364 705T392 606L380 599Z" />
<glyph unicode="&#xe1;" glyph-name="aacute" horiz-adv-x="570" d="M190 47Q202 47 217 59T248 98T281 165T314 264L289 156Q269 92 242 55T183 2T114 -14Q54 -14 25 19T-4 110Q-4 166 15 225T66 339T139 437T224 506T312 532Q345 532 362 509T374 433L363 427Q368
458 362 473T339 489Q320 489 297 467T251 406T208 318T176 213T164 105Q164 74 170 61T190 47ZM388 517Q437 518 475 521T551 532L418 85Q414 71 414 61T417 45T431 39Q442 39 457 52T489 110L508 162H527L502 89Q488 48 465 26T416 -5T364 -14Q308 -14 284 19Q269
41 269 74T282 152L388 517ZM321 609Q357 662 377 701T414 770T454 822Q473 842 502 848T554 832Q575 813 569 788T538 739Q518 718 489 700T421 659T331 599L321 609Z" />
<glyph unicode="&#xe2;" glyph-name="acircumflex" horiz-adv-x="570" d="M190 47Q202 47 217 59T248 98T281 165T314 264L289 156Q269 92 242 55T183 2T114 -14Q54 -14 25 19T-4 110Q-4 166 15 225T66 339T139 437T224 506T312 532Q345 532 362 509T374 433L363
427Q368 458 362 473T339 489Q320 489 297 467T251 406T208 318T176 213T164 105Q164 74 170 61T190 47ZM388 517Q437 518 475 521T551 532L418 85Q414 71 414 61T417 45T431 39Q442 39 457 52T489 110L508 162H527L502 89Q488 48 465 26T416 -5T364 -14Q308 -14
284 19Q269 41 269 74T282 152L388 517ZM366 672Q329 654 282 638T183 608L178 622Q254 656 319 711T425 826H443Q458 755 484 707T562 622L558 608Q492 621 448 636T366 672Z" />
<glyph unicode="&#xe3;" glyph-name="atilde" horiz-adv-x="570" d="M190 47Q202 47 217 59T248 98T281 165T314 264L289 156Q269 92 242 55T183 2T114 -14Q54 -14 25 19T-4 110Q-4 166 15 225T66 339T139 437T224 506T312 532Q345 532 362 509T374 433L363 427Q368
458 362 473T339 489Q320 489 297 467T251 406T208 318T176 213T164 105Q164 74 170 61T190 47ZM388 517Q437 518 475 521T551 532L418 85Q414 71 414 61T417 45T431 39Q442 39 457 52T489 110L508 162H527L502 89Q488 48 465 26T416 -5T364 -14Q308 -14 284 19Q269
41 269 74T282 152L388 517ZM361 792Q391 792 410 781T445 756T475 730T512 719Q532 719 549 732T584 777L602 772Q574 691 529 656T440 621Q410 621 391 632T356 657T326 683T288 694Q269 694 252 681T217 636L199 641Q226 722 271 757T361 792Z" />
<glyph unicode="&#xe4;" glyph-name="adieresis" horiz-adv-x="570" d="M190 47Q202 47 217 59T248 98T281 165T314 264L289 156Q269 92 242 55T183 2T114 -14Q54 -14 25 19T-4 110Q-4 166 15 225T66 339T139 437T224 506T312 532Q345 532 362 509T374 433L363
427Q368 458 362 473T339 489Q320 489 297 467T251 406T208 318T176 213T164 105Q164 74 170 61T190 47ZM388 517Q437 518 475 521T551 532L418 85Q414 71 414 61T417 45T431 39Q442 39 457 52T489 110L508 162H527L502 89Q488 48 465 26T416 -5T364 -14Q308 -14
284 19Q269 41 269 74T282 152L388 517ZM204 675Q204 721 232 743T296 766Q333 766 349 746T366 694Q366 663 353 643T318 614T273 604Q237 604 221 623T204 675ZM437 675Q437 721 465 743T529 766Q565 766 582 746T599 694Q599 663 586 643T551 614T506 604Q469
604 453 623T437 675Z" />
<glyph unicode="&#xe5;" glyph-name="aring" horiz-adv-x="570" d="M190 47Q202 47 217 59T248 98T281 165T314 264L289 156Q269 92 242 55T183 2T114 -14Q54 -14 25 19T-4 110Q-4 166 15 225T66 339T139 437T224 506T312 532Q345 532 362 509T374 433L363 427Q368
458 362 473T339 489Q320 489 297 467T251 406T208 318T176 213T164 105Q164 74 170 61T190 47ZM388 517Q437 518 475 521T551 532L418 85Q414 71 414 61T417 45T431 39Q442 39 457 52T489 110L508 162H527L502 89Q488 48 465 26T416 -5T364 -14Q308 -14 284 19Q269
41 269 74T282 152L388 517ZM418 799Q461 799 490 776T520 712Q520 681 502 656T455 615T391 600Q350 600 322 623T293 688Q293 719 309 744T354 784T418 799ZM396 621Q421 621 443 633T480 665T494 710Q494 745 469 761T415 778Q377 778 349 751T320 688Q320 655
344 638T396 621Z" />
<glyph unicode="&#xe6;" glyph-name="ae" horiz-adv-x="760" d="M423 213Q458 228 492 245T553 284Q595 322 619 373T643 484Q643 513 623 513Q602 513 578 491T531 431T488 346T457 248T445 149Q445 92 467 72T526 52Q549 52 588 68T668 128L684 120Q663 87 628
56T546 6T442 -14Q396 -14 359 2T299 49T277 127Q277 183 295 240T345 349T423 443T525 508T645 532Q695 532 729 511T763 446Q763 408 742 375T686 314T606 265T514 227T422 202L423 213ZM207 47Q221 47 235 52T264 72T295 109L300 94Q266 40 216 13T110 -14Q49
-14 20 18T-9 108Q-9 163 14 220T78 329T171 423T282 489T399 514Q414 514 431 510T462 494T482 456L468 447Q464 470 449 478T420 487Q388 487 352 467T282 410T220 326T176 224T159 111Q159 77 173 62T207 47Z" />
<glyph unicode="&#xe7;" glyph-name="ccedilla" horiz-adv-x="474" d="M370 512Q333 512 298 481T234 397T190 279T173 145Q173 91 194 68T251 44Q282 44 313 62T377 128L397 120Q377 87 346 56T272 6T174 -14Q101 -14 53 24T5 142Q5 193 21 247T67 352T141 443T239
508T359 532Q418 532 451 503T485 432Q485 402 471 375T432 329T377 311Q352 311 333 327T314 375Q314 420 343 453T411 496Q403 504 394 508T370 512ZM189 0L143 -68Q155 -63 170 -60T200 -57Q228 -57 247 -67T267 -99Q267 -132 240 -151T172 -179T89 -188Q57
-188 33 -182T-4 -169L3 -153Q10 -156 26 -160T63 -164Q75 -164 94 -161T128 -148T143 -120Q143 -97 115 -97Q110 -97 101 -98T84 -104L161 0H189Z" />
<glyph unicode="&#xe8;" glyph-name="egrave" horiz-adv-x="483" d="M146 213Q183 229 217 249T277 294Q316 331 341 379T366 484Q366 501 362 507T350 513Q329 513 304 491T255 431T212 346T180 248T168 149Q168 92 190 72T249 52Q272 52 312 68T391 128L407
120Q386 87 351 56T269 6T165 -14Q119 -14 82 2T22 49T0 127Q0 183 18 240T69 349T148 443T251 508T372 532Q420 532 453 512T486 448Q486 410 465 377T409 315T329 265T237 227T145 202L146 213ZM359 599Q320 646 291 673T241 719T207 760Q193 783 197 807T222
844Q245 859 271 850T310 820Q325 798 330 771T343 705T371 606L359 599Z" />
<glyph unicode="&#xe9;" glyph-name="eacute" horiz-adv-x="483" d="M146 213Q183 229 217 249T277 294Q316 331 341 379T366 484Q366 501 362 507T350 513Q329 513 304 491T255 431T212 346T180 248T168 149Q168 92 190 72T249 52Q272 52 312 68T391 128L407
120Q386 87 351 56T269 6T165 -14Q119 -14 82 2T22 49T0 127Q0 183 18 240T69 349T148 443T251 508T372 532Q420 532 453 512T486 448Q486 410 465 377T409 315T329 265T237 227T145 202L146 213ZM299 609Q335 662 355 701T392 770T432 822Q451 842 480 848T532
832Q553 813 547 788T516 739Q496 718 467 700T399 659T309 599L299 609Z" />
<glyph unicode="&#xea;" glyph-name="ecircumflex" horiz-adv-x="483" d="M146 213Q183 229 217 249T277 294Q316 331 341 379T366 484Q366 501 362 507T350 513Q329 513 304 491T255 431T212 346T180 248T168 149Q168 92 190 72T249 52Q272 52 312 68T391 128L407
120Q386 87 351 56T269 6T165 -14Q119 -14 82 2T22 49T0 127Q0 183 18 240T69 349T148 443T251 508T372 532Q420 532 453 512T486 448Q486 410 465 377T409 315T329 265T237 227T145 202L146 213ZM344 672Q307 654 260 638T161 608L156 622Q232 656 297 711T403
826H421Q436 755 462 707T540 622L536 608Q470 621 426 636T344 672Z" />
<glyph unicode="&#xeb;" glyph-name="edieresis" horiz-adv-x="483" d="M146 213Q183 229 217 249T277 294Q316 331 341 379T366 484Q366 501 362 507T350 513Q329 513 304 491T255 431T212 346T180 248T168 149Q168 92 190 72T249 52Q272 52 312 68T391 128L407
120Q386 87 351 56T269 6T165 -14Q119 -14 82 2T22 49T0 127Q0 183 18 240T69 349T148 443T251 508T372 532Q420 532 453 512T486 448Q486 410 465 377T409 315T329 265T237 227T145 202L146 213ZM182 675Q182 721 210 743T274 766Q311 766 327 746T344 694Q344
663 331 643T296 614T251 604Q215 604 199 623T182 675ZM415 675Q415 721 443 743T507 766Q543 766 560 746T577 694Q577 663 564 643T529 614T484 604Q447 604 431 623T415 675Z" />
<glyph unicode="&#xec;" glyph-name="igrave" horiz-adv-x="328" d="M132 433Q148 479 122 479Q106 479 92 463T63 408L41 352H22L50 429Q64 468 85 490T135 522T194 532Q231 532 252 519T282 486T290 441T281 392L176 85Q168 59 172 49T189 39Q200 39 215 52T247
110L267 162H286L260 89Q246 48 224 26T175 -5T121 -14Q78 -14 53 5T24 61T37 152L132 433ZM483 599Q444 646 415 673T365 719T331 760Q317 783 321 807T346 844Q369 859 395 850T434 820Q449 798 454 771T467 705T495 606L483 599Z" />
<glyph unicode="&#xed;" glyph-name="iacute" horiz-adv-x="328" d="M132 433Q148 479 122 479Q106 479 92 463T63 408L41 352H22L50 429Q64 468 85 490T135 522T194 532Q231 532 252 519T282 486T290 441T281 392L176 85Q168 59 172 49T189 39Q200 39 215 52T247
110L267 162H286L260 89Q246 48 224 26T175 -5T121 -14Q78 -14 53 5T24 61T37 152L132 433ZM168 609Q204 662 224 701T261 770T301 822Q320 842 349 848T401 832Q422 813 416 788T385 739Q365 718 336 700T268 659T178 599L168 609Z" />
<glyph unicode="&#xee;" glyph-name="icircumflex" horiz-adv-x="328" d="M132 433Q148 479 122 479Q106 479 92 463T63 408L41 352H22L50 429Q64 468 85 490T135 522T194 532Q231 532 252 519T282 486T290 441T281 392L176 85Q168 59 172 49T189 39Q200 39 215
52T247 110L267 162H286L260 89Q246 48 224 26T175 -5T121 -14Q78 -14 53 5T24 61T37 152L132 433ZM468 672Q431 654 384 638T285 608L280 622Q356 656 421 711T527 826H545Q560 755 586 707T664 622L660 608Q594 621 550 636T468 672Z" />
<glyph unicode="&#xef;" glyph-name="idieresis" horiz-adv-x="328" d="M132 433Q148 479 122 479Q106 479 92 463T63 408L41 352H22L50 429Q64 468 85 490T135 522T194 532Q231 532 252 519T282 486T290 441T281 392L176 85Q168 59 172 49T189 39Q200 39 215
52T247 110L267 162H286L260 89Q246 48 224 26T175 -5T121 -14Q78 -14 53 5T24 61T37 152L132 433ZM306 675Q306 721 334 743T398 766Q435 766 451 746T468 694Q468 663 455 643T420 614T375 604Q339 604 323 623T306 675ZM539 675Q539 721 567 743T631 766Q667
766 684 746T701 694Q701 663 688 643T653 614T608 604Q571 604 555 623T539 675Z" />
<glyph unicode="&#xf0;" glyph-name="eth" horiz-adv-x="542" d="M339 684L511 760L517 742L353 670L339 684ZM353 669L134 572L128 590L339 683L353 669ZM349 421Q349 506 331 571T276 683T185 765L197 782Q290 752 361 695T474 560T515 389Q515 333 502 276T461
166T393 74T299 10T179 -14Q131 -14 93 2T32 55T9 154Q9 200 22 251T60 351T122 440T205 504T309 528Q337 528 353 520T387 494L380 482Q371 495 354 501T321 508Q293 508 270 480T230 405T200 301T181 184T175 72Q175 31 181 19T202 6Q226 6 247 32T288 102T320
200T341 311T349 421Z" />
<glyph unicode="&#xf1;" glyph-name="ntilde" horiz-adv-x="611" d="M168 0H9L131 433Q136 448 137 458T135 473T121 479Q104 479 91 464T61 408L40 352H21L49 429Q68 484 101 508T182 532Q219 532 240 520T270 486T277 441T270 392L168 0ZM196 156Q236 272 270
345T336 459T403 516T477 532Q526 532 548 512T571 457T558 381L459 85Q450 57 456 48T472 39Q483 39 498 51T530 110L549 162H568L543 89Q529 47 507 25T458 -5T405 -14Q375 -14 354 -5T320 21Q306 41 306 72T321 152L409 416Q415 433 417 446T416 468T403 476Q385
476 362 450T314 379T263 275T214 150T173 16L196 156ZM352 792Q382 792 401 781T436 756T466 730T503 719Q523 719 540 732T575 777L593 772Q565 691 520 656T431 621Q401 621 382 632T347 657T317 683T279 694Q260 694 243 681T208 636L190 641Q217 722 262 757T352
792Z" />
<glyph unicode="&#xf2;" glyph-name="ograve" horiz-adv-x="543" d="M340 512Q320 512 296 484T247 409T203 304T171 185T159 68Q159 34 165 20T186 6Q205 6 229 32T276 104T320 207T352 327T365 448Q365 488 358 500T340 512ZM9 153Q9 200 22 252T61 353T127
443T222 508T345 532Q427 532 471 489T515 365Q515 318 502 266T463 165T397 75T302 10T179 -14Q97 -14 53 29T9 153ZM368 599Q329 646 300 673T250 719T216 760Q202 783 206 807T231 844Q254 859 280 850T319 820Q334 798 339 771T352 705T380 606L368 599Z" />
<glyph unicode="&#xf3;" glyph-name="oacute" horiz-adv-x="543" d="M340 512Q320 512 296 484T247 409T203 304T171 185T159 68Q159 34 165 20T186 6Q205 6 229 32T276 104T320 207T352 327T365 448Q365 488 358 500T340 512ZM9 153Q9 200 22 252T61 353T127
443T222 508T345 532Q427 532 471 489T515 365Q515 318 502 266T463 165T397 75T302 10T179 -14Q97 -14 53 29T9 153ZM309 609Q345 662 365 701T402 770T442 822Q461 842 490 848T542 832Q563 813 557 788T526 739Q506 718 477 700T409 659T319 599L309 609Z" />
<glyph unicode="&#xf4;" glyph-name="ocircumflex" horiz-adv-x="543" d="M340 512Q320 512 296 484T247 409T203 304T171 185T159 68Q159 34 165 20T186 6Q205 6 229 32T276 104T320 207T352 327T365 448Q365 488 358 500T340 512ZM9 153Q9 200 22 252T61 353T127
443T222 508T345 532Q427 532 471 489T515 365Q515 318 502 266T463 165T397 75T302 10T179 -14Q97 -14 53 29T9 153ZM353 672Q316 654 269 638T170 608L165 622Q241 656 306 711T412 826H430Q445 755 471 707T549 622L545 608Q479 621 435 636T353 672Z" />
<glyph unicode="&#xf5;" glyph-name="otilde" horiz-adv-x="543" d="M340 512Q320 512 296 484T247 409T203 304T171 185T159 68Q159 34 165 20T186 6Q205 6 229 32T276 104T320 207T352 327T365 448Q365 488 358 500T340 512ZM9 153Q9 200 22 252T61 353T127
443T222 508T345 532Q427 532 471 489T515 365Q515 318 502 266T463 165T397 75T302 10T179 -14Q97 -14 53 29T9 153ZM348 792Q378 792 397 781T432 756T462 730T499 719Q519 719 536 732T571 777L589 772Q561 691 516 656T427 621Q397 621 378 632T343 657T313
683T275 694Q256 694 239 681T204 636L186 641Q213 722 258 757T348 792Z" />
<glyph unicode="&#xf6;" glyph-name="odieresis" horiz-adv-x="543" d="M340 512Q320 512 296 484T247 409T203 304T171 185T159 68Q159 34 165 20T186 6Q205 6 229 32T276 104T320 207T352 327T365 448Q365 488 358 500T340 512ZM9 153Q9 200 22 252T61 353T127
443T222 508T345 532Q427 532 471 489T515 365Q515 318 502 266T463 165T397 75T302 10T179 -14Q97 -14 53 29T9 153ZM191 675Q191 721 219 743T283 766Q320 766 336 746T353 694Q353 663 340 643T305 614T260 604Q224 604 208 623T191 675ZM424 675Q424 721 452
743T516 766Q552 766 569 746T586 694Q586 663 573 643T538 614T493 604Q456 604 440 623T424 675Z" />
<glyph unicode="&#xf7;" glyph-name="divide" horiz-adv-x="629" d="M336 499Q343 522 364 538T407 554Q430 554 442 538T447 499Q440 476 419 460T375 444Q353 444 341 460T336 499ZM253 211Q260 234 281 250T324 266Q347 266 359 250T364 211Q357 188 336 172T292
155Q270 155 258 171T253 211ZM75 340L84 370H585L576 340H75Z" />
<glyph unicode="&#xf8;" glyph-name="oslash" horiz-adv-x="543" d="M340 512Q320 512 296 484T247 409T203 304T171 185T159 68Q159 34 165 20T186 6Q205 6 229 32T276 104T320 207T352 327T365 448Q365 488 358 500T340 512ZM9 153Q9 200 22 252T61 353T127
443T222 508T345 532Q427 532 471 489T515 365Q515 318 502 266T463 165T397 75T302 10T179 -14Q97 -14 53 29T9 153ZM383 467L474 605L491 596L393 450L383 467ZM387 457L149 32L139 50L378 474L387 457ZM137 32L57 -86L41 -76L127 50L137 32Z" />
<glyph unicode="&#xf9;" glyph-name="ugrave" horiz-adv-x="607" d="M392 352Q354 239 320 167T254 56T187 2T113 -14Q73 -14 50 3T23 54T35 137L132 433Q142 462 135 470T119 479Q108 479 93 467T61 408L42 356H23L48 429Q63 471 85 493T134 523T186 532Q231
532 255 513T284 458T270 366L182 102Q162 42 188 42Q206 42 229 68T277 139T328 245T377 372T419 508L392 352ZM458 85Q451 61 452 50T468 39Q484 39 498 54T528 110L549 166H568L540 89Q527 51 505 28T457 -4T402 -14Q370 -14 350 -4T320 23Q309 42 310 68T319
126L421 518Q467 519 508 522T584 532L458 85ZM361 599Q322 646 293 673T243 719T209 760Q195 783 199 807T224 844Q247 859 273 850T312 820Q327 798 332 771T345 705T373 606L361 599Z" />
<glyph unicode="&#xfa;" glyph-name="uacute" horiz-adv-x="607" d="M392 352Q354 239 320 167T254 56T187 2T113 -14Q73 -14 50 3T23 54T35 137L132 433Q142 462 135 470T119 479Q108 479 93 467T61 408L42 356H23L48 429Q63 471 85 493T134 523T186 532Q231
532 255 513T284 458T270 366L182 102Q162 42 188 42Q206 42 229 68T277 139T328 245T377 372T419 508L392 352ZM458 85Q451 61 452 50T468 39Q484 39 498 54T528 110L549 166H568L540 89Q527 51 505 28T457 -4T402 -14Q370 -14 350 -4T320 23Q309 42 310 68T319
126L421 518Q467 519 508 522T584 532L458 85ZM301 609Q337 662 357 701T394 770T434 822Q453 842 482 848T534 832Q555 813 549 788T518 739Q498 718 469 700T401 659T311 599L301 609Z" />
<glyph unicode="&#xfb;" glyph-name="ucircumflex" horiz-adv-x="607" d="M392 352Q354 239 320 167T254 56T187 2T113 -14Q73 -14 50 3T23 54T35 137L132 433Q142 462 135 470T119 479Q108 479 93 467T61 408L42 356H23L48 429Q63 471 85 493T134 523T186 532Q231
532 255 513T284 458T270 366L182 102Q162 42 188 42Q206 42 229 68T277 139T328 245T377 372T419 508L392 352ZM458 85Q451 61 452 50T468 39Q484 39 498 54T528 110L549 166H568L540 89Q527 51 505 28T457 -4T402 -14Q370 -14 350 -4T320 23Q309 42 310 68T319
126L421 518Q467 519 508 522T584 532L458 85ZM346 672Q309 654 262 638T163 608L158 622Q234 656 299 711T405 826H423Q438 755 464 707T542 622L538 608Q472 621 428 636T346 672Z" />
<glyph unicode="&#xfc;" glyph-name="udieresis" horiz-adv-x="607" d="M392 352Q354 239 320 167T254 56T187 2T113 -14Q73 -14 50 3T23 54T35 137L132 433Q142 462 135 470T119 479Q108 479 93 467T61 408L42 356H23L48 429Q63 471 85 493T134 523T186 532Q231
532 255 513T284 458T270 366L182 102Q162 42 188 42Q206 42 229 68T277 139T328 245T377 372T419 508L392 352ZM458 85Q451 61 452 50T468 39Q484 39 498 54T528 110L549 166H568L540 89Q527 51 505 28T457 -4T402 -14Q370 -14 350 -4T320 23Q309 42 310 68T319
126L421 518Q467 519 508 522T584 532L458 85ZM184 675Q184 721 212 743T276 766Q313 766 329 746T346 694Q346 663 333 643T298 614T253 604Q217 604 201 623T184 675ZM417 675Q417 721 445 743T509 766Q545 766 562 746T579 694Q579 663 566 643T531 614T486
604Q449 604 433 623T417 675Z" />
<glyph unicode="&#xfd;" glyph-name="yacute" horiz-adv-x="483" d="M315 68L195 -69L113 432Q109 458 104 467T90 477Q79 477 71 465T46 408L26 356H7L32 429Q53 490 85 511T159 532Q202 532 230 509T267 418L315 68ZM70 -138Q117 -116 167 -77T271 30Q325 98
365 174T426 317Q399 332 377 353T341 401T328 457Q328 492 347 512T400 532Q438 532 455 507T472 438Q472 392 456 337T413 222T350 107T275 4Q238 -41 197 -76T111 -137T21 -177Q2 -183 -14 -185T-44 -188Q-80 -188 -100 -172T-120 -127Q-120 -99 -100 -80T-45
-60Q-11 -60 17 -80T70 -138ZM263 609Q299 662 319 701T356 770T396 822Q415 842 444 848T496 832Q517 813 511 788T480 739Q460 718 431 700T363 659T273 599L263 609Z" />
<glyph unicode="&#xfe;" glyph-name="thorn" horiz-adv-x="595" d="M373 472Q356 472 336 453T297 399T261 321T232 228L252 328Q278 401 306 445T367 511T437 532Q502 532 534 491T567 373Q567 327 555 274T517 170T455 78T371 11T266 -14Q233 -14 206 -4T165
22L172 36Q181 26 191 22T214 17Q243 17 270 40T321 101T363 188T391 289T401 390Q401 441 394 456T373 472ZM227 762Q274 766 315 774T395 795L150 -71Q135 -126 155 -142T226 -160L220 -181Q195 -180 150 -179T54 -177Q11 -177 -32 -178T-97 -181L-91 -160Q-55
-160 -39 -147T-13 -98L227 762ZM8 348Q43 387 74 426T136 518T197 652L200 636Q179 567 151 514T90 418T19 335L8 348Z" />
<glyph unicode="&#xff;" glyph-name="ydieresis" horiz-adv-x="483" d="M315 68L195 -69L113 432Q109 458 104 467T90 477Q79 477 71 465T46 408L26 356H7L32 429Q53 490 85 511T159 532Q202 532 230 509T267 418L315 68ZM70 -138Q117 -116 167 -77T271 30Q325
98 365 174T426 317Q399 332 377 353T341 401T328 457Q328 492 347 512T400 532Q438 532 455 507T472 438Q472 392 456 337T413 222T350 107T275 4Q238 -41 197 -76T111 -137T21 -177Q2 -183 -14 -185T-44 -188Q-80 -188 -100 -172T-120 -127Q-120 -99 -100 -80T-45
-60Q-11 -60 17 -80T70 -138ZM145 675Q145 721 173 743T237 766Q274 766 290 746T307 694Q307 663 294 643T259 614T214 604Q178 604 162 623T145 675ZM378 675Q378 721 406 743T470 766Q506 766 523 746T540 694Q540 663 527 643T492 614T447 604Q410 604 394
623T378 675Z" />
<glyph unicode="&#x2013;" glyph-name="endash" horiz-adv-x="678" d="M83 330H615L580 210H48L83 330Z" />
<glyph unicode="&#x2014;" glyph-name="emdash" horiz-adv-x="967" d="M82 330H903L867 210H46L82 330Z" />
<glyph unicode="&#x2018;" glyph-name="quoteleft" horiz-adv-x="285" d="M121 522Q121 589 160 644T270 731L275 714Q234 695 202 659T166 578Q179 592 196 600T232 608Q266 608 284 593T302 548Q302 519 288 496T249 459T194 445Q159 445 140 464T121 522Z" />
<glyph unicode="&#x2019;" glyph-name="quoteright" horiz-adv-x="278" d="M317 668Q317 601 278 546T168 459L163 476Q205 495 237 531T272 612Q259 598 242 590T206 582Q173 582 155 597T136 642Q136 671 150 694T189 731T244 745Q279 745 298 727T317 668Z" />
<glyph unicode="&#x201a;" glyph-name="quotesinglbase" horiz-adv-x="298" d="M179 72Q179 5 140 -50T30 -137L25 -120Q67 -101 99 -65T134 16Q121 2 104 -6T68 -14Q35 -14 17 1T-2 46Q-2 75 12 98T51 135T106 149Q141 149 160 131T179 72Z" />
<glyph unicode="&#x201c;" glyph-name="quotedblleft" horiz-adv-x="492" d="M328 523Q328 590 368 646T477 732L482 715Q441 696 409 660T373 579Q386 593 403 601T439 609Q472 609 489 594T507 549Q507 520 493 497T455 460T401 446Q366 446 347 464T328 523ZM121
523Q121 590 161 646T270 732L275 715Q234 696 202 660T166 579Q180 593 197 601T232 609Q266 609 283 594T300 549Q300 520 286 497T248 460T194 446Q159 446 140 464T121 523Z" />
<glyph unicode="&#x201d;" glyph-name="quotedblright" horiz-adv-x="484" d="M317 671Q317 604 277 548T167 462L162 479Q204 498 236 534T271 615Q258 601 241 593T205 585Q173 585 155 600T137 645Q137 674 151 697T189 734T243 748Q278 748 297 730T317 671ZM523
671Q523 604 483 548T374 462L369 479Q411 498 443 534T478 615Q465 601 448 593T412 585Q380 585 362 600T344 645Q344 674 358 697T396 734T450 748Q485 748 504 730T523 671Z" />
<glyph unicode="&#x201e;" glyph-name="quotedblbase" horiz-adv-x="503" d="M178 72Q178 5 138 -51T28 -137L23 -120Q65 -101 97 -65T132 16Q119 2 102 -6T66 -14Q34 -14 16 1T-2 46Q-2 75 12 98T50 135T104 149Q139 149 158 131T178 72ZM384 72Q384 5 344 -51T235
-137L230 -120Q272 -101 304 -65T339 16Q326 2 309 -6T273 -14Q241 -14 223 1T205 46Q205 75 219 98T257 135T311 149Q346 149 365 131T384 72Z" />
<glyph unicode="&#x2022;" glyph-name="bullet" horiz-adv-x="426" d="M58 249Q63 289 85 321T141 372T215 392Q255 392 285 373T332 321T343 249Q339 210 317 178T260 126T186 107Q147 107 117 126T70 177T58 249Z" />
<glyph unicode="&#x2039;" glyph-name="guilsinglleft" horiz-adv-x="395" d="M385 532Q370 501 347 462T297 383T242 310T192 256Q206 236 219 204T243 133T260 56T268 -14H250Q201 59 145 125T17 248L21 264Q118 323 201 390T367 532H385Z" />
<glyph unicode="&#x203a;" glyph-name="guilsinglright" horiz-adv-x="393" d="M125 532Q176 459 232 393T359 269L355 253Q259 195 175 128T9 -14H-9Q6 18 29 57T79 135T133 208T183 261Q169 281 156 313T133 385T116 462T107 532H125Z" />
</font>
</defs>
</svg>
